  0
SECTION
  2
HEADER
  9
$ACADVER
  1
AC1015
  9
$ACADMAINTVER
 70
    18
  9
$DWGCODEPAGE
  3
ANSI_932
  9
$INSBASE
 10
0.0
 20
0.0
 30
0.0
  9
$EXTMIN
 10
8.0
 20
7.999999999990393
 30
0.0
  9
$EXTMAX
 10
3368.0
 20
2384.000061035111
 30
0.0
  9
$LIMMIN
 10
0.0
 20
0.0
  9
$LIMMAX
 10
3360.0
 20
2376.0
  9
$ORTHOMODE
 70
     0
  9
$REGENMODE
 70
     1
  9
$FILLMODE
 70
     1
  9
$QTEXTMODE
 70
     0
  9
$MIRRTEXT
 70
     0
  9
$LTSCALE
 40
8.0
  9
$ATTMODE
 70
     1
  9
$TEXTSIZE
 40
2.5
  9
$TRACEWID
 40
1.0
  9
$TEXTSTYLE
  7
STD
  9
$CLAYER
  8
画層1
  9
$CELTYPE
  6
Continuous
  9
$CECOLOR
 62
     7
  9
$CELTSCALE
 40
1.0
  9
$DISPSILH
 70
     0
  9
$DIMSCALE
 40
8.0
  9
$DIMASZ
 40
3.0
  9
$DIMEXO
 40
1.0
  9
$DIMDLI
 40
8.0
  9
$DIMRND
 40
0.0
  9
$DIMDLE
 40
0.0
  9
$DIMEXE
 40
1.0
  9
$DIMTP
 40
0.0
  9
$DIMTM
 40
0.000000001
  9
$DIMTXT
 40
3.0
  9
$DIMCEN
 40
0.0
  9
$DIMTSZ
 40
0.0
  9
$DIMTOL
 70
     0
  9
$DIMLIM
 70
     0
  9
$DIMTIH
 70
     0
  9
$DIMTOH
 70
     0
  9
$DIMSE1
 70
     0
  9
$DIMSE2
 70
     0
  9
$DIMTAD
 70
     3
  9
$DIMZIN
 70
     8
  9
$DIMBLK
  1
Open30
  9
$DIMASO
 70
     1
  9
$DIMSHO
 70
     1
  9
$DIMPOST
  1

  9
$DIMAPOST
  1

  9
$DIMALT
 70
     0
  9
$DIMALTD
 70
     2
  9
$DIMALTF
 40
0.0005
  9
$DIMLFAC
 40
1.0
  9
$DIMTOFL
 70
     1
  9
$DIMTVP
 40
0.0
  9
$DIMTIX
 70
     0
  9
$DIMSOXD
 70
     0
  9
$DIMSAH
 70
     0
  9
$DIMBLK1
  1

  9
$DIMBLK2
  1

  9
$DIMSTYLE
  2
ASKSTANDARD
  9
$DIMCLRD
 70
     4
  9
$DIMCLRE
 70
     4
  9
$DIMCLRT
 70
     4
  9
$DIMTFAC
 40
0.5
  9
$DIMGAP
 40
1.0
  9
$DIMJUST
 70
     0
  9
$DIMSD1
 70
     0
  9
$DIMSD2
 70
     0
  9
$DIMTOLJ
 70
     1
  9
$DIMTZIN
 70
     0
  9
$DIMALTZ
 70
     0
  9
$DIMALTTZ
 70
     0
  9
$DIMUPT
 70
     0
  9
$DIMDEC
 70
     2
  9
$DIMTDEC
 70
     2
  9
$DIMALTU
 70
     2
  9
$DIMALTTD
 70
     2
  9
$DIMTXSTY
  7
STD
  9
$DIMAUNIT
 70
     0
  9
$DIMADEC
 70
     2
  9
$DIMALTRND
 40
0.0
  9
$DIMAZIN
 70
     2
  9
$DIMDSEP
 70
    46
  9
$DIMATFIT
 70
     0
  9
$DIMFRAC
 70
     0
  9
$DIMLDRBLK
  1
Open30
  9
$DIMLUNIT
 70
     2
  9
$DIMLWD
 70
     9
  9
$DIMLWE
 70
     9
  9
$DIMTMOVE
 70
     0
  9
$LUNITS
 70
     2
  9
$LUPREC
 70
     4
  9
$SKETCHINC
 40
1.0
  9
$FILLETRAD
 40
0.0
  9
$AUNITS
 70
     0
  9
$AUPREC
 70
     0
  9
$MENU
  1
.
  9
$ELEVATION
 40
0.0
  9
$PELEVATION
 40
0.0
  9
$THICKNESS
 40
0.0
  9
$LIMCHECK
 70
     0
  9
$CHAMFERA
 40
0.0
  9
$CHAMFERB
 40
0.0
  9
$CHAMFERC
 40
0.0
  9
$CHAMFERD
 40
0.0
  9
$SKPOLY
 70
     0
  9
$TDCREATE
 40
2454497.602825139
  9
$TDUCREATE
 40
2454497.227825139
  9
$TDUPDATE
 40
2455672.460275417
  9
$TDUUPDATE
 40
2455672.085275417
  9
$TDINDWG
 40
0.2023892824
  9
$TDUSRTIMER
 40
0.2023892824
  9
$USRTIMER
 70
     1
  9
$ANGBASE
 50
0.0
  9
$ANGDIR
 70
     0
  9
$PDMODE
 70
     1
  9
$PDSIZE
 40
0.0
  9
$PLINEWID
 40
0.0
  9
$SPLFRAME
 70
     0
  9
$SPLINETYPE
 70
     6
  9
$SPLINESEGS
 70
     8
  9
$HANDSEED
  5
13AB
  9
$SURFTAB1
 70
     6
  9
$SURFTAB2
 70
     6
  9
$SURFTYPE
 70
     6
  9
$SURFU
 70
     6
  9
$SURFV
 70
     6
  9
$UCSBASE
  2

  9
$UCSNAME
  2

  9
$UCSORG
 10
0.0
 20
0.0
 30
0.0
  9
$UCSXDIR
 10
1.0
 20
0.0
 30
0.0
  9
$UCSYDIR
 10
0.0
 20
1.0
 30
0.0
  9
$UCSORTHOREF
  2

  9
$UCSORTHOVIEW
 70
     0
  9
$UCSORGTOP
 10
0.0
 20
0.0
 30
0.0
  9
$UCSORGBOTTOM
 10
0.0
 20
0.0
 30
0.0
  9
$UCSORGLEFT
 10
0.0
 20
0.0
 30
0.0
  9
$UCSORGRIGHT
 10
0.0
 20
0.0
 30
0.0
  9
$UCSORGFRONT
 10
0.0
 20
0.0
 30
0.0
  9
$UCSORGBACK
 10
0.0
 20
0.0
 30
0.0
  9
$PUCSBASE
  2

  9
$PUCSNAME
  2

  9
$PUCSORG
 10
0.0
 20
0.0
 30
0.0
  9
$PUCSXDIR
 10
1.0
 20
0.0
 30
0.0
  9
$PUCSYDIR
 10
0.0
 20
1.0
 30
0.0
  9
$PUCSORTHOREF
  2

  9
$PUCSORTHOVIEW
 70
     0
  9
$PUCSORGTOP
 10
0.0
 20
0.0
 30
0.0
  9
$PUCSORGBOTTOM
 10
0.0
 20
0.0
 30
0.0
  9
$PUCSORGLEFT
 10
0.0
 20
0.0
 30
0.0
  9
$PUCSORGRIGHT
 10
0.0
 20
0.0
 30
0.0
  9
$PUCSORGFRONT
 10
0.0
 20
0.0
 30
0.0
  9
$PUCSORGBACK
 10
0.0
 20
0.0
 30
0.0
  9
$USERI1
 70
     0
  9
$USERI2
 70
     0
  9
$USERI3
 70
     0
  9
$USERI4
 70
     0
  9
$USERI5
 70
     0
  9
$USERR1
 40
0.0
  9
$USERR2
 40
0.0
  9
$USERR3
 40
0.0
  9
$USERR4
 40
0.0
  9
$USERR5
 40
0.0
  9
$WORLDVIEW
 70
     1
  9
$SHADEDGE
 70
     3
  9
$SHADEDIF
 70
    70
  9
$TILEMODE
 70
     1
  9
$MAXACTVP
 70
    64
  9
$PINSBASE
 10
0.0
 20
0.0
 30
0.0
  9
$PLIMCHECK
 70
     0
  9
$PEXTMIN
 10
0.0
 20
0.0
 30
0.0
  9
$PEXTMAX
 10
0.0
 20
0.0
 30
0.0
  9
$PLIMMIN
 10
0.0
 20
0.0
  9
$PLIMMAX
 10
12.0
 20
9.0
  9
$UNITMODE
 70
     0
  9
$VISRETAIN
 70
     1
  9
$PLINEGEN
 70
     0
  9
$PSLTSCALE
 70
     1
  9
$TREEDEPTH
 70
  3020
  9
$CMLSTYLE
  2
Standard
  9
$CMLJUST
 70
     0
  9
$CMLSCALE
 40
20.0
  9
$PROXYGRAPHICS
 70
     1
  9
$MEASUREMENT
 70
     1
  9
$CELWEIGHT
370
    -1
  9
$ENDCAPS
280
     0
  9
$JOINSTYLE
280
     0
  9
$LWDISPLAY
290
     0
  9
$INSUNITS
 70
     4
  9
$HYPERLINKBASE
  1

  9
$STYLESHEET
  1

  9
$XEDIT
290
     1
  9
$CEPSNTYPE
380
     0
  9
$PSTYLEMODE
290
     1
  9
$FINGERPRINTGUID
  2
{D178A04D-76D8-4F2C-AB2D-4FB1B243C31E}
  9
$VERSIONGUID
  2
{1A92C029-F83D-44BE-97A9-8D94BB62DFCA}
  9
$EXTNAMES
290
     1
  9
$PSVPSCALE
 40
0.0
  9
$OLESTARTUP
290
     0
  0
ENDSEC
  0
SECTION
  2
CLASSES
  0
CLASS
  1
ACDBDICTIONARYWDFLT
  2
AcDbDictionaryWithDefault
  3
ObjectDBX Classes
 90
        0
280
     0
281
     0
  0
CLASS
  1
DICTIONARYVAR
  2
AcDbDictionaryVar
  3
ObjectDBX Classes
 90
        0
280
     0
281
     0
  0
CLASS
  1
TABLESTYLE
  2
AcDbTableStyle
  3
ObjectDBX Classes
 90
     4095
280
     0
281
     0
  0
CLASS
  1
MATERIAL
  2
AcDbMaterial
  3
ObjectDBX Classes
 90
     1153
280
     0
281
     0
  0
CLASS
  1
VISUALSTYLE
  2
AcDbVisualStyle
  3
ObjectDBX Classes
 90
     4095
280
     0
281
     0
  0
CLASS
  1
SORTENTSTABLE
  2
AcDbSortentsTable
  3
ObjectDBX Classes
 90
    32768
280
     0
281
     0
  0
CLASS
  1
SCALE
  2
AcDbScale
  3
ObjectDBX Classes
 90
     1153
280
     0
281
     0
  0
CLASS
  1
MLEADERSTYLE
  2
AcDbMLeaderStyle
  3
ACDB_MLEADERSTYLE_CLASS
 90
     4095
280
     0
281
     0
  0
CLASS
  1
CELLSTYLEMAP
  2
AcDbCellStyleMap
  3
ObjectDBX Classes
 90
     1152
280
     0
281
     0
  0
CLASS
  1
EXACXREFPANELOBJECT
  2
ExAcXREFPanelObject
  3
EXAC_ESW
 90
    33793
280
     0
281
     0
  0
CLASS
  1
NPOCOLLECTION
  2
AcDbImpNonPersistentObjectsCollection
  3
ObjectDBX Classes
 90
    33921
280
     0
281
     0
  0
CLASS
  1
RASTERVARIABLES
  2
AcDbRasterVariables
  3
ISM
 90
        0
280
     0
281
     0
  0
CLASS
  1
ACDBSECTIONVIEWSTYLE
  2
AcDbSectionViewStyle
  3
ObjectDBX Classes
 90
     1025
280
     0
281
     0
  0
CLASS
  1
ACDBDETAILVIEWSTYLE
  2
AcDbDetailViewStyle
  3
ObjectDBX Classes
 90
     1025
280
     0
281
     0
  0
CLASS
  1
ACDBPLACEHOLDER
  2
AcDbPlaceHolder
  3
ObjectDBX Classes
 90
        0
280
     0
281
     0
  0
CLASS
  1
LAYOUT
  2
AcDbLayout
  3
ObjectDBX Classes
 90
        0
280
     0
281
     0
  0
ENDSEC
  0
SECTION
  2
TABLES
  0
TABLE
  2
VPORT
  5
8
330
0
100
AcDbSymbolTable
 70
     1
  0
VPORT
  5
ED
330
8
100
AcDbSymbolTableRecord
100
AcDbViewportTableRecord
  2
*Active
 70
     0
 10
0.0
 20
0.0
 11
1.0
 21
1.0
 12
1680.0
 22
1188.0
 13
0.0
 23
0.0
 14
10.0
 24
10.0
 15
10.0
 25
10.0
 16
0.0
 26
0.0
 36
1.0
 17
0.0
 27
0.0
 37
0.0
 40
2376.0
 41
1.524793388429752
 42
50.0
 43
0.0
 44
0.0
 50
0.0
 51
0.0
 71
     0
 72
  1000
 73
     1
 74
     3
 75
     0
 76
     0
 77
     0
 78
     0
281
     0
 65
     1
110
0.0
120
0.0
130
0.0
111
1.0
121
0.0
131
0.0
112
0.0
122
1.0
132
0.0
 79
     0
146
0.0
1001
ACAD_NAV_VCDISPLAY
1070
     3
  0
ENDTAB
  0
TABLE
  2
LTYPE
  5
5
330
0
100
AcDbSymbolTable
 70
     6
  0
LTYPE
  5
14
330
5
100
AcDbSymbolTableRecord
100
AcDbLinetypeTableRecord
  2
ByBlock
 70
     0
  3

 72
    65
 73
     0
 40
0.0
  0
LTYPE
  5
15
330
5
100
AcDbSymbolTableRecord
100
AcDbLinetypeTableRecord
  2
ByLayer
 70
     0
  3

 72
    65
 73
     0
 40
0.0
  0
LTYPE
  5
16
330
5
100
AcDbSymbolTableRecord
100
AcDbLinetypeTableRecord
  2
Continuous
 70
     0
  3
Solid line
 72
    65
 73
     0
 40
0.0
  0
LTYPE
  5
780
330
5
100
AcDbSymbolTableRecord
100
AcDbLinetypeTableRecord
  2
CENTER2
 70
     0
  3
Center (.5x) ___ _ ___ _ ___ _ ___ _ ___ _ ___
 72
    65
 73
     4
 40
28.575
 49
19.05
 74
     0
 49
-3.174999999999999
 74
     0
 49
3.174999999999999
 74
     0
 49
-3.174999999999999
 74
     0
  0
LTYPE
  5
781
330
5
100
AcDbSymbolTableRecord
100
AcDbLinetypeTableRecord
  2
HIDDEN2
 70
     0
  3
Hidden (.5x) _ _ _ _ _ _ _ _ _ _ _ _ _ _ _ _ _
 72
    65
 73
     2
 40
4.762499999999999
 49
3.174999999999999
 74
     0
 49
-1.587499999999999
 74
     0
  0
LTYPE
  5
782
330
5
100
AcDbSymbolTableRecord
100
AcDbLinetypeTableRecord
  2
PHANTOM2
 70
     0
  3
Phantom (.5x) ___ _ _ ___ _ _ ___ _ _ ___ _ _
 72
    65
 73
     6
 40
31.75
 49
15.875
 74
     0
 49
-3.174999999999999
 74
     0
 49
3.174999999999999
 74
     0
 49
-3.174999999999999
 74
     0
 49
3.174999999999999
 74
     0
 49
-3.174999999999999
 74
     0
  0
LTYPE
  5
7A8
330
5
100
AcDbSymbolTableRecord
100
AcDbLinetypeTableRecord
  2
zigzag
 70
     0
  3
/\/-/\/-/\/-/\/-/\/-/\/
 72
    65
 73
     2
 40
11.0001
 49
0.0001
 74
     4
 75
   135
340
77F
 46
0.04
 50
0.0
 44
0.0
 45
0.0
 49
-11.0
 74
     0
  0
LTYPE
  5
7D1
330
5
100
AcDbSymbolTableRecord
100
AcDbLinetypeTableRecord
  2
DIMENSION
 70
     0
  3
_______________________________________________
 72
    65
 73
     2
 40
0.000000000000002
 49
0.000000000000001
 74
     0
 49
0.000000000000001
 74
     0
  0
ENDTAB
  0
TABLE
  2
LAYER
  5
2
102
{ACAD_XDICTIONARY
360
688
102
}
330
0
100
AcDbSymbolTable
 70
     7
  0
LAYER
  5
10
102
{ACAD_XDICTIONARY
360
785
102
}
330
2
100
AcDbSymbolTableRecord
100
AcDbLayerTableRecord
  2
0
 70
     0
 62
     7
  6
Continuous
370
    -3
390
F
  0
LAYER
  5
14A
330
2
100
AcDbSymbolTableRecord
100
AcDbLayerTableRecord
  2
Defpoints
 70
     0
 62
     7
  6
Continuous
290
     0
370
    -3
390
F
  0
LAYER
  5
7F9
330
2
100
AcDbSymbolTableRecord
100
AcDbLayerTableRecord
  2
PV0001_8
 70
     0
 62
     7
  6
Continuous
370
    -3
390
F
  0
LAYER
  5
DBC
330
2
100
AcDbSymbolTableRecord
100
AcDbLayerTableRecord
  2
TP1791_8
 70
     0
 62
     7
  6
Continuous
370
    -3
390
F
  0
LAYER
  5
10DC
330
2
100
AcDbSymbolTableRecord
100
AcDbLayerTableRecord
  2
F00001_1
 70
     0
 62
     7
  6
Continuous
370
    -3
390
F
  0
LAYER
  5
1156
330
2
100
AcDbSymbolTableRecord
100
AcDbLayerTableRecord
  2
RH0901_8
 70
     0
 62
     7
  6
Continuous
370
    -3
390
F
  0
LAYER
  5
1303
330
2
100
AcDbSymbolTableRecord
100
AcDbLayerTableRecord
  2
画層1
 70
     0
 62
     7
  6
Continuous
370
    -3
390
F
1001
AcAecLayerStandard
1000

1000

  0
ENDTAB
  0
TABLE
  2
STYLE
  5
3
330
0
100
AcDbSymbolTable
 70
     3
  0
STYLE
  5
11
330
3
100
AcDbSymbolTableRecord
100
AcDbTextStyleTableRecord
  2
Standard
 70
     0
 40
0.0
 41
0.8
 50
0.0
 71
     0
 42
2.5
  3
romans.shx
  4
extfont2.shx
  0
STYLE
  5
77F
330
3
100
AcDbSymbolTableRecord
100
AcDbTextStyleTableRecord
  2

 70
     1
 40
0.0
 41
1.0
 50
0.0
 71
     0
 42
2.5
  3
ltypeshp.shx
  4

  0
STYLE
  5
783
330
3
100
AcDbSymbolTableRecord
100
AcDbTextStyleTableRecord
  2
STD
 70
     0
 40
0.0
 41
0.6
 50
0.0
 71
     0
 42
2.5
  3
monotxt.shx
  4
extfont2.shx
  0
ENDTAB
  0
TABLE
  2
VIEW
  5
6
330
0
100
AcDbSymbolTable
 70
     0
  0
ENDTAB
  0
TABLE
  2
UCS
  5
7
330
0
100
AcDbSymbolTable
 70
     0
  0
ENDTAB
  0
TABLE
  2
APPID
  5
9
330
0
100
AcDbSymbolTable
 70
    22
  0
APPID
  5
12
330
9
100
AcDbSymbolTableRecord
100
AcDbRegAppTableRecord
  2
ACAD
 70
     0
  0
APPID
  5
9E
330
9
100
AcDbSymbolTableRecord
100
AcDbRegAppTableRecord
  2
ACAD_PSEXT
 70
     0
  0
APPID
  5
15A
330
9
100
AcDbSymbolTableRecord
100
AcDbRegAppTableRecord
  2
ACAD_DSTYLE_DIMTEXT_FILL
 70
     0
  0
APPID
  5
15B
330
9
100
AcDbSymbolTableRecord
100
AcDbRegAppTableRecord
  2
ACAD_DSTYLE_DIMEXT_LENGTH
 70
     0
  0
APPID
  5
15C
330
9
100
AcDbSymbolTableRecord
100
AcDbRegAppTableRecord
  2
ACAD_DSTYLE_DIMEXT_ENABLED
 70
     0
  0
APPID
  5
15D
330
9
100
AcDbSymbolTableRecord
100
AcDbRegAppTableRecord
  2
ACAD_DSTYLE_DIM_LINETYPE
 70
     0
  0
APPID
  5
15E
330
9
100
AcDbSymbolTableRecord
100
AcDbRegAppTableRecord
  2
ACAD_DSTYLE_DIM_EXT1_LINETYPE
 70
     0
  0
APPID
  5
15F
330
9
100
AcDbSymbolTableRecord
100
AcDbRegAppTableRecord
  2
ACAD_DSTYLE_DIM_EXT2_LINETYPE
 70
     0
  0
APPID
  5
160
330
9
100
AcDbSymbolTableRecord
100
AcDbRegAppTableRecord
  2
ACAD_DSTYLE_DIMJOGGED_JOGANGLE_SYMBOL
 70
     0
  0
APPID
  5
161
330
9
100
AcDbSymbolTableRecord
100
AcDbRegAppTableRecord
  2
ACAD_DSTYLE_DIMARC_LENGTH_SYMBOL
 70
     0
  0
APPID
  5
162
330
9
100
AcDbSymbolTableRecord
100
AcDbRegAppTableRecord
  2
ACAD_MLEADERVER
 70
     0
  0
APPID
  5
163
330
9
100
AcDbSymbolTableRecord
100
AcDbRegAppTableRecord
  2
AcAecLayerStandard
 70
     0
  0
APPID
  5
164
330
9
100
AcDbSymbolTableRecord
100
AcDbRegAppTableRecord
  2
ACAD_DSTYLE_DIMJAG
 70
     0
  0
APPID
  5
165
330
9
100
AcDbSymbolTableRecord
100
AcDbRegAppTableRecord
  2
ACAD_DSTYLE_DIMTALN
 70
     0
  0
APPID
  5
166
330
9
100
AcDbSymbolTableRecord
100
AcDbRegAppTableRecord
  2
DIMEXPLODE
 70
     0
  0
APPID
  5
41A
330
9
100
AcDbSymbolTableRecord
100
AcDbRegAppTableRecord
  2
AcadAnnoPO
 70
     0
  0
APPID
  5
7AC
330
9
100
AcDbSymbolTableRecord
100
AcDbRegAppTableRecord
  2
AcadAnnotative
 70
     0
  0
APPID
  5
7C9
330
9
100
AcDbSymbolTableRecord
100
AcDbRegAppTableRecord
  2
ACAD_EXEMPT_FROM_CAD_STANDARDS
 70
     0
  0
APPID
  5
B4B
330
9
100
AcDbSymbolTableRecord
100
AcDbRegAppTableRecord
  2
DEKIMAS
 70
     0
  0
APPID
  5
1254
330
9
100
AcDbSymbolTableRecord
100
AcDbRegAppTableRecord
  2
ASKOBJSC
 70
     0
  0
APPID
  5
1255
330
9
100
AcDbSymbolTableRecord
100
AcDbRegAppTableRecord
  2
ASKDWGSC
 70
     0
  0
APPID
  5
135C
330
9
100
AcDbSymbolTableRecord
100
AcDbRegAppTableRecord
  2
ACAD_NAV_VCDISPLAY
 70
     0
  0
ENDTAB
  0
TABLE
  2
DIMSTYLE
  5
A
330
0
100
AcDbSymbolTable
 70
     4
100
AcDbDimStyleTable
 71
     1
340
159
  0
DIMSTYLE
105
159
102
{ACAD_REACTORS
330
7FA
330
83D
330
880
330
8DB
330
926
330
995
330
9D8
330
A1B
330
A66
330
AA9
330
AEC
330
DBD
330
E00
330
E43
330
E86
330
EC9
330
F0C
330
F4F
330
FD3
330
FD5
330
132D
102
}
330
A
100
AcDbSymbolTableRecord
100
AcDbDimStyleTableRecord
  2
ASKSTANDARD
 70
     0
 40
8.0
 41
3.0
 42
1.0
 43
8.0
 44
1.0
 48
0.000000001
 73
     0
 74
     0
 77
     3
 78
     9
 79
     2
140
3.0
141
0.0
143
0.0005
146
0.5
147
1.0
172
     1
176
     4
177
     4
178
     4
179
     2
271
     2
272
     2
289
     0
340
783
341
71F
342
71F
371
     9
372
     9
1001
ACAD_DSTYLE_DIMJAG
1070
   388
1040
1.5
1001
ACAD_DSTYLE_DIMTALN
1070
   392
1070
     0
1001
ACAD_DSTYLE_DIMEXT_LENGTH
1070
   378
1040
2.0
1001
ACAD_DSTYLE_DIMJOGGED_JOGANGLE_SYMBOL
1070
   384
1040
1.570796326794896
  0
DIMSTYLE
105
7AA
330
A
100
AcDbSymbolTableRecord
100
AcDbDimStyleTableRecord
  2
Standard
 70
     0
340
11
  0
DIMSTYLE
105
7F8
330
A
100
AcDbSymbolTableRecord
100
AcDbDimStyleTableRecord
  2
SYMBOL
 70
     0
 40
8.0
 41
3.0
 42
1.0
 43
8.0
 44
1.0
 48
0.000000001
 73
     0
 74
     0
 77
     3
 78
     9
 79
     2
140
3.0
141
0.0
143
0.0005
146
0.5
147
1.0
172
     1
176
     4
177
     4
178
     4
179
     2
271
     2
272
     2
289
     0
340
783
341
71F
342
71F
371
     9
372
     9
1001
ACAD_DSTYLE_DIMJAG
1070
   388
1040
1.5
1001
ACAD_DSTYLE_DIMTALN
1070
   392
1070
     0
1001
ACAD_DSTYLE_DIMEXT_LENGTH
1070
   378
1040
2.0
1001
ACAD_DSTYLE_DIMJOGGED_JOGANGLE_SYMBOL
1070
   384
1040
1.570796326794896
  0
DIMSTYLE
105
10DB
102
{ACAD_REACTORS
330
7FA
330
83D
330
880
330
8DB
330
926
330
995
330
9D8
330
A1B
330
A66
330
AA9
330
AEC
330
DBD
330
E00
330
E43
330
E86
330
EC9
330
F0C
330
F4F
102
}
330
A
100
AcDbSymbolTableRecord
100
AcDbDimStyleTableRecord
  2
ASKSTANDARDF00P125
 70
     0
 40
8.0
 41
3.0
 42
1.0
 43
8.0
 44
1.0
 48
0.000000001
 73
     0
 74
     0
 77
     3
 78
     9
 79
     2
140
3.0
141
0.0
143
0.0005
144
0.125
146
0.5
147
1.0
172
     1
176
     4
177
     4
178
     4
179
     2
271
     2
272
     2
289
     0
340
783
341
71F
342
71F
371
     9
372
     9
1001
ACAD_DSTYLE_DIMJAG
1070
   388
1040
1.5
1001
ACAD_DSTYLE_DIMTALN
1070
   392
1070
     0
1001
ACAD_DSTYLE_DIMEXT_LENGTH
1070
   378
1040
2.0
1001
ACAD_DSTYLE_DIMJOGGED_JOGANGLE_SYMBOL
1070
   384
1040
1.570796326794896
  0
ENDTAB
  0
TABLE
  2
BLOCK_RECORD
  5
1
330
0
100
AcDbSymbolTable
 70
    21
  0
BLOCK_RECORD
  5
1F
102
{ACAD_XDICTIONARY
360
318
102
}
330
1
100
AcDbSymbolTableRecord
100
AcDbBlockTableRecord
  2
*Model_Space
340
22
  0
BLOCK_RECORD
  5
D2
330
1
100
AcDbSymbolTableRecord
100
AcDbBlockTableRecord
  2
*Paper_Space
340
D3
  0
BLOCK_RECORD
  5
D6
330
1
100
AcDbSymbolTableRecord
100
AcDbBlockTableRecord
  2
*Paper_Space0
340
D7
  0
BLOCK_RECORD
  5
71F
330
1
100
AcDbSymbolTableRecord
100
AcDbBlockTableRecord
  2
_Open30
340
0
102
{BLKREFS
331
12E1
331
12E2
331
12EA
331
12EB
331
12F3
331
12F4
331
1334
331
1335
331
1259
331
125A
331
1262
331
1263
331
126C
331
126D
331
1274
331
1275
331
127F
331
1280
331
1287
331
1288
331
1290
331
1291
331
1298
331
1299
331
12A1
331
12A2
331
12AA
331
12AB
331
12B4
331
12B5
331
12BD
331
12BE
331
12C6
331
12C7
331
12CF
331
12D0
331
12D8
331
12D9
102
}
  0
BLOCK_RECORD
  5
7FB
330
1
100
AcDbSymbolTableRecord
100
AcDbBlockTableRecord
  2
*D2
340
0
  0
BLOCK_RECORD
  5
83E
330
1
100
AcDbSymbolTableRecord
100
AcDbBlockTableRecord
  2
*D3
340
0
  0
BLOCK_RECORD
  5
881
330
1
100
AcDbSymbolTableRecord
100
AcDbBlockTableRecord
  2
*D4
340
0
  0
BLOCK_RECORD
  5
8DC
330
1
100
AcDbSymbolTableRecord
100
AcDbBlockTableRecord
  2
*D5
340
0
  0
BLOCK_RECORD
  5
927
330
1
100
AcDbSymbolTableRecord
100
AcDbBlockTableRecord
  2
*D6
340
0
  0
BLOCK_RECORD
  5
996
330
1
100
AcDbSymbolTableRecord
100
AcDbBlockTableRecord
  2
*D7
340
0
  0
BLOCK_RECORD
  5
9D9
330
1
100
AcDbSymbolTableRecord
100
AcDbBlockTableRecord
  2
*D8
340
0
  0
BLOCK_RECORD
  5
A1C
330
1
100
AcDbSymbolTableRecord
100
AcDbBlockTableRecord
  2
*D9
340
0
  0
BLOCK_RECORD
  5
A67
330
1
100
AcDbSymbolTableRecord
100
AcDbBlockTableRecord
  2
*D10
340
0
  0
BLOCK_RECORD
  5
AAA
330
1
100
AcDbSymbolTableRecord
100
AcDbBlockTableRecord
  2
*D11
340
0
  0
BLOCK_RECORD
  5
AED
330
1
100
AcDbSymbolTableRecord
100
AcDbBlockTableRecord
  2
*D12
340
0
  0
BLOCK_RECORD
  5
DBE
330
1
100
AcDbSymbolTableRecord
100
AcDbBlockTableRecord
  2
*D13
340
0
  0
BLOCK_RECORD
  5
E01
330
1
100
AcDbSymbolTableRecord
100
AcDbBlockTableRecord
  2
*D14
340
0
  0
BLOCK_RECORD
  5
E44
330
1
100
AcDbSymbolTableRecord
100
AcDbBlockTableRecord
  2
*D15
340
0
  0
BLOCK_RECORD
  5
E87
330
1
100
AcDbSymbolTableRecord
100
AcDbBlockTableRecord
  2
*D16
340
0
  0
BLOCK_RECORD
  5
ECA
330
1
100
AcDbSymbolTableRecord
100
AcDbBlockTableRecord
  2
*D17
340
0
  0
BLOCK_RECORD
  5
F0D
330
1
100
AcDbSymbolTableRecord
100
AcDbBlockTableRecord
  2
*D18
340
0
  0
BLOCK_RECORD
  5
F50
330
1
100
AcDbSymbolTableRecord
100
AcDbBlockTableRecord
  2
*D19
340
0
  0
BLOCK_RECORD
  5
132E
330
1
100
AcDbSymbolTableRecord
100
AcDbBlockTableRecord
  2
*D20
340
0
  0
ENDTAB
  0
ENDSEC
  0
SECTION
  2
BLOCKS
  0
BLOCK
  5
20
330
1F
100
AcDbEntity
  8
0
100
AcDbBlockBegin
  2
*Model_Space
 70
     0
 10
0.0
 20
0.0
 30
0.0
  3
*Model_Space
  1

  0
ENDBLK
  5
21
330
1F
100
AcDbEntity
  8
0
100
AcDbBlockEnd
  0
BLOCK
  5
D4
330
D2
100
AcDbEntity
 67
     1
  8
0
100
AcDbBlockBegin
  2
*Paper_Space
 70
     0
 10
0.0
 20
0.0
 30
0.0
  3
*Paper_Space
  1

  0
ENDBLK
  5
D5
330
D2
100
AcDbEntity
 67
     1
  8
0
100
AcDbBlockEnd
  0
BLOCK
  5
D8
330
D6
100
AcDbEntity
 67
     1
  8
0
100
AcDbBlockBegin
  2
*Paper_Space0
 70
     0
 10
0.0
 20
0.0
 30
0.0
  3
*Paper_Space0
  1

  0
ENDBLK
  5
D9
330
D6
100
AcDbEntity
 67
     1
  8
0
100
AcDbBlockEnd
  0
BLOCK
  5
723
330
71F
100
AcDbEntity
  8
0
100
AcDbBlockBegin
  2
_Open30
 70
     0
 10
0.0
 20
0.0
 30
0.0
  3
_Open30
  1

  0
LINE
  5
720
330
71F
100
AcDbEntity
  8
0
  6
ByBlock
 62
     0
370
    -2
100
AcDbLine
 10
-1.0
 20
0.26794919
 30
0.0
 11
0.0
 21
0.0
 31
0.0
  0
LINE
  5
721
330
71F
100
AcDbEntity
  8
0
  6
ByBlock
 62
     0
370
    -2
100
AcDbLine
 10
0.0
 20
0.0
 30
0.0
 11
-1.0
 21
-0.26794919
 31
0.0
  0
LINE
  5
722
330
71F
100
AcDbEntity
  8
0
  6
ByBlock
 62
     0
370
    -2
100
AcDbLine
 10
0.0
 20
0.0
 30
0.0
 11
-1.0
 21
0.0
 31
0.0
  0
ENDBLK
  5
724
330
71F
100
AcDbEntity
  8
0
100
AcDbBlockEnd
  0
BLOCK
  5
7FC
330
7FB
100
AcDbEntity
  8
0
 62
     7
100
AcDbBlockBegin
  2
*D2
 70
     1
 10
0.0
 20
0.0
 30
0.0
  3
*D2
  1

  0
LINE
  5
1256
330
7FB
100
AcDbEntity
  8
PV0001_8
  6
Continuous
 62
     4
370
     9
100
AcDbLine
 10
561.48046875
 20
421.425598144528
 30
0.0
 11
561.48046875
 21
213.609870722738
 31
0.0
  0
LINE
  5
1257
330
7FB
100
AcDbEntity
  8
PV0001_8
  6
Continuous
 62
     4
370
     9
100
AcDbLine
 10
1141.48046875
 20
421.425598144528
 30
0.0
 11
1141.48046875
 21
213.609870722738
 31
0.0
  0
LINE
  5
1258
330
7FB
100
AcDbEntity
  8
PV0001_8
  6
Continuous
 62
     4
370
     9
100
AcDbLine
 10
585.4804687499999
 20
231.897870722738
 30
0.0
 11
1117.48046875
 21
231.897870722738
 31
0.0
  0
INSERT
  5
1259
330
7FB
100
AcDbEntity
  8
PV0001_8
  6
Continuous
 62
     4
370
     9
100
AcDbBlockReference
  2
_Open30
 10
561.48046875
 20
231.897870722738
 30
0.0
 41
24.0
 42
24.0
 43
24.0
 50
180.0
  0
INSERT
  5
125A
330
7FB
100
AcDbEntity
  8
PV0001_8
  6
Continuous
 62
     4
370
     9
100
AcDbBlockReference
  2
_Open30
 10
1141.48046875
 20
231.897870722738
 30
0.0
 41
24.0
 42
24.0
 43
24.0
  0
MTEXT
  5
125B
102
{ACAD_XDICTIONARY
360
1391
102
}
330
7FB
100
AcDbEntity
  8
PV0001_8
  6
Continuous
 62
     4
100
AcDbMText
 10
851.4804687499999
 20
251.897870722738
 30
0.0
 40
24.0
 41
0.0
 71
     5
 72
     1
  1
\A1;OD\U+2205580
  7
STD
 73
     1
 44
1.0
1001
ACAD
1000
MTEXTBEGIN
1070
    73
1070
     1
1070
    44
1040
1.0
1070
    74
1070
     0
1000
MTEXTEND
  0
POINT
  5
125C
330
7FB
100
AcDbEntity
  8
Defpoints
  6
Continuous
 62
     0
100
AcDbPoint
 10
561.48046875
 20
429.425598144528
 30
0.0
  0
POINT
  5
125D
330
7FB
100
AcDbEntity
  8
Defpoints
  6
Continuous
 62
     0
100
AcDbPoint
 10
1141.48046875
 20
429.425598144528
 30
0.0
  0
POINT
  5
125E
330
7FB
100
AcDbEntity
  8
Defpoints
  6
Continuous
 62
     0
100
AcDbPoint
 10
1141.48046875
 20
231.897870722738
 30
0.0
  0
ENDBLK
  5
7FD
330
7FB
100
AcDbEntity
  8
0
 62
     7
100
AcDbBlockEnd
  0
BLOCK
  5
83F
330
83E
100
AcDbEntity
  8
0
 62
     7
100
AcDbBlockBegin
  2
*D3
 70
     1
 10
0.0
 20
0.0
 30
0.0
  3
*D3
  1

  0
LINE
  5
125F
330
83E
100
AcDbEntity
  8
PV0001_8
  6
Continuous
 62
     4
370
     9
100
AcDbLine
 10
1134.48046875
 20
414.4255981445279
 30
0.0
 11
1391.74546059989
 21
414.4255981445279
 31
0.0
  0
LINE
  5
1260
330
83E
100
AcDbEntity
  8
PV0001_8
  6
Continuous
 62
     4
370
     9
100
AcDbLine
 10
1149.48046875
 20
1114.425598144528
 30
0.0
 11
1391.74546059989
 21
1114.425598144528
 31
0.0
  0
LINE
  5
1261
330
83E
100
AcDbEntity
  8
PV0001_8
  6
Continuous
 62
     4
370
     9
100
AcDbLine
 10
1373.45746059988
 20
438.4255981445279
 30
0.0
 11
1373.45746059988
 21
1090.425598144528
 31
0.0
  0
INSERT
  5
1262
330
83E
100
AcDbEntity
  8
PV0001_8
  6
Continuous
 62
     4
370
     9
100
AcDbBlockReference
  2
_Open30
 10
1373.45746059988
 20
414.4255981445279
 30
0.0
 41
24.0
 42
24.0
 43
24.0
 50
270.0
  0
INSERT
  5
1263
330
83E
100
AcDbEntity
  8
PV0001_8
  6
Continuous
 62
     4
370
     9
100
AcDbBlockReference
  2
_Open30
 10
1373.45746059988
 20
1114.425598144528
 30
0.0
 41
24.0
 42
24.0
 43
24.0
 50
90.0
  0
MTEXT
  5
1264
330
83E
100
AcDbEntity
  8
PV0001_8
  6
Continuous
 62
     4
100
AcDbMText
 10
1353.45746059988
 20
764.425598144528
 30
0.0
 40
24.0
 41
0.0
 71
     5
 72
     1
  1
\A1;700
  7
STD
 11
0.0000000000000001
 21
1.0
 31
0.0
 73
     1
 44
1.0
1001
ACAD
1000
MTEXTBEGIN
1070
    73
1070
     1
1070
    44
1040
1.0
1070
    74
1070
     0
1000
MTEXTEND
  0
POINT
  5
1265
330
83E
100
AcDbEntity
  8
Defpoints
  6
Continuous
 62
     0
100
AcDbPoint
 10
1126.48046875
 20
414.4255981445279
 30
0.0
  0
POINT
  5
1266
330
83E
100
AcDbEntity
  8
Defpoints
  6
Continuous
 62
     0
100
AcDbPoint
 10
1141.48046875
 20
1114.425598144528
 30
0.0
  0
POINT
  5
1267
330
83E
100
AcDbEntity
  8
Defpoints
  6
Continuous
 62
     0
100
AcDbPoint
 10
1373.45746059988
 20
1114.425598144528
 30
0.0
  0
ENDBLK
  5
840
330
83E
100
AcDbEntity
  8
0
 62
     7
100
AcDbBlockEnd
  0
BLOCK
  5
882
330
881
100
AcDbEntity
  8
0
 62
     7
100
AcDbBlockBegin
  2
*D4
 70
     1
 10
0.0
 20
0.0
 30
0.0
  3
*D4
  1

  0
LINE
  5
1268
330
881
100
AcDbEntity
  8
PV0001_8
  6
Continuous
 62
     4
370
     9
100
AcDbLine
 10
1149.48046875
 20
1164.425598144528
 30
0.0
 11
1391.74546059989
 21
1164.425598144528
 31
0.0
  0
LINE
  5
1269
330
881
100
AcDbEntity
  8
PV0001_8
  6
Continuous
 62
     4
370
     9
100
AcDbLine
 10
1373.45746059988
 20
1090.425598144528
 30
0.0
 11
1373.45746059988
 21
1066.425598144528
 31
0.0
  0
LINE
  5
126A
330
881
100
AcDbEntity
  8
PV0001_8
  6
Continuous
 62
     4
370
     9
100
AcDbLine
 10
1373.45746059988
 20
1188.425598144528
 30
0.0
 11
1373.45746059988
 21
1212.425598144528
 31
0.0
  0
LINE
  5
126B
330
881
100
AcDbEntity
  8
PV0001_8
  6
Continuous
 62
     4
370
     9
100
AcDbLine
 10
1373.45746059988
 20
1114.425598144528
 30
0.0
 11
1373.45746059988
 21
1164.425598144528
 31
0.0
  0
INSERT
  5
126C
330
881
100
AcDbEntity
  8
PV0001_8
  6
Continuous
 62
     4
370
     9
100
AcDbBlockReference
  2
_Open30
 10
1373.45746059988
 20
1114.425598144528
 30
0.0
 41
24.0
 42
24.0
 43
24.0
 50
90.0
  0
INSERT
  5
126D
330
881
100
AcDbEntity
  8
PV0001_8
  6
Continuous
 62
     4
370
     9
100
AcDbBlockReference
  2
_Open30
 10
1373.45746059988
 20
1164.425598144528
 30
0.0
 41
24.0
 42
24.0
 43
24.0
 50
270.0
  0
MTEXT
  5
126E
330
881
100
AcDbEntity
  8
PV0001_8
  6
Continuous
 62
     4
100
AcDbMText
 10
1353.45746059988
 20
1139.425598144528
 30
0.0
 40
24.0
 41
0.0
 71
     5
 72
     1
  1
\A1;50
  7
STD
 11
0.0000000000000001
 21
1.0
 31
0.0
 73
     1
 44
1.0
1001
ACAD
1000
MTEXTBEGIN
1070
    73
1070
     1
1070
    44
1040
1.0
1070
    74
1070
     0
1000
MTEXTEND
  0
POINT
  5
126F
330
881
100
AcDbEntity
  8
Defpoints
  6
Continuous
 62
     0
100
AcDbPoint
 10
1141.48046875
 20
1114.425598144528
 30
0.0
  0
POINT
  5
1270
330
881
100
AcDbEntity
  8
Defpoints
  6
Continuous
 62
     0
100
AcDbPoint
 10
1141.48046875
 20
1164.425598144528
 30
0.0
  0
POINT
  5
1271
330
881
100
AcDbEntity
  8
Defpoints
  6
Continuous
 62
     0
100
AcDbPoint
 10
1373.45746059988
 20
1164.425598144528
 30
0.0
  0
ENDBLK
  5
883
330
881
100
AcDbEntity
  8
0
 62
     7
100
AcDbBlockEnd
  0
BLOCK
  5
8DD
330
8DC
100
AcDbEntity
  8
0
 62
     7
100
AcDbBlockBegin
  2
*D5
 70
     1
 10
0.0
 20
0.0
 30
0.0
  3
*D5
  1

  0
LINE
  5
1272
330
8DC
100
AcDbEntity
  8
PV0001_8
  6
Continuous
 62
     4
370
     9
100
AcDbLine
 10
1134.48046875
 20
1294.425598144528
 30
0.0
 11
1391.74546059989
 21
1294.425598144528
 31
0.0
  0
LINE
  5
1273
330
8DC
100
AcDbEntity
  8
PV0001_8
  6
Continuous
 62
     4
370
     9
100
AcDbLine
 10
1373.45746059988
 20
1188.425598144528
 30
0.0
 11
1373.45746059988
 21
1270.425598144528
 31
0.0
  0
INSERT
  5
1274
330
8DC
100
AcDbEntity
  8
PV0001_8
  6
Continuous
 62
     4
370
     9
100
AcDbBlockReference
  2
_Open30
 10
1373.45746059988
 20
1164.425598144528
 30
0.0
 41
24.0
 42
24.0
 43
24.0
 50
270.0
  0
INSERT
  5
1275
330
8DC
100
AcDbEntity
  8
PV0001_8
  6
Continuous
 62
     4
370
     9
100
AcDbBlockReference
  2
_Open30
 10
1373.45746059988
 20
1294.425598144528
 30
0.0
 41
24.0
 42
24.0
 43
24.0
 50
90.0
  0
MTEXT
  5
1276
330
8DC
100
AcDbEntity
  8
PV0001_8
  6
Continuous
 62
     4
100
AcDbMText
 10
1353.45746059988
 20
1229.425598144528
 30
0.0
 40
24.0
 41
0.0
 71
     5
 72
     1
  1
\A1;130
  7
STD
 11
0.0000000000000001
 21
1.0
 31
0.0
 73
     1
 44
1.0
1001
ACAD
1000
MTEXTBEGIN
1070
    73
1070
     1
1070
    44
1040
1.0
1070
    74
1070
     0
1000
MTEXTEND
  0
POINT
  5
1277
330
8DC
100
AcDbEntity
  8
Defpoints
  6
Continuous
 62
     0
100
AcDbPoint
 10
1141.48046875
 20
1164.425598144528
 30
0.0
  0
POINT
  5
1278
330
8DC
100
AcDbEntity
  8
Defpoints
  6
Continuous
 62
     0
100
AcDbPoint
 10
1126.48046875
 20
1294.425598144528
 30
0.0
  0
POINT
  5
1279
330
8DC
100
AcDbEntity
  8
Defpoints
  6
Continuous
 62
     0
100
AcDbPoint
 10
1373.45746059988
 20
1294.425598144528
 30
0.0
  0
ENDBLK
  5
8DE
330
8DC
100
AcDbEntity
  8
0
 62
     7
100
AcDbBlockEnd
  0
BLOCK
  5
928
330
927
100
AcDbEntity
  8
0
 62
     7
100
AcDbBlockBegin
  2
*D6
 70
     1
 10
0.0
 20
0.0
 30
0.0
  3
*D6
  1

  0
LINE
  5
127A
330
927
100
AcDbEntity
  8
PV0001_8
  6
Continuous
 62
     4
370
     9
100
AcDbLine
 10
1106.48046875
 20
1172.425598144528
 30
0.0
 11
1106.48046875
 21
1228.674316406238
 31
0.0
  0
LINE
  5
127B
330
927
100
AcDbEntity
  8
PV0001_8
  6
Continuous
 62
     4
370
     9
100
AcDbLine
 10
1082.48046875
 20
1210.386291503898
 30
0.0
 11
1058.48046875
 21
1210.386291503898
 31
0.0
  0
LINE
  5
127C
330
927
100
AcDbEntity
  8
PV0001_8
  6
Continuous
 62
     4
370
     9
100
AcDbLine
 10
1165.48046875
 20
1210.386291503898
 30
0.0
 11
1189.48046875
 21
1210.386291503898
 31
0.0
  0
MTEXT
  5
127D
330
927
100
AcDbEntity
  8
PV0001_8
  6
Continuous
 62
     4
100
AcDbMText
 10
1196.10847473144
 20
1230.386291503898
 30
0.0
 40
24.0
 41
0.0
 71
     5
 72
     1
  1
\A1;35
  7
STD
 73
     1
 44
1.0
1001
ACAD
1000
MTEXTBEGIN
1070
    73
1070
     1
1070
    44
1040
1.0
1070
    74
1070
     0
1000
MTEXTEND
  0
LINE
  5
127E
330
927
100
AcDbEntity
  8
PV0001_8
  6
Continuous
 62
     4
370
     9
100
AcDbLine
 10
1106.48046875
 20
1210.386291503898
 30
0.0
 11
1141.48046875
 21
1210.386291503898
 31
0.0
  0
INSERT
  5
127F
330
927
100
AcDbEntity
  8
PV0001_8
  6
Continuous
 62
     4
370
     9
100
AcDbBlockReference
  2
_Open30
 10
1106.48046875
 20
1210.386291503898
 30
0.0
 41
24.0
 42
24.0
 43
24.0
  0
INSERT
  5
1280
330
927
100
AcDbEntity
  8
PV0001_8
  6
Continuous
 62
     4
370
     9
100
AcDbBlockReference
  2
_Open30
 10
1141.48046875
 20
1210.386291503898
 30
0.0
 41
24.0
 42
24.0
 43
24.0
 50
180.0
  0
POINT
  5
1281
330
927
100
AcDbEntity
  8
Defpoints
  6
Continuous
 62
     0
100
AcDbPoint
 10
1106.48046875
 20
1164.425598144528
 30
0.0
  0
POINT
  5
1282
330
927
100
AcDbEntity
  8
Defpoints
  6
Continuous
 62
     0
100
AcDbPoint
 10
1141.48046875
 20
1164.425598144528
 30
0.0
  0
POINT
  5
1283
330
927
100
AcDbEntity
  8
Defpoints
  6
Continuous
 62
     0
100
AcDbPoint
 10
1141.48046875
 20
1210.386291503898
 30
0.0
  0
ENDBLK
  5
929
330
927
100
AcDbEntity
  8
0
 62
     7
100
AcDbBlockEnd
  0
BLOCK
  5
997
330
996
100
AcDbEntity
  8
0
 62
     7
100
AcDbBlockBegin
  2
*D7
 70
     1
 10
0.0
 20
0.0
 30
0.0
  3
*D7
  1

  0
LINE
  5
1284
330
996
100
AcDbEntity
  8
PV0001_8
  6
Continuous
 62
     4
370
     9
100
AcDbLine
 10
691.48043823243
 20
406.4255981445279
 30
0.0
 11
691.48043823243
 21
329.473571777341
 31
0.0
  0
LINE
  5
1285
330
996
100
AcDbEntity
  8
PV0001_8
  6
Continuous
 62
     4
370
     9
100
AcDbLine
 10
1011.48049926757
 20
406.4255981445279
 30
0.0
 11
1011.48049926757
 21
329.473571777341
 31
0.0
  0
LINE
  5
1286
330
996
100
AcDbEntity
  8
PV0001_8
  6
Continuous
 62
     4
370
     9
100
AcDbLine
 10
715.48043823243
 20
347.761573791501
 30
0.0
 11
987.4804992675699
 21
347.761573791501
 31
0.0
  0
INSERT
  5
1287
330
996
100
AcDbEntity
  8
PV0001_8
  6
Continuous
 62
     4
370
     9
100
AcDbBlockReference
  2
_Open30
 10
691.48043823243
 20
347.761573791501
 30
0.0
 41
24.0
 42
24.0
 43
24.0
 50
180.0
  0
INSERT
  5
1288
330
996
100
AcDbEntity
  8
PV0001_8
  6
Continuous
 62
     4
370
     9
100
AcDbBlockReference
  2
_Open30
 10
1011.48049926757
 20
347.761573791501
 30
0.0
 41
24.0
 42
24.0
 43
24.0
  0
MTEXT
  5
1289
102
{ACAD_XDICTIONARY
360
1393
102
}
330
996
100
AcDbEntity
  8
PV0001_8
  6
Continuous
 62
     4
100
AcDbMText
 10
851.4804687499999
 20
367.761573791501
 30
0.0
 40
24.0
 41
0.0
 71
     5
 72
     1
  1
\A1;\U+2205320
  7
STD
 73
     1
 44
1.0
1001
ACAD
1000
MTEXTBEGIN
1070
    73
1070
     1
1070
    44
1040
1.0
1070
    74
1070
     0
1000
MTEXTEND
  0
POINT
  5
128A
330
996
100
AcDbEntity
  8
Defpoints
  6
Continuous
 62
     0
100
AcDbPoint
 10
691.48043823243
 20
414.4255981445279
 30
0.0
  0
POINT
  5
128B
330
996
100
AcDbEntity
  8
Defpoints
  6
Continuous
 62
     0
100
AcDbPoint
 10
1011.48049926757
 20
414.4255981445279
 30
0.0
  0
POINT
  5
128C
330
996
100
AcDbEntity
  8
Defpoints
  6
Continuous
 62
     0
100
AcDbPoint
 10
1011.48049926757
 20
347.761573791501
 30
0.0
  0
ENDBLK
  5
998
330
996
100
AcDbEntity
  8
0
 62
     7
100
AcDbBlockEnd
  0
BLOCK
  5
9DA
330
9D9
100
AcDbEntity
  8
0
 62
     7
100
AcDbBlockBegin
  2
*D8
 70
     1
 10
0.0
 20
0.0
 30
0.0
  3
*D8
  1

  0
LINE
  5
128D
330
9D9
100
AcDbEntity
  8
PV0001_8
  6
Continuous
 62
     4
370
     9
100
AcDbLine
 10
616.48046875
 20
406.4255981445279
 30
0.0
 11
616.48046875
 21
278.698654174808
 31
0.0
  0
LINE
  5
128E
330
9D9
100
AcDbEntity
  8
PV0001_8
  6
Continuous
 62
     4
370
     9
100
AcDbLine
 10
1086.48048400878
 20
406.4255981445279
 30
0.0
 11
1086.48048400878
 21
278.698654174808
 31
0.0
  0
LINE
  5
128F
330
9D9
100
AcDbEntity
  8
PV0001_8
  6
Continuous
 62
     4
370
     9
100
AcDbLine
 10
640.48046875
 20
296.986648559568
 30
0.0
 11
1062.48048400878
 21
296.986648559568
 31
0.0
  0
INSERT
  5
1290
330
9D9
100
AcDbEntity
  8
PV0001_8
  6
Continuous
 62
     4
370
     9
100
AcDbBlockReference
  2
_Open30
 10
616.48046875
 20
296.986648559568
 30
0.0
 41
24.0
 42
24.0
 43
24.0
 50
180.0
  0
INSERT
  5
1291
330
9D9
100
AcDbEntity
  8
PV0001_8
  6
Continuous
 62
     4
370
     9
100
AcDbBlockReference
  2
_Open30
 10
1086.48048400878
 20
296.986648559568
 30
0.0
 41
24.0
 42
24.0
 43
24.0
  0
MTEXT
  5
1292
102
{ACAD_XDICTIONARY
360
1395
102
}
330
9D9
100
AcDbEntity
  8
PV0001_8
  6
Continuous
 62
     4
100
AcDbMText
 10
851.4804687499999
 20
316.986648559568
 30
0.0
 40
24.0
 41
0.0
 71
     5
 72
     1
  1
\A1;\U+2205470
  7
STD
 73
     1
 44
1.0
1001
ACAD
1000
MTEXTBEGIN
1070
    73
1070
     1
1070
    44
1040
1.0
1070
    74
1070
     0
1000
MTEXTEND
  0
POINT
  5
1293
330
9D9
100
AcDbEntity
  8
Defpoints
  6
Continuous
 62
     0
100
AcDbPoint
 10
616.48046875
 20
414.4255981445279
 30
0.0
  0
POINT
  5
1294
330
9D9
100
AcDbEntity
  8
Defpoints
  6
Continuous
 62
     0
100
AcDbPoint
 10
1086.48048400878
 20
414.4255981445279
 30
0.0
  0
POINT
  5
1295
330
9D9
100
AcDbEntity
  8
Defpoints
  6
Continuous
 62
     0
100
AcDbPoint
 10
1086.48048400878
 20
296.986648559568
 30
0.0
  0
ENDBLK
  5
9DB
330
9D9
100
AcDbEntity
  8
0
 62
     7
100
AcDbBlockEnd
  0
BLOCK
  5
A1D
330
A1C
100
AcDbEntity
  8
0
 62
     7
100
AcDbBlockBegin
  2
*D9
 70
     1
 10
0.0
 20
0.0
 30
0.0
  3
*D9
  1

  0
LINE
  5
1296
330
A1C
100
AcDbEntity
  8
PV0001_8
  6
Continuous
 62
     4
370
     9
100
AcDbLine
 10
987.56747436523
 20
484.425598144528
 30
0.0
 11
944.0653381347651
 21
484.425598144528
 31
0.0
  0
LINE
  5
1297
330
A1C
100
AcDbEntity
  8
PV0001_8
  6
Continuous
 62
     4
370
     9
100
AcDbLine
 10
962.3533477783201
 20
438.425598144528
 30
0.0
 11
962.3533477783201
 21
460.4255981445279
 31
0.0
  0
INSERT
  5
1298
330
A1C
100
AcDbEntity
  8
PV0001_8
  6
Continuous
 62
     4
370
     9
100
AcDbBlockReference
  2
_Open30
 10
962.3533477783201
 20
414.4255981445279
 30
0.0
 41
24.0
 42
24.0
 43
24.0
 50
270.0
  0
INSERT
  5
1299
330
A1C
100
AcDbEntity
  8
PV0001_8
  6
Continuous
 62
     4
370
     9
100
AcDbBlockReference
  2
_Open30
 10
962.3533477783201
 20
484.425598144528
 30
0.0
 41
24.0
 42
24.0
 43
24.0
 50
90.0
  0
MTEXT
  5
129A
330
A1C
100
AcDbEntity
  8
PV0001_8
  6
Continuous
 62
     4
100
AcDbMText
 10
942.35334777832
 20
449.425598144528
 30
0.0
 40
24.0
 41
0.0
 71
     5
 72
     1
  1
\A1;70
  7
STD
 11
0.0000000000000001
 21
1.0
 31
0.0
 73
     1
 44
1.0
1001
ACAD
1000
MTEXTBEGIN
1070
    73
1070
     1
1070
    44
1040
1.0
1070
    74
1070
     0
1000
MTEXTEND
  0
POINT
  5
129B
330
A1C
100
AcDbEntity
  8
Defpoints
  6
Continuous
 62
     0
100
AcDbPoint
 10
1126.48046875
 20
414.4255981445279
 30
0.0
  0
POINT
  5
129C
330
A1C
100
AcDbEntity
  8
Defpoints
  6
Continuous
 62
     0
100
AcDbPoint
 10
995.56747436523
 20
484.425598144528
 30
0.0
  0
POINT
  5
129D
330
A1C
100
AcDbEntity
  8
Defpoints
  6
Continuous
 62
     0
100
AcDbPoint
 10
962.3533477783201
 20
484.425598144528
 30
0.0
  0
ENDBLK
  5
A1E
330
A1C
100
AcDbEntity
  8
0
 62
     7
100
AcDbBlockEnd
  0
BLOCK
  5
A68
330
A67
100
AcDbEntity
  8
0
 62
     7
100
AcDbBlockBegin
  2
*D10
 70
     1
 10
0.0
 20
0.0
 30
0.0
  3
*D10
  1

  0
LINE
  5
129E
330
A67
100
AcDbEntity
  8
PV0001_8
  6
Continuous
 62
     4
370
     9
100
AcDbLine
 10
1014.11491394042
 20
492.425598144528
 30
0.0
 11
1014.11491394042
 21
616.618789672848
 31
0.0
  0
LINE
  5
129F
330
A67
100
AcDbEntity
  8
PV0001_8
  6
Continuous
 62
     4
370
     9
100
AcDbLine
 10
1098.96780395507
 20
492.425598144528
 30
0.0
 11
1098.96780395507
 21
616.618789672848
 31
0.0
  0
LINE
  5
12A0
330
A67
100
AcDbEntity
  8
PV0001_8
  6
Continuous
 62
     4
370
     9
100
AcDbLine
 10
1038.11491394042
 20
598.3307800292879
 30
0.0
 11
1074.96780395507
 21
598.3307800292879
 31
0.0
  0
INSERT
  5
12A1
330
A67
100
AcDbEntity
  8
PV0001_8
  6
Continuous
 62
     4
370
     9
100
AcDbBlockReference
  2
_Open30
 10
1014.11491394042
 20
598.3307800292879
 30
0.0
 41
24.0
 42
24.0
 43
24.0
 50
180.0
  0
INSERT
  5
12A2
330
A67
100
AcDbEntity
  8
PV0001_8
  6
Continuous
 62
     4
370
     9
100
AcDbBlockReference
  2
_Open30
 10
1098.96780395507
 20
598.3307800292879
 30
0.0
 41
24.0
 42
24.0
 43
24.0
  0
MTEXT
  5
12A3
330
A67
100
AcDbEntity
  8
PV0001_8
  6
Continuous
 62
     4
100
AcDbMText
 10
1056.54135894775
 20
618.330780029288
 30
0.0
 40
24.0
 41
0.0
 71
     5
 72
     1
  1
\A1;120
  7
STD
 73
     1
 44
1.0
1001
ACAD
1000
MTEXTBEGIN
1070
    73
1070
     1
1070
    44
1040
1.0
1070
    74
1070
     0
1000
MTEXTEND
  0
POINT
  5
12A4
330
A67
100
AcDbEntity
  8
Defpoints
  6
Continuous
 62
     0
100
AcDbPoint
 10
1014.11491394042
 20
484.425598144528
 30
0.0
  0
POINT
  5
12A5
330
A67
100
AcDbEntity
  8
Defpoints
  6
Continuous
 62
     0
100
AcDbPoint
 10
1098.96780395507
 20
484.425598144528
 30
0.0
  0
POINT
  5
12A6
330
A67
100
AcDbEntity
  8
Defpoints
  6
Continuous
 62
     0
100
AcDbPoint
 10
1098.96780395507
 20
598.3307800292879
 30
0.0
  0
ENDBLK
  5
A69
330
A67
100
AcDbEntity
  8
0
 62
     7
100
AcDbBlockEnd
  0
BLOCK
  5
AAB
330
AAA
100
AcDbEntity
  8
0
 62
     7
100
AcDbBlockBegin
  2
*D11
 70
     1
 10
0.0
 20
0.0
 30
0.0
  3
*D11
  1

  0
LINE
  5
12A7
330
AAA
100
AcDbEntity
  8
PV0001_8
  6
Continuous
 62
     4
370
     9
100
AcDbLine
 10
843.4804687499999
 20
1296.425598144528
 30
0.0
 11
474.3768364960002
 21
1296.425598144528
 31
0.0
  0
LINE
  5
12A8
330
AAA
100
AcDbEntity
  8
PV0001_8
  6
Continuous
 62
     4
370
     9
100
AcDbLine
 10
568.4804687499999
 20
414.4255981445279
 30
0.0
 11
474.3768364960001
 21
414.4255981445279
 31
0.0
  0
LINE
  5
12A9
330
AAA
100
AcDbEntity
  8
PV0001_8
  6
Continuous
 62
     4
370
     9
100
AcDbLine
 10
492.6648364960002
 20
1272.425598144528
 30
0.0
 11
492.6648364960001
 21
438.425598144528
 31
0.0
  0
INSERT
  5
12AA
330
AAA
100
AcDbEntity
  8
PV0001_8
  6
Continuous
 62
     4
370
     9
100
AcDbBlockReference
  2
_Open30
 10
492.6648364960002
 20
1296.425598144528
 30
0.0
 41
24.0
 42
24.0
 43
24.0
 50
90.0
  0
INSERT
  5
12AB
330
AAA
100
AcDbEntity
  8
PV0001_8
  6
Continuous
 62
     4
370
     9
100
AcDbBlockReference
  2
_Open30
 10
492.6648364960001
 20
414.4255981445279
 30
0.0
 41
24.0
 42
24.0
 43
24.0
 50
270.0
  0
MTEXT
  5
12AC
330
AAA
100
AcDbEntity
  8
PV0001_8
  6
Continuous
 62
     4
100
AcDbMText
 10
472.6648364959999
 20
855.425598144528
 30
0.0
 40
24.0
 41
0.0
 71
     5
 72
     1
  1
\A1;882
  7
STD
 11
0.0000000000000001
 21
1.0
 31
0.0
 73
     1
 44
1.0
1001
ACAD
1000
MTEXTBEGIN
1070
    73
1070
     1
1070
    44
1040
1.0
1070
    74
1070
     0
1000
MTEXTEND
  0
POINT
  5
12AD
330
AAA
100
AcDbEntity
  8
Defpoints
  6
Continuous
 62
     0
100
AcDbPoint
 10
851.4804687499999
 20
1296.425598144528
 30
0.0
  0
POINT
  5
12AE
330
AAA
100
AcDbEntity
  8
Defpoints
  6
Continuous
 62
     0
100
AcDbPoint
 10
576.4804687499999
 20
414.4255981445279
 30
0.0
  0
POINT
  5
12AF
330
AAA
100
AcDbEntity
  8
Defpoints
  6
Continuous
 62
     0
100
AcDbPoint
 10
492.6648364960001
 20
414.4255981445279
 30
0.0
  0
ENDBLK
  5
AAC
330
AAA
100
AcDbEntity
  8
0
 62
     7
100
AcDbBlockEnd
  0
BLOCK
  5
AEE
330
AED
100
AcDbEntity
  8
0
 62
     7
100
AcDbBlockBegin
  2
*D12
 70
     1
 10
0.0
 20
0.0
 30
0.0
  3
*D12
  1

  0
LINE
  5
12B0
330
AED
100
AcDbEntity
  8
PV0001_8
  6
Continuous
 62
     4
370
     9
100
AcDbLine
 10
975.5765686035099
 20
1254.425598144528
 30
0.0
 11
1296.84702014119
 21
1254.425598144528
 31
0.0
  0
LINE
  5
12B1
330
AED
100
AcDbEntity
  8
PV0001_8
  6
Continuous
 62
     4
370
     9
100
AcDbLine
 10
1278.55902014119
 20
1230.425598144528
 30
0.0
 11
1278.55902014119
 21
1206.425598144528
 31
0.0
  0
LINE
  5
12B2
330
AED
100
AcDbEntity
  8
PV0001_8
  6
Continuous
 62
     4
370
     9
100
AcDbLine
 10
1278.55902014119
 20
1318.425598144528
 30
0.0
 11
1278.55902014119
 21
1342.425598144528
 31
0.0
  0
LINE
  5
12B3
330
AED
100
AcDbEntity
  8
PV0001_8
  6
Continuous
 62
     4
370
     9
100
AcDbLine
 10
1278.55902014119
 20
1254.425598144528
 30
0.0
 11
1278.55902014119
 21
1294.425598144528
 31
0.0
  0
INSERT
  5
12B4
330
AED
100
AcDbEntity
  8
PV0001_8
  6
Continuous
 62
     4
370
     9
100
AcDbBlockReference
  2
_Open30
 10
1278.55902014119
 20
1254.425598144528
 30
0.0
 41
24.0
 42
24.0
 43
24.0
 50
90.0
  0
INSERT
  5
12B5
330
AED
100
AcDbEntity
  8
PV0001_8
  6
Continuous
 62
     4
370
     9
100
AcDbBlockReference
  2
_Open30
 10
1278.55902014119
 20
1294.425598144528
 30
0.0
 41
24.0
 42
24.0
 43
24.0
 50
270.0
  0
MTEXT
  5
12B6
330
AED
100
AcDbEntity
  8
PV0001_8
  6
Continuous
 62
     4
100
AcDbMText
 10
1258.55902014119
 20
1274.425598144528
 30
0.0
 40
24.0
 41
0.0
 71
     5
 72
     1
  1
\A1;40
  7
STD
 11
0.0000000000000001
 21
1.0
 31
0.0
 73
     1
 44
1.0
1001
ACAD
1000
MTEXTBEGIN
1070
    73
1070
     1
1070
    44
1040
1.0
1070
    74
1070
     0
1000
MTEXTEND
  0
POINT
  5
12B7
330
AED
100
AcDbEntity
  8
Defpoints
  6
Continuous
 62
     0
100
AcDbPoint
 10
967.5765686035099
 20
1254.425598144528
 30
0.0
  0
POINT
  5
12B8
330
AED
100
AcDbEntity
  8
Defpoints
  6
Continuous
 62
     0
100
AcDbPoint
 10
1126.48046875
 20
1294.425598144528
 30
0.0
  0
POINT
  5
12B9
330
AED
100
AcDbEntity
  8
Defpoints
  6
Continuous
 62
     0
100
AcDbPoint
 10
1278.55902014119
 20
1294.425598144528
 30
0.0
  0
ENDBLK
  5
AEF
330
AED
100
AcDbEntity
  8
0
 62
     7
100
AcDbBlockEnd
  0
BLOCK
  5
DBF
330
DBE
100
AcDbEntity
  8
0
 62
     7
100
AcDbBlockBegin
  2
*D13
 70
     1
 10
0.0
 20
0.0
 30
0.0
  3
*D13
  1

  0
LINE
  5
12BA
330
DBE
100
AcDbEntity
  8
TP1791_8
  6
Continuous
 62
     4
370
     9
100
AcDbLine
 10
731.4844664547502
 20
1547.13604741251
 30
0.0
 11
731.4844663893522
 21
1387.699585010157
 31
0.0
  0
LINE
  5
12BB
330
DBE
100
AcDbEntity
  8
TP1791_8
  6
Continuous
 62
     4
370
     9
100
AcDbLine
 10
971.4844511959602
 20
1547.136047314061
 30
0.0
 11
971.4844511305622
 21
1387.699584911713
 31
0.0
  0
LINE
  5
12BC
330
DBE
100
AcDbEntity
  8
TP1791_8
  6
Continuous
 62
     4
370
     9
100
AcDbLine
 10
755.4844663968536
 20
1405.987548867503
 30
0.0
 11
947.4844511380636
 21
1405.987548788748
 31
0.0
  0
INSERT
  5
12BD
330
DBE
100
AcDbEntity
  8
TP1791_8
  6
Continuous
 62
     4
370
     9
100
AcDbBlockReference
  2
_Open30
 10
731.4844663968536
 20
1405.987548877347
 30
0.0
 41
24.0
 42
24.0
 43
24.0
 50
179.9999999764983
  0
INSERT
  5
12BE
330
DBE
100
AcDbEntity
  8
TP1791_8
  6
Continuous
 62
     4
370
     9
100
AcDbBlockReference
  2
_Open30
 10
971.4844511380636
 20
1405.987548778903
 30
0.0
 41
24.0
 42
24.0
 43
24.0
 50
359.9999999764983
  0
MTEXT
  5
12BF
330
DBE
100
AcDbEntity
  8
TP1791_8
  6
Continuous
 62
     4
100
AcDbMText
 10
854.5811918689198
 20
1425.987548826855
 30
0.0
 40
24.0
 41
0.0
 71
     5
 72
     1
  1
\A1;240
  7
STD
 73
     1
 44
1.0
1001
ACAD
1000
MTEXTBEGIN
1070
    73
1070
     1
1070
    44
1040
1.0
1070
    74
1070
     0
1000
MTEXTEND
  0
POINT
  5
12C0
330
DBE
100
AcDbEntity
  8
Defpoints
  6
Continuous
 62
     0
100
AcDbPoint
 10
731.4844664580316
 20
1555.13604741251
 30
0.0
  0
POINT
  5
12C1
330
DBE
100
AcDbEntity
  8
Defpoints
  6
Continuous
 62
     0
100
AcDbPoint
 10
971.4844511992417
 20
1555.136047314061
 30
0.0
  0
POINT
  5
12C2
330
DBE
100
AcDbEntity
  8
Defpoints
  6
Continuous
 62
     0
100
AcDbPoint
 10
971.4844511380636
 20
1405.987548778903
 30
0.0
  0
ENDBLK
  5
DC0
330
DBE
100
AcDbEntity
  8
0
 62
     7
100
AcDbBlockEnd
  0
BLOCK
  5
E02
330
E01
100
AcDbEntity
  8
0
 62
     7
100
AcDbBlockBegin
  2
*D14
 70
     1
 10
0.0
 20
0.0
 30
0.0
  3
*D14
  1

  0
LINE
  5
12C3
330
E01
100
AcDbEntity
  8
TP1791_8
  6
Continuous
 62
     4
370
     9
100
AcDbLine
 10
721.4844664573627
 20
1553.504699760362
 30
0.0
 11
721.4844663703815
 21
1341.449768119729
 31
0.0
  0
LINE
  5
12C4
330
E01
100
AcDbEntity
  8
TP1791_8
  6
Continuous
 62
     4
370
     9
100
AcDbLine
 10
981.4844511985727
 20
1553.504699653708
 30
0.0
 11
981.4844511115916
 21
1341.449768013081
 31
0.0
  0
LINE
  5
12C5
330
E01
100
AcDbEntity
  8
TP1791_8
  6
Continuous
 62
     4
370
     9
100
AcDbLine
 10
745.4844663778829
 20
1359.737793012234
 30
0.0
 11
957.484451119093
 21
1359.737792925276
 31
0.0
  0
INSERT
  5
12C6
330
E01
100
AcDbEntity
  8
TP1791_8
  6
Continuous
 62
     4
370
     9
100
AcDbBlockReference
  2
_Open30
 10
721.484466377883
 20
1359.737793022079
 30
0.0
 41
24.0
 42
24.0
 43
24.0
 50
179.9999999764983
  0
INSERT
  5
12C7
330
E01
100
AcDbEntity
  8
TP1791_8
  6
Continuous
 62
     4
370
     9
100
AcDbBlockReference
  2
_Open30
 10
981.484451119093
 20
1359.737792915431
 30
0.0
 41
24.0
 42
24.0
 43
24.0
 50
359.9999999764983
  0
MTEXT
  5
12C8
330
E01
100
AcDbEntity
  8
TP1791_8
  6
Continuous
 62
     4
100
AcDbMText
 10
853.7247160198697
 20
1379.737792967836
 30
0.0
 40
24.0
 41
0.0
 71
     5
 72
     1
  1
\A1;260
  7
STD
 73
     1
 44
1.0
1001
ACAD
1000
MTEXTBEGIN
1070
    73
1070
     1
1070
    44
1040
1.0
1070
    74
1070
     0
1000
MTEXTEND
  0
POINT
  5
12C9
330
E01
100
AcDbEntity
  8
Defpoints
  6
Continuous
 62
     0
100
AcDbPoint
 10
721.4844664606442
 20
1561.504699760362
 30
0.0
  0
POINT
  5
12CA
330
E01
100
AcDbEntity
  8
Defpoints
  6
Continuous
 62
     0
100
AcDbPoint
 10
981.4844512018542
 20
1561.504699653708
 30
0.0
  0
POINT
  5
12CB
330
E01
100
AcDbEntity
  8
Defpoints
  6
Continuous
 62
     0
100
AcDbPoint
 10
981.484451119093
 20
1359.737792915431
 30
0.0
  0
ENDBLK
  5
E03
330
E01
100
AcDbEntity
  8
0
 62
     7
100
AcDbBlockEnd
  0
BLOCK
  5
E45
330
E44
100
AcDbEntity
  8
0
 62
     7
100
AcDbBlockBegin
  2
*D15
 70
     1
 10
0.0
 20
0.0
 30
0.0
  3
*D15
  1

  0
LINE
  5
12CC
330
E44
100
AcDbEntity
  8
TP1791_8
  6
Continuous
 62
     4
370
     9
100
AcDbLine
 10
1011.657363834166
 20
1646.004089293043
 30
0.0
 11
1316.774337739507
 21
1646.004089293043
 31
0.0
  0
LINE
  5
12CD
330
E44
100
AcDbEntity
  8
TP1791_8
  6
Continuous
 62
     4
370
     9
100
AcDbLine
 10
1199.484329223625
 20
1786.004089215995
 30
0.0
 11
1316.774337739507
 21
1786.004089215995
 31
0.0
  0
LINE
  5
12CE
330
E44
100
AcDbEntity
  8
TP1791_8
  6
Continuous
 62
     4
370
     9
100
AcDbLine
 10
1298.486343354747
 20
1670.004089293043
 30
0.0
 11
1298.486343354747
 21
1762.004089215995
 31
0.0
  0
INSERT
  5
12CF
330
E44
100
AcDbEntity
  8
TP1791_8
  6
Continuous
 62
     4
370
     9
100
AcDbBlockReference
  2
_Open30
 10
1298.486343354747
 20
1646.004089293043
 30
0.0
 41
24.0
 42
24.0
 43
24.0
 50
270.0
  0
INSERT
  5
12D0
330
E44
100
AcDbEntity
  8
TP1791_8
  6
Continuous
 62
     4
370
     9
100
AcDbBlockReference
  2
_Open30
 10
1298.486343354747
 20
1786.004089215995
 30
0.0
 41
24.0
 42
24.0
 43
24.0
 50
90.0
  0
MTEXT
  5
12D1
330
E44
100
AcDbEntity
  8
TP1791_8
  6
Continuous
 62
     4
100
AcDbMText
 10
1278.486343354746
 20
1715.213805968977
 30
0.0
 40
24.0
 41
0.0
 71
     5
 72
     1
  1
\A1;140
  7
STD
 11
0.0000000000000001
 21
1.0
 31
0.0
 73
     1
 44
1.0
1001
ACAD
1000
MTEXTBEGIN
1070
    73
1070
     1
1070
    44
1040
1.0
1070
    74
1070
     0
1000
MTEXTEND
  0
POINT
  5
12D2
330
E44
100
AcDbEntity
  8
Defpoints
  6
Continuous
 62
     0
100
AcDbPoint
 10
1003.657363834166
 20
1646.004089293043
 30
0.0
  0
POINT
  5
12D3
330
E44
100
AcDbEntity
  8
Defpoints
  6
Continuous
 62
     0
100
AcDbPoint
 10
1191.484329223625
 20
1786.004089215995
 30
0.0
  0
POINT
  5
12D4
330
E44
100
AcDbEntity
  8
Defpoints
  6
Continuous
 62
     0
100
AcDbPoint
 10
1298.486343354747
 20
1786.004089215995
 30
0.0
  0
ENDBLK
  5
E46
330
E44
100
AcDbEntity
  8
0
 62
     7
100
AcDbBlockEnd
  0
BLOCK
  5
E88
330
E87
100
AcDbEntity
  8
0
 62
     7
100
AcDbBlockBegin
  2
*D16
 70
     1
 10
0.0
 20
0.0
 30
0.0
  3
*D16
  1

  0
LINE
  5
12D5
330
E87
100
AcDbEntity
  8
TP1791_8
  6
Continuous
 62
     4
370
     9
100
AcDbLine
 10
959.3323516189373
 20
1626.004211384827
 30
0.0
 11
1385.861206022974
 21
1626.004211384827
 31
0.0
  0
LINE
  5
12D6
330
E87
100
AcDbEntity
  8
TP1791_8
  6
Continuous
 62
     4
370
     9
100
AcDbLine
 10
1199.484329223625
 20
1786.004089215995
 30
0.0
 11
1385.861206022974
 21
1786.004089215995
 31
0.0
  0
LINE
  5
12D7
330
E87
100
AcDbEntity
  8
TP1791_8
  6
Continuous
 62
     4
370
     9
100
AcDbLine
 10
1367.573211638204
 20
1650.004211384827
 30
0.0
 11
1367.573211638204
 21
1762.004089215995
 31
0.0
  0
INSERT
  5
12D8
330
E87
100
AcDbEntity
  8
TP1791_8
  6
Continuous
 62
     4
370
     9
100
AcDbBlockReference
  2
_Open30
 10
1367.573211638204
 20
1626.004211384827
 30
0.0
 41
24.0
 42
24.0
 43
24.0
 50
270.0
  0
INSERT
  5
12D9
330
E87
100
AcDbEntity
  8
TP1791_8
  6
Continuous
 62
     4
370
     9
100
AcDbBlockReference
  2
_Open30
 10
1367.573211638204
 20
1786.004089215995
 30
0.0
 41
24.0
 42
24.0
 43
24.0
 50
90.0
  0
MTEXT
  5
12DA
330
E87
100
AcDbEntity
  8
TP1791_8
  6
Continuous
 62
     4
100
AcDbMText
 10
1347.573211638203
 20
1708.696227815637
 30
0.0
 40
24.0
 41
0.0
 71
     5
 72
     1
  1
\A1;160
  7
STD
 11
0.0000000000000001
 21
1.0
 31
0.0
 73
     1
 44
1.0
1001
ACAD
1000
MTEXTBEGIN
1070
    73
1070
     1
1070
    44
1040
1.0
1070
    74
1070
     0
1000
MTEXTEND
  0
POINT
  5
12DB
330
E87
100
AcDbEntity
  8
Defpoints
  6
Continuous
 62
     0
100
AcDbPoint
 10
951.3323516189373
 20
1626.004211384827
 30
0.0
  0
POINT
  5
12DC
330
E87
100
AcDbEntity
  8
Defpoints
  6
Continuous
 62
     0
100
AcDbPoint
 10
1191.484329223625
 20
1786.004089215995
 30
0.0
  0
POINT
  5
12DD
330
E87
100
AcDbEntity
  8
Defpoints
  6
Continuous
 62
     0
100
AcDbPoint
 10
1367.573211638204
 20
1786.004089215995
 30
0.0
  0
ENDBLK
  5
E89
330
E87
100
AcDbEntity
  8
0
 62
     7
100
AcDbBlockEnd
  0
BLOCK
  5
ECB
330
ECA
100
AcDbEntity
  8
0
 62
     7
100
AcDbBlockBegin
  2
*D17
 70
     1
 10
0.0
 20
0.0
 30
0.0
  3
*D17
  1

  0
LINE
  5
12DE
330
ECA
100
AcDbEntity
  8
TP1791_8
  6
Continuous
 62
     4
370
     9
100
AcDbLine
 10
556.997131329206
 20
1741.004089472984
 30
0.0
 11
403.5304565429756
 21
1741.004089472985
 31
0.0
  0
LINE
  5
12DF
330
ECA
100
AcDbEntity
  8
TP1791_8
  6
Continuous
 62
     4
370
     9
100
AcDbLine
 10
556.9971313661246
 20
1831.004089472984
 30
0.0
 11
403.5304565429756
 21
1831.004089472985
 31
0.0
  0
LINE
  5
12E0
330
ECA
100
AcDbEntity
  8
TP1791_8
  6
Continuous
 62
     4
370
     9
100
AcDbLine
 10
421.8184814453156
 20
1765.004089472984
 30
0.0
 11
421.8184814453156
 21
1807.004089472985
 31
0.0
  0
INSERT
  5
12E1
330
ECA
100
AcDbEntity
  8
TP1791_8
  6
Continuous
 62
     4
370
     9
100
AcDbBlockReference
  2
_Open30
 10
421.8184814453156
 20
1741.004089472985
 30
0.0
 41
24.0
 42
24.0
 43
24.0
 50
270.0
  0
INSERT
  5
12E2
330
ECA
100
AcDbEntity
  8
TP1791_8
  6
Continuous
 62
     4
370
     9
100
AcDbBlockReference
  2
_Open30
 10
421.8184814453156
 20
1831.004089472985
 30
0.0
 41
24.0
 42
24.0
 43
24.0
 50
90.0
  0
MTEXT
  5
12E3
330
ECA
100
AcDbEntity
  8
TP1791_8
  6
Continuous
 62
     4
100
AcDbMText
 10
401.8184814453153
 20
1786.004089531718
 30
0.0
 40
24.0
 41
0.0
 71
     5
 72
     1
  1
\A1;90
  7
STD
 11
0.0000000000000001
 21
1.0
 31
0.0
 73
     1
 44
1.0
1001
ACAD
1000
MTEXTBEGIN
1070
    73
1070
     1
1070
    44
1040
1.0
1070
    74
1070
     0
1000
MTEXTEND
  0
POINT
  5
12E4
330
ECA
100
AcDbEntity
  8
Defpoints
  6
Continuous
 62
     0
100
AcDbPoint
 10
564.997131329206
 20
1741.004089472984
 30
0.0
  0
POINT
  5
12E5
330
ECA
100
AcDbEntity
  8
Defpoints
  6
Continuous
 62
     0
100
AcDbPoint
 10
564.9971313661247
 20
1831.004089472984
 30
0.0
  0
POINT
  5
12E6
330
ECA
100
AcDbEntity
  8
Defpoints
  6
Continuous
 62
     0
100
AcDbPoint
 10
421.8184814453156
 20
1831.004089472985
 30
0.0
  0
ENDBLK
  5
ECC
330
ECA
100
AcDbEntity
  8
0
 62
     7
100
AcDbBlockEnd
  0
BLOCK
  5
F0E
330
F0D
100
AcDbEntity
  8
0
 62
     7
100
AcDbBlockBegin
  2
*D18
 70
     1
 10
0.0
 20
0.0
 30
0.0
  3
*D18
  1

  0
LINE
  5
12E7
330
F0D
100
AcDbEntity
  8
TP1791_8
  6
Continuous
 62
     4
370
     9
100
AcDbLine
 10
588.4844665691436
 20
1826.004089460068
 30
0.0
 11
459.4388427734456
 21
1826.004089460068
 31
0.0
  0
LINE
  5
12E8
330
F0D
100
AcDbEntity
  8
TP1791_8
  6
Continuous
 62
     4
370
     9
100
AcDbLine
 10
588.4844665363271
 20
1746.004089460068
 30
0.0
 11
459.4388427734456
 21
1746.004089460068
 31
0.0
  0
LINE
  5
12E9
330
F0D
100
AcDbEntity
  8
TP1791_8
  6
Continuous
 62
     4
370
     9
100
AcDbLine
 10
477.7268676757856
 20
1802.004089460069
 30
0.0
 11
477.7268676757856
 21
1770.004089460068
 31
0.0
  0
INSERT
  5
12EA
330
F0D
100
AcDbEntity
  8
TP1791_8
  6
Continuous
 62
     4
370
     9
100
AcDbBlockReference
  2
_Open30
 10
477.7268676757856
 20
1826.004089460068
 30
0.0
 41
24.0
 42
24.0
 43
24.0
 50
90.0
  0
INSERT
  5
12EB
330
F0D
100
AcDbEntity
  8
TP1791_8
  6
Continuous
 62
     4
370
     9
100
AcDbBlockReference
  2
_Open30
 10
477.7268676757856
 20
1746.004089460068
 30
0.0
 41
24.0
 42
24.0
 43
24.0
 50
270.0
  0
MTEXT
  5
12EC
330
F0D
100
AcDbEntity
  8
TP1791_8
  6
Continuous
 62
     4
100
AcDbMText
 10
457.7268676757853
 20
1786.004089508783
 30
0.0
 40
24.0
 41
0.0
 71
     5
 72
     1
  1
\A1;80
  7
STD
 11
0.0000000000000001
 21
1.0
 31
0.0
 73
     1
 44
1.0
1001
ACAD
1000
MTEXTBEGIN
1070
    73
1070
     1
1070
    44
1040
1.0
1070
    74
1070
     0
1000
MTEXTEND
  0
POINT
  5
12ED
330
F0D
100
AcDbEntity
  8
Defpoints
  6
Continuous
 62
     0
100
AcDbPoint
 10
596.4844665691436
 20
1826.004089460068
 30
0.0
  0
POINT
  5
12EE
330
F0D
100
AcDbEntity
  8
Defpoints
  6
Continuous
 62
     0
100
AcDbPoint
 10
596.4844665363271
 20
1746.004089460068
 30
0.0
  0
POINT
  5
12EF
330
F0D
100
AcDbEntity
  8
Defpoints
  6
Continuous
 62
     0
100
AcDbPoint
 10
477.7268676757856
 20
1746.004089460068
 30
0.0
  0
ENDBLK
  5
F0F
330
F0D
100
AcDbEntity
  8
0
 62
     7
100
AcDbBlockEnd
  0
BLOCK
  5
F51
330
F50
100
AcDbEntity
  8
0
 62
     7
100
AcDbBlockBegin
  2
*D19
 70
     1
 10
0.0
 20
0.0
 30
0.0
  3
*D19
  1

  0
LINE
  5
12F0
330
F50
100
AcDbEntity
  8
TP1791_8
  6
Continuous
 62
     4
370
     9
100
AcDbLine
 10
1099.254549235316
 20
1538.233547687501
 30
0.0
 11
1124.223692415908
 21
1513.264396067451
 31
0.0
  0
LINE
  5
12F1
330
F50
100
AcDbEntity
  8
TP1791_8
  6
Continuous
 62
     4
370
     9
100
AcDbLine
 10
1199.484329223625
 20
1786.004089212713
 30
0.0
 11
1237.196199373576
 21
1786.004089197243
 31
0.0
  0
ARC
  5
12F2
330
F50
100
AcDbEntity
  8
TP1791_8
  6
Continuous
 62
     4
370
     9
100
AcDbCircle
 10
851.4840913126434
 20
1786.004089355466
 30
0.0
 40
377.7121080609325
100
AcDbArc
 50
318.6412030542649
 51
356.3587872393764
  0
INSERT
  5
12F3
330
F50
100
AcDbEntity
  8
TP1791_8
  6
Continuous
 62
     4
370
     9
100
AcDbBlockReference
  2
_Open30
 10
1118.566839122411
 20
1518.921251272939
 30
0.0
 41
24.0
 42
24.0
 43
24.0
 50
226.8205966857048
  0
INSERT
  5
12F4
330
F50
100
AcDbEntity
  8
TP1791_8
  6
Continuous
 62
     4
370
     9
100
AcDbBlockReference
  2
_Open30
 10
1229.196199373576
 20
1786.004089200525
 30
0.0
 41
24.0
 42
24.0
 43
24.0
 50
88.17939360793662
  0
MTEXT
  5
12F5
330
F50
100
AcDbEntity
  8
TP1791_8
  6
Continuous
 62
     4
100
AcDbMText
 10
1195.691889363019
 20
1688.644220750852
 30
0.0
 40
24.0
 41
0.0
 71
     5
 72
     1
  1
\A1;45\U+00B0
  7
STD
 11
0.2721738135518461
 21
0.9622481048132257
 31
0.0
 73
     1
 44
1.0
1001
ACAD
1000
MTEXTBEGIN
1070
    73
1070
     1
1070
    44
1040
1.0
1070
    74
1070
     0
1000
MTEXTEND
  0
POINT
  5
12F6
330
F50
100
AcDbEntity
  8
Defpoints
  6
Continuous
 62
     0
100
AcDbPoint
 10
1178.592350907065
 20
1597.147998426573
 30
0.0
  0
POINT
  5
12F7
330
F50
100
AcDbEntity
  8
Defpoints
  6
Continuous
 62
     0
100
AcDbPoint
 10
1055.696968772195
 20
1581.791142872886
 30
0.0
  0
POINT
  5
12F8
330
F50
100
AcDbEntity
  8
Defpoints
  6
Continuous
 62
     0
100
AcDbPoint
 10
1135.484451293935
 20
1786.004089238967
 30
0.0
  0
POINT
  5
12F9
330
F50
100
AcDbEntity
  8
Defpoints
  6
Continuous
 62
     0
100
AcDbPoint
 10
1191.484329223625
 20
1786.004089215995
 30
0.0
  0
POINT
  5
12FA
330
F50
100
AcDbEntity
  8
Defpoints
  6
Continuous
 62
     0
100
AcDbPoint
 10
1093.597695941818
 20
1543.890402892989
 30
0.0
  0
ENDBLK
  5
F52
330
F50
100
AcDbEntity
  8
0
 62
     7
100
AcDbBlockEnd
  0
BLOCK
  5
132F
330
132E
100
AcDbEntity
  8
0
 62
     7
100
AcDbBlockBegin
  2
*D20
 70
     1
 10
0.0
 20
0.0
 30
0.0
  3
*D20
  1

  0
LINE
  5
1331
330
132E
100
AcDbEntity
  8
画層1
  6
DIMENSION
 62
     4
370
     9
100
AcDbLine
 10
2055.476252911789
 20
1294.425598173915
 30
0.0
 11
2168.742366083274
 21
1294.425598173915
 31
0.0
  0
LINE
  5
1332
330
132E
100
AcDbEntity
  8
画層1
  6
DIMENSION
 62
     4
370
     9
100
AcDbLine
 10
2055.47625309228
 20
414.425598173916
 30
0.0
 11
2168.742366083274
 21
414.425598173916
 31
0.0
  0
LINE
  5
1333
330
132E
100
AcDbEntity
  8
画層1
  6
DIMENSION
 62
     4
370
     9
100
AcDbLine
 10
2160.742366083274
 20
1270.425598173915
 30
0.0
 11
2160.742366083274
 21
438.4255981739159
 31
0.0
  0
INSERT
  5
1334
330
132E
100
AcDbEntity
  8
画層1
  6
DIMENSION
 62
     4
370
     9
100
AcDbBlockReference
  2
_Open30
 10
2160.742366083274
 20
1294.425598173915
 30
0.0
 41
24.0
 42
24.0
 43
24.0
 50
90.0
  0
INSERT
  5
1335
330
132E
100
AcDbEntity
  8
画層1
  6
DIMENSION
 62
     4
370
     9
100
AcDbBlockReference
  2
_Open30
 10
2160.742366083274
 20
414.425598173916
 30
0.0
 41
24.0
 42
24.0
 43
24.0
 50
270.0
  0
MTEXT
  5
1336
330
132E
100
AcDbEntity
  8
画層1
  6
DIMENSION
 62
     4
100
AcDbMText
 10
2140.742366083274
 20
854.425598173916
 30
0.0
 40
24.0
 41
0.0
 71
     5
 72
     1
  1
\A1;880
  7
STD
 11
0.0000000000000001
 21
1.0
 31
0.0
 73
     1
 44
1.0
1001
ACAD
1000
MTEXTBEGIN
1070
    73
1070
     1
1070
    44
1040
1.0
1070
    74
1070
     0
1000
MTEXTEND
  0
POINT
  5
1337
330
132E
100
AcDbEntity
  8
Defpoints
  6
DIMENSION
 62
     0
100
AcDbPoint
 10
2047.476252911789
 20
1294.425598173915
 30
0.0
  0
POINT
  5
1338
330
132E
100
AcDbEntity
  8
Defpoints
  6
DIMENSION
 62
     0
100
AcDbPoint
 10
2047.47625309228
 20
414.425598173916
 30
0.0
  0
POINT
  5
1339
330
132E
100
AcDbEntity
  8
Defpoints
  6
DIMENSION
 62
     0
100
AcDbPoint
 10
2160.742366083274
 20
414.425598173916
 30
0.0
  0
ENDBLK
  5
1330
330
132E
100
AcDbEntity
  8
0
 62
     7
100
AcDbBlockEnd
  0
ENDSEC
  0
SECTION
  2
ENTITIES
  0
DIMENSION
  5
7FA
330
1F
100
AcDbEntity
  8
PV0001_8
  6
Continuous
 62
     7
100
AcDbDimension
  2
*D2
 10
1141.48046875
 20
231.897870722738
 30
0.0
 11
851.4804687499999
 21
231.897870722738
 31
0.0
 70
   160
  1
OD\U+2205<>
 71
     5
 42
580.0
  3
ASKSTANDARD
100
AcDbAlignedDimension
 13
561.48046875
 23
429.425598144528
 33
0.0
 14
1141.48046875
 24
429.425598144528
 34
0.0
100
AcDbRotatedDimension
1001
ACAD
1000
DSTYLE
1002
{
1070
    44
1040
2.286000000000001
1070
    40
1040
8.0
1070
   284
1070
     8
1070
   140
1040
3.0
1070
   271
1070
     0
1070
   173
1070
     1
1070
   343
1005
71F
1070
   344
1005
71F
1002
}
  0
DIMENSION
  5
83D
330
1F
100
AcDbEntity
  8
PV0001_8
  6
Continuous
 62
     7
100
AcDbDimension
  2
*D3
 10
1373.45746059988
 20
1114.425598144528
 30
0.0
 11
1373.45746059988
 21
764.425598144528
 31
0.0
 70
   160
  1
<>
 71
     5
 42
700.0
  3
ASKSTANDARD
100
AcDbAlignedDimension
 13
1126.48046875
 23
414.4255981445279
 33
0.0
 14
1141.48046875
 24
1114.425598144528
 34
0.0
 50
90.0
100
AcDbRotatedDimension
1001
ACAD
1000
DSTYLE
1002
{
1070
    44
1040
2.286000000001237
1070
    40
1040
8.0
1070
   284
1070
     8
1070
   140
1040
3.0
1070
   271
1070
     0
1070
   173
1070
     1
1070
   343
1005
71F
1070
   344
1005
71F
1002
}
  0
DIMENSION
  5
880
330
1F
100
AcDbEntity
  8
PV0001_8
  6
Continuous
 62
     7
100
AcDbDimension
  2
*D4
 10
1373.45746059988
 20
1164.425598144528
 30
0.0
 11
1373.45746059988
 21
1139.425598144528
 31
0.0
 70
   160
  1
<>
 71
     5
 42
50.0
  3
ASKSTANDARD
100
AcDbAlignedDimension
 13
1141.48046875
 23
1114.425598144528
 33
0.0
 14
1141.48046875
 24
1164.425598144528
 34
0.0
 50
90.0
100
AcDbRotatedDimension
1001
ACAD
1000
DSTYLE
1002
{
1070
    44
1040
2.286000000001237
1070
    40
1040
8.0
1070
   284
1070
     8
1070
   140
1040
3.0
1070
   271
1070
     0
1070
   173
1070
     1
1070
   343
1005
71F
1070
   344
1005
71F
1070
    75
1070
     1
1002
}
  0
DIMENSION
  5
8DB
330
1F
100
AcDbEntity
  8
PV0001_8
  6
Continuous
 62
     7
100
AcDbDimension
  2
*D5
 10
1373.45746059988
 20
1294.425598144528
 30
0.0
 11
1373.45746059988
 21
1229.425598144528
 31
0.0
 70
   160
  1
<>
 71
     5
 42
130.0
  3
ASKSTANDARD
100
AcDbAlignedDimension
 13
1141.48046875
 23
1164.425598144528
 33
0.0
 14
1126.48046875
 24
1294.425598144528
 34
0.0
 50
90.0
100
AcDbRotatedDimension
1001
ACAD
1000
DSTYLE
1002
{
1070
    44
1040
2.286000000001237
1070
    40
1040
8.0
1070
   284
1070
     8
1070
   140
1040
3.0
1070
   271
1070
     0
1070
   173
1070
     1
1070
   343
1005
71F
1070
   344
1005
71F
1070
    75
1070
     1
1002
}
  0
DIMENSION
  5
926
330
1F
100
AcDbEntity
  8
PV0001_8
  6
Continuous
 62
     7
100
AcDbDimension
  2
*D6
 10
1141.48046875
 20
1210.386291503898
 30
0.0
 11
1196.10847473144
 21
1210.386291503898
 31
0.0
 70
   160
  1
<>
 71
     5
 42
35.0
  3
ASKSTANDARD
100
AcDbAlignedDimension
 13
1106.48046875
 23
1164.425598144528
 33
0.0
 14
1141.48046875
 24
1164.425598144528
 34
0.0
100
AcDbRotatedDimension
1001
ACAD
1000
DSTYLE
1002
{
1070
    44
1040
2.286003112792499
1070
    40
1040
8.0
1070
   284
1070
     8
1070
   140
1040
3.0
1070
   271
1070
     0
1070
   173
1070
     1
1070
   343
1005
71F
1070
   344
1005
71F
1070
    76
1070
     1
1070
   279
1070
     1
1002
}
  0
DIMENSION
  5
995
330
1F
100
AcDbEntity
  8
PV0001_8
  6
Continuous
 62
     7
100
AcDbDimension
  2
*D7
 10
1011.48049926757
 20
347.761573791501
 30
0.0
 11
851.4804687499999
 21
347.761573791501
 31
0.0
 70
   160
  1
\U+2205<>
 71
     5
 42
320.0000610351399
  3
ASKSTANDARD
100
AcDbAlignedDimension
 13
691.48043823243
 23
414.4255981445279
 33
0.0
 14
1011.48049926757
 24
414.4255981445279
 34
0.0
100
AcDbRotatedDimension
1001
ACAD
1000
DSTYLE
1002
{
1070
    44
1040
2.286000251769999
1070
    40
1040
8.0
1070
   284
1070
     8
1070
   140
1040
3.0
1070
   271
1070
     0
1070
   173
1070
     1
1070
   343
1005
71F
1070
   344
1005
71F
1002
}
  0
DIMENSION
  5
9D8
330
1F
100
AcDbEntity
  8
PV0001_8
  6
Continuous
 62
     7
100
AcDbDimension
  2
*D8
 10
1086.48048400878
 20
296.986648559568
 30
0.0
 11
851.4804687499999
 21
296.986648559568
 31
0.0
 70
   160
  1
\U+2205<>
 71
     5
 42
470.0000152587799
  3
ASKSTANDARD
100
AcDbAlignedDimension
 13
616.48046875
 23
414.4255981445279
 33
0.0
 14
1086.48048400878
 24
414.4255981445279
 34
0.0
100
AcDbRotatedDimension
1001
ACAD
1000
DSTYLE
1002
{
1070
    44
1040
2.285999298094999
1070
    40
1040
8.0
1070
   284
1070
     8
1070
   140
1040
3.0
1070
   271
1070
     0
1070
   173
1070
     1
1070
   343
1005
71F
1070
   344
1005
71F
1002
}
  0
DIMENSION
  5
A1B
330
1F
100
AcDbEntity
  8
PV0001_8
  6
Continuous
 62
     7
100
AcDbDimension
  2
*D9
 10
962.3533477783201
 20
484.425598144528
 30
0.0
 11
962.3533477783199
 21
449.425598144528
 31
0.0
 70
   160
  1
<>
 71
     5
 42
70.0
  3
ASKSTANDARD
100
AcDbAlignedDimension
 13
1126.48046875
 23
414.4255981445279
 33
0.0
 14
995.56747436523
 24
484.425598144528
 34
0.0
 50
90.0
100
AcDbRotatedDimension
1001
ACAD
1000
DSTYLE
1002
{
1070
    44
1040
2.286001205444375
1070
    40
1040
8.0
1070
   284
1070
     8
1070
   140
1040
3.0
1070
   271
1070
     0
1070
   173
1070
     1
1070
   343
1005
71F
1070
   344
1005
71F
1070
    75
1070
     1
1002
}
  0
DIMENSION
  5
A66
330
1F
100
AcDbEntity
  8
PV0001_8
  6
Continuous
 62
     7
100
AcDbDimension
  2
*D10
 10
1098.96780395507
 20
598.3307800292879
 30
0.0
 11
1056.54135894775
 21
598.3307800292879
 31
0.0
 70
   160
  1
120
 71
     5
 42
84.85289001464991
  3
ASKSTANDARD
100
AcDbAlignedDimension
 13
1014.11491394042
 23
484.425598144528
 33
0.0
 14
1098.96780395507
 24
484.425598144528
 34
0.0
100
AcDbRotatedDimension
1001
ACAD
1000
DSTYLE
1002
{
1070
    44
1040
2.286001205445
1070
    40
1040
8.0
1070
   284
1070
     8
1070
   140
1040
3.0
1070
   271
1070
     0
1070
   173
1070
     1
1070
   343
1005
71F
1070
   344
1005
71F
1002
}
  0
DIMENSION
  5
AA9
330
1F
100
AcDbEntity
  8
PV0001_8
  6
Continuous
 62
     7
100
AcDbDimension
  2
*D11
 10
492.6648364960001
 20
414.4255981445279
 30
0.0
 11
492.664836496
 21
855.425598144528
 31
0.0
 70
   160
  1
<>
 71
     5
 42
882.0000000000002
  3
ASKSTANDARD
100
AcDbAlignedDimension
 13
851.4804687499999
 23
1296.425598144528
 33
0.0
 14
576.4804687499999
 24
414.4255981445279
 34
0.0
 50
90.0
100
AcDbRotatedDimension
1001
ACAD
1000
DSTYLE
1002
{
1070
    44
1040
2.286000000000001
1070
    40
1040
8.0
1070
   284
1070
     8
1070
   140
1040
3.0
1070
   271
1070
     0
1070
   173
1070
     1
1070
   343
1005
71F
1070
   344
1005
71F
1002
}
  0
DIMENSION
  5
AEC
330
1F
100
AcDbEntity
  8
PV0001_8
  6
Continuous
 62
     7
100
AcDbDimension
  2
*D12
 10
1278.55902014119
 20
1294.425598144528
 30
0.0
 11
1278.55902014119
 21
1274.425598144528
 31
0.0
 70
   160
  1
<>
 71
     5
 42
40.0
  3
ASKSTANDARD
100
AcDbAlignedDimension
 13
967.5765686035099
 23
1254.425598144528
 33
0.0
 14
1126.48046875
 24
1294.425598144528
 34
0.0
 50
90.0
100
AcDbRotatedDimension
1001
ACAD
1000
DSTYLE
1002
{
1070
    44
1040
2.286000000000001
1070
    40
1040
8.0
1070
   284
1070
     8
1070
   140
1040
3.0
1070
   271
1070
     0
1070
   173
1070
     1
1070
   343
1005
71F
1070
   344
1005
71F
1070
    76
1070
     1
1002
}
  0
POINT
  5
B47
330
1F
100
AcDbEntity
  8
PV0001_8
  6
Continuous
 62
     4
100
AcDbPoint
 10
851.4804687499999
 20
1296.425598144528
 30
0.0
  0
POINT
  5
B48
330
1F
100
AcDbEntity
  8
PV0001_8
  6
Continuous
 62
     4
100
AcDbPoint
 10
780.4804627324499
 20
1289.425537109368
 30
0.0
  0
POINT
  5
B49
330
1F
100
AcDbEntity
  8
PV0001_8
  6
Continuous
 62
     4
100
AcDbPoint
 10
922.48047476755
 20
1289.425537109368
 30
0.0
  0
POINT
  5
B4A
330
1F
100
AcDbEntity
  8
PV0001_8
  6
Continuous
 62
     4
100
AcDbPoint
 10
851.4804687499999
 20
1296.425598144528
 30
0.0
  0
LINE
  5
B4C
330
1F
100
AcDbEntity
  8
PV0001_8
  6
Continuous
 62
     7
100
AcDbLine
 10
576.4804687499999
 20
414.4255981445279
 30
0.0
 11
1126.48046875
 21
414.4255981445279
 31
0.0
1001
DEKIMAS
1000
実線（中）
1040
0.25
1001
DIMEXPLODE
1070
     0
  0
LINE
  5
B4D
330
1F
100
AcDbEntity
  8
PV0001_8
  6
CENTER2
 62
     1
100
AcDbLine
 10
851.4804687499999
 20
1303.504206483068
 30
0.0
 11
851.4804687499999
 21
392.748901367185
 31
0.0
1001
DEKIMAS
1000
一点鎖線（細）
1040
0.15
1001
DIMEXPLODE
1070
     0
  0
LINE
  5
B4E
330
1F
100
AcDbEntity
  8
PV0001_8
  6
Continuous
 62
     7
100
AcDbLine
 10
576.4804687499999
 20
1294.425598144528
 30
0.0
 11
813.3980118661639
 21
1294.425598144528
 31
0.0
1001
DEKIMAS
1000
実線（中）
1040
0.25
1001
DIMEXPLODE
1070
     0
  0
LINE
  5
B4F
330
1F
100
AcDbEntity
  8
PV0001_8
  6
Continuous
 62
     7
100
AcDbLine
 10
561.48046875
 20
1279.425598144528
 30
0.0
 11
561.48046875
 21
429.425598144528
 31
0.0
1001
DEKIMAS
1000
実線（中）
1040
0.25
1001
DIMEXPLODE
1070
     0
  0
LINE
  5
B50
330
1F
100
AcDbEntity
  8
PV0001_8
  6
Continuous
 62
     7
100
AcDbLine
 10
1141.48046875
 20
1279.425598144528
 30
0.0
 11
1141.48046875
 21
429.425598144528
 31
0.0
1001
DEKIMAS
1000
実線（中）
1040
0.25
1001
DIMEXPLODE
1070
     0
  0
LINE
  5
B51
330
1F
100
AcDbEntity
  8
PV0001_8
  6
Continuous
 62
     7
100
AcDbLine
 10
735.38436889649
 20
1254.425598144528
 30
0.0
 11
967.5765686035099
 21
1254.425598144528
 31
0.0
1001
DEKIMAS
1000
実線（中）
1040
0.25
1001
DIMEXPLODE
1070
     0
  0
LINE
  5
B52
330
1F
100
AcDbEntity
  8
PV0001_8
  6
Continuous
 62
     7
100
AcDbLine
 10
722.4272632977499
 20
1290.638383609858
 30
0.0
 11
730.53364352396
 21
1258.212862705038
 31
0.0
1001
DEKIMAS
1000
実線（中）
1040
0.25
1001
DIMEXPLODE
1070
     0
  0
LINE
  5
B53
330
1F
100
AcDbEntity
  8
PV0001_8
  6
Continuous
 62
     7
100
AcDbLine
 10
980.5336636188499
 20
1290.638376208258
 30
0.0
 11
972.42728339264
 21
1258.212855303438
 31
0.0
1001
DEKIMAS
1000
実線（中）
1040
0.25
1001
DIMEXPLODE
1070
     0
  0
LINE
  5
B54
330
1F
100
AcDbEntity
  8
PV0001_8
  6
HIDDEN2
 62
     4
100
AcDbLine
 10
1031.48046875
 20
434.425598144528
 30
0.0
 11
1074.93345642089
 21
434.425598144528
 31
0.0
1001
DEKIMAS
1000
破線（細）
1040
0.15
1001
DIMEXPLODE
1070
     0
  0
LINE
  5
B55
330
1F
100
AcDbEntity
  8
PV0001_8
  6
HIDDEN2
 62
     4
 48
0.5
100
AcDbLine
 10
1074.93345996062
 20
434.4256267438709
 30
0.0
 11
1086.48046990126
 21
414.4256215943279
 31
0.0
1001
DEKIMAS
1000
破線（細）
1040
0.15
1001
DIMEXPLODE
1070
     0
  0
LINE
  5
B56
330
1F
100
AcDbEntity
  8
PV0001_8
  6
HIDDEN2
 62
     4
 48
0.5
100
AcDbLine
 10
1011.48049035218
 20
414.4255911481501
 30
0.0
 11
1031.48049119001
 21
434.425590300102
 31
0.0
1001
DEKIMAS
1000
破線（細）
1040
0.15
1001
DIMEXPLODE
1070
     0
  0
LINE
  5
B57
330
1F
100
AcDbEntity
  8
PV0001_8
  6
HIDDEN2
 62
     4
 48
0.5
100
AcDbLine
 10
691.48043648599
 20
414.4256024435056
 30
0.0
 11
671.48045722735
 21
434.425580016272
 31
0.0
1001
DEKIMAS
1000
破線（細）
1040
0.15
1001
DIMEXPLODE
1070
     0
  0
LINE
  5
B58
330
1F
100
AcDbEntity
  8
PV0001_8
  6
HIDDEN2
 62
     4
100
AcDbLine
 10
671.48046875
 20
434.425598144528
 30
0.0
 11
628.0274658203199
 21
434.425598144528
 31
0.0
1001
DEKIMAS
1000
破線（細）
1040
0.15
1001
DIMEXPLODE
1070
     0
  0
LINE
  5
B59
330
1F
100
AcDbEntity
  8
PV0001_8
  6
HIDDEN2
 62
     4
 48
0.5
100
AcDbLine
 10
628.02748545059
 20
434.425618835556
 30
0.0
 11
616.48047956306
 21
414.4256207062152
 31
0.0
1001
DEKIMAS
1000
破線（細）
1040
0.15
1001
DIMEXPLODE
1070
     0
  0
LINE
  5
B5A
330
1F
100
AcDbEntity
  8
PV0001_8
  6
Continuous
 62
     7
 48
0.5
100
AcDbLine
 10
846.48046875
 20
461.425598144528
 30
0.0
 11
856.48046875
 21
461.425598144528
 31
0.0
1001
DEKIMAS
1000
実線（中）
1040
0.25
1001
DIMEXPLODE
1070
     0
  0
LINE
  5
B5B
330
1F
100
AcDbEntity
  8
PV0001_8
  6
Continuous
 62
     7
100
AcDbLine
 10
846.48046875
 20
1198.425598144528
 30
0.0
 11
846.48046875
 21
461.425598144528
 31
0.0
1001
DEKIMAS
1000
実線（中）
1040
0.25
1001
DIMEXPLODE
1070
     0
  0
LINE
  5
B5C
330
1F
100
AcDbEntity
  8
PV0001_8
  6
Continuous
 62
     7
100
AcDbLine
 10
856.48046875
 20
1198.425598144528
 30
0.0
 11
856.48046875
 21
461.425598144528
 31
0.0
1001
DEKIMAS
1000
実線（中）
1040
0.25
1001
DIMEXPLODE
1070
     0
  0
LINE
  5
B5D
330
1F
100
AcDbEntity
  8
PV0001_8
  6
Continuous
 62
     7
 48
0.5
100
AcDbLine
 10
846.48046875
 20
1198.425598144528
 30
0.0
 11
856.48046875
 21
1198.425598144528
 31
0.0
1001
DEKIMAS
1000
実線（中）
1040
0.25
1001
DIMEXPLODE
1070
     0
  0
LINE
  5
B5E
330
1F
100
AcDbEntity
  8
PV0001_8
  6
HIDDEN2
 62
     4
100
AcDbLine
 10
1106.48046875
 20
1164.425598144528
 30
0.0
 11
1141.48046875
 21
1164.425598144528
 31
0.0
1001
DEKIMAS
1000
破線（細）
1040
0.15
1001
DIMEXPLODE
1070
     0
  0
LINE
  5
B5F
330
1F
100
AcDbEntity
  8
PV0001_8
  6
HIDDEN2
 62
     4
100
AcDbLine
 10
596.48046875
 20
1164.425598144528
 30
0.0
 11
561.48046875
 21
1164.425598144528
 31
0.0
1001
DEKIMAS
1000
破線（細）
1040
0.15
1001
DIMEXPLODE
1070
     0
  0
LINE
  5
B60
330
1F
100
AcDbEntity
  8
PV0001_8
  6
Continuous
 62
     7
100
AcDbLine
 10
936.4804687499999
 20
1289.425537109368
 30
0.0
 11
766.48046875
 21
1289.425537109368
 31
0.0
1001
DEKIMAS
1000
実線（中）
1040
0.25
1001
DIMEXPLODE
1070
     0
  0
LINE
  5
B61
330
1F
100
AcDbEntity
  8
PV0001_8
  6
Continuous
 62
     7
100
AcDbLine
 10
938.9804687499999
 20
1257.425476074208
 30
0.0
 11
763.9804687499999
 21
1257.425476074208
 31
0.0
1001
DEKIMAS
1000
実線（中）
1040
0.25
1001
DIMEXPLODE
1070
     0
  0
LINE
  5
B62
330
1F
100
AcDbEntity
  8
PV0001_8
  6
Continuous
 62
     7
 48
0.5
100
AcDbLine
 10
766.48046875
 20
1286.425537109368
 30
0.0
 11
766.48046875
 21
1262.425354003898
 31
0.0
1001
DEKIMAS
1000
実線（中）
1040
0.25
1001
DIMEXPLODE
1070
     0
  0
LINE
  5
B63
330
1F
100
AcDbEntity
  8
PV0001_8
  6
Continuous
 62
     7
 48
0.5
100
AcDbLine
 10
768.98046875
 20
1257.425476074208
 30
0.0
 11
768.98046875
 21
1256.425476074208
 31
0.0
1001
DEKIMAS
1000
実線（中）
1040
0.25
1001
DIMEXPLODE
1070
     0
  0
LINE
  5
B64
330
1F
100
AcDbEntity
  8
PV0001_8
  6
Continuous
 62
     7
 48
0.5
100
AcDbLine
 10
761.48046875
 20
1259.595275878898
 30
0.0
 11
761.48046875
 21
1258.095275878898
 31
0.0
1001
DEKIMAS
1000
実線（中）
1040
0.25
1001
DIMEXPLODE
1070
     0
  0
LINE
  5
B65
330
1F
100
AcDbEntity
  8
PV0001_8
  6
Continuous
 62
     7
100
AcDbLine
 10
890.469604492187
 20
1262.425476074208
 30
0.0
 11
812.4913330078129
 21
1262.425476074208
 31
0.0
1001
DEKIMAS
1000
実線（中）
1040
0.25
1001
DIMEXPLODE
1070
     0
  0
LINE
  5
B66
330
1F
100
AcDbEntity
  8
PV0001_8
  6
Continuous
 62
     7
 48
0.5
100
AcDbLine
 10
761.480414021972
 20
1258.094994603798
 30
0.0
 11
763.980419207319
 21
1257.425120304838
 31
0.0
1001
DEKIMAS
1000
実線（中）
1040
0.25
1001
DIMEXPLODE
1070
     0
  0
LINE
  5
B67
330
1F
100
AcDbEntity
  8
PV0001_8
  6
Continuous
 62
     7
100
AcDbLine
 10
946.48046875
 20
1258.095275878898
 30
0.0
 11
756.48046875
 21
1258.095275878898
 31
0.0
1001
DEKIMAS
1000
実線（中）
1040
0.25
1001
DIMEXPLODE
1070
     0
  0
LINE
  5
B68
330
1F
100
AcDbEntity
  8
PV0001_8
  6
Continuous
 62
     7
100
AcDbLine
 10
890.469604492187
 20
1259.595275878898
 30
0.0
 11
812.4913330078129
 21
1259.595275878898
 31
0.0
1001
DEKIMAS
1000
実線（中）
1040
0.25
1001
DIMEXPLODE
1070
     0
  0
LINE
  5
B69
330
1F
100
AcDbEntity
  8
PV0001_8
  6
Continuous
 62
     7
 48
0.5
100
AcDbLine
 10
766.480170099559
 20
1262.425964020998
 30
0.0
 11
761.480116134416
 21
1259.595762645238
 31
0.0
1001
DEKIMAS
1000
実線（中）
1040
0.25
1001
DIMEXPLODE
1070
     0
  0
LINE
  5
B6A
330
1F
100
AcDbEntity
  8
PV0001_8
  6
Continuous
 62
     7
 48
0.5
100
AcDbLine
 10
756.48046875
 20
1279.425476074208
 30
0.0
 11
756.48046875
 21
1258.095275878898
 31
0.0
1001
DEKIMAS
1000
実線（中）
1040
0.25
1001
DIMEXPLODE
1070
     0
  0
LINE
  5
B6B
330
1F
100
AcDbEntity
  8
PV0001_8
  6
Continuous
 62
     7
 48
0.5
100
AcDbLine
 10
936.4804687499999
 20
1286.425537109368
 30
0.0
 11
936.4804687499999
 21
1262.425354003898
 31
0.0
1001
DEKIMAS
1000
実線（中）
1040
0.25
1001
DIMEXPLODE
1070
     0
  0
LINE
  5
B6C
330
1F
100
AcDbEntity
  8
PV0001_8
  6
Continuous
 62
     7
 48
0.5
100
AcDbLine
 10
941.48046875
 20
1259.595275878898
 30
0.0
 11
941.48046875
 21
1258.095275878898
 31
0.0
1001
DEKIMAS
1000
実線（中）
1040
0.25
1001
DIMEXPLODE
1070
     0
  0
LINE
  5
B6D
330
1F
100
AcDbEntity
  8
PV0001_8
  6
Continuous
 62
     7
 48
0.5
100
AcDbLine
 10
936.4806554712849
 20
1262.426191642008
 30
0.0
 11
941.48060320374
 21
1259.596050397578
 31
0.0
1001
DEKIMAS
1000
実線（中）
1040
0.25
1001
DIMEXPLODE
1070
     0
  0
LINE
  5
B6E
330
1F
100
AcDbEntity
  8
PV0001_8
  6
Continuous
 62
     7
 48
0.5
100
AcDbLine
 10
941.480528133391
 20
1258.095033367708
 30
0.0
 11
938.980522948043
 21
1257.425159068748
 31
0.0
1001
DEKIMAS
1000
実線（中）
1040
0.25
1001
DIMEXPLODE
1070
     0
  0
LINE
  5
B6F
330
1F
100
AcDbEntity
  8
PV0001_8
  6
Continuous
 62
     7
 48
0.5
100
AcDbLine
 10
946.48046875
 20
1279.425476074208
 30
0.0
 11
946.48046875
 21
1258.095275878898
 31
0.0
1001
DEKIMAS
1000
実線（中）
1040
0.25
1001
DIMEXPLODE
1070
     0
  0
LINE
  5
B70
330
1F
100
AcDbEntity
  8
PV0001_8
  6
Continuous
 62
     7
 48
0.5
100
AcDbLine
 10
933.98046875
 20
1257.425476074208
 30
0.0
 11
933.98046875
 21
1256.425476074208
 31
0.0
1001
DEKIMAS
1000
実線（中）
1040
0.25
1001
DIMEXPLODE
1070
     0
  0
LINE
  5
B71
330
1F
100
AcDbEntity
  8
PV0001_8
  6
Continuous
 62
     7
 48
0.5
100
AcDbLine
 10
806.319488525391
 20
1258.095275878898
 30
0.0
 11
806.319488525391
 21
1284.425354003898
 31
0.0
1001
DEKIMAS
1000
実線（中）
1040
0.25
1001
DIMEXPLODE
1070
     0
  0
LINE
  5
B72
330
1F
100
AcDbEntity
  8
PV0001_8
  6
Continuous
 62
     7
100
AcDbLine
 10
812.4913330078129
 20
1258.095275878898
 30
0.0
 11
812.4913330078129
 21
1289.425415039058
 31
0.0
1001
DEKIMAS
1000
実線（中）
1040
0.25
1001
DIMEXPLODE
1070
     0
  0
LINE
  5
B73
330
1F
100
AcDbEntity
  8
PV0001_8
  6
Continuous
 62
     7
 48
0.5
100
AcDbLine
 10
803.09716796875
 20
1258.095275878898
 30
0.0
 11
803.09716796875
 21
1284.425354003898
 31
0.0
1001
DEKIMAS
1000
実線（中）
1040
0.25
1001
DIMEXPLODE
1070
     0
  0
LINE
  5
B74
330
1F
100
AcDbEntity
  8
PV0001_8
  6
Continuous
 62
     7
100
AcDbLine
 10
803.09716796875
 20
1262.425476074208
 30
0.0
 11
766.48046875
 21
1262.425476074208
 31
0.0
1001
DEKIMAS
1000
実線（中）
1040
0.25
1001
DIMEXPLODE
1070
     0
  0
LINE
  5
B75
330
1F
100
AcDbEntity
  8
PV0001_8
  6
Continuous
 62
     7
100
AcDbLine
 10
803.09716796875
 20
1259.595275878898
 30
0.0
 11
761.4805297851569
 21
1259.595275878898
 31
0.0
1001
DEKIMAS
1000
実線（中）
1040
0.25
1001
DIMEXPLODE
1070
     0
  0
LINE
  5
B76
330
1F
100
AcDbEntity
  8
PV0001_8
  6
Continuous
 62
     7
100
AcDbLine
 10
890.469604492187
 20
1258.095275878898
 30
0.0
 11
890.469604492187
 21
1289.425415039058
 31
0.0
1001
DEKIMAS
1000
実線（中）
1040
0.25
1001
DIMEXPLODE
1070
     0
  0
LINE
  5
B77
330
1F
100
AcDbEntity
  8
PV0001_8
  6
Continuous
 62
     7
 48
0.5
100
AcDbLine
 10
896.6414489746091
 20
1258.095275878898
 30
0.0
 11
896.6414489746091
 21
1284.425354003898
 31
0.0
1001
DEKIMAS
1000
実線（中）
1040
0.25
1001
DIMEXPLODE
1070
     0
  0
LINE
  5
B78
330
1F
100
AcDbEntity
  8
PV0001_8
  6
Continuous
 62
     7
 48
0.5
100
AcDbLine
 10
899.8637695312499
 20
1258.095275878898
 30
0.0
 11
899.8637695312499
 21
1284.425354003898
 31
0.0
1001
DEKIMAS
1000
実線（中）
1040
0.25
1001
DIMEXPLODE
1070
     0
  0
LINE
  5
B79
330
1F
100
AcDbEntity
  8
PV0001_8
  6
Continuous
 62
     7
100
AcDbLine
 10
899.8637695312499
 20
1262.425476074208
 30
0.0
 11
936.4804687499999
 21
1262.425476074208
 31
0.0
1001
DEKIMAS
1000
実線（中）
1040
0.25
1001
DIMEXPLODE
1070
     0
  0
LINE
  5
B7A
330
1F
100
AcDbEntity
  8
PV0001_8
  6
Continuous
 62
     7
100
AcDbLine
 10
899.8637695312499
 20
1259.595275878898
 30
0.0
 11
941.480422973632
 21
1259.595275878898
 31
0.0
1001
DEKIMAS
1000
実線（中）
1040
0.25
1001
DIMEXPLODE
1070
     0
  0
LINE
  5
B7B
330
1F
100
AcDbEntity
  8
PV0001_8
  6
Continuous
 62
     7
100
AcDbLine
 10
1009.67799377441
 20
414.4255981445286
 30
0.0
 11
1009.67799377441
 21
484.425598144528
 31
0.0
1001
DEKIMAS
1000
実線（中）
1040
0.25
1001
DIMEXPLODE
1070
     0
  0
LINE
  5
B7C
330
1F
100
AcDbEntity
  8
PV0001_8
  6
Continuous
 62
     7
100
AcDbLine
 10
1098.96780395507
 20
414.4255981445282
 30
0.0
 11
1098.96780395507
 21
484.425598144528
 31
0.0
1001
DEKIMAS
1000
実線（中）
1040
0.25
1001
DIMEXPLODE
1070
     0
  0
LINE
  5
B7D
330
1F
100
AcDbEntity
  8
PV0001_8
  6
Continuous
 62
     7
100
AcDbLine
 10
1014.11491394042
 20
414.4255981445286
 30
0.0
 11
1014.11491394042
 21
484.425598144528
 31
0.0
1001
DEKIMAS
1000
実線（中）
1040
0.25
1001
DIMEXPLODE
1070
     0
  0
LINE
  5
B7E
330
1F
100
AcDbEntity
  8
PV0001_8
  6
CENTER2
 62
     1
100
AcDbLine
 10
995.56747436523
 20
484.425598144527
 30
0.0
 11
1108.43594360351
 21
484.425598144528
 31
0.0
1001
DEKIMAS
1000
一点鎖線（細）
1040
0.15
1001
DIMEXPLODE
1070
     0
  0
LINE
  5
B7F
330
1F
100
AcDbEntity
  8
PV0001_8
  6
CENTER2
 62
     1
100
AcDbLine
 10
1056.54125976562
 20
370.063568115232
 30
0.0
 11
1056.54125976562
 21
572.4653320312379
 31
0.0
1001
DEKIMAS
1000
一点鎖線（細）
1040
0.15
1001
DIMEXPLODE
1070
     0
  0
LINE
  5
B80
330
1F
100
AcDbEntity
  8
PV0001_8
  6
Continuous
 62
     7
 48
0.5
100
AcDbLine
 10
816.48046875
 20
1190.425598144528
 30
0.0
 11
836.4804687499999
 21
1190.425598144528
 31
0.0
1001
DEKIMAS
1000
実線（中）
1040
0.25
1001
DIMEXPLODE
1070
     0
  0
LINE
  5
B81
330
1F
100
AcDbEntity
  8
PV0001_8
  6
Continuous
 62
     7
 48
0.5
100
AcDbLine
 10
816.48046875
 20
1196.425598144528
 30
0.0
 11
836.4804687499999
 21
1196.425598144528
 31
0.0
1001
DEKIMAS
1000
実線（中）
1040
0.25
1001
DIMEXPLODE
1070
     0
  0
LINE
  5
B82
330
1F
100
AcDbEntity
  8
PV0001_8
  6
Continuous
 62
     7
 48
0.5
100
AcDbLine
 10
816.48046875
 20
1093.425537109368
 30
0.0
 11
836.4804687499999
 21
1093.425537109368
 31
0.0
1001
DEKIMAS
1000
実線（中）
1040
0.25
1001
DIMEXPLODE
1070
     0
  0
LINE
  5
B83
330
1F
100
AcDbEntity
  8
PV0001_8
  6
Continuous
 62
     7
 48
0.5
100
AcDbLine
 10
816.48046875
 20
1099.425537109368
 30
0.0
 11
836.4804687499999
 21
1099.425537109368
 31
0.0
1001
DEKIMAS
1000
実線（中）
1040
0.25
1001
DIMEXPLODE
1070
     0
  0
LINE
  5
B84
330
1F
100
AcDbEntity
  8
PV0001_8
  6
Continuous
 62
     7
 48
0.5
100
AcDbLine
 10
816.48046875
 20
1002.425476074208
 30
0.0
 11
836.4804687499999
 21
1002.425476074208
 31
0.0
1001
DEKIMAS
1000
実線（中）
1040
0.25
1001
DIMEXPLODE
1070
     0
  0
LINE
  5
B85
330
1F
100
AcDbEntity
  8
PV0001_8
  6
Continuous
 62
     7
 48
0.5
100
AcDbLine
 10
816.48046875
 20
996.4254760742081
 30
0.0
 11
836.4804687499999
 21
996.4254760742081
 31
0.0
1001
DEKIMAS
1000
実線（中）
1040
0.25
1001
DIMEXPLODE
1070
     0
  0
LINE
  5
B86
330
1F
100
AcDbEntity
  8
PV0001_8
  6
Continuous
 62
     7
 48
0.5
100
AcDbLine
 10
816.48046875
 20
905.425415039058
 30
0.0
 11
836.4804687499999
 21
905.425415039058
 31
0.0
1001
DEKIMAS
1000
実線（中）
1040
0.25
1001
DIMEXPLODE
1070
     0
  0
LINE
  5
B87
330
1F
100
AcDbEntity
  8
PV0001_8
  6
Continuous
 62
     7
 48
0.5
100
AcDbLine
 10
816.48046875
 20
899.4254150390579
 30
0.0
 11
836.4804687499999
 21
899.4254150390579
 31
0.0
1001
DEKIMAS
1000
実線（中）
1040
0.25
1001
DIMEXPLODE
1070
     0
  0
LINE
  5
B88
330
1F
100
AcDbEntity
  8
PV0001_8
  6
Continuous
 62
     7
 48
0.5
100
AcDbLine
 10
816.48046875
 20
802.425354003898
 30
0.0
 11
836.4804687499999
 21
802.425354003898
 31
0.0
1001
DEKIMAS
1000
実線（中）
1040
0.25
1001
DIMEXPLODE
1070
     0
  0
LINE
  5
B89
330
1F
100
AcDbEntity
  8
PV0001_8
  6
Continuous
 62
     7
 48
0.5
100
AcDbLine
 10
816.48046875
 20
808.4253540038981
 30
0.0
 11
836.4804687499999
 21
808.4253540038981
 31
0.0
1001
DEKIMAS
1000
実線（中）
1040
0.25
1001
DIMEXPLODE
1070
     0
  0
LINE
  5
B8A
330
1F
100
AcDbEntity
  8
PV0001_8
  6
Continuous
 62
     7
 48
0.5
100
AcDbLine
 10
816.48046875
 20
711.4252929687379
 30
0.0
 11
836.4804687499999
 21
711.4252929687379
 31
0.0
1001
DEKIMAS
1000
実線（中）
1040
0.25
1001
DIMEXPLODE
1070
     0
  0
LINE
  5
B8B
330
1F
100
AcDbEntity
  8
PV0001_8
  6
Continuous
 62
     7
 48
0.5
100
AcDbLine
 10
816.48046875
 20
705.4252929687379
 30
0.0
 11
836.4804687499999
 21
705.4252929687379
 31
0.0
1001
DEKIMAS
1000
実線（中）
1040
0.25
1001
DIMEXPLODE
1070
     0
  0
LINE
  5
B8C
330
1F
100
AcDbEntity
  8
PV0001_8
  6
Continuous
 62
     7
 48
0.5
100
AcDbLine
 10
816.48046875
 20
608.425231933588
 30
0.0
 11
836.4804687499999
 21
608.425231933588
 31
0.0
1001
DEKIMAS
1000
実線（中）
1040
0.25
1001
DIMEXPLODE
1070
     0
  0
LINE
  5
B8D
330
1F
100
AcDbEntity
  8
PV0001_8
  6
Continuous
 62
     7
 48
0.5
100
AcDbLine
 10
816.48046875
 20
614.4252319335881
 30
0.0
 11
836.4804687499999
 21
614.4252319335881
 31
0.0
1001
DEKIMAS
1000
実線（中）
1040
0.25
1001
DIMEXPLODE
1070
     0
  0
LINE
  5
B8E
330
1F
100
AcDbEntity
  8
PV0001_8
  6
Continuous
 62
     7
 48
0.5
100
AcDbLine
 10
816.48046875
 20
511.425170898434
 30
0.0
 11
836.4804687499999
 21
511.425170898434
 31
0.0
1001
DEKIMAS
1000
実線（中）
1040
0.25
1001
DIMEXPLODE
1070
     0
  0
LINE
  5
B8F
330
1F
100
AcDbEntity
  8
PV0001_8
  6
Continuous
 62
     7
 48
0.5
100
AcDbLine
 10
816.48046875
 20
517.4251708984279
 30
0.0
 11
836.4804687499999
 21
517.4251708984279
 31
0.0
1001
DEKIMAS
1000
実線（中）
1040
0.25
1001
DIMEXPLODE
1070
     0
  0
LINE
  5
B90
330
1F
100
AcDbEntity
  8
PV0001_8
  6
Continuous
 62
     7
100
AcDbLine
 10
889.5629256338359
 20
1294.425598144528
 30
0.0
 11
1126.48046875
 21
1294.425598144528
 31
0.0
1001
DEKIMAS
1000
実線（中）
1040
0.25
1001
DIMEXPLODE
1070
     0
  0
ARC
  5
B91
330
1F
100
AcDbEntity
  8
PV0001_8
  6
Continuous
 62
     7
 48
0.5
100
AcDbCircle
 10
576.4804687499999
 20
1279.425598144528
 30
0.0
 40
15.0
100
AcDbArc
 50
89.99998201391422
 51
179.9999640278186
1001
DEKIMAS
1000
実線（中）
1040
0.25
1001
DIMEXPLODE
1070
     0
  0
ARC
  5
B92
330
1F
100
AcDbEntity
  8
PV0001_8
  6
Continuous
 62
     7
 48
0.5
100
AcDbCircle
 10
576.4804687499999
 20
429.425598144528
 30
0.0
 40
15.0
100
AcDbArc
 50
179.9999776882002
 51
270.0000280039997
1001
DEKIMAS
1000
実線（中）
1040
0.25
1001
DIMEXPLODE
1070
     0
  0
ARC
  5
B93
330
1F
100
AcDbEntity
  8
PV0001_8
  6
Continuous
 62
     7
 48
0.5
100
AcDbCircle
 10
1126.48046875
 20
429.425598144528
 30
0.0
 40
15.0
100
AcDbArc
 50
270.0000179860857
 51
0.0
1001
DEKIMAS
1000
実線（中）
1040
0.25
1001
DIMEXPLODE
1070
     0
  0
ARC
  5
B94
330
1F
100
AcDbEntity
  8
PV0001_8
  6
Continuous
 62
     7
 48
0.5
100
AcDbCircle
 10
1126.48046875
 20
1279.425598144528
 30
0.0
 40
15.0
100
AcDbArc
 50
0.0
 51
89.99998201391422
1001
DEKIMAS
1000
実線（中）
1040
0.25
1001
DIMEXPLODE
1070
     0
  0
ARC
  5
B95
330
1F
100
AcDbEntity
  8
PV0001_8
  6
HIDDEN2
 62
     4
100
AcDbCircle
 10
851.4804687499999
 20
-2143.074401855472
 30
0.0
 40
2562.5
100
AcDbArc
 50
86.42017741706856
 51
93.57984808245253
1001
DEKIMAS
1000
破線（細）
1040
0.15
1001
DIMEXPLODE
1070
     0
  0
ARC
  5
B96
330
1F
100
AcDbEntity
  8
PV0001_8
  6
HIDDEN2
 62
     4
100
AcDbCircle
 10
1156.42816162109
 20
1162.138977050778
 30
0.0
 40
50.000003814697
100
AcDbArc
 50
177.3788242923155
 51
252.6051754333802
1001
DEKIMAS
1000
破線（細）
1040
0.15
1001
DIMEXPLODE
1070
     0
  0
ARC
  5
B97
330
1F
100
AcDbEntity
  8
PV0001_8
  6
HIDDEN2
 62
     4
100
AcDbCircle
 10
546.53277587891
 20
1162.138977050778
 30
0.0
 40
50.000003814697
100
AcDbArc
 50
287.3947885944417
 51
2.621139735503612
1001
DEKIMAS
1000
破線（細）
1040
0.15
1001
DIMEXPLODE
1070
     0
  0
ARC
  5
B98
330
1F
100
AcDbEntity
  8
PV0001_8
  6
Continuous
 62
     7
 48
0.5
100
AcDbCircle
 10
935.98046875
 20
1256.425537109368
 30
0.0
 40
1.999999880790699
100
AcDbArc
 50
179.9999640278186
 51
269.9999460417296
1001
DEKIMAS
1000
実線（中）
1040
0.25
1001
DIMEXPLODE
1070
     0
  0
ARC
  5
B99
330
1F
100
AcDbEntity
  8
PV0001_8
  6
Continuous
 62
     7
 48
0.5
100
AcDbCircle
 10
933.48046875
 20
1286.425537109368
 30
0.0
 40
2.999999761581399
100
AcDbArc
 50
0.0
 51
89.99998201391422
1001
DEKIMAS
1000
実線（中）
1040
0.25
1001
DIMEXPLODE
1070
     0
  0
ARC
  5
B9A
330
1F
100
AcDbEntity
  8
PV0001_8
  6
Continuous
 62
     7
 48
0.5
100
AcDbCircle
 10
769.48046875
 20
1286.425537109368
 30
0.0
 40
2.999999761581399
100
AcDbArc
 50
89.99998201391422
 51
179.9999640278186
1001
DEKIMAS
1000
実線（中）
1040
0.25
1001
DIMEXPLODE
1070
     0
  0
ARC
  5
B9B
330
1F
100
AcDbEntity
  8
PV0001_8
  6
Continuous
 62
     7
 48
0.5
100
AcDbCircle
 10
936.4804687499999
 20
1279.425476074208
 30
0.0
 40
10.0
100
AcDbArc
 50
0.0
 51
89.99998201391422
1001
DEKIMAS
1000
実線（中）
1040
0.25
1001
DIMEXPLODE
1070
     0
  0
ARC
  5
B9C
330
1F
100
AcDbEntity
  8
PV0001_8
  6
Continuous
 62
     7
 48
0.5
100
AcDbCircle
 10
813.4561157226569
 20
1281.925537109368
 30
0.0
 40
7.5618438720703
100
AcDbArc
 50
97.33018201230462
 51
160.6948714708887
1001
DEKIMAS
1000
実線（中）
1040
0.25
1001
DIMEXPLODE
1070
     0
  0
ARC
  5
B9D
330
1F
100
AcDbEntity
  8
PV0001_8
  6
Continuous
 62
     7
 48
0.5
100
AcDbCircle
 10
892.5054168701169
 20
1281.925537109368
 30
0.0
 40
7.771439552307099
100
AcDbArc
 50
18.76467432942517
 51
74.81210699809351
1001
DEKIMAS
1000
実線（中）
1040
0.25
1001
DIMEXPLODE
1070
     0
  0
ARC
  5
B9E
330
1F
100
AcDbEntity
  8
PV0001_8
  6
Continuous
 62
     7
 48
0.5
100
AcDbCircle
 10
766.48046875
 20
1279.425476074208
 30
0.0
 40
10.0
100
AcDbArc
 50
89.99998201391422
 51
179.9999640278186
1001
DEKIMAS
1000
実線（中）
1040
0.25
1001
DIMEXPLODE
1070
     0
  0
ARC
  5
B9F
330
1F
100
AcDbEntity
  8
PV0001_8
  6
Continuous
 62
     7
 48
0.5
100
AcDbCircle
 10
766.98046875
 20
1256.425537109368
 30
0.0
 40
1.999999880790699
100
AcDbArc
 50
270.0000179860857
 51
0.0
1001
DEKIMAS
1000
実線（中）
1040
0.25
1001
DIMEXPLODE
1070
     0
  0
ARC
  5
BA0
330
1F
100
AcDbEntity
  8
PV0001_8
  6
Continuous
 62
     7
 48
0.5
100
AcDbCircle
 10
889.5048065185539
 20
1281.925537109368
 30
0.0
 40
7.5618438720703
100
AcDbArc
 50
19.30509255693981
 51
82.66978201551486
1001
DEKIMAS
1000
実線（中）
1040
0.25
1001
DIMEXPLODE
1070
     0
  0
ARC
  5
BA1
330
1F
100
AcDbEntity
  8
PV0001_8
  6
Continuous
 62
     7
 48
0.5
100
AcDbCircle
 10
810.4555053710939
 20
1281.925537109368
 30
0.0
 40
7.771439552307099
100
AcDbArc
 50
105.1878570297263
 51
161.2352896983956
1001
DEKIMAS
1000
実線（中）
1040
0.25
1001
DIMEXPLODE
1070
     0
  0
ARC
  5
BA2
330
1F
100
AcDbEntity
  8
PV0001_8
  6
Continuous
 62
     7
 48
0.5
100
AcDbCircle
 10
967.5765686035099
 20
1259.425537109368
 30
0.0
 40
5.0
100
AcDbArc
 50
270.0000179860857
 51
345.963438746153
1001
DEKIMAS
1000
実線（中）
1040
0.25
1001
DIMEXPLODE
1070
     0
  0
ARC
  5
BA3
330
1F
100
AcDbEntity
  8
PV0001_8
  6
Continuous
 62
     7
 48
0.5
100
AcDbCircle
 10
985.3843536376899
 20
1289.425659179678
 30
0.0
 40
5.0
100
AcDbArc
 50
89.99998201391422
 51
165.9634608305834
1001
DEKIMAS
1000
実線（中）
1040
0.25
1001
DIMEXPLODE
1070
     0
  0
ARC
  5
BA4
330
1F
100
AcDbEntity
  8
PV0001_8
  6
Continuous
 62
     7
 48
0.5
100
AcDbCircle
 10
717.5765991211
 20
1289.425659179678
 30
0.0
 40
5.0
100
AcDbArc
 50
14.03656125384705
 51
89.99998201391422
1001
DEKIMAS
1000
実線（中）
1040
0.25
1001
DIMEXPLODE
1070
     0
  0
ARC
  5
BA5
330
1F
100
AcDbEntity
  8
PV0001_8
  6
Continuous
 62
     7
 48
0.5
100
AcDbCircle
 10
735.38436889649
 20
1259.425537109368
 30
0.0
 40
5.0
100
AcDbArc
 50
194.0365391694166
 51
270.0000179860857
1001
DEKIMAS
1000
実線（中）
1040
0.25
1001
DIMEXPLODE
1070
     0
  0
ARC
  5
BA6
330
1F
100
AcDbEntity
  8
PV0001_8
  6
Continuous
 62
     7
 48
0.5
100
AcDbCircle
 10
816.48046875
 20
1193.425659179678
 30
0.0
 40
3.0
100
AcDbArc
 50
89.63451908199372
 51
270.000000683243
1001
DEKIMAS
1000
実線（中）
1040
0.25
1001
DIMEXPLODE
1070
     0
  0
ARC
  5
BA7
330
1F
100
AcDbEntity
  8
PV0001_8
  6
Continuous
 62
     7
 48
0.5
100
AcDbCircle
 10
836.4804687499999
 20
1193.425659179678
 30
0.0
 40
3.0
100
AcDbArc
 50
269.9999974955182
 51
90.36548592696744
1001
DEKIMAS
1000
実線（中）
1040
0.25
1001
DIMEXPLODE
1070
     0
  0
ARC
  5
BA8
330
1F
100
AcDbEntity
  8
PV0001_8
  6
Continuous
 62
     7
 48
0.5
100
AcDbCircle
 10
816.48046875
 20
1096.425598144528
 30
0.0
 40
3.0
100
AcDbArc
 50
89.63451908199372
 51
270.000000683243
1001
DEKIMAS
1000
実線（中）
1040
0.25
1001
DIMEXPLODE
1070
     0
  0
ARC
  5
BA9
330
1F
100
AcDbEntity
  8
PV0001_8
  6
Continuous
 62
     7
 48
0.5
100
AcDbCircle
 10
836.4804687499999
 20
1096.425598144528
 30
0.0
 40
3.0
100
AcDbArc
 50
269.9999974955182
 51
90.36548592696744
1001
DEKIMAS
1000
実線（中）
1040
0.25
1001
DIMEXPLODE
1070
     0
  0
ARC
  5
BAA
330
1F
100
AcDbEntity
  8
PV0001_8
  6
Continuous
 62
     7
 48
0.5
100
AcDbCircle
 10
836.4804687499999
 20
999.4255371093679
 30
0.0
 40
3.0
100
AcDbArc
 50
269.9999974955182
 51
90.36548592696744
1001
DEKIMAS
1000
実線（中）
1040
0.25
1001
DIMEXPLODE
1070
     0
  0
ARC
  5
BAB
330
1F
100
AcDbEntity
  8
PV0001_8
  6
Continuous
 62
     7
 48
0.5
100
AcDbCircle
 10
816.48046875
 20
999.4255371093679
 30
0.0
 40
3.0
100
AcDbArc
 50
89.63451908199372
 51
270.000000683243
1001
DEKIMAS
1000
実線（中）
1040
0.25
1001
DIMEXPLODE
1070
     0
  0
ARC
  5
BAC
330
1F
100
AcDbEntity
  8
PV0001_8
  6
Continuous
 62
     7
 48
0.5
100
AcDbCircle
 10
816.48046875
 20
902.4254760742079
 30
0.0
 40
3.0
100
AcDbArc
 50
89.63451908199372
 51
270.000000683243
1001
DEKIMAS
1000
実線（中）
1040
0.25
1001
DIMEXPLODE
1070
     0
  0
ARC
  5
BAD
330
1F
100
AcDbEntity
  8
PV0001_8
  6
Continuous
 62
     7
 48
0.5
100
AcDbCircle
 10
836.4804687499999
 20
902.4254760742079
 30
0.0
 40
3.0
100
AcDbArc
 50
269.9999974955182
 51
90.36548592696744
1001
DEKIMAS
1000
実線（中）
1040
0.25
1001
DIMEXPLODE
1070
     0
  0
ARC
  5
BAE
330
1F
100
AcDbEntity
  8
PV0001_8
  6
Continuous
 62
     7
 48
0.5
100
AcDbCircle
 10
836.4804687499999
 20
805.425415039058
 30
0.0
 40
3.0
100
AcDbArc
 50
269.9999974955182
 51
90.36548592696744
1001
DEKIMAS
1000
実線（中）
1040
0.25
1001
DIMEXPLODE
1070
     0
  0
ARC
  5
BAF
330
1F
100
AcDbEntity
  8
PV0001_8
  6
Continuous
 62
     7
 48
0.5
100
AcDbCircle
 10
816.48046875
 20
805.425415039058
 30
0.0
 40
3.0
100
AcDbArc
 50
89.63451908199372
 51
270.000000683243
1001
DEKIMAS
1000
実線（中）
1040
0.25
1001
DIMEXPLODE
1070
     0
  0
ARC
  5
BB0
330
1F
100
AcDbEntity
  8
PV0001_8
  6
Continuous
 62
     7
 48
0.5
100
AcDbCircle
 10
816.48046875
 20
708.4253540038981
 30
0.0
 40
3.0
100
AcDbArc
 50
89.63451908199372
 51
270.000000683243
1001
DEKIMAS
1000
実線（中）
1040
0.25
1001
DIMEXPLODE
1070
     0
  0
ARC
  5
BB1
330
1F
100
AcDbEntity
  8
PV0001_8
  6
Continuous
 62
     7
 48
0.5
100
AcDbCircle
 10
836.4804687499999
 20
708.4253540038981
 30
0.0
 40
3.0
100
AcDbArc
 50
269.9999974955182
 51
90.36548592696744
1001
DEKIMAS
1000
実線（中）
1040
0.25
1001
DIMEXPLODE
1070
     0
  0
ARC
  5
BB2
330
1F
100
AcDbEntity
  8
PV0001_8
  6
Continuous
 62
     7
 48
0.5
100
AcDbCircle
 10
816.48046875
 20
611.4252929687379
 30
0.0
 40
3.0
100
AcDbArc
 50
89.63451908199372
 51
270.000000683243
1001
DEKIMAS
1000
実線（中）
1040
0.25
1001
DIMEXPLODE
1070
     0
  0
ARC
  5
BB3
330
1F
100
AcDbEntity
  8
PV0001_8
  6
Continuous
 62
     7
 48
0.5
100
AcDbCircle
 10
836.4804687499999
 20
611.4252929687379
 30
0.0
 40
3.0
100
AcDbArc
 50
269.9999974955182
 51
90.36548592696744
1001
DEKIMAS
1000
実線（中）
1040
0.25
1001
DIMEXPLODE
1070
     0
  0
ARC
  5
BB4
330
1F
100
AcDbEntity
  8
PV0001_8
  6
Continuous
 62
     7
 48
0.5
100
AcDbCircle
 10
816.48046875
 20
514.4252319335899
 30
0.0
 40
3.0
100
AcDbArc
 50
89.63451908199372
 51
270.000000683243
1001
DEKIMAS
1000
実線（中）
1040
0.25
1001
DIMEXPLODE
1070
     0
  0
ARC
  5
BB5
330
1F
100
AcDbEntity
  8
PV0001_8
  6
Continuous
 62
     7
 48
0.5
100
AcDbCircle
 10
836.4804687499999
 20
514.4252319335899
 30
0.0
 40
3.0
100
AcDbArc
 50
269.9999974955182
 51
90.36548592696744
1001
DEKIMAS
1000
実線（中）
1040
0.25
1001
DIMEXPLODE
1070
     0
  0
ARC
  5
BB6
330
1F
100
AcDbEntity
  8
PV0001_8
  6
Continuous
 62
     7
100
AcDbCircle
 10
851.4804687499999
 20
932.857217567218
 30
0.0
 40
363.5683805773
100
AcDbArc
 50
78.73853787273107
 51
101.2614621272689
1001
DEKIMAS
1000
実線（中）
1040
0.25
1001
DIMEXPLODE
1070
     0
  0
ELLIPSE
  5
BB7
330
1F
100
AcDbEntity
  8
PV0001_8
  6
Continuous
 62
     7
100
AcDbEllipse
 10
1052.1043395996
 20
484.425599098202
 30
0.0
 11
0.0
 21
-60.0001834077523
 31
0.0
210
0.0
220
0.0
230
1.0
 40
0.7071068675371
 41
3.089279281896359
 42
4.712388996279186
1001
DEKIMAS
1000
実線（中）
1040
0.25
  0
ELLIPSE
  5
BB8
330
1F
100
AcDbEntity
  8
PV0001_8
  6
Continuous
 62
     7
100
AcDbEllipse
 10
1056.54125976562
 20
484.425599098202
 30
0.0
 11
0.0
 21
-60.0001834077523
 31
0.0
210
0.0
220
0.0
230
1.0
 40
0.7071068675371
 41
1.570796310900409
 42
4.712388996279186
1001
DEKIMAS
1000
実線（中）
1040
0.25
  0
MTEXT
  5
BB9
330
1F
100
AcDbEntity
  8
PV0001_8
  6
Continuous
 62
     4
100
AcDbMText
 10
870.3296723365783
 20
1097.689147949208
 30
0.0
 40
25.6
 41
0.0
 71
     4
 72
     5
  1
\T1.40;\W0.60;１７５
  7
STD
 73
     1
 44
1.0
1001
DEKIMAS
1040
0.15
1001
ACAD
1000
MTEXTBEGIN
1070
    73
1070
     1
1070
    44
1040
1.0
1070
    74
1070
     0
1000
MTEXTEND
  0
MTEXT
  5
BBA
330
1F
100
AcDbEntity
  8
PV0001_8
  6
Continuous
 62
     4
100
AcDbMText
 10
870.3296723365783
 20
1194.689147949208
 30
0.0
 40
25.6
 41
0.0
 71
     4
 72
     5
  1
\T1.40;\W0.60;２００
  7
STD
 73
     1
 44
1.0
1001
DEKIMAS
1040
0.15
1001
ACAD
1000
MTEXTBEGIN
1070
    73
1070
     1
1070
    44
1040
1.0
1070
    74
1070
     0
1000
MTEXTEND
  0
MTEXT
  5
BBB
330
1F
100
AcDbEntity
  8
PV0001_8
  6
Continuous
 62
     4
100
AcDbMText
 10
895.9296784400933
 20
515.6891250610279
 30
0.0
 40
25.6
 41
0.0
 71
     4
 72
     5
  1
\T1.40;\W0.60;２５
  7
STD
 73
     1
 44
1.0
1001
DEKIMAS
1040
0.15
1001
ACAD
1000
MTEXTBEGIN
1070
    73
1070
     1
1070
    44
1040
1.0
1070
    74
1070
     0
1000
MTEXTEND
  0
MTEXT
  5
BBC
330
1F
100
AcDbEntity
  8
PV0001_8
  6
Continuous
 62
     4
100
AcDbMText
 10
895.9296784400933
 20
612.6891326904179
 30
0.0
 40
25.6
 41
0.0
 71
     4
 72
     5
  1
\T1.40;\W0.60;５０
  7
STD
 73
     1
 44
1.0
1001
DEKIMAS
1040
0.15
1001
ACAD
1000
MTEXTBEGIN
1070
    73
1070
     1
1070
    44
1040
1.0
1070
    74
1070
     0
1000
MTEXTEND
  0
MTEXT
  5
BBD
330
1F
100
AcDbEntity
  8
PV0001_8
  6
Continuous
 62
     4
100
AcDbMText
 10
895.9296784400933
 20
709.6891174316279
 30
0.0
 40
25.6
 41
0.0
 71
     4
 72
     5
  1
\T1.40;\W0.60;７５
  7
STD
 73
     1
 44
1.0
1001
DEKIMAS
1040
0.15
1001
ACAD
1000
MTEXTBEGIN
1070
    73
1070
     1
1070
    44
1040
1.0
1070
    74
1070
     0
1000
MTEXTEND
  0
MTEXT
  5
BBE
330
1F
100
AcDbEntity
  8
PV0001_8
  6
Continuous
 62
     4
100
AcDbMText
 10
870.3296723365783
 20
806.6891479492081
 30
0.0
 40
25.6
 41
0.0
 71
     4
 72
     5
  1
\T1.40;\W0.60;１００
  7
STD
 73
     1
 44
1.0
1001
DEKIMAS
1040
0.15
1001
ACAD
1000
MTEXTBEGIN
1070
    73
1070
     1
1070
    44
1040
1.0
1070
    74
1070
     0
1000
MTEXTEND
  0
MTEXT
  5
BBF
330
1F
100
AcDbEntity
  8
PV0001_8
  6
Continuous
 62
     4
100
AcDbMText
 10
870.3296723365783
 20
903.6891174316279
 30
0.0
 40
25.6
 41
0.0
 71
     4
 72
     5
  1
\T1.40;\W0.60;１２５
  7
STD
 73
     1
 44
1.0
1001
DEKIMAS
1040
0.15
1001
ACAD
1000
MTEXTBEGIN
1070
    73
1070
     1
1070
    44
1040
1.0
1070
    74
1070
     0
1000
MTEXTEND
  0
MTEXT
  5
BC0
330
1F
100
AcDbEntity
  8
PV0001_8
  6
Continuous
 62
     4
100
AcDbMText
 10
870.3296723365783
 20
1000.689147949208
 30
0.0
 40
25.6
 41
0.0
 71
     4
 72
     5
  1
\T1.40;\W0.60;１５０
  7
STD
 73
     1
 44
1.0
1001
DEKIMAS
1040
0.15
1001
ACAD
1000
MTEXTBEGIN
1070
    73
1070
     1
1070
    44
1040
1.0
1070
    74
1070
     0
1000
MTEXTEND
  0
MTEXT
  5
BC1
330
1F
100
AcDbEntity
  8
画層1
  6
Continuous
 62
     4
100
AcDbMText
 10
470.1571981951799
 20
795.4670106565693
 30
0.0
 40
20.0
 41
0.0
 71
     4
 72
     5
  1
\T1.40;\W0.60;３
  7
STD
 11
-0.0000000000000035
 21
1.0
 31
0.0
 73
     1
 44
1.0
1001
DEKIMAS
1040
0.15
1001
ACAD
1000
MTEXTBEGIN
1070
    73
1070
     1
1070
    44
1040
1.0
1070
    74
1070
     0
1000
MTEXTEND
  0
LWPOLYLINE
  5
BC2
330
1F
100
AcDbEntity
  8
画層1
  6
Continuous
 62
     4
100
AcDbPolyline
 90
        4
 70
     0
 43
0.0
 10
484.23662999976
 20
779.546969192178
 10
484.2366299997597
 20
819.5469691921781
 10
449.5956138797598
 20
799.5469691921779
 10
484.23662999976
 20
779.546969192178
1001
DEKIMAS
1000
実線（中）
1040
0.25
  0
DIMENSION
  5
DBD
330
1F
100
AcDbEntity
  8
TP1791_8
  6
Continuous
 62
     7
100
AcDbDimension
  2
*D13
 10
971.4844511380636
 20
1405.987548778903
 30
0.0
 11
854.5811918607162
 21
1405.987548826855
 31
0.0
 70
   160
  1
<>
 71
     5
 42
239.99998474121
  3
ASKSTANDARD
100
AcDbAlignedDimension
 13
731.4844664580316
 23
1555.13604741251
 33
0.0
 14
971.4844511992417
 24
1555.136047314061
 34
0.0
 50
179.9999999764983
100
AcDbRotatedDimension
1001
ACAD
1000
DSTYLE
1002
{
1070
    44
1040
2.28599548339875
1070
    40
1040
8.0
1070
   284
1070
     8
1070
   140
1040
3.0
1070
   271
1070
     0
1070
   173
1070
     1
1070
   343
1005
71F
1070
   344
1005
71F
1002
}
  0
DIMENSION
  5
E00
330
1F
100
AcDbEntity
  8
TP1791_8
  6
Continuous
 62
     7
100
AcDbDimension
  2
*D14
 10
981.484451119093
 20
1359.737792915431
 30
0.0
 11
853.724716011666
 21
1359.737792967836
 31
0.0
 70
   160
  1
<>
 71
     5
 42
259.99998474121
  3
ASKSTANDARD
100
AcDbAlignedDimension
 13
721.4844664606442
 23
1561.504699760362
 33
0.0
 14
981.4844512018542
 24
1561.504699653708
 34
0.0
 50
179.9999999764983
100
AcDbRotatedDimension
1001
ACAD
1000
DSTYLE
1002
{
1070
    44
1040
2.28600311279375
1070
    40
1040
8.0
1070
   284
1070
     8
1070
   140
1040
3.0
1070
   271
1070
     0
1070
   173
1070
     1
1070
   343
1005
71F
1070
   344
1005
71F
1002
}
  0
DIMENSION
  5
E43
330
1F
100
AcDbEntity
  8
TP1791_8
  6
Continuous
 62
     7
100
AcDbDimension
  2
*D15
 10
1298.486343354747
 20
1786.004089215995
 30
0.0
 11
1298.486343354747
 21
1715.213805968977
 31
0.0
 70
   160
  1
<>
 71
     5
 42
139.9999999229521
  3
ASKSTANDARD
100
AcDbAlignedDimension
 13
1003.657363834166
 23
1646.004089293043
 33
0.0
 14
1191.484329223625
 24
1786.004089215995
 34
0.0
 50
269.9999999764983
100
AcDbRotatedDimension
1001
ACAD
1000
DSTYLE
1002
{
1070
    44
1040
2.285999298094999
1070
    40
1040
8.0
1070
   284
1070
     8
1070
   140
1040
3.0
1070
   271
1070
     0
1070
   173
1070
     1
1070
   343
1005
71F
1070
   344
1005
71F
1002
}
  0
DIMENSION
  5
E86
330
1F
100
AcDbEntity
  8
TP1791_8
  6
Continuous
 62
     7
100
AcDbDimension
  2
*D16
 10
1367.573211638204
 20
1786.004089215995
 30
0.0
 11
1367.573211638203
 21
1708.696227815637
 31
0.0
 70
   160
  1
<>
 71
     5
 42
159.9998778311681
  3
ASKSTANDARD
100
AcDbAlignedDimension
 13
951.3323516189373
 23
1626.004211384827
 33
0.0
 14
1191.484329223625
 24
1786.004089215995
 34
0.0
 50
269.9999999764983
100
AcDbRotatedDimension
1001
ACAD
1000
DSTYLE
1002
{
1070
    44
1040
2.285999298096257
1070
    40
1040
8.0
1070
   284
1070
     8
1070
   140
1040
3.0
1070
   271
1070
     0
1070
   173
1070
     1
1070
   343
1005
71F
1070
   344
1005
71F
1002
}
  0
DIMENSION
  5
EC9
330
1F
100
AcDbEntity
  8
TP1791_8
  6
Continuous
 62
     7
100
AcDbDimension
  2
*D17
 10
421.8184814453156
 20
1831.004089472985
 30
0.0
 11
421.8184814453153
 21
1786.004089531718
 31
0.0
 70
   160
  1
<>
 71
     5
 42
90.0
  3
ASKSTANDARD
100
AcDbAlignedDimension
 13
564.997131329206
 23
1741.004089472984
 33
0.0
 14
564.9971313661247
 24
1831.004089472984
 34
0.0
 50
269.9999999764983
100
AcDbRotatedDimension
1001
ACAD
1000
DSTYLE
1002
{
1070
    44
1040
2.286003112792499
1070
    40
1040
8.0
1070
   284
1070
     8
1070
   140
1040
3.0
1070
   271
1070
     0
1070
   173
1070
     1
1070
   343
1005
71F
1070
   344
1005
71F
1002
}
  0
DIMENSION
  5
F0C
330
1F
100
AcDbEntity
  8
TP1791_8
  6
Continuous
 62
     7
100
AcDbDimension
  2
*D18
 10
477.7268676757856
 20
1746.004089460068
 30
0.0
 11
477.7268676757853
 21
1786.004089508783
 31
0.0
 70
   160
  1
<>
 71
     5
 42
80.0
  3
ASKSTANDARD
100
AcDbAlignedDimension
 13
596.4844665691436
 23
1826.004089460068
 33
0.0
 14
596.4844665363271
 24
1746.004089460068
 34
0.0
 50
269.9999999764983
100
AcDbRotatedDimension
1001
ACAD
1000
DSTYLE
1002
{
1070
    44
1040
2.286003112792499
1070
    40
1040
8.0
1070
   284
1070
     8
1070
   140
1040
3.0
1070
   271
1070
     0
1070
   173
1070
     1
1070
   343
1005
71F
1070
   344
1005
71F
1002
}
  0
DIMENSION
  5
F4F
330
1F
100
AcDbEntity
  8
TP1791_8
  6
Continuous
 62
     7
100
AcDbDimension
  2
*D19
 10
1093.597695941818
 20
1543.890402892989
 30
0.0
 11
1214.936851459284
 21
1683.200744479815
 31
0.0
 70
   162
  1
<>
 71
     5
 42
0.7853983319849469
  3
ASKSTANDARD
100
AcDb2LineAngularDimension
 13
1135.484451293935
 23
1786.004089238967
 33
0.0
 14
1191.484329223625
 24
1786.004089215995
 34
0.0
 15
1055.696968772195
 25
1581.791142872886
 35
0.0
 16
1178.592350907065
 26
1597.147998426573
 36
0.0
1001
ACAD
1000
DSTYLE
1002
{
1070
    40
1040
8.0
1070
   284
1070
     8
1070
   140
1040
3.0
1070
   179
1070
     0
1070
   173
1070
     1
1070
   343
1005
71F
1070
   344
1005
71F
1002
}
  0
LINE
  5
FA0
330
1F
100
AcDbEntity
  8
TP1791_8
  6
Continuous
 62
     7
100
AcDbLine
 10
981.4844512365164
 20
1646.004089302138
 30
0.0
 11
981.4844512018542
 21
1561.504699653708
 31
0.0
1001
DEKIMAS
1000
実線（中）
1040
0.25
1001
DIMEXPLODE
1070
     0
  0
LINE
  5
FA1
330
1F
100
AcDbEntity
  8
TP1791_8
  6
Continuous
 62
     7
100
AcDbLine
 10
971.4844512365164
 20
1646.004089306241
 30
0.0
 11
971.4844511992417
 21
1555.136047314061
 31
0.0
1001
DEKIMAS
1000
実線（中）
1040
0.25
1001
DIMEXPLODE
1070
     0
  0
LINE
  5
FA2
330
1F
100
AcDbEntity
  8
TP1791_8
  6
CENTER2
 62
     1
100
AcDbLine
 10
851.4844511544749
 20
1446.004089355465
 30
0.0
 11
851.4844514218314
 21
2097.764183758686
 31
0.0
1001
DEKIMAS
1000
一点鎖線（細）
1040
0.15
1001
DIMEXPLODE
1070
     0
  0
LINE
  5
FA3
330
1F
100
AcDbEntity
  8
TP1791_8
  6
CENTER2
 62
     1
100
AcDbLine
 10
1191.484329223625
 20
1786.004089215995
 30
0.0
 11
511.4844360351653
 21
1786.004089494936
 31
0.0
1001
DEKIMAS
1000
一点鎖線（細）
1040
0.15
1001
DIMEXPLODE
1070
     0
  0
LINE
  5
FA4
330
1F
100
AcDbEntity
  8
TP1791_8
  6
Continuous
 62
     7
100
AcDbLine
 10
721.4844664953063
 20
1646.004089408792
 30
0.0
 11
721.4844664606442
 21
1561.504699760362
 31
0.0
1001
DEKIMAS
1000
実線（中）
1040
0.25
1001
DIMEXPLODE
1070
     0
  0
LINE
  5
FA5
330
1F
100
AcDbEntity
  8
TP1791_8
  6
Continuous
 62
     7
100
AcDbLine
 10
731.4844664953064
 20
1646.00408940469
 30
0.0
 11
731.4844664580316
 21
1555.13604741251
 31
0.0
1001
DEKIMAS
1000
実線（中）
1040
0.25
1001
DIMEXPLODE
1070
     0
  0
LINE
  5
FA6
330
1F
100
AcDbEntity
  8
TP1791_8
  6
CENTER2
 62
     1
100
AcDbLine
 10
1093.597695941818
 20
1543.890402892989
 30
0.0
 11
1033.240376409177
 21
1604.247742826118
 31
0.0
1001
DEKIMAS
1000
一点鎖線（細）
1040
0.15
1001
DIMEXPLODE
1070
     0
  0
LINE
  5
FA7
330
1F
100
AcDbEntity
  8
TP1791_8
  6
Continuous
 62
     7
100
AcDbLine
 10
1014.118875564934
 20
1538.516594684542
 30
0.0
 11
1098.971703647241
 21
1623.369394087005
 31
0.0
1001
DEKIMAS
1000
実線（中）
1040
0.25
1001
DIMEXPLODE
1070
     0
  0
LINE
  5
FA8
330
1F
100
AcDbEntity
  8
TP1791_8
  6
Continuous
 62
     7
 48
0.5
100
AcDbLine
 10
1014.118832406574
 20
1538.516637842922
 30
0.0
 11
1009.681936632964
 21
1542.953535116172
 31
0.0
1001
DEKIMAS
1000
実線（中）
1040
0.25
1001
DIMEXPLODE
1070
     0
  0
LINE
  5
FA9
330
1F
100
AcDbEntity
  8
TP1791_8
  6
Continuous
 62
     7
 48
0.5
100
AcDbLine
 10
1098.971833122371
 20
1623.369437245355
 30
0.0
 11
1094.534894190401
 21
1627.806377676985
 31
0.0
1001
DEKIMAS
1000
実線（中）
1040
0.25
1001
DIMEXPLODE
1070
     0
  0
LINE
  5
FAA
330
1F
100
AcDbEntity
  8
TP1791_8
  6
CENTER2
 62
     1
100
AcDbLine
 10
951.3323516189373
 20
1626.004211384827
 30
0.0
 11
746.3799742996022
 21
1626.0042114689
 31
0.0
1001
DEKIMAS
1000
一点鎖線（細）
1040
0.15
1001
DIMEXPLODE
1070
     0
  0
LINE
  5
FAB
330
1F
100
AcDbEntity
  8
TP1791_8
  6
Continuous
 62
     7
 48
0.5
100
AcDbLine
 10
897.402913398429
 20
1554.473980472649
 30
0.0
 11
899.8692392165276
 21
1545.923270857578
 31
0.0
1001
DEKIMAS
1000
実線（中）
1040
0.25
1001
DIMEXPLODE
1070
     0
  0
LINE
  5
FAC
330
1F
100
AcDbEntity
  8
TP1791_8
  6
Continuous
 62
     7
 48
0.5
100
AcDbLine
 10
890.4749891360639
 20
1550.475422259411
 30
0.0
 11
896.6469543861949
 21
1544.064163185459
 31
0.0
1001
DEKIMAS
1000
実線（中）
1040
0.25
1001
DIMEXPLODE
1070
     0
  0
LINE
  5
FAD
330
1F
100
AcDbEntity
  8
TP1791_8
  6
Continuous
 62
     7
 48
0.5
100
AcDbLine
 10
812.4937963264097
 20
1550.474913171929
 30
0.0
 11
806.3219124890407
 21
1544.063745166301
 31
0.0
1001
DEKIMAS
1000
実線（中）
1040
0.25
1001
DIMEXPLODE
1070
     0
  0
LINE
  5
FAE
330
1F
100
AcDbEntity
  8
TP1791_8
  6
Continuous
 62
     7
 48
0.5
100
AcDbLine
 10
936.3918128403769
 20
1630.008620945606
 30
0.0
 11
945.0299888552713
 21
1627.869195687712
 31
0.0
1001
DEKIMAS
1000
実線（中）
1040
0.25
1001
DIMEXPLODE
1070
     0
  0
LINE
  5
FAF
330
1F
100
AcDbEntity
  8
TP1791_8
  6
Continuous
 62
     7
 48
0.5
100
AcDbLine
 10
897.4014257836847
 20
1697.534901999047
 30
0.0
 11
899.8677543397842
 21
1706.085610824377
 31
0.0
1001
DEKIMAS
1000
実線（中）
1040
0.25
1001
DIMEXPLODE
1070
     0
  0
LINE
  5
FB0
330
1F
100
AcDbEntity
  8
TP1791_8
  6
Continuous
 62
     7
 48
0.5
100
AcDbLine
 10
890.4730211410845
 20
1701.535038474777
 30
0.0
 11
896.6449038978064
 21
1707.946207520722
 31
0.0
1001
DEKIMAS
1000
実線（中）
1040
0.25
1001
DIMEXPLODE
1070
     0
  0
LINE
  5
FB1
330
1F
100
AcDbEntity
  8
TP1791_8
  6
Continuous
 62
     7
 48
0.5
100
AcDbLine
 10
805.567057871546
 20
1554.474066440551
 30
0.0
 11
803.1006942609074
 21
1545.923240679503
 31
0.0
1001
DEKIMAS
1000
実線（中）
1040
0.25
1001
DIMEXPLODE
1070
     0
  0
LINE
  5
FB2
330
1F
100
AcDbEntity
  8
TP1791_8
  6
Continuous
 62
     7
 48
0.5
100
AcDbLine
 10
812.4966141160999
 20
1701.536012827883
 30
0.0
 11
806.3247321802608
 21
1707.947182664073
 31
0.0
1001
DEKIMAS
1000
実線（中）
1040
0.25
1001
DIMEXPLODE
1070
     0
  0
LINE
  5
FB3
330
1F
100
AcDbEntity
  8
TP1791_8
  6
Continuous
 62
     7
 48
0.5
100
AcDbLine
 10
805.5679158501666
 20
1697.534942478944
 30
0.0
 11
803.1015886665752
 21
1706.085651700153
 31
0.0
1001
DEKIMAS
1000
実線（中）
1040
0.25
1001
DIMEXPLODE
1070
     0
  0
LINE
  5
FB4
330
1F
100
AcDbEntity
  8
TP1791_8
  6
Continuous
 62
     7
 48
0.5
100
AcDbLine
 10
936.3898416398766
 20
1622.007077912706
 30
0.0
 11
945.0281376006293
 21
1624.146526639993
 31
0.0
1001
DEKIMAS
1000
実線（中）
1040
0.25
1001
DIMEXPLODE
1070
     0
  0
LINE
  5
FB5
330
1F
100
AcDbEntity
  8
TP1791_8
  6
Continuous
 62
     7
 48
0.5
100
AcDbLine
 10
766.5779307451371
 20
1630.006513775045
 30
0.0
 11
757.9396352176195
 21
1627.867063298528
 31
0.0
1001
DEKIMAS
1000
実線（中）
1040
0.25
1001
DIMEXPLODE
1070
     0
  0
LINE
  5
FB6
330
1F
100
AcDbEntity
  8
TP1791_8
  6
Continuous
 62
     7
 48
0.5
100
AcDbLine
 10
766.5794018862556
 20
1622.007159161614
 30
0.0
 11
757.9412254690762
 21
1624.146582795238
 31
0.0
1001
DEKIMAS
1000
実線（中）
1040
0.25
1001
DIMEXPLODE
1070
     0
  0
LINE
  5
FB7
330
1F
100
AcDbEntity
  8
TP1791_8
  6
CENTER2
 62
     1
100
AcDbLine
 10
1003.657363834166
 20
1646.004089293043
 30
0.0
 11
690.6067199132763
 21
1646.004089421458
 31
0.0
1001
DEKIMAS
1000
一点鎖線（細）
1040
0.15
1001
DIMEXPLODE
1070
     0
  0
LINE
  5
FB8
330
1F
100
AcDbEntity
  8
TP1791_8
  6
HIDDEN2
 62
     4
100
AcDbLine
 10
596.4844665363271
 20
1746.004089460068
 30
0.0
 11
596.4844665691436
 21
1826.004089460068
 31
0.0
1001
DEKIMAS
1000
破線（細）
1040
0.15
1001
DIMEXPLODE
1070
     0
  0
LINE
  5
FB9
330
1F
100
AcDbEntity
  8
TP1791_8
  6
HIDDEN2
 62
     4
100
AcDbLine
 10
564.9971036494446
 20
1831.004132167443
 30
0.0
 11
596.4844265464235
 21
1826.004136214775
 31
0.0
1001
DEKIMAS
1000
破線（細）
1040
0.15
1001
DIMEXPLODE
1070
     0
  0
LINE
  5
FBA
330
1F
100
AcDbEntity
  8
TP1791_8
  6
HIDDEN2
 62
     4
100
AcDbLine
 10
564.997125874136
 20
1741.004036178559
 30
0.0
 11
596.484478915177
 21
1746.004036891434
 31
0.0
1001
DEKIMAS
1000
破線（細）
1040
0.15
1001
DIMEXPLODE
1070
     0
  0
LINE
  5
FBB
330
1F
100
AcDbEntity
  8
TP1791_8
  6
HIDDEN2
 62
     4
100
AcDbLine
 10
1106.484453184877
 20
1746.004089250862
 30
0.0
 11
1106.484453217693
 21
1826.004089250863
 31
0.0
1001
DEKIMAS
1000
破線（細）
1040
0.15
1001
DIMEXPLODE
1070
     0
  0
LINE
  5
FBC
330
1F
100
AcDbEntity
  8
TP1791_8
  6
HIDDEN2
 62
     4
100
AcDbLine
 10
1137.971801829894
 20
1831.004097087976
 30
0.0
 11
1106.484463858834
 21
1826.004098768122
 31
0.0
1001
DEKIMAS
1000
破線（細）
1040
0.15
1001
DIMEXPLODE
1070
     0
  0
LINE
  5
FBD
330
1F
100
AcDbEntity
  8
TP1791_8
  6
HIDDEN2
 62
     4
100
AcDbLine
 10
1137.971794601336
 20
1741.00406839493
 30
0.0
 11
1106.484441564397
 21
1746.004069133638
 31
0.0
1001
DEKIMAS
1000
破線（細）
1040
0.15
1001
DIMEXPLODE
1070
     0
  0
CIRCLE
  5
FBE
330
1F
100
AcDbEntity
  8
TP1791_8
  6
Continuous
 62
     7
100
AcDbCircle
 10
851.4844512939452
 20
1786.004089355466
 30
0.0
 40
290.0
1001
DEKIMAS
1000
実線（中）
1040
0.25
  0
ARC
  5
FBF
330
1F
100
AcDbEntity
  8
TP1791_8
  6
Continuous
 62
     7
100
AcDbCircle
 10
851.4844512365163
 20
1646.004089355465
 30
0.0
 40
130.0
100
AcDbArc
 50
359.9999999764983
 51
179.9999640043007
1001
DEKIMAS
1000
実線（中）
1040
0.25
1001
DIMEXPLODE
1070
     0
  0
ARC
  5
FC0
330
1F
100
AcDbEntity
  8
TP1791_8
  6
Continuous
 62
     7
100
AcDbCircle
 10
851.4844512365163
 20
1646.004089355465
 30
0.0
 40
120.0
100
AcDbArc
 50
359.9999999764983
 51
179.9999640043007
1001
DEKIMAS
1000
実線（中）
1040
0.25
1001
DIMEXPLODE
1070
     0
  0
ARC
  5
FC1
330
1F
100
AcDbEntity
  8
TP1791_8
  6
Continuous
 62
     7
100
AcDbCircle
 10
1001.484451201854
 20
1561.504699645504
 30
0.0
 40
20.0
100
AcDbArc
 50
179.999977664679
 51
303.7490035375272
1001
DEKIMAS
1000
実線（中）
1040
0.25
1001
DIMEXPLODE
1070
     0
  0
ARC
  5
FC2
330
1F
100
AcDbEntity
  8
TP1791_8
  6
Continuous
 62
     7
100
AcDbCircle
 10
991.4844511992416
 20
1555.136047305857
 30
0.0
 40
20.0
100
AcDbArc
 50
179.999977664679
 51
301.2328984510792
1001
DEKIMAS
1000
実線（中）
1040
0.25
1001
DIMEXPLODE
1070
     0
  0
ARC
  5
FC3
330
1F
100
AcDbEntity
  8
TP1791_8
  6
Continuous
 62
     7
100
AcDbCircle
 10
711.4844664580316
 20
1555.136047420714
 30
0.0
 40
20.0
100
AcDbArc
 50
238.7670928504877
 51
359.9999999764983
1001
DEKIMAS
1000
実線（中）
1040
0.25
1001
DIMEXPLODE
1070
     0
  0
ARC
  5
FC4
330
1F
100
AcDbEntity
  8
TP1791_8
  6
Continuous
 62
     7
100
AcDbCircle
 10
701.4844664606441
 20
1561.504699768566
 30
0.0
 40
20.0
100
AcDbArc
 50
236.2509741036553
 51
359.9999999764983
1001
DEKIMAS
1000
実線（中）
1040
0.25
1001
DIMEXPLODE
1070
     0
  0
CIRCLE
  5
FC5
330
1F
100
AcDbEntity
  8
TP1791_8
  6
Continuous
 62
     7
100
AcDbCircle
 10
851.4844512283122
 20
1626.004211425786
 30
0.0
 40
71.0
1001
DEKIMAS
1000
実線（中）
1040
0.25
  0
ARC
  5
FC6
330
1F
100
AcDbEntity
  8
TP1791_8
  6
Continuous
 62
     7
100
AcDbCircle
 10
851.4844512283122
 20
1626.004211425786
 30
0.0
 40
90.0
100
AcDbArc
 50
61.75012833793815
 51
118.2499722466591
1001
DEKIMAS
1000
実線（中）
1040
0.25
1001
DIMEXPLODE
1070
     0
  0
CIRCLE
  5
FC7
330
1F
100
AcDbEntity
  8
TP1791_8
  6
Continuous
 62
     7
100
AcDbCircle
 10
851.4844512283122
 20
1626.004211425786
 30
0.0
 40
85.0
1001
DEKIMAS
1000
実線（中）
1040
0.25
  0
ARC
  5
FC8
330
1F
100
AcDbEntity
  8
TP1791_8
  6
Continuous
 62
     7
100
AcDbCircle
 10
851.4844512283122
 20
1626.004211425786
 30
0.0
 40
90.0
100
AcDbArc
 50
1.75014032866873
 51
58.24984763361038
1001
DEKIMAS
1000
実線（中）
1040
0.25
1001
DIMEXPLODE
1070
     0
  0
ARC
  5
FC9
330
1F
100
AcDbEntity
  8
TP1791_8
  6
Continuous
 62
     7
 48
0.5
100
AcDbCircle
 10
758.4012145339772
 20
1626.004211463969
 30
0.0
 40
1.916775703430199
100
AcDbArc
 50
103.9108097069147
 51
256.0895281130622
1001
DEKIMAS
1000
実線（中）
1040
0.25
1001
DIMEXPLODE
1070
     0
  0
ARC
  5
FCA
330
1F
100
AcDbEntity
  8
TP1791_8
  6
Continuous
 62
     7
100
AcDbCircle
 10
851.4844512283122
 20
1626.004211425786
 30
0.0
 40
90.0
100
AcDbArc
 50
181.7501216593205
 51
238.2497470020014
1001
DEKIMAS
1000
実線（中）
1040
0.25
1001
DIMEXPLODE
1070
     0
  0
ARC
  5
FCB
330
1F
100
AcDbEntity
  8
TP1791_8
  6
Continuous
 62
     7
100
AcDbCircle
 10
851.4844512283122
 20
1626.004211425786
 30
0.0
 40
90.0
100
AcDbArc
 50
121.750170988718
 51
178.2499329351739
1001
DEKIMAS
1000
実線（中）
1040
0.25
1001
DIMEXPLODE
1070
     0
  0
ARC
  5
FCC
330
1F
100
AcDbEntity
  8
TP1791_8
  6
Continuous
 62
     7
 48
0.5
100
AcDbCircle
 10
804.9428405436071
 20
1706.616760272995
 30
0.0
 40
1.916775703430199
100
AcDbArc
 50
43.91079437687827
 51
196.089540103784
1001
DEKIMAS
1000
実線（中）
1040
0.25
1001
DIMEXPLODE
1070
     0
  0
ARC
  5
FCD
330
1F
100
AcDbEntity
  8
TP1791_8
  6
Continuous
 62
     7
 48
0.5
100
AcDbCircle
 10
898.0260772379422
 20
1706.616760234812
 30
0.0
 40
1.916775703430199
100
AcDbArc
 50
343.9108063676234
 51
136.0895520945208
1001
DEKIMAS
1000
実線（中）
1040
0.25
1001
DIMEXPLODE
1070
     0
  0
ARC
  5
FCE
330
1F
100
AcDbEntity
  8
TP1791_8
  6
Continuous
 62
     7
 48
0.5
100
AcDbCircle
 10
944.5677031814373
 20
1626.004211387602
 30
0.0
 40
1.916775703430199
100
AcDbArc
 50
283.9108183583418
 51
76.08950944374412
1001
DEKIMAS
1000
実線（中）
1040
0.25
1001
DIMEXPLODE
1070
     0
  0
ARC
  5
FCF
330
1F
100
AcDbEntity
  8
TP1791_8
  6
Continuous
 62
     7
 48
0.5
100
AcDbCircle
 10
804.9428404774713
 20
1545.391662616747
 30
0.0
 40
1.916775703430199
100
AcDbArc
 50
163.9107977161939
 51
316.0895161223443
1001
DEKIMAS
1000
実線（中）
1040
0.25
1001
DIMEXPLODE
1070
     0
  0
ARC
  5
FD0
330
1F
100
AcDbEntity
  8
TP1791_8
  6
Continuous
 62
     7
100
AcDbCircle
 10
851.4844512283122
 20
1626.004211425786
 30
0.0
 40
90.0
100
AcDbArc
 50
301.7498517910645
 51
358.2498596243321
1001
DEKIMAS
1000
実線（中）
1040
0.25
1001
DIMEXPLODE
1070
     0
  0
ARC
  5
FD1
330
1F
100
AcDbEntity
  8
TP1791_8
  6
Continuous
 62
     7
 48
0.5
100
AcDbCircle
 10
898.0260771718064
 20
1545.391662578564
 30
0.0
 40
1.916775703430199
100
AcDbArc
 50
223.9108166886927
 51
16.08952143444742
1001
DEKIMAS
1000
実線（中）
1040
0.25
1001
DIMEXPLODE
1070
     0
  0
ARC
  5
FD2
330
1F
100
AcDbEntity
  8
TP1791_8
  6
Continuous
 62
     7
100
AcDbCircle
 10
851.4844512283122
 20
1626.004211425786
 30
0.0
 40
90.0
100
AcDbArc
 50
241.7499047629259
 51
298.2497350112766
1001
DEKIMAS
1000
実線（中）
1040
0.25
1001
DIMEXPLODE
1070
     0
  0
LEADER
  5
FD3
330
1F
100
AcDbEntity
  8
TP1791_8
  6
Continuous
 62
     4
100
AcDbLeader
  3
ASKSTANDARD
 76
     3
 10
850.3884086896819
 20
1495.196815040895
 30
0.0
 10
1034.441486389143
 20
1382.006221002475
 30
0.0
 10
1151.474269701212
 20
1382.006225462878
 30
0.0
211
-1.0
221
0.0000000004102069
231
0.0
1001
DEKIMAS
1000
実線（細）
1040
0.15
1001
DIMEXPLODE
1070
     0
1001
ACAD
1000
DSTYLE
1002
{
1070
   173
1070
     1
1070
   341
1005
71F
1070
   176
1070
     0
1002
}
  0
MTEXT
  5
FD4
330
1F
100
AcDbEntity
  8
TP1791_8
  6
Continuous
 62
     4
100
AcDbMText
 10
1048.973156765911
 20
1388.406225791026
 30
0.0
 40
25.6
 41
0.0
 71
     7
 72
     5
  1
\T1.40;\W0.60;目盛位置
  7
STD
 73
     1
 44
1.0
1001
DEKIMAS
1040
0.15
1001
ACAD
1000
MTEXTBEGIN
1070
    73
1070
     1
1070
    44
1040
1.0
1070
    74
1070
     0
1000
MTEXTEND
  0
LEADER
  5
FD5
330
1F
100
AcDbEntity
  8
TP1791_8
  6
Continuous
 62
     4
100
AcDbLeader
  3
ASKSTANDARD
 76
     3
 10
910.6973371762499
 20
1565.021994598926
 30
0.0
 10
1039.063776791776
 20
1432.819934066279
 30
0.0
 10
1309.696594093397
 20
1432.819946101104
 30
0.0
211
-1.0
221
0.0000000004102069
231
0.0
1001
DEKIMAS
1000
実線（細）
1040
0.15
1001
DIMEXPLODE
1070
     0
1001
ACAD
1000
DSTYLE
1002
{
1070
   173
1070
     1
1070
   341
1005
71F
1070
   176
1070
     0
1002
}
  0
MTEXT
  5
FD6
330
1F
100
AcDbEntity
  8
TP1791_8
  6
Continuous
 62
     4
100
AcDbMText
 10
1050.955799914196
 20
1439.219946493343
 30
0.0
 40
25.6
 41
0.0
 71
     7
 72
     5
  1
\T1.40;\W0.60;\U+2205１４５ハンドホール
  7
STD
 73
     1
 44
1.0
1001
DEKIMAS
1040
0.15
1001
ACAD
1000
MTEXTBEGIN
1070
    73
1070
     1
1070
    44
1040
1.0
1070
    74
1070
     0
1000
MTEXTEND
  0
POINT
  5
10DD
330
1F
100
AcDbEntity
  8
F00001_1
  6
Continuous
 62
     4
100
AcDbPoint
 10
934.0
 20
2246.000061035111
 30
0.0
1001
ASKOBJSC
1000
1/1
1001
ASKDWGSC
1040
8.0
  0
POINT
  5
10DE
330
1F
100
AcDbEntity
  8
F00001_1
  6
Continuous
 62
     4
100
AcDbPoint
 10
1422.0
 20
2246.000061035111
 30
0.0
1001
ASKOBJSC
1000
1/1
1001
ASKDWGSC
1040
8.0
  0
POINT
  5
10DF
330
1F
100
AcDbEntity
  8
F00001_1
  6
Continuous
 62
     4
100
AcDbPoint
 10
1540.0
 20
2246.000061035111
 30
0.0
1001
ASKOBJSC
1000
1/1
1001
ASKDWGSC
1040
8.0
  0
POINT
  5
10E0
330
1F
100
AcDbEntity
  8
F00001_1
  6
Continuous
 62
     4
100
AcDbPoint
 10
1644.0
 20
2246.000061035111
 30
0.0
1001
ASKOBJSC
1000
1/1
1001
ASKDWGSC
1040
8.0
  0
POINT
  5
10E1
330
1F
100
AcDbEntity
  8
F00001_1
  6
Continuous
 62
     4
100
AcDbPoint
 10
1013.599975585944
 20
2246.000061035111
 30
0.0
1001
ASKOBJSC
1000
1/1
1001
ASKDWGSC
1040
8.0
  0
POINT
  5
10E2
330
1F
100
AcDbEntity
  8
F00001_1
  6
Continuous
 62
     4
100
AcDbPoint
 10
880.0
 20
2272.000061035111
 30
0.0
1001
ASKOBJSC
1000
1/1
1001
ASKDWGSC
1040
8.0
  0
LINE
  5
10E3
330
1F
100
AcDbEntity
  8
F00001_1
  6
Continuous
 62
     4
100
AcDbLine
 10
8.0
 20
2384.000061035111
 30
0.0
 11
8.0
 21
2304.000061035111
 31
0.0
1001
DEKIMAS
1000
実線（細）
1040
0.15
1001
DIMEXPLODE
1070
     0
1001
ASKOBJSC
1000
1/1
1001
ASKDWGSC
1040
8.0
  0
LINE
  5
10E4
330
1F
100
AcDbEntity
  8
F00001_1
  6
Continuous
 62
     4
100
AcDbLine
 10
3368.0
 20
2384.000061035111
 30
0.0
 11
3368.0
 21
2304.000061035111
 31
0.0
1001
DEKIMAS
1000
実線（細）
1040
0.15
1001
DIMEXPLODE
1070
     0
1001
ASKOBJSC
1000
1/1
1001
ASKDWGSC
1040
8.0
  0
LINE
  5
10E5
330
1F
100
AcDbEntity
  8
F00001_1
  6
Continuous
 62
     4
100
AcDbLine
 10
8.0
 20
2384.000061035111
 30
0.0
 11
88.0
 21
2384.000061035111
 31
0.0
1001
DEKIMAS
1000
実線（細）
1040
0.15
1001
DIMEXPLODE
1070
     0
1001
ASKOBJSC
1000
1/1
1001
ASKDWGSC
1040
8.0
  0
LINE
  5
10E6
330
1F
100
AcDbEntity
  8
F00001_1
  6
Continuous
 62
     4
100
AcDbLine
 10
8.0
 20
7.999999999990393
 30
0.0
 11
88.0
 21
7.999999999990393
 31
0.0
1001
DEKIMAS
1000
実線（細）
1040
0.15
1001
DIMEXPLODE
1070
     0
1001
ASKOBJSC
1000
1/1
1001
ASKDWGSC
1040
8.0
  0
LINE
  5
10E7
330
1F
100
AcDbEntity
  8
F00001_1
  6
Continuous
 62
     2
100
AcDbLine
 10
2232.0
 20
519.9999999999904
 30
0.0
 11
2232.0
 21
119.9999999999904
 31
0.0
1001
DEKIMAS
1000
実線（太）
1040
0.5
1001
DIMEXPLODE
1070
     0
1001
ASKOBJSC
1000
1/1
1001
ASKDWGSC
1040
8.0
  0
LINE
  5
10E8
330
1F
100
AcDbEntity
  8
F00001_1
  6
Continuous
 62
     2
100
AcDbLine
 10
2232.0
 20
519.9999999999904
 30
0.0
 11
3208.0
 21
519.9999999999904
 31
0.0
1001
DEKIMAS
1000
実線（太）
1040
0.5
1001
DIMEXPLODE
1070
     0
1001
ASKOBJSC
1000
1/1
1001
ASKDWGSC
1040
8.0
  0
LINE
  5
10E9
330
1F
100
AcDbEntity
  8
F00001_1
  6
Continuous
 62
     4
100
AcDbLine
 10
2232.0
 20
419.9999999999904
 30
0.0
 11
3208.0
 21
419.9999999999904
 31
0.0
1001
DEKIMAS
1000
実線（細）
1040
0.15
1001
DIMEXPLODE
1070
     0
1001
ASKOBJSC
1000
1/1
1001
ASKDWGSC
1040
8.0
  0
LINE
  5
10EA
330
1F
100
AcDbEntity
  8
F00001_1
  6
Continuous
 62
     4
100
AcDbLine
 10
2232.0
 20
219.9999999999904
 30
0.0
 11
3208.0
 21
219.9999999999904
 31
0.0
1001
DEKIMAS
1000
実線（細）
1040
0.15
1001
DIMEXPLODE
1070
     0
1001
ASKOBJSC
1000
1/1
1001
ASKDWGSC
1040
8.0
  0
LINE
  5
10EB
330
1F
100
AcDbEntity
  8
F00001_1
  6
Continuous
 62
     4
100
AcDbLine
 10
2440.0
 20
519.9999999999904
 30
0.0
 11
2440.0
 21
219.9999999999904
 31
0.0
1001
DEKIMAS
1000
実線（細）
1040
0.15
1001
DIMEXPLODE
1070
     0
1001
ASKOBJSC
1000
1/1
1001
ASKDWGSC
1040
8.0
  0
LINE
  5
10EC
330
1F
100
AcDbEntity
  8
F00001_1
  6
Continuous
 62
     4
100
AcDbLine
 10
2336.0
 20
419.9999999999904
 30
0.0
 11
2336.0
 21
299.9999999999904
 31
0.0
1001
DEKIMAS
1000
実線（細）
1040
0.15
1001
DIMEXPLODE
1070
     0
1001
ASKOBJSC
1000
1/1
1001
ASKDWGSC
1040
8.0
  0
LINE
  5
10ED
330
1F
100
AcDbEntity
  8
F00001_1
  6
Continuous
 62
     4
100
AcDbLine
 10
2232.0
 20
379.9999999999904
 30
0.0
 11
2648.0
 21
379.9999999999904
 31
0.0
1001
DEKIMAS
1000
実線（細）
1040
0.15
1001
DIMEXPLODE
1070
     0
1001
ASKOBJSC
1000
1/1
1001
ASKDWGSC
1040
8.0
  0
LINE
  5
10EE
330
1F
100
AcDbEntity
  8
F00001_1
  6
Continuous
 62
     4
100
AcDbLine
 10
2232.0
 20
299.9999999999904
 30
0.0
 11
2648.0
 21
299.9999999999904
 31
0.0
1001
DEKIMAS
1000
実線（細）
1040
0.15
1001
DIMEXPLODE
1070
     0
1001
ASKOBJSC
1000
1/1
1001
ASKDWGSC
1040
8.0
  0
LINE
  5
10EF
330
1F
100
AcDbEntity
  8
F00001_1
  6
Continuous
 62
     4
100
AcDbLine
 10
2268.0
 20
299.9999999999904
 30
0.0
 11
2268.0
 21
219.9999999999904
 31
0.0
1001
DEKIMAS
1000
実線（細）
1040
0.15
1001
DIMEXPLODE
1070
     0
1001
ASKOBJSC
1000
1/1
1001
ASKDWGSC
1040
8.0
  0
LINE
  5
10F0
330
1F
100
AcDbEntity
  8
F00001_1
  6
Continuous
 62
     4
100
AcDbLine
 10
2476.0
 20
299.9999999999904
 30
0.0
 11
2476.0
 21
219.9999999999904
 31
0.0
1001
DEKIMAS
1000
実線（細）
1040
0.15
1001
DIMEXPLODE
1070
     0
1001
ASKOBJSC
1000
1/1
1001
ASKDWGSC
1040
8.0
  0
LINE
  5
10F1
330
1F
100
AcDbEntity
  8
F00001_1
  6
Continuous
 62
     4
100
AcDbLine
 10
2648.0
 20
419.9999999999904
 30
0.0
 11
2648.0
 21
119.9999999999904
 31
0.0
1001
DEKIMAS
1000
実線（細）
1040
0.15
1001
DIMEXPLODE
1070
     0
1001
ASKOBJSC
1000
1/1
1001
ASKDWGSC
1040
8.0
  0
LINE
  5
10F2
330
1F
100
AcDbEntity
  8
F00001_1
  6
Continuous
 62
     4
100
AcDbLine
 10
2544.0
 20
419.9999999999904
 30
0.0
 11
2544.0
 21
299.9999999999904
 31
0.0
1001
DEKIMAS
1000
実線（細）
1040
0.15
1001
DIMEXPLODE
1070
     0
1001
ASKOBJSC
1000
1/1
1001
ASKDWGSC
1040
8.0
  0
LINE
  5
10F3
330
1F
100
AcDbEntity
  8
F00001_1
  6
Continuous
 62
     4
100
AcDbLine
 10
2692.0
 20
419.9999999999904
 30
0.0
 11
2692.0
 21
119.9999999999904
 31
0.0
1001
DEKIMAS
1000
実線（細）
1040
0.15
1001
DIMEXPLODE
1070
     0
1001
ASKOBJSC
1000
1/1
1001
ASKDWGSC
1040
8.0
  0
LINE
  5
10F4
330
1F
100
AcDbEntity
  8
F00001_1
  6
Continuous
 62
     4
100
AcDbLine
 10
2232.0
 20
575.9999999999904
 30
0.0
 11
2232.0
 21
519.9999999999904
 31
0.0
1001
DEKIMAS
1000
実線（細）
1040
0.15
1001
DIMEXPLODE
1070
     0
1001
ASKOBJSC
1000
1/1
1001
ASKDWGSC
1040
8.0
  0
LINE
  5
10F5
330
1F
100
AcDbEntity
  8
F00001_1
  6
Continuous
 62
     4
100
AcDbLine
 10
2232.0
 20
575.9999999999904
 30
0.0
 11
3208.0
 21
575.9999999999904
 31
0.0
1001
DEKIMAS
1000
実線（細）
1040
0.15
1001
DIMEXPLODE
1070
     0
1001
ASKOBJSC
1000
1/1
1001
ASKDWGSC
1040
8.0
  0
LINE
  5
10F6
330
1F
100
AcDbEntity
  8
F00001_1
  6
Continuous
 62
     2
100
AcDbLine
 10
168.0
 20
2272.000061035111
 30
0.0
 11
168.0
 21
119.9999999999904
 31
0.0
1001
DEKIMAS
1000
実線（太）
1040
0.5
1001
DIMEXPLODE
1070
     0
1001
ASKOBJSC
1000
1/1
1001
ASKDWGSC
1040
8.0
  0
LINE
  5
10F7
330
1F
100
AcDbEntity
  8
F00001_1
  6
Continuous
 62
     2
100
AcDbLine
 10
3208.0
 20
2272.000061035111
 30
0.0
 11
3208.0
 21
119.9999999999904
 31
0.0
1001
DEKIMAS
1000
実線（太）
1040
0.5
1001
DIMEXPLODE
1070
     0
1001
ASKOBJSC
1000
1/1
1001
ASKDWGSC
1040
8.0
  0
LINE
  5
10F8
330
1F
100
AcDbEntity
  8
F00001_1
  6
Continuous
 62
     2
100
AcDbLine
 10
168.0
 20
2272.000061035111
 30
0.0
 11
3208.0
 21
2272.000061035111
 31
0.0
1001
DEKIMAS
1000
実線（太）
1040
0.5
1001
DIMEXPLODE
1070
     0
1001
ASKOBJSC
1000
1/1
1001
ASKDWGSC
1040
8.0
  0
LINE
  5
10F9
330
1F
100
AcDbEntity
  8
F00001_1
  6
Continuous
 62
     2
100
AcDbLine
 10
168.0
 20
119.9999999999904
 30
0.0
 11
3208.0
 21
119.9999999999904
 31
0.0
1001
DEKIMAS
1000
実線（太）
1040
0.5
1001
DIMEXPLODE
1070
     0
1001
ASKOBJSC
1000
1/1
1001
ASKDWGSC
1040
8.0
  0
LINE
  5
10FA
330
1F
100
AcDbEntity
  8
F00001_1
  6
Continuous
 62
     4
100
AcDbLine
 10
168.0
 20
2220.000061035111
 30
0.0
 11
880.0
 21
2220.000061035111
 31
0.0
1001
DEKIMAS
1000
実線（細）
1040
0.15
1001
DIMEXPLODE
1070
     0
1001
ASKOBJSC
1000
1/1
1001
ASKDWGSC
1040
8.0
  0
LINE
  5
10FB
330
1F
100
AcDbEntity
  8
F00001_1
  6
Continuous
 62
     4
100
AcDbLine
 10
880.0
 20
2272.000061035111
 30
0.0
 11
880.0
 21
2220.000061035111
 31
0.0
1001
DEKIMAS
1000
実線（細）
1040
0.15
1001
DIMEXPLODE
1070
     0
1001
ASKOBJSC
1000
1/1
1001
ASKDWGSC
1040
8.0
  0
LINE
  5
10FC
330
1F
100
AcDbEntity
  8
F00001_1
  6
Continuous
 62
     4
100
AcDbLine
 10
776.0
 20
2272.000061035111
 30
0.0
 11
776.0
 21
2220.000061035111
 31
0.0
1001
DEKIMAS
1000
実線（細）
1040
0.15
1001
DIMEXPLODE
1070
     0
1001
ASKOBJSC
1000
1/1
1001
ASKDWGSC
1040
8.0
  0
LINE
  5
10FD
330
1F
100
AcDbEntity
  8
F00001_1
  6
Continuous
 62
     4
100
AcDbLine
 10
644.0
 20
2272.000061035111
 30
0.0
 11
644.0
 21
2220.000061035111
 31
0.0
1001
DEKIMAS
1000
実線（細）
1040
0.15
1001
DIMEXPLODE
1070
     0
1001
ASKOBJSC
1000
1/1
1001
ASKDWGSC
1040
8.0
  0
LINE
  5
10FE
330
1F
100
AcDbEntity
  8
F00001_1
  6
Continuous
 62
     4
100
AcDbLine
 10
276.0
 20
2272.000061035111
 30
0.0
 11
276.0
 21
2220.000061035111
 31
0.0
1001
DEKIMAS
1000
実線（細）
1040
0.15
1001
DIMEXPLODE
1070
     0
1001
ASKOBJSC
1000
1/1
1001
ASKDWGSC
1040
8.0
  0
LINE
  5
10FF
330
1F
100
AcDbEntity
  8
F00001_1
  6
Continuous
 62
     4
100
AcDbLine
 10
2536.54426506136
 20
234.5441153365822
 30
0.0
 11
2587.45595545256
 21
285.4558014362469
 31
0.0
1001
DEKIMAS
1000
実線（細）
1040
0.15
1001
DIMEXPLODE
1070
     0
1001
ASKOBJSC
1000
1/1
1001
ASKDWGSC
1040
8.0
  0
LINE
  5
1100
330
1F
100
AcDbEntity
  8
F00001_1
  6
Continuous
 62
     7
100
AcDbLine
 10
3136.0
 20
147.5026855468708
 30
0.0
 11
3192.0
 21
147.5026855468708
 31
0.0
1001
DEKIMAS
1000
実線（中）
1040
0.25
1001
DIMEXPLODE
1070
     0
1001
ASKOBJSC
1000
1/1
1001
ASKDWGSC
1040
8.0
  0
LINE
  5
1101
330
1F
100
AcDbEntity
  8
F00001_1
  6
Continuous
 62
     7
100
AcDbLine
 10
3136.00054312344
 20
147.5022129164785
 30
0.0
 11
3164.00054600368
 21
195.999633865455
 31
0.0
1001
DEKIMAS
1000
実線（中）
1040
0.25
1001
DIMEXPLODE
1070
     0
1001
ASKOBJSC
1000
1/1
1001
ASKDWGSC
1040
8.0
  0
LINE
  5
1102
330
1F
100
AcDbEntity
  8
F00001_1
  6
Continuous
 62
     7
100
AcDbLine
 10
3164.00005825424
 20
196.0001572466867
 30
0.0
 11
3192.00006113456
 21
147.502736297702
 31
0.0
1001
DEKIMAS
1000
実線（中）
1040
0.25
1001
DIMEXPLODE
1070
     0
1001
ASKOBJSC
1000
1/1
1001
ASKDWGSC
1040
8.0
  0
LINE
  5
1103
330
1F
100
AcDbEntity
  8
F00001_1
  6
Continuous
 62
     4
100
AcDbLine
 10
8.0
 20
87.99999999999039
 30
0.0
 11
8.0
 21
7.999999999990393
 31
0.0
1001
DEKIMAS
1000
実線（細）
1040
0.15
1001
DIMEXPLODE
1070
     0
1001
ASKOBJSC
1000
1/1
1001
ASKDWGSC
1040
8.0
  0
LINE
  5
1104
330
1F
100
AcDbEntity
  8
F00001_1
  6
Continuous
 62
     4
100
AcDbLine
 10
3288.0
 20
2384.000061035111
 30
0.0
 11
3368.0
 21
2384.000061035111
 31
0.0
1001
DEKIMAS
1000
実線（細）
1040
0.15
1001
DIMEXPLODE
1070
     0
1001
ASKOBJSC
1000
1/1
1001
ASKDWGSC
1040
8.0
  0
LINE
  5
1105
330
1F
100
AcDbEntity
  8
F00001_1
  6
Continuous
 62
     4
100
AcDbLine
 10
3368.0
 20
87.99999999999039
 30
0.0
 11
3368.0
 21
7.999999999990393
 31
0.0
1001
DEKIMAS
1000
実線（細）
1040
0.15
1001
DIMEXPLODE
1070
     0
1001
ASKOBJSC
1000
1/1
1001
ASKDWGSC
1040
8.0
  0
LINE
  5
1106
330
1F
100
AcDbEntity
  8
F00001_1
  6
Continuous
 62
     4
100
AcDbLine
 10
3288.0
 20
7.999999999990393
 30
0.0
 11
3368.0
 21
7.999999999990393
 31
0.0
1001
DEKIMAS
1000
実線（細）
1040
0.15
1001
DIMEXPLODE
1070
     0
1001
ASKOBJSC
1000
1/1
1001
ASKDWGSC
1040
8.0
  0
LINE
  5
1107
330
1F
100
AcDbEntity
  8
F00001_1
  6
Continuous
 62
     4
100
AcDbLine
 10
2328.0
 20
575.9999999999904
 30
0.0
 11
2328.0
 21
519.9999999999904
 31
0.0
1001
DEKIMAS
1000
実線（細）
1040
0.15
1001
DIMEXPLODE
1070
     0
1001
ASKOBJSC
1000
1/1
1001
ASKDWGSC
1040
8.0
  0
LINE
  5
1108
330
1F
100
AcDbEntity
  8
F00001_1
  6
Continuous
 62
     4
100
AcDbLine
 10
2568.0
 20
575.9999999999904
 30
0.0
 11
2568.0
 21
519.9999999999904
 31
0.0
1001
DEKIMAS
1000
実線（細）
1040
0.15
1001
DIMEXPLODE
1070
     0
1001
ASKOBJSC
1000
1/1
1001
ASKDWGSC
1040
8.0
  0
LINE
  5
1109
330
1F
100
AcDbEntity
  8
F00001_1
  6
Continuous
 62
     4
100
AcDbLine
 10
2688.0
 20
575.9999999999904
 30
0.0
 11
2688.0
 21
519.9999999999904
 31
0.0
1001
DEKIMAS
1000
実線（細）
1040
0.15
1001
DIMEXPLODE
1070
     0
1001
ASKOBJSC
1000
1/1
1001
ASKDWGSC
1040
8.0
  0
LINE
  5
110A
330
1F
100
AcDbEntity
  8
F00001_1
  6
Continuous
 62
     4
100
AcDbLine
 10
2808.0
 20
575.9999999999904
 30
0.0
 11
2808.0
 21
519.9999999999904
 31
0.0
1001
DEKIMAS
1000
実線（細）
1040
0.15
1001
DIMEXPLODE
1070
     0
1001
ASKOBJSC
1000
1/1
1001
ASKDWGSC
1040
8.0
  0
LINE
  5
110B
330
1F
100
AcDbEntity
  8
F00001_1
  6
Continuous
 62
     4
100
AcDbLine
 10
2928.0
 20
575.9999999999904
 30
0.0
 11
2928.0
 21
519.9999999999904
 31
0.0
1001
DEKIMAS
1000
実線（細）
1040
0.15
1001
DIMEXPLODE
1070
     0
1001
ASKOBJSC
1000
1/1
1001
ASKDWGSC
1040
8.0
  0
LINE
  5
110C
330
1F
100
AcDbEntity
  8
画層1
  6
Continuous
 62
     4
100
AcDbLine
 10
880.0
 20
2220.000061035111
 30
0.0
 11
880.0
 21
2172.000061035111
 31
0.0
1001
DEKIMAS
1000
実線（細）
1040
0.15
1001
DIMEXPLODE
1070
     0
1001
ASKOBJSC
1000
1/1
1001
ASKDWGSC
1040
8.0
  0
LINE
  5
110D
330
1F
100
AcDbEntity
  8
画層1
  6
Continuous
 62
     4
100
AcDbLine
 10
776.0
 20
2220.000061035111
 30
0.0
 11
776.0
 21
2172.000061035111
 31
0.0
1001
DEKIMAS
1000
実線（細）
1040
0.15
1001
DIMEXPLODE
1070
     0
1001
ASKOBJSC
1000
1/1
1001
ASKDWGSC
1040
8.0
  0
LINE
  5
110E
330
1F
100
AcDbEntity
  8
画層1
  6
Continuous
 62
     4
100
AcDbLine
 10
644.0
 20
2220.000061035111
 30
0.0
 11
644.0
 21
2172.000061035111
 31
0.0
1001
DEKIMAS
1000
実線（細）
1040
0.15
1001
DIMEXPLODE
1070
     0
1001
ASKOBJSC
1000
1/1
1001
ASKDWGSC
1040
8.0
  0
LINE
  5
110F
330
1F
100
AcDbEntity
  8
画層1
  6
Continuous
 62
     4
100
AcDbLine
 10
276.0
 20
2220.000061035111
 30
0.0
 11
276.0
 21
2172.000061035111
 31
0.0
1001
DEKIMAS
1000
実線（細）
1040
0.15
1001
DIMEXPLODE
1070
     0
1001
ASKOBJSC
1000
1/1
1001
ASKDWGSC
1040
8.0
  0
LINE
  5
1110
330
1F
100
AcDbEntity
  8
画層1
  6
Continuous
 62
     4
100
AcDbLine
 10
168.0
 20
2172.000061035111
 30
0.0
 11
880.0
 21
2172.000061035111
 31
0.0
1001
DEKIMAS
1000
実線（細）
1040
0.15
1001
DIMEXPLODE
1070
     0
1001
ASKOBJSC
1000
1/1
1001
ASKDWGSC
1040
8.0
  0
LINE
  5
1111
330
1F
100
AcDbEntity
  8
画層1
  6
Continuous
 62
     4
100
AcDbLine
 10
241.94304683288
 20
2180.451036721511
 30
0.0
 11
222.00013167664
 21
2215.038598161111
 31
0.0
1001
DEKIMAS
1000
実線（細）
1040
0.15
1001
DIMEXPLODE
1070
     0
1001
ASKOBJSC
1000
1/1
1001
ASKDWGSC
1040
8.0
  0
LINE
  5
1112
330
1F
100
AcDbEntity
  8
画層1
  6
Continuous
 62
     4
100
AcDbLine
 10
222.00019574112
 20
2215.03853031711
 30
0.0
 11
201.99768124416
 21
2180.450849247511
 31
0.0
1001
DEKIMAS
1000
実線（細）
1040
0.15
1001
DIMEXPLODE
1070
     0
1001
ASKOBJSC
1000
1/1
1001
ASKDWGSC
1040
8.0
  0
LINE
  5
1113
330
1F
100
AcDbEntity
  8
画層1
  6
Continuous
 62
     4
100
AcDbLine
 10
201.99755859376
 20
2180.450988769511
 30
0.0
 11
241.94299316408
 21
2180.450988769511
 31
0.0
1001
DEKIMAS
1000
実線（細）
1040
0.15
1001
DIMEXPLODE
1070
     0
1001
ASKOBJSC
1000
1/1
1001
ASKDWGSC
1040
8.0
  0
LINE
  5
1114
330
1F
100
AcDbEntity
  8
F00001_1
  6
Continuous
 62
     4
100
AcDbLine
 10
2306.09301757808
 20
678.6470642089502
 30
0.0
 11
2828.82495117184
 21
678.6470642089502
 31
0.0
1001
DEKIMAS
1000
実線（細）
1040
0.15
1001
DIMEXPLODE
1070
     0
1001
ASKOBJSC
1000
1/1
1001
ASKDWGSC
1040
8.0
  0
LINE
  5
1115
330
1F
100
AcDbEntity
  8
画層1
  6
Continuous
 62
     4
100
AcDbLine
 10
880.0
 20
2172.000061035111
 30
0.0
 11
880.0
 21
2124.000061035111
 31
0.0
1001
DEKIMAS
1000
実線（細）
1040
0.15
1001
DIMEXPLODE
1070
     0
1001
ASKOBJSC
1000
1/1
1001
ASKDWGSC
1040
8.0
  0
LINE
  5
1116
330
1F
100
AcDbEntity
  8
画層1
  6
Continuous
 62
     4
100
AcDbLine
 10
776.0
 20
2172.000061035111
 30
0.0
 11
776.0
 21
2124.000061035111
 31
0.0
1001
DEKIMAS
1000
実線（細）
1040
0.15
1001
DIMEXPLODE
1070
     0
1001
ASKOBJSC
1000
1/1
1001
ASKDWGSC
1040
8.0
  0
LINE
  5
1117
330
1F
100
AcDbEntity
  8
画層1
  6
Continuous
 62
     4
100
AcDbLine
 10
644.0
 20
2172.000061035111
 30
0.0
 11
644.0
 21
2124.000061035111
 31
0.0
1001
DEKIMAS
1000
実線（細）
1040
0.15
1001
DIMEXPLODE
1070
     0
1001
ASKOBJSC
1000
1/1
1001
ASKDWGSC
1040
8.0
  0
LINE
  5
1118
330
1F
100
AcDbEntity
  8
画層1
  6
Continuous
 62
     4
100
AcDbLine
 10
276.0
 20
2172.000061035111
 30
0.0
 11
276.0
 21
2124.000061035111
 31
0.0
1001
DEKIMAS
1000
実線（細）
1040
0.15
1001
DIMEXPLODE
1070
     0
1001
ASKOBJSC
1000
1/1
1001
ASKDWGSC
1040
8.0
  0
LINE
  5
1119
330
1F
100
AcDbEntity
  8
画層1
  6
Continuous
 62
     4
100
AcDbLine
 10
168.0
 20
2124.000061035111
 30
0.0
 11
880.0
 21
2124.000061035111
 31
0.0
1001
DEKIMAS
1000
実線（細）
1040
0.15
1001
DIMEXPLODE
1070
     0
1001
ASKOBJSC
1000
1/1
1001
ASKDWGSC
1040
8.0
  0
LINE
  5
111A
330
1F
100
AcDbEntity
  8
画層1
  6
Continuous
 62
     4
100
AcDbLine
 10
241.943059918
 20
2132.45101909527
 30
0.0
 11
222.00014476176
 21
2167.038580534871
 31
0.0
1001
DEKIMAS
1000
実線（細）
1040
0.15
1001
DIMEXPLODE
1070
     0
1001
ASKOBJSC
1000
1/1
1001
ASKDWGSC
1040
8.0
  0
LINE
  5
111B
330
1F
100
AcDbEntity
  8
画層1
  6
Continuous
 62
     4
100
AcDbLine
 10
222.00021850872
 20
2167.038519589991
 30
0.0
 11
201.99770401176
 21
2132.450838520391
 31
0.0
1001
DEKIMAS
1000
実線（細）
1040
0.15
1001
DIMEXPLODE
1070
     0
1001
ASKOBJSC
1000
1/1
1001
ASKDWGSC
1040
8.0
  0
LINE
  5
111C
330
1F
100
AcDbEntity
  8
画層1
  6
Continuous
 62
     4
100
AcDbLine
 10
201.99755859376
 20
2132.450988769511
 30
0.0
 11
241.94299316408
 21
2132.450988769511
 31
0.0
1001
DEKIMAS
1000
実線（細）
1040
0.15
1001
DIMEXPLODE
1070
     0
1001
ASKOBJSC
1000
1/1
1001
ASKDWGSC
1040
8.0
  0
LINE
  5
111D
330
1F
100
AcDbEntity
  8
画層1
  6
Continuous
 62
     4
100
AcDbLine
 10
1592.0
 20
2272.000061035111
 30
0.0
 11
1592.0
 21
2224.000061035111
 31
0.0
1001
DEKIMAS
1000
実線（細）
1040
0.15
1001
DIMEXPLODE
1070
     0
1001
ASKOBJSC
1000
1/1
1001
ASKDWGSC
1040
8.0
  0
LINE
  5
111E
330
1F
100
AcDbEntity
  8
画層1
  6
Continuous
 62
     4
100
AcDbLine
 10
1488.0
 20
2272.000061035111
 30
0.0
 11
1488.0
 21
2224.000061035111
 31
0.0
1001
DEKIMAS
1000
実線（細）
1040
0.15
1001
DIMEXPLODE
1070
     0
1001
ASKOBJSC
1000
1/1
1001
ASKDWGSC
1040
8.0
  0
LINE
  5
111F
330
1F
100
AcDbEntity
  8
画層1
  6
Continuous
 62
     4
100
AcDbLine
 10
1356.0
 20
2272.000061035111
 30
0.0
 11
1356.0
 21
2224.000061035111
 31
0.0
1001
DEKIMAS
1000
実線（細）
1040
0.15
1001
DIMEXPLODE
1070
     0
1001
ASKOBJSC
1000
1/1
1001
ASKDWGSC
1040
8.0
  0
LINE
  5
1120
330
1F
100
AcDbEntity
  8
画層1
  6
Continuous
 62
     4
100
AcDbLine
 10
988.0
 20
2272.000061035111
 30
0.0
 11
988.0
 21
2224.000061035111
 31
0.0
1001
DEKIMAS
1000
実線（細）
1040
0.15
1001
DIMEXPLODE
1070
     0
1001
ASKOBJSC
1000
1/1
1001
ASKDWGSC
1040
8.0
  0
LINE
  5
1121
330
1F
100
AcDbEntity
  8
画層1
  6
Continuous
 62
     4
100
AcDbLine
 10
880.0
 20
2224.000061035111
 30
0.0
 11
1592.0
 21
2224.000061035111
 31
0.0
1001
DEKIMAS
1000
実線（細）
1040
0.15
1001
DIMEXPLODE
1070
     0
1001
ASKOBJSC
1000
1/1
1001
ASKDWGSC
1040
8.0
  0
LINE
  5
1122
330
1F
100
AcDbEntity
  8
画層1
  6
Continuous
 62
     4
100
AcDbLine
 10
953.943039879304
 20
2232.451053379671
 30
0.0
 11
934.000124723072
 21
2267.03861481927
 31
0.0
1001
DEKIMAS
1000
実線（細）
1040
0.15
1001
DIMEXPLODE
1070
     0
1001
ASKOBJSC
1000
1/1
1001
ASKDWGSC
1040
8.0
  0
LINE
  5
1123
330
1F
100
AcDbEntity
  8
画層1
  6
Continuous
 62
     4
100
AcDbLine
 10
934.0001546857919
 20
2267.03849596079
 30
0.0
 11
913.99767838348
 21
2232.45088093615
 31
0.0
1001
DEKIMAS
1000
実線（細）
1040
0.15
1001
DIMEXPLODE
1070
     0
1001
ASKOBJSC
1000
1/1
1001
ASKDWGSC
1040
8.0
  0
LINE
  5
1124
330
1F
100
AcDbEntity
  8
画層1
  6
Continuous
 62
     4
100
AcDbLine
 10
913.997558593752
 20
2232.450988769511
 30
0.0
 11
953.942993164064
 21
2232.450988769511
 31
0.0
1001
DEKIMAS
1000
実線（細）
1040
0.15
1001
DIMEXPLODE
1070
     0
1001
ASKOBJSC
1000
1/1
1001
ASKDWGSC
1040
8.0
  0
MTEXT
  5
1125
330
1F
100
AcDbEntity
  8
F00001_1
  6
Continuous
 62
     4
100
AcDbMText
 10
224.1883330440522
 20
2246.000061035111
 30
0.0
 40
20.0
 41
0.0
 71
     5
 72
     5
  1
\T1.40;\W0.60;記　号
  7
STD
 73
     1
 44
1.0
1001
DEKIMAS
1040
0.15
1001
ASKOBJSC
1000
1/1
1001
ASKDWGSC
1040
8.0
1001
ACAD
1000
MTEXTBEGIN
1070
    73
1070
     1
1070
    44
1040
1.0
1070
    74
1070
     0
1000
MTEXTEND
  0
MTEXT
  5
1126
330
1F
100
AcDbEntity
  8
F00001_1
  6
Continuous
 62
     4
100
AcDbMText
 10
462.9883330440521
 20
2246.000061035111
 30
0.0
 40
20.0
 41
0.0
 71
     5
 72
     5
  1
\T1.40;\W0.60;来　　　　　　　　　　　歴
  7
STD
 73
     1
 44
1.0
1001
DEKIMAS
1040
0.15
1001
ASKOBJSC
1000
1/1
1001
ASKDWGSC
1040
8.0
1001
ACAD
1000
MTEXTBEGIN
1070
    73
1070
     1
1070
    44
1040
1.0
1070
    74
1070
     0
1000
MTEXTEND
  0
MTEXT
  5
1127
330
1F
100
AcDbEntity
  8
F00001_1
  6
Continuous
 62
     4
100
AcDbMText
 10
711.5483330440522
 20
2246.000061035111
 30
0.0
 40
20.0
 41
0.0
 71
     5
 72
     5
  1
\T1.40;\W0.60;年　月　日
  7
STD
 73
     1
 44
1.0
1001
DEKIMAS
1040
0.15
1001
ASKOBJSC
1000
1/1
1001
ASKDWGSC
1040
8.0
1001
ACAD
1000
MTEXTBEGIN
1070
    73
1070
     1
1070
    44
1040
1.0
1070
    74
1070
     0
1000
MTEXTEND
  0
MTEXT
  5
1128
330
1F
100
AcDbEntity
  8
F00001_1
  6
Continuous
 62
     4
100
AcDbMText
 10
830.1883330440521
 20
2246.000061035111
 30
0.0
 40
20.0
 41
0.0
 71
     5
 72
     5
  1
\T1.40;\W0.60;記　入
  7
STD
 73
     1
 44
1.0
1001
DEKIMAS
1040
0.15
1001
ASKOBJSC
1000
1/1
1001
ASKDWGSC
1040
8.0
1001
ACAD
1000
MTEXTBEGIN
1070
    73
1070
     1
1070
    44
1040
1.0
1070
    74
1070
     0
1000
MTEXTEND
  0
MTEXT
  5
1129
330
1F
100
AcDbEntity
  8
F00001_1
  6
Continuous
 62
     4
100
AcDbMText
 10
2282.62599974823
 20
547.9999999999904
 30
0.0
 40
24.0
 41
0.0
 71
     5
 72
     5
  1
\T1.40;\W0.60;品　番
  7
STD
 73
     1
 44
1.0
1001
DEKIMAS
1040
0.15
1001
ASKOBJSC
1000
1/1
1001
ASKDWGSC
1040
8.0
1001
ACAD
1000
MTEXTBEGIN
1070
    73
1070
     1
1070
    44
1040
1.0
1070
    74
1070
     0
1000
MTEXTEND
  0
MTEXT
  5
112A
330
1F
100
AcDbEntity
  8
F00001_1
  6
Continuous
 62
     4
100
AcDbMText
 10
2451.00999974823
 20
547.9999999999904
 30
0.0
 40
24.0
 41
0.0
 71
     5
 72
     5
  1
\T1.40;\W0.60;名　　　　　称
  7
STD
 73
     1
 44
1.0
1001
DEKIMAS
1040
0.15
1001
ASKOBJSC
1000
1/1
1001
ASKDWGSC
1040
8.0
1001
ACAD
1000
MTEXTBEGIN
1070
    73
1070
     1
1070
    44
1040
1.0
1070
    74
1070
     0
1000
MTEXTEND
  0
MTEXT
  5
112B
330
1F
100
AcDbEntity
  8
F00001_1
  6
Continuous
 62
     4
100
AcDbMText
 10
2750.62599974823
 20
547.9999999999904
 30
0.0
 40
24.0
 41
0.0
 71
     5
 72
     5
  1
\T1.40;\W0.60;材　質
  7
STD
 73
     1
 44
1.0
1001
DEKIMAS
1040
0.15
1001
ASKOBJSC
1000
1/1
1001
ASKDWGSC
1040
8.0
1001
ACAD
1000
MTEXTBEGIN
1070
    73
1070
     1
1070
    44
1040
1.0
1070
    74
1070
     0
1000
MTEXTEND
  0
MTEXT
  5
112C
330
1F
100
AcDbEntity
  8
F00001_1
  6
Continuous
 62
     4
100
AcDbMText
 10
2870.62599974823
 20
547.9999999999904
 30
0.0
 40
24.0
 41
0.0
 71
     5
 72
     5
  1
\T1.40;\W0.60;個　数
  7
STD
 73
     1
 44
1.0
1001
DEKIMAS
1040
0.15
1001
ASKOBJSC
1000
1/1
1001
ASKDWGSC
1040
8.0
1001
ACAD
1000
MTEXTBEGIN
1070
    73
1070
     1
1070
    44
1040
1.0
1070
    74
1070
     0
1000
MTEXTEND
  0
MTEXT
  5
112D
330
1F
100
AcDbEntity
  8
F00001_1
  6
Continuous
 62
     4
100
AcDbMText
 10
3071.064856891088
 20
547.9999999999904
 30
0.0
 40
24.0
 41
0.0
 71
     5
 72
     5
  1
\T1.40;\W0.60;摘　　　　　　　要
  7
STD
 73
     1
 44
1.0
1001
DEKIMAS
1040
0.15
1001
ASKOBJSC
1000
1/1
1001
ASKDWGSC
1040
8.0
1001
ACAD
1000
MTEXTBEGIN
1070
    73
1070
     1
1070
    44
1040
1.0
1070
    74
1070
     0
1000
MTEXTEND
  0
MTEXT
  5
112E
330
1F
100
AcDbEntity
  8
F00001_1
  6
Continuous
 62
     4
100
AcDbMText
 10
2339.757333156585
 20
469.9999999999904
 30
0.0
 40
32.0
 41
0.0
 71
     5
 72
     5
  1
\T1.40;\W0.60;納　入　先
  7
STD
 73
     1
 44
1.0
1001
DEKIMAS
1040
0.15
1001
ASKOBJSC
1000
1/1
1001
ASKDWGSC
1040
8.0
1001
ACAD
1000
MTEXTBEGIN
1070
    73
1070
     1
1070
    44
1040
1.0
1070
    74
1070
     0
1000
MTEXTEND
  0
MTEXT
  5
112F
330
1F
100
AcDbEntity
  8
F00001_1
  6
Continuous
 62
     4
100
AcDbMText
 10
2444.345740715535
 20
169.9999999999904
 30
0.0
 40
32.0
 41
0.0
 71
     5
 72
     5
  1
\T1.40;\W0.46;ス　イ　コ　－　株　式　会　社
  7
STD
 73
     1
 44
1.0
1001
DEKIMAS
1040
0.15
1001
ASKOBJSC
1000
1/1
1001
ASKDWGSC
1040
8.0
1001
ACAD
1000
MTEXTBEGIN
1070
    73
1070
     1
1070
    44
1040
1.0
1070
    74
1070
     0
1000
MTEXTEND
  0
MTEXT
  5
1130
330
1F
100
AcDbEntity
  8
F00001_1
  6
Continuous
 62
     4
100
AcDbMText
 10
2460.028333282471
 20
239.9999999999904
 30
0.0
 40
20.0
 41
0.0
 71
     5
 72
     5
  1
\T1.40;\W0.60;度
  7
STD
 73
     1
 44
1.0
1001
DEKIMAS
1040
0.15
1001
ASKOBJSC
1000
1/1
1001
ASKDWGSC
1040
8.0
1001
ACAD
1000
MTEXTBEGIN
1070
    73
1070
     1
1070
    44
1040
1.0
1070
    74
1070
     0
1000
MTEXTEND
  0
MTEXT
  5
1131
330
1F
100
AcDbEntity
  8
F00001_1
  6
Continuous
 62
     4
100
AcDbMText
 10
2286.188333282471
 20
399.9999999999904
 30
0.0
 40
20.0
 41
0.0
 71
     5
 72
     5
  1
\T1.40;\W0.60;設　計
  7
STD
 73
     1
 44
1.0
1001
DEKIMAS
1040
0.15
1001
ASKOBJSC
1000
1/1
1001
ASKDWGSC
1040
8.0
1001
ACAD
1000
MTEXTBEGIN
1070
    73
1070
     1
1070
    44
1040
1.0
1070
    74
1070
     0
1000
MTEXTEND
  0
MTEXT
  5
1132
330
1F
100
AcDbEntity
  8
F00001_1
  6
Continuous
 62
     4
100
AcDbMText
 10
2389.788333282471
 20
399.9999999999904
 30
0.0
 40
20.0
 41
0.0
 71
     5
 72
     5
  1
\T1.40;\W0.60;製　図
  7
STD
 73
     1
 44
1.0
1001
DEKIMAS
1040
0.15
1001
ASKOBJSC
1000
1/1
1001
ASKDWGSC
1040
8.0
1001
ACAD
1000
MTEXTBEGIN
1070
    73
1070
     1
1070
    44
1040
1.0
1070
    74
1070
     0
1000
MTEXTEND
  0
MTEXT
  5
1133
330
1F
100
AcDbEntity
  8
F00001_1
  6
Continuous
 62
     4
100
AcDbMText
 10
2493.78833328247
 20
399.9999999999904
 30
0.0
 40
20.0
 41
0.0
 71
     5
 72
     5
  1
\T1.40;\W0.60;検　図
  7
STD
 73
     1
 44
1.0
1001
DEKIMAS
1040
0.15
1001
ASKOBJSC
1000
1/1
1001
ASKDWGSC
1040
8.0
1001
ACAD
1000
MTEXTBEGIN
1070
    73
1070
     1
1070
    44
1040
1.0
1070
    74
1070
     0
1000
MTEXTEND
  0
MTEXT
  5
1134
330
1F
100
AcDbEntity
  8
F00001_1
  6
Continuous
 62
     4
100
AcDbMText
 10
2598.188333282471
 20
399.9999999999904
 30
0.0
 40
20.0
 41
0.0
 71
     5
 72
     5
  1
\T1.40;\W0.60;承　認
  7
STD
 73
     1
 44
1.0
1001
DEKIMAS
1040
0.15
1001
ASKOBJSC
1000
1/1
1001
ASKDWGSC
1040
8.0
1001
ACAD
1000
MTEXTBEGIN
1070
    73
1070
     1
1070
    44
1040
1.0
1070
    74
1070
     0
1000
MTEXTEND
  0
MTEXT
  5
1135
330
1F
100
AcDbEntity
  8
F00001_1
  6
Continuous
 62
     4
100
AcDbMText
 10
2672.433999748231
 20
269.9999999999904
 30
0.0
 40
24.0
 41
0.0
 71
     5
 72
     5
  1
\T1.40;\W0.60;称
  7
STD
 73
     1
 44
1.0
1001
DEKIMAS
1040
0.15
1001
ASKOBJSC
1000
1/1
1001
ASKDWGSC
1040
8.0
1001
ACAD
1000
MTEXTBEGIN
1070
    73
1070
     1
1070
    44
1040
1.0
1070
    74
1070
     0
1000
MTEXTEND
  0
MTEXT
  5
1136
330
1F
100
AcDbEntity
  8
F00001_1
  6
Continuous
 62
     4
100
AcDbMText
 10
2671.47399974823
 20
194.9999999999904
 30
0.0
 40
24.0
 41
0.0
 71
     5
 72
     5
  1
\T1.40;\W0.60;図
  7
STD
 73
     1
 44
1.0
1001
DEKIMAS
1040
0.15
1001
ASKOBJSC
1000
1/1
1001
ASKDWGSC
1040
8.0
1001
ACAD
1000
MTEXTBEGIN
1070
    73
1070
     1
1070
    44
1040
1.0
1070
    74
1070
     0
1000
MTEXTEND
  0
MTEXT
  5
1137
330
1F
100
AcDbEntity
  8
F00001_1
  6
Continuous
 62
     4
100
AcDbMText
 10
2672.433999748231
 20
144.9999999999904
 30
0.0
 40
24.0
 41
0.0
 71
     5
 72
     5
  1
\T1.40;\W0.60;番
  7
STD
 73
     1
 44
1.0
1001
DEKIMAS
1040
0.15
1001
ASKOBJSC
1000
1/1
1001
ASKDWGSC
1040
8.0
1001
ACAD
1000
MTEXTBEGIN
1070
    73
1070
     1
1070
    44
1040
1.0
1070
    74
1070
     0
1000
MTEXTEND
  0
MTEXT
  5
1138
330
1F
100
AcDbEntity
  8
F00001_1
  6
Continuous
 62
     4
100
AcDbMText
 10
2671.95399974823
 20
369.9999999999904
 30
0.0
 40
24.0
 41
0.0
 71
     5
 72
     5
  1
\T1.40;\W0.60;名
  7
STD
 73
     1
 44
1.0
1001
DEKIMAS
1040
0.15
1001
ASKOBJSC
1000
1/1
1001
ASKDWGSC
1040
8.0
1001
ACAD
1000
MTEXTBEGIN
1070
    73
1070
     1
1070
    44
1040
1.0
1070
    74
1070
     0
1000
MTEXTEND
  0
MTEXT
  5
1139
330
1F
100
AcDbEntity
  8
F00001_1
  6
Continuous
 62
     4
100
AcDbMText
 10
2460.028333044052
 20
279.9999999999904
 30
0.0
 40
20.0
 41
0.0
 71
     5
 72
     5
  1
\T1.40;\W0.60;尺
  7
STD
 73
     1
 44
1.0
1001
DEKIMAS
1040
0.15
1001
ASKOBJSC
1000
1/1
1001
ASKDWGSC
1040
8.0
1001
ACAD
1000
MTEXTBEGIN
1070
    73
1070
     1
1070
    44
1040
1.0
1070
    74
1070
     0
1000
MTEXTEND
  0
MTEXT
  5
113A
330
1F
100
AcDbEntity
  8
F00001_1
  6
Continuous
 62
     4
100
AcDbMText
 10
2250.982666339874
 20
259.9999999999904
 30
0.0
 40
16.0
 41
0.0
 71
     5
 72
     5
  1
\T1.40;\W0.60;月
  7
STD
 73
     1
 44
1.0
1001
DEKIMAS
1040
0.15
1001
ASKOBJSC
1000
1/1
1001
ASKDWGSC
1040
8.0
1001
ACAD
1000
MTEXTBEGIN
1070
    73
1070
     1
1070
    44
1040
1.0
1070
    74
1070
     0
1000
MTEXTEND
  0
MTEXT
  5
113B
330
1F
100
AcDbEntity
  8
F00001_1
  6
Continuous
 62
     4
100
AcDbMText
 10
2250.342666339874
 20
233.5999755859343
 30
0.0
 40
16.0
 41
0.0
 71
     5
 72
     5
  1
\T1.40;\W0.60;日
  7
STD
 73
     1
 44
1.0
1001
DEKIMAS
1040
0.15
1001
ASKOBJSC
1000
1/1
1001
ASKDWGSC
1040
8.0
1001
ACAD
1000
MTEXTBEGIN
1070
    73
1070
     1
1070
    44
1040
1.0
1070
    74
1070
     0
1000
MTEXTEND
  0
MTEXT
  5
113C
330
1F
100
AcDbEntity
  8
F00001_1
  6
Continuous
 62
     4
100
AcDbMText
 10
2251.622666339875
 20
246.7999267578065
 30
0.0
 40
16.0
 41
0.0
 71
     5
 72
     5
  1
\T1.40;\W0.60;・
  7
STD
 73
     1
 44
1.0
1001
DEKIMAS
1040
0.15
1001
ASKOBJSC
1000
1/1
1001
ASKDWGSC
1040
8.0
1001
ACAD
1000
MTEXTBEGIN
1070
    73
1070
     1
1070
    44
1040
1.0
1070
    74
1070
     0
1000
MTEXTEND
  0
MTEXT
  5
113D
330
1F
100
AcDbEntity
  8
F00001_1
  6
Continuous
 62
     4
100
AcDbMText
 10
2251.622666339875
 20
273.2000732421824
 30
0.0
 40
16.0
 41
0.0
 71
     5
 72
     5
  1
\T1.40;\W0.60;・
  7
STD
 73
     1
 44
1.0
1001
DEKIMAS
1040
0.15
1001
ASKOBJSC
1000
1/1
1001
ASKDWGSC
1040
8.0
1001
ACAD
1000
MTEXTBEGIN
1070
    73
1070
     1
1070
    44
1040
1.0
1070
    74
1070
     0
1000
MTEXTEND
  0
MTEXT
  5
113E
330
1F
100
AcDbEntity
  8
F00001_1
  6
Continuous
 62
     4
100
AcDbMText
 10
2251.622666339875
 20
286.3999023437422
 30
0.0
 40
16.0
 41
0.0
 71
     5
 72
     5
  1
\T1.40;\W0.60;年
  7
STD
 73
     1
 44
1.0
1001
DEKIMAS
1040
0.15
1001
ASKOBJSC
1000
1/1
1001
ASKDWGSC
1040
8.0
1001
ACAD
1000
MTEXTBEGIN
1070
    73
1070
     1
1070
    44
1040
1.0
1070
    74
1070
     0
1000
MTEXTEND
  0
MTEXT
  5
113F
330
1F
100
AcDbEntity
  8
F00001_1
  6
Continuous
 62
     4
100
AcDbMText
 10
2630.625999748231
 20
547.9999999999904
 30
0.0
 40
24.0
 41
0.0
 71
     5
 72
     5
  1
\T1.40;\W0.60;サイズ
  7
STD
 73
     1
 44
1.0
1001
DEKIMAS
1040
0.15
1001
ASKOBJSC
1000
1/1
1001
ASKDWGSC
1040
8.0
1001
ACAD
1000
MTEXTBEGIN
1070
    73
1070
     1
1070
    44
1040
1.0
1070
    74
1070
     0
1000
MTEXTEND
  0
MTEXT
  5
1140
330
1F
100
AcDbEntity
  8
F00001_1
  6
Continuous
 62
     4
100
AcDbMText
 10
2281.046738386104
 20
259.0424499511668
 30
0.0
 40
25.6
 41
0.0
 71
     4
 72
     5
  1
\T1.40;\W0.47;Ｓ６０．２．１３
  7
STD
 73
     1
 44
1.0
1001
DEKIMAS
1040
0.15
1001
ASKOBJSC
1000
1/1
1001
ASKDWGSC
1040
8.0
1001
ACAD
1000
MTEXTBEGIN
1070
    73
1070
     1
1070
    44
1040
1.0
1070
    74
1070
     0
1000
MTEXTEND
  0
MTEXT
  5
1141
330
1F
100
AcDbEntity
  8
F00001_1
  6
Continuous
 62
     4
100
AcDbMText
 10
2538.336203098257
 20
272.7279052734306
 30
0.0
 40
25.6
 41
0.0
 71
     4
 72
     5
  1
\T1.40;\W0.60;１
  7
STD
 73
     1
 44
1.0
1001
DEKIMAS
1040
0.15
1001
ASKOBJSC
1000
1/1
1001
ASKDWGSC
1040
8.0
1001
ACAD
1000
MTEXTBEGIN
1070
    73
1070
     1
1070
    44
1040
1.0
1070
    74
1070
     0
1000
MTEXTEND
  0
MTEXT
  5
1142
330
1F
100
AcDbEntity
  8
F00001_1
  6
Continuous
 62
     4
100
AcDbMText
 10
2576.519918918577
 20
247.2720947265584
 30
0.0
 40
25.6
 41
0.0
 71
     4
 72
     5
  1
\T1.40;\W0.60;８
  7
STD
 73
     1
 44
1.0
1001
DEKIMAS
1040
0.15
1001
ASKOBJSC
1000
1/1
1001
ASKDWGSC
1040
8.0
1001
ACAD
1000
MTEXTBEGIN
1070
    73
1070
     1
1070
    44
1040
1.0
1070
    74
1070
     0
1000
MTEXTEND
  0
MTEXT
  5
1143
330
1F
100
AcDbEntity
  8
F00001_1
  6
Continuous
 62
     4
100
AcDbMText
 10
2731.427499771118
 20
259.9999999999904
 30
0.0
 40
48.0
 41
0.0
 71
     4
 72
     5
  1
\T1.40;\W0.60;ＭＤドラム２００
  7
STD
 73
     1
 44
1.0
1001
DEKIMAS
1040
0.15
1001
ASKOBJSC
1000
1/1
1001
ASKDWGSC
1040
8.0
1001
ACAD
1000
MTEXTBEGIN
1070
    73
1070
     1
1070
    44
1040
1.0
1070
    74
1070
     0
1000
MTEXTEND
  0
MTEXT
  5
1144
330
1F
100
AcDbEntity
  8
F00001_1
  6
Continuous
 62
     4
100
AcDbMText
 10
2719.427499771118
 20
169.9999999999904
 30
0.0
 40
48.0
 41
0.0
 71
     4
 72
     5
  1
\T1.40;\W0.60;２２０５９７－１０
  7
STD
 73
     1
 44
1.0
1001
DEKIMAS
1040
0.15
1001
ASKOBJSC
1000
1/1
1001
ASKDWGSC
1040
8.0
1001
ACAD
1000
MTEXTBEGIN
1070
    73
1070
     1
1070
    44
1040
1.0
1070
    74
1070
     0
1000
MTEXTEND
  0
MTEXT
  5
1145
330
1F
100
AcDbEntity
  8
F00001_1
  6
Continuous
 62
     4
100
AcDbMText
 10
2363.226339816977
 20
339.2412796020466
 30
0.0
 40
25.6
 41
0.0
 71
     4
 72
     5
  1
\T1.40;\W0.60;川畑
  7
STD
 73
     1
 44
1.0
1001
DEKIMAS
1040
0.15
1001
ASKOBJSC
1000
1/1
1001
ASKDWGSC
1040
8.0
1001
ACAD
1000
MTEXTBEGIN
1070
    73
1070
     1
1070
    44
1040
1.0
1070
    74
1070
     0
1000
MTEXTEND
  0
MTEXT
  5
1146
330
1F
100
AcDbEntity
  8
画層1
  6
Continuous
 62
     4
100
AcDbMText
 10
3158.056135092337
 20
168.170918357639
 30
0.0
 40
25.6
 41
0.0
 71
     4
 72
     5
  1
\T1.40;\W0.60;３
  7
STD
 73
     1
 44
1.0
1001
DEKIMAS
1040
0.15
1001
ASKOBJSC
1000
1/1
1001
ASKDWGSC
1040
8.0
1001
ACAD
1000
MTEXTBEGIN
1070
    73
1070
     1
1070
    44
1040
1.0
1070
    74
1070
     0
1000
MTEXTEND
  0
MTEXT
  5
1147
330
1F
100
AcDbEntity
  8
画層1
  6
Continuous
 62
     4
100
AcDbMText
 10
218.4281251430511
 20
2194.000061035111
 30
0.0
 40
20.0
 41
0.0
 71
     4
 72
     5
  1
\T1.40;\W0.60;１
  7
STD
 73
     1
 44
1.0
1001
DEKIMAS
1040
0.15
1001
ASKOBJSC
1000
1/1
1001
ASKDWGSC
1040
8.0
1001
ACAD
1000
MTEXTBEGIN
1070
    73
1070
     1
1070
    44
1040
1.0
1070
    74
1070
     0
1000
MTEXTEND
  0
MTEXT
  5
1148
330
1F
100
AcDbEntity
  8
画層1
  6
Continuous
 62
     4
100
AcDbMText
 10
297.0279755592412
 20
2194.000061035111
 30
0.0
 40
25.6
 41
0.0
 71
     4
 72
     5
  1
\T1.40;\W0.60;マンホール蓋変更
  7
STD
 73
     1
 44
1.0
1001
DEKIMAS
1040
0.15
1001
ASKOBJSC
1000
1/1
1001
ASKDWGSC
1040
8.0
1001
ACAD
1000
MTEXTBEGIN
1070
    73
1070
     1
1070
    44
1040
1.0
1070
    74
1070
     0
1000
MTEXTEND
  0
MTEXT
  5
1149
330
1F
100
AcDbEntity
  8
画層1
  6
Continuous
 62
     4
100
AcDbMText
 10
710.1829722717787
 20
2194.000061035111
 30
0.0
 40
25.6
 41
0.0
 71
     5
 72
     5
  1
\T1.09;\W0.39;Ｓ６０．２．１３
  7
STD
 73
     1
 44
1.0
1001
DEKIMAS
1040
0.15
1001
ASKOBJSC
1000
1/1
1001
ASKDWGSC
1040
8.0
1001
ACAD
1000
MTEXTBEGIN
1070
    73
1070
     1
1070
    44
1040
1.0
1070
    74
1070
     0
1000
MTEXTEND
  0
MTEXT
  5
114A
330
1F
100
AcDbEntity
  8
画層1
  6
Continuous
 62
     4
100
AcDbMText
 10
830.6983997825623
 20
2194.000061035111
 30
0.0
 40
25.6
 41
0.0
 71
     5
 72
     5
  1
\T1.40;\W0.60;川畑
  7
STD
 73
     1
 44
1.0
1001
DEKIMAS
1040
0.15
1001
ASKOBJSC
1000
1/1
1001
ASKDWGSC
1040
8.0
1001
ACAD
1000
MTEXTBEGIN
1070
    73
1070
     1
1070
    44
1040
1.0
1070
    74
1070
     0
1000
MTEXTEND
  0
MTEXT
  5
114B
330
1F
100
AcDbEntity
  8
F00001_1
  6
Continuous
 62
     4
100
AcDbMText
 10
2328.080954074817
 20
699.1135253905508
 30
0.0
 40
25.6
 41
0.0
 71
     4
 72
     5
  1
\T1.40;\W0.60;注記　１．材質：ポリエチレン
  7
STD
 73
     1
 44
1.0
1001
DEKIMAS
1040
0.15
1001
ASKOBJSC
1000
1/1
1001
ASKDWGSC
1040
8.0
1001
ACAD
1000
MTEXTBEGIN
1070
    73
1070
     1
1070
    44
1040
1.0
1070
    74
1070
     0
1000
MTEXTEND
  0
MTEXT
  5
114C
330
1F
100
AcDbEntity
  8
画層1
  6
Continuous
 62
     4
100
AcDbMText
 10
218.4281251430511
 20
2146.000061035111
 30
0.0
 40
20.0
 41
0.0
 71
     4
 72
     5
  1
\T1.40;\W0.60;２
  7
STD
 73
     1
 44
1.0
1001
DEKIMAS
1040
0.15
1001
ASKOBJSC
1000
1/1
1001
ASKDWGSC
1040
8.0
1001
ACAD
1000
MTEXTBEGIN
1070
    73
1070
     1
1070
    44
1040
1.0
1070
    74
1070
     0
1000
MTEXTEND
  0
MTEXT
  5
114D
330
1F
100
AcDbEntity
  8
画層1
  6
Continuous
 62
     4
100
AcDbMText
 10
297.0279755592412
 20
2146.000061035111
 30
0.0
 40
25.6
 41
0.0
 71
     4
 72
     5
  1
\T1.40;\W0.60;ＣＡＤ化
  7
STD
 73
     1
 44
1.0
1001
DEKIMAS
1040
0.15
1001
ASKOBJSC
1000
1/1
1001
ASKDWGSC
1040
8.0
1001
ACAD
1000
MTEXTBEGIN
1070
    73
1070
     1
1070
    44
1040
1.0
1070
    74
1070
     0
1000
MTEXTEND
  0
MTEXT
  5
114E
330
1F
100
AcDbEntity
  8
画層1
  6
Continuous
 62
     4
100
AcDbMText
 10
710.206181536759
 20
2146.000061035111
 30
0.0
 40
25.6
 41
0.0
 71
     5
 72
     5
  1
\T1.09;\W0.39;Ｈ１５．１０．２８
  7
STD
 73
     1
 44
1.0
1001
DEKIMAS
1040
0.15
1001
ASKOBJSC
1000
1/1
1001
ASKDWGSC
1040
8.0
1001
ACAD
1000
MTEXTBEGIN
1070
    73
1070
     1
1070
    44
1040
1.0
1070
    74
1070
     0
1000
MTEXTEND
  0
MTEXT
  5
114F
330
1F
100
AcDbEntity
  8
画層1
  6
Continuous
 62
     4
100
AcDbMText
 10
830.6983997825623
 20
2146.000061035111
 30
0.0
 40
25.6
 41
0.0
 71
     5
 72
     5
  1
\T1.40;\W0.60;坂木
  7
STD
 73
     1
 44
1.0
1001
DEKIMAS
1040
0.15
1001
ASKOBJSC
1000
1/1
1001
ASKDWGSC
1040
8.0
1001
ACAD
1000
MTEXTBEGIN
1070
    73
1070
     1
1070
    44
1040
1.0
1070
    74
1070
     0
1000
MTEXTEND
  0
MTEXT
  5
1150
330
1F
100
AcDbEntity
  8
F00001_1
  6
Continuous
 62
     4
100
AcDbMText
 10
2328.080954074817
 20
739.1135253905509
 30
0.0
 40
25.6
 41
0.0
 71
     4
 72
     5
  1
\T1.40;\W0.60;　　　２．タンク寸法公差：\U+00B1１～１．５％
  7
STD
 73
     1
 44
1.0
1001
DEKIMAS
1040
0.15
1001
ASKOBJSC
1000
1/1
1001
ASKDWGSC
1040
8.0
1001
ACAD
1000
MTEXTBEGIN
1070
    73
1070
     1
1070
    44
1040
1.0
1070
    74
1070
     0
1000
MTEXTEND
  0
MTEXT
  5
1151
330
1F
100
AcDbEntity
  8
画層1
  6
Continuous
 62
     4
100
AcDbMText
 10
930.4281251430511
 20
2246.000061035111
 30
0.0
 40
20.0
 41
0.0
 71
     4
 72
     5
  1
\T1.40;\W0.60;３
  7
STD
 73
     1
 44
1.0
1001
DEKIMAS
1040
0.15
1001
ASKOBJSC
1000
1/1
1001
ASKDWGSC
1040
8.0
1001
ACAD
1000
MTEXTBEGIN
1070
    73
1070
     1
1070
    44
1040
1.0
1070
    74
1070
     0
1000
MTEXTEND
  0
MTEXT
  5
1152
330
1F
100
AcDbEntity
  8
画層1
  6
Continuous
 62
     4
100
AcDbMText
 10
1009.831422567374
 20
2246.000061035111
 30
0.0
 40
25.6
 41
0.0
 71
     4
 72
     5
  1
\T1.40;\W0.49;ハンドホール変更により全高修正
  7
STD
 73
     1
 44
1.0
1001
DEKIMAS
1040
0.15
1001
ASKOBJSC
1000
1/1
1001
ASKDWGSC
1040
8.0
1001
ACAD
1000
MTEXTBEGIN
1070
    73
1070
     1
1070
    44
1040
1.0
1070
    74
1070
     0
1000
MTEXTEND
  0
MTEXT
  5
1153
330
1F
100
AcDbEntity
  8
画層1
  6
Continuous
 62
     4
100
AcDbMText
 10
1422.182972271779
 20
2246.000061035111
 30
0.0
 40
25.6
 41
0.0
 71
     5
 72
     5
  1
\T1.09;\W0.39;Ｈ１８．３．２９
  7
STD
 73
     1
 44
1.0
1001
DEKIMAS
1040
0.15
1001
ASKOBJSC
1000
1/1
1001
ASKDWGSC
1040
8.0
1001
ACAD
1000
MTEXTBEGIN
1070
    73
1070
     1
1070
    44
1040
1.0
1070
    74
1070
     0
1000
MTEXTEND
  0
MTEXT
  5
1154
330
1F
100
AcDbEntity
  8
画層1
  6
Continuous
 62
     4
100
AcDbMText
 10
1542.698399782562
 20
2246.000061035111
 30
0.0
 40
25.6
 41
0.0
 71
     5
 72
     5
  1
\T1.40;\W0.60;矢島
  7
STD
 73
     1
 44
1.0
1001
DEKIMAS
1040
0.15
1001
ASKOBJSC
1000
1/1
1001
ASKDWGSC
1040
8.0
1001
ACAD
1000
MTEXTBEGIN
1070
    73
1070
     1
1070
    44
1040
1.0
1070
    74
1070
     0
1000
MTEXTEND
  0
MTEXT
  5
1155
330
1F
100
AcDbEntity
  8
F00001_1
  6
Continuous
 62
     4
100
AcDbMText
 10
2286.698666334534
 20
339.9999999999904
 30
0.0
 40
25.6
 41
0.0
 71
     5
 72
     5
  1
\T1.40;\W0.60;川畑
  7
STD
 73
     1
 44
1.0
1001
DEKIMAS
1040
0.15
1001
ASKOBJSC
1000
1/1
1001
ASKDWGSC
1040
8.0
1001
ACAD
1000
MTEXTBEGIN
1070
    73
1070
     1
1070
    44
1040
1.0
1070
    74
1070
     0
1000
MTEXTEND
  0
POINT
  5
1157
330
1F
100
AcDbEntity
  8
RH0901_8
  6
Continuous
 62
     4
100
AcDbPoint
 10
1744.192443666759
 20
1296.425598111711
 30
0.0
 50
90.00000001175157
  0
POINT
  5
1158
330
1F
100
AcDbEntity
  8
RH0901_8
  6
Continuous
 62
     4
100
AcDbPoint
 10
1744.192443666759
 20
1296.425598111711
 30
0.0
 50
90.00000001175157
  0
LINE
  5
1159
330
1F
100
AcDbEntity
  8
RH0901_8
  6
Continuous
 62
     7
100
AcDbLine
 10
1497.47625732423
 20
414.4255980611091
 30
0.0
 11
2047.47625732423
 21
414.425598173916
 31
0.0
1001
DEKIMAS
1000
実線（中）
1040
0.25
1001
DIMEXPLODE
1070
     0
  0
LINE
  5
115A
330
1F
100
AcDbEntity
  8
RH0901_8
  6
CENTER2
 62
     1
100
AcDbLine
 10
1772.476257139037
 20
1317.351257297192
 30
0.0
 11
1772.476257330112
 21
385.7489013401696
 31
0.0
1001
DEKIMAS
1000
一点鎖線（細）
1040
0.15
1001
DIMEXPLODE
1070
     0
  0
LINE
  5
115B
330
1F
100
AcDbEntity
  8
RH0901_8
  6
Continuous
 62
     7
100
AcDbLine
 10
1532.243713198429
 20
1294.42559806824
 30
0.0
 11
2047.476257143739
 21
1294.425598173916
 31
0.0
1001
DEKIMAS
1000
実線（中）
1040
0.25
1001
DIMEXPLODE
1070
     0
  0
LINE
  5
115C
330
1F
100
AcDbEntity
  8
RH0901_8
  6
Continuous
 62
     7
100
AcDbLine
 10
1482.476257152969
 20
1249.425598058033
 30
0.0
 11
1482.476257321153
 21
429.4255980580325
 31
0.0
1001
DEKIMAS
1000
実線（中）
1040
0.25
1001
DIMEXPLODE
1070
     0
  0
LINE
  5
115D
330
1F
100
AcDbEntity
  8
RH0901_8
  6
Continuous
 62
     7
100
AcDbLine
 10
2062.476257146816
 20
1279.425598176993
 30
0.0
 11
2062.476257321153
 21
429.4255981769926
 31
0.0
1001
DEKIMAS
1000
実線（中）
1040
0.25
1001
DIMEXPLODE
1070
     0
  0
LINE
  5
115E
330
1F
100
AcDbEntity
  8
RH0901_8
  6
HIDDEN2
 62
     4
100
AcDbLine
 10
1952.476257320128
 20
434.4255981544312
 30
0.0
 11
1995.929260249808
 21
434.4255981633436
 31
0.0
1001
DEKIMAS
1000
破線（細）
1040
0.15
1001
DIMEXPLODE
1070
     0
  0
LINE
  5
115F
330
1F
100
AcDbEntity
  8
RH0901_8
  6
HIDDEN2
 62
     4
 48
0.5
100
AcDbLine
 10
1995.929255684818
 20
434.4256427590716
 30
0.0
 11
2007.47625394706
 21
414.4256578465967
 31
0.0
1001
DEKIMAS
1000
破線（細）
1040
0.15
1001
DIMEXPLODE
1070
     0
  0
LINE
  5
1160
330
1F
100
AcDbEntity
  8
RH0901_8
  6
HIDDEN2
 62
     4
 48
0.5
100
AcDbLine
 10
1932.47628569277
 20
414.4256007334286
 30
0.0
 11
1952.476264947308
 21
434.4255783102972
 31
0.0
1001
DEKIMAS
1000
破線（細）
1040
0.15
1001
DIMEXPLODE
1070
     0
  0
LINE
  5
1161
330
1F
100
AcDbEntity
  8
RH0901_8
  6
HIDDEN2
 62
     4
 48
0.5
100
AcDbLine
 10
1612.47622103699
 20
414.425603593789
 30
0.0
 11
1592.476241774248
 21
434.4255811624528
 31
0.0
1001
DEKIMAS
1000
破線（細）
1040
0.15
1001
DIMEXPLODE
1070
     0
  0
LINE
  5
1162
330
1F
100
AcDbEntity
  8
RH0901_8
  6
HIDDEN2
 62
     4
100
AcDbLine
 10
1592.476257320128
 20
434.4255980805939
 30
0.0
 11
1549.023254390448
 21
434.4255980716815
 31
0.0
1001
DEKIMAS
1000
破線（細）
1040
0.15
1001
DIMEXPLODE
1070
     0
  0
LINE
  5
1163
330
1F
100
AcDbEntity
  8
RH0901_8
  6
HIDDEN2
 62
     4
 48
0.5
100
AcDbLine
 10
1549.023245788588
 20
434.4256253989755
 30
0.0
 11
1537.47624753456
 21
414.4256404817643
 31
0.0
1001
DEKIMAS
1000
破線（細）
1040
0.15
1001
DIMEXPLODE
1070
     0
  0
LINE
  5
1164
330
1F
100
AcDbEntity
  8
RH0901_8
  6
HIDDEN2
 62
     4
100
AcDbLine
 10
1752.476196116787
 20
1254.42559811341
 30
0.0
 11
1524.620055980073
 21
1254.425598066676
 31
0.0
1001
DEKIMAS
1000
破線（細）
1040
0.15
1001
DIMEXPLODE
1070
     0
  0
LINE
  5
1165
330
1F
100
AcDbEntity
  8
RH0901_8
  6
Continuous
 62
     7
100
AcDbLine
 10
1527.305869612753
 20
1290.211782096407
 30
0.0
 11
1522.279156197269
 21
1258.639403636986
 31
0.0
1001
DEKIMAS
1000
実線（中）
1040
0.25
1001
DIMEXPLODE
1070
     0
  0
LINE
  5
1166
330
1F
100
AcDbEntity
  8
RH0901_8
  6
HIDDEN2
 62
     4
100
AcDbLine
 10
1761.529381432209
 20
1290.638287359797
 30
0.0
 11
1753.423030819054
 21
1258.212884878914
 31
0.0
1001
DEKIMAS
1000
破線（細）
1040
0.15
1001
DIMEXPLODE
1070
     0
  0
LINE
  5
1167
330
1F
100
AcDbEntity
  8
RH0901_8
  6
Continuous
 62
     7
 48
0.5
100
AcDbLine
 10
1517.341369456633
 20
1254.425598065183
 30
0.0
 11
1487.476257151943
 21
1254.425598059058
 31
0.0
1001
DEKIMAS
1000
実線（中）
1040
0.25
1001
DIMEXPLODE
1070
     0
  0
LINE
  5
1168
330
1F
100
AcDbEntity
  8
RH0901_8
  6
CENTER2
 62
     1
100
AcDbLine
 10
1612.476318172556
 20
1325.351318299536
 30
0.0
 11
1612.476318191978
 21
1230.656310975316
 31
0.0
1001
DEKIMAS
1000
一点鎖線（細）
1040
0.15
1001
DIMEXPLODE
1070
     0
  0
LINE
  5
1169
330
1F
100
AcDbEntity
  8
RH0901_8
  6
HIDDEN2
 62
     4
100
AcDbLine
 10
1697.476318179716
 20
1290.42559810213
 30
0.0
 11
1527.476318179719
 21
1290.425598067262
 31
0.0
1001
DEKIMAS
1000
破線（細）
1040
0.15
1001
DIMEXPLODE
1070
     0
  0
LINE
  5
116A
330
1F
100
AcDbEntity
  8
RH0901_8
  6
HIDDEN2
 62
     4
100
AcDbLine
 10
1699.976318186485
 20
1257.425476032322
 30
0.0
 11
1524.976318186488
 21
1257.425475996429
 31
0.0
1001
DEKIMAS
1000
破線（細）
1040
0.15
1001
DIMEXPLODE
1070
     0
  0
LINE
  5
116B
330
1F
100
AcDbEntity
  8
RH0901_8
  6
HIDDEN2
 62
     4
 48
0.5
100
AcDbLine
 10
1527.476318180335
 20
1287.425598067262
 30
0.0
 11
1527.476318185462
 21
1262.425353926632
 31
0.0
1001
DEKIMAS
1000
破線（細）
1040
0.15
1001
DIMEXPLODE
1070
     0
  0
LINE
  5
116C
330
1F
100
AcDbEntity
  8
RH0901_8
  6
HIDDEN2
 62
     4
 48
0.5
100
AcDbLine
 10
1529.976318186488
 20
1257.425475997455
 30
0.0
 11
1529.976318186693
 21
1256.425475997455
 31
0.0
1001
DEKIMAS
1000
破線（細）
1040
0.15
1001
DIMEXPLODE
1070
     0
  0
LINE
  5
116D
330
1F
100
AcDbEntity
  8
RH0901_8
  6
HIDDEN2
 62
     4
 48
0.5
100
AcDbLine
 10
1522.476318186043
 20
1259.595275800607
 30
0.0
 11
1522.47631818635
 21
1258.095275800606
 31
0.0
1001
DEKIMAS
1000
破線（細）
1040
0.15
1001
DIMEXPLODE
1070
     0
  0
LINE
  5
116E
330
1F
100
AcDbEntity
  8
RH0901_8
  6
HIDDEN2
 62
     4
100
AcDbLine
 10
1651.465453927652
 20
1262.425476022373
 30
0.0
 11
1573.487182443272
 21
1262.425476006379
 31
0.0
1001
DEKIMAS
1000
破線（細）
1040
0.15
1001
DIMEXPLODE
1070
     0
  0
LINE
  5
116F
330
1F
100
AcDbEntity
  8
RH0901_8
  6
HIDDEN2
 62
     4
 48
0.5
100
AcDbLine
 10
1522.47625515076
 20
1258.095001259806
 30
0.0
 11
1524.976260336248
 21
1257.425126961349
 31
0.0
1001
DEKIMAS
1000
破線（細）
1040
0.15
1001
DIMEXPLODE
1070
     0
  0
LINE
  5
1170
330
1F
100
AcDbEntity
  8
RH0901_8
  6
HIDDEN2
 62
     4
100
AcDbLine
 10
1707.476318186347
 20
1258.095275838551
 30
0.0
 11
1522.19250470979
 21
1258.095275800548
 31
0.0
1001
DEKIMAS
1000
破線（細）
1040
0.15
1001
DIMEXPLODE
1070
     0
  0
LINE
  5
1171
330
1F
100
AcDbEntity
  8
RH0901_8
  6
HIDDEN2
 62
     4
100
AcDbLine
 10
1651.465453928233
 20
1259.595275827063
 30
0.0
 11
1573.487182443853
 21
1259.595275811069
 31
0.0
1001
DEKIMAS
1000
破線（細）
1040
0.15
1001
DIMEXPLODE
1070
     0
  0
LINE
  5
1172
330
1F
100
AcDbEntity
  8
RH0901_8
  6
HIDDEN2
 62
     4
 48
0.5
100
AcDbLine
 10
1527.476058815962
 20
1262.425931555592
 30
0.0
 11
1522.476004851402
 21
1259.595730178797
 31
0.0
1001
DEKIMAS
1000
破線（細）
1040
0.15
1001
DIMEXPLODE
1070
     0
  0
LINE
  5
1173
330
1F
100
AcDbEntity
  8
RH0901_8
  6
Continuous
 62
     7
 48
0.5
100
AcDbLine
 10
1517.47631818177
 20
1280.425537030051
 30
0.0
 11
1517.47631818635
 21
1258.095275799581
 31
0.0
1001
DEKIMAS
1000
実線（中）
1040
0.25
1001
DIMEXPLODE
1070
     0
  0
LINE
  5
1174
330
1F
100
AcDbEntity
  8
RH0901_8
  6
HIDDEN2
 62
     4
 48
0.5
100
AcDbLine
 10
1697.476318180332
 20
1287.42559810213
 30
0.0
 11
1697.476318185459
 21
1262.4253539615
 31
0.0
1001
DEKIMAS
1000
破線（細）
1040
0.15
1001
DIMEXPLODE
1070
     0
  0
LINE
  5
1175
330
1F
100
AcDbEntity
  8
RH0901_8
  6
HIDDEN2
 62
     4
 48
0.5
100
AcDbLine
 10
1702.47631818604
 20
1259.595275837525
 30
0.0
 11
1702.476318186347
 21
1258.095275837525
 31
0.0
1001
DEKIMAS
1000
破線（細）
1040
0.15
1001
DIMEXPLODE
1070
     0
  0
LINE
  5
1176
330
1F
100
AcDbEntity
  8
RH0901_8
  6
HIDDEN2
 62
     4
 48
0.5
100
AcDbLine
 10
1697.476504350427
 20
1262.42624653701
 30
0.0
 11
1702.476478641635
 21
1259.596090260775
 31
0.0
1001
DEKIMAS
1000
破線（細）
1040
0.15
1001
DIMEXPLODE
1070
     0
  0
LINE
  5
1177
330
1F
100
AcDbEntity
  8
RH0901_8
  6
HIDDEN2
 62
     4
 48
0.5
100
AcDbLine
 10
1702.476350838604
 20
1258.095021655465
 30
0.0
 11
1699.976345653395
 21
1257.425147355982
 31
0.0
1001
DEKIMAS
1000
破線（細）
1040
0.15
1001
DIMEXPLODE
1070
     0
  0
LINE
  5
1178
330
1F
100
AcDbEntity
  8
RH0901_8
  6
HIDDEN2
 62
     4
 48
0.5
100
AcDbLine
 10
1707.476318181767
 20
1280.425537069021
 30
0.0
 11
1707.476318186347
 21
1258.095275838551
 31
0.0
1001
DEKIMAS
1000
破線（細）
1040
0.15
1001
DIMEXPLODE
1070
     0
  0
LINE
  5
1179
330
1F
100
AcDbEntity
  8
RH0901_8
  6
HIDDEN2
 62
     4
 48
0.5
100
AcDbLine
 10
1694.976318186485
 20
1257.425476031297
 30
0.0
 11
1694.97631818669
 21
1256.425476031297
 31
0.0
1001
DEKIMAS
1000
破線（細）
1040
0.15
1001
DIMEXPLODE
1070
     0
  0
LINE
  5
117A
330
1F
100
AcDbEntity
  8
RH0901_8
  6
HIDDEN2
 62
     4
 48
0.5
100
AcDbLine
 10
1567.31530744416
 20
1258.095275809803
 30
0.0
 11
1567.315307438555
 21
1285.425414969963
 31
0.0
1001
DEKIMAS
1000
破線（細）
1040
0.15
1001
DIMEXPLODE
1070
     0
  0
LINE
  5
117B
330
1F
100
AcDbEntity
  8
RH0901_8
  6
HIDDEN2
 62
     4
100
AcDbLine
 10
1573.48718244416
 20
1258.095275811069
 30
0.0
 11
1573.487182437529
 21
1290.425476006379
 31
0.0
1001
DEKIMAS
1000
破線（細）
1040
0.15
1001
DIMEXPLODE
1070
     0
  0
LINE
  5
117C
330
1F
100
AcDbEntity
  8
RH0901_8
  6
HIDDEN2
 62
     4
 48
0.5
100
AcDbLine
 10
1564.0930174051
 20
1258.095275809142
 30
0.0
 11
1564.093017399495
 21
1285.425414969302
 31
0.0
1001
DEKIMAS
1000
破線（細）
1040
0.15
1001
DIMEXPLODE
1070
     0
  0
LINE
  5
117D
330
1F
100
AcDbEntity
  8
RH0901_8
  6
HIDDEN2
 62
     4
100
AcDbLine
 10
1564.093017404212
 20
1262.425476004452
 30
0.0
 11
1527.476318185462
 21
1262.425475996942
 31
0.0
1001
DEKIMAS
1000
破線（細）
1040
0.15
1001
DIMEXPLODE
1070
     0
  0
LINE
  5
117E
330
1F
100
AcDbEntity
  8
RH0901_8
  6
HIDDEN2
 62
     4
100
AcDbLine
 10
1564.093017404793
 20
1259.595275809142
 30
0.0
 11
1522.476379221203
 21
1259.595275800607
 31
0.0
1001
DEKIMAS
1000
破線（細）
1040
0.15
1001
DIMEXPLODE
1070
     0
  0
LINE
  5
117F
330
1F
100
AcDbEntity
  8
RH0901_8
  6
HIDDEN2
 62
     4
100
AcDbLine
 10
1651.46545392854
 20
1258.095275827063
 30
0.0
 11
1651.465453921909
 21
1290.425476022373
 31
0.0
1001
DEKIMAS
1000
破線（細）
1040
0.15
1001
DIMEXPLODE
1070
     0
  0
LINE
  5
1180
330
1F
100
AcDbEntity
  8
RH0901_8
  6
HIDDEN2
 62
     4
 48
0.5
100
AcDbLine
 10
1657.63726789338
 20
1258.095275828329
 30
0.0
 11
1657.637267887775
 21
1285.425414988488
 31
0.0
1001
DEKIMAS
1000
破線（細）
1040
0.15
1001
DIMEXPLODE
1070
     0
  0
LINE
  5
1181
330
1F
100
AcDbEntity
  8
RH0901_8
  6
HIDDEN2
 62
     4
 48
0.5
100
AcDbLine
 10
1660.8596189676
 20
1258.09527582899
 30
0.0
 11
1660.859618961995
 21
1285.425414989149
 31
0.0
1001
DEKIMAS
1000
破線（細）
1040
0.15
1001
DIMEXPLODE
1070
     0
  0
LINE
  5
1182
330
1F
100
AcDbEntity
  8
RH0901_8
  6
HIDDEN2
 62
     4
100
AcDbLine
 10
1660.859618966712
 20
1262.425476024299
 30
0.0
 11
1697.476318185459
 21
1262.42547603181
 31
0.0
1001
DEKIMAS
1000
破線（細）
1040
0.15
1001
DIMEXPLODE
1070
     0
  0
LINE
  5
1183
330
1F
100
AcDbEntity
  8
RH0901_8
  6
HIDDEN2
 62
     4
100
AcDbLine
 10
1660.859618967293
 20
1259.59527582899
 30
0.0
 11
1702.476257150882
 21
1259.595275837525
 31
0.0
1001
DEKIMAS
1000
破線（細）
1040
0.15
1001
DIMEXPLODE
1070
     0
  0
LINE
  5
1184
330
1F
100
AcDbEntity
  8
RH0901_8
  6
Continuous
 62
     7
 48
0.5
100
AcDbLine
 10
1522.19250470979
 20
1258.095275800548
 30
0.0
 11
1517.47631818635
 21
1258.095275799581
 31
0.0
1001
DEKIMAS
1000
実線（中）
1040
0.25
1001
DIMEXPLODE
1070
     0
  0
LINE
  5
1185
330
1F
100
AcDbEntity
  8
RH0901_8
  6
Continuous
 62
     7
100
AcDbLine
 10
1609.8416748047
 20
414.4255980841559
 30
0.0
 11
1609.841674790343
 21
484.4255980841555
 31
0.0
1001
DEKIMAS
1000
実線（中）
1040
0.25
1001
DIMEXPLODE
1070
     0
  0
LINE
  5
1186
330
1F
100
AcDbEntity
  8
RH0901_8
  6
Continuous
 62
     7
100
AcDbLine
 10
1524.98876953127
 20
414.4255980667526
 30
0.0
 11
1524.988769516913
 21
484.425598066751
 31
0.0
1001
DEKIMAS
1000
実線（中）
1040
0.25
1001
DIMEXPLODE
1070
     0
  0
LINE
  5
1187
330
1F
100
AcDbEntity
  8
RH0901_8
  6
CENTER2
 62
     1
100
AcDbLine
 10
1499.500366196593
 20
484.4255980615242
 30
0.0
 11
1634.777832016913
 21
484.4255980892701
 31
0.0
1001
DEKIMAS
1000
一点鎖線（細）
1040
0.15
1001
DIMEXPLODE
1070
     0
  0
LINE
  5
1188
330
1F
100
AcDbEntity
  8
RH0901_8
  6
CENTER2
 62
     1
100
AcDbLine
 10
1567.415100102151
 20
392.5791796947168
 30
0.0
 11
1567.415100067223
 21
562.8719634318938
 31
0.0
1001
DEKIMAS
1000
一点鎖線（細）
1040
0.15
1001
DIMEXPLODE
1070
     0
  0
LINE
  5
1189
330
1F
100
AcDbEntity
  8
RH0901_8
  6
Continuous
 62
     7
100
AcDbLine
 10
1614.27856445314
 20
414.4255980850659
 30
0.0
 11
1614.278564438783
 21
484.4255980850656
 31
0.0
1001
DEKIMAS
1000
実線（中）
1040
0.25
1001
DIMEXPLODE
1070
     0
  0
LINE
  5
118A
330
1F
100
AcDbEntity
  8
RH0901_8
  6
Continuous
 62
     7
100
AcDbLine
 10
1737.476257180658
 20
1114.425598110334
 30
0.0
 11
1807.476257180658
 21
1114.425598124691
 31
0.0
1001
DEKIMAS
1000
実線（中）
1040
0.25
1001
DIMEXPLODE
1070
     0
  0
LINE
  5
118B
330
1F
100
AcDbEntity
  8
RH0901_8
  6
Continuous
 62
     7
100
AcDbLine
 10
1737.476257170402
 20
1164.425537075174
 30
0.0
 11
1807.476257170402
 21
1164.425537089531
 31
0.0
1001
DEKIMAS
1000
実線（中）
1040
0.25
1001
DIMEXPLODE
1070
     0
  0
LINE
  5
118C
330
1F
100
AcDbEntity
  8
RH0901_8
  6
Continuous
 62
     7
100
AcDbLine
 10
1812.476083550833
 20
1163.085784836247
 30
0.0
 11
1816.815746152461
 21
1120.851979971017
 31
0.0
1001
DEKIMAS
1000
実線（中）
1040
0.25
1001
DIMEXPLODE
1070
     0
  0
LINE
  5
118D
330
1F
100
AcDbEntity
  8
RH0901_8
  6
Continuous
 62
     7
100
AcDbLine
 10
1732.333994323733
 20
1163.002110822529
 30
0.0
 11
1728.12267408392
 21
1120.888910859815
 31
0.0
1001
DEKIMAS
1000
実線（中）
1040
0.25
1001
DIMEXPLODE
1070
     0
  0
LINE
  5
118E
330
1F
100
AcDbEntity
  8
RH0901_8
  6
Continuous
 62
     7
100
AcDbLine
 10
1727.476257178606
 20
1124.425598108283
 30
0.0
 11
1727.476257172454
 21
1154.425598108283
 31
0.0
1001
DEKIMAS
1000
実線（中）
1040
0.25
1001
DIMEXPLODE
1070
     0
  0
LINE
  5
118F
330
1F
100
AcDbEntity
  8
RH0901_8
  6
Continuous
 62
     7
100
AcDbLine
 10
1817.476257178606
 20
1124.425598126742
 30
0.0
 11
1817.476257172453
 21
1154.425598126742
 31
0.0
1001
DEKIMAS
1000
実線（中）
1040
0.25
1001
DIMEXPLODE
1070
     0
  0
ARC
  5
1190
330
1F
100
AcDbEntity
  8
RH0901_8
  6
Continuous
 62
     7
 48
0.5
100
AcDbCircle
 10
2047.476257321153
 20
429.4255981739159
 30
0.0
 40
15.0
100
AcDbArc
 50
270.0000179978366
 51
0.0000000117508519
1001
DEKIMAS
1000
実線（中）
1040
0.25
1001
DIMEXPLODE
1070
     0
  0
ARC
  5
1191
330
1F
100
AcDbEntity
  8
RH0901_8
  6
Continuous
 62
     7
 48
0.5
100
AcDbCircle
 10
1497.476257321153
 20
429.425598061109
 30
0.0
 40
15.0
100
AcDbArc
 50
179.9999776999511
 51
270.0000280157505
1001
DEKIMAS
1000
実線（中）
1040
0.25
1001
DIMEXPLODE
1070
     0
  0
ARC
  5
1192
330
1F
100
AcDbEntity
  8
RH0901_8
  6
HIDDEN2
 62
     4
100
AcDbCircle
 10
1772.476257848782
 20
-2143.074401882487
 30
0.0
 40
2562.5
100
AcDbArc
 50
86.42017742881636
 51
93.57984809420035
1001
DEKIMAS
1000
破線（細）
1040
0.15
1001
DIMEXPLODE
1070
     0
  0
ARC
  5
1193
330
1F
100
AcDbEntity
  8
RH0901_8
  6
Continuous
 62
     7
 48
0.5
100
AcDbCircle
 10
2047.476257146816
 20
1279.425598173916
 30
0.0
 40
15.0
100
AcDbArc
 50
0.0000359839289268
 51
90.00001617661093
1001
DEKIMAS
1000
実線（中）
1040
0.25
1001
DIMEXPLODE
1070
     0
  0
ARC
  5
1194
330
1F
100
AcDbEntity
  8
RH0901_8
  6
Continuous
 62
     7
 48
0.5
100
AcDbCircle
 10
1517.341369455607
 20
1259.425598065183
 30
0.0
 40
5.0
100
AcDbArc
 50
269.9999975072691
 51
350.9537294985481
1001
DEKIMAS
1000
実線（中）
1040
0.25
1001
DIMEXPLODE
1070
     0
  0
ARC
  5
1195
330
1F
100
AcDbEntity
  8
RH0901_8
  6
Continuous
 62
     7
 48
0.5
100
AcDbCircle
 10
1532.243713199454
 20
1289.42559806824
 30
0.0
 40
5.0
100
AcDbArc
 50
90.00000251623259
 51
170.9537336537286
1001
DEKIMAS
1000
実線（中）
1040
0.25
1001
DIMEXPLODE
1070
     0
  0
ARC
  5
1196
330
1F
100
AcDbEntity
  8
RH0901_8
  6
HIDDEN2
 62
     4
 48
0.5
100
AcDbCircle
 10
1748.572326486856
 20
1259.425598112609
 30
0.0
 40
5.0
100
AcDbArc
 50
269.9999975072691
 51
345.963756361699
1001
DEKIMAS
1000
破線（細）
1040
0.15
1001
DIMEXPLODE
1070
     0
  0
ARC
  5
1197
330
1F
100
AcDbEntity
  8
RH0901_8
  6
HIDDEN2
 62
     4
 48
0.5
100
AcDbCircle
 10
1766.380065738514
 20
1289.425598116262
 30
0.0
 40
5.0
100
AcDbArc
 50
90.00000251623259
 51
165.9637613706535
1001
DEKIMAS
1000
破線（細）
1040
0.15
1001
DIMEXPLODE
1070
     0
  0
ARC
  5
1198
330
1F
100
AcDbEntity
  8
RH0901_8
  6
Continuous
 62
     7
 48
0.5
100
AcDbCircle
 10
1487.476257152968
 20
1249.425598059058
 30
0.0
 40
5.0
100
AcDbArc
 50
90.00000251623259
 51
180.0000050207078
1001
DEKIMAS
1000
実線（中）
1040
0.25
1001
DIMEXPLODE
1070
     0
  0
ARC
  5
1199
330
1F
100
AcDbEntity
  8
RH0901_8
  6
HIDDEN2
 62
     4
 48
0.5
100
AcDbCircle
 10
1696.97631818669
 20
1256.425537066867
 30
0.0
 40
1.999999880790699
100
AcDbArc
 50
179.9999640395727
 51
269.9999460534804
1001
DEKIMAS
1000
破線（細）
1040
0.15
1001
DIMEXPLODE
1070
     0
  0
ARC
  5
119A
330
1F
100
AcDbEntity
  8
RH0901_8
  6
HIDDEN2
 62
     4
 48
0.5
100
AcDbCircle
 10
1694.476318180331
 20
1287.425598101515
 30
0.0
 40
2.999999761581399
100
AcDbArc
 50
0.0000000117508519
 51
89.99998202565205
1001
DEKIMAS
1000
破線（細）
1040
0.15
1001
DIMEXPLODE
1070
     0
  0
ARC
  5
119B
330
1F
100
AcDbEntity
  8
RH0901_8
  6
HIDDEN2
 62
     4
 48
0.5
100
AcDbCircle
 10
1530.476318180335
 20
1287.425598067877
 30
0.0
 40
2.999999761581399
100
AcDbArc
 50
89.99998202565205
 51
179.9999640395727
1001
DEKIMAS
1000
破線（細）
1040
0.15
1001
DIMEXPLODE
1070
     0
  0
ARC
  5
119C
330
1F
100
AcDbEntity
  8
RH0901_8
  6
HIDDEN2
 62
     4
 48
0.5
100
AcDbCircle
 10
1697.476318181767
 20
1280.42553706697
 30
0.0
 40
10.0
100
AcDbArc
 50
0.0000000117508519
 51
89.99998202565205
1001
DEKIMAS
1000
破線（細）
1040
0.15
1001
DIMEXPLODE
1070
     0
  0
ARC
  5
119D
330
1F
100
AcDbEntity
  8
RH0901_8
  6
HIDDEN2
 62
     4
 48
0.5
100
AcDbCircle
 10
1574.451965153917
 20
1282.925598076897
 30
0.0
 40
7.5618438720703
100
AcDbArc
 50
97.33018202406055
 51
160.6948714826413
1001
DEKIMAS
1000
破線（細）
1040
0.15
1001
DIMEXPLODE
1070
     0
  0
ARC
  5
119E
330
1F
100
AcDbEntity
  8
RH0901_8
  6
HIDDEN2
 62
     4
 48
0.5
100
AcDbCircle
 10
1653.501281560167
 20
1282.92559809311
 30
0.0
 40
7.771439552307099
100
AcDbArc
 50
18.76467434117155
 51
74.81210700983786
1001
DEKIMAS
1000
破線（細）
1040
0.15
1001
DIMEXPLODE
1070
     0
  0
ARC
  5
119F
330
1F
100
AcDbEntity
  8
RH0901_8
  6
Continuous
 62
     7
 48
0.5
100
AcDbCircle
 10
1527.47631818177
 20
1280.425537032102
 30
0.0
 40
10.0
100
AcDbArc
 50
89.99998202565205
 51
179.9999640395727
1001
DEKIMAS
1000
実線（中）
1040
0.25
1001
DIMEXPLODE
1070
     0
  0
ARC
  5
11A0
330
1F
100
AcDbEntity
  8
RH0901_8
  6
HIDDEN2
 62
     4
100
AcDbCircle
 10
1612.476318265265
 20
873.342193543676
 30
0.0
 40
423.08340454101
100
AcDbArc
 50
80.33915755792278
 51
84.4267199866061
1001
DEKIMAS
1000
破線（細）
1040
0.15
1001
DIMEXPLODE
1070
     0
  0
ARC
  5
11A1
330
1F
100
AcDbEntity
  8
RH0901_8
  6
HIDDEN2
 62
     4
 48
0.5
100
AcDbCircle
 10
1527.976318186693
 20
1256.425537032205
 30
0.0
 40
1.999999880790699
100
AcDbArc
 50
270.0000179978366
 51
0.0000000117508519
1001
DEKIMAS
1000
破線（細）
1040
0.15
1001
DIMEXPLODE
1070
     0
  0
ARC
  5
11A2
330
1F
100
AcDbEntity
  8
RH0901_8
  6
HIDDEN2
 62
     4
 48
0.5
100
AcDbCircle
 10
1650.500671208598
 20
1282.925598092495
 30
0.0
 40
7.5618438720703
100
AcDbArc
 50
19.30509256868948
 51
82.66978202727036
1001
DEKIMAS
1000
破線（細）
1040
0.15
1001
DIMEXPLODE
1070
     0
  0
ARC
  5
11A3
330
1F
100
AcDbEntity
  8
RH0901_8
  6
HIDDEN2
 62
     4
 48
0.5
100
AcDbCircle
 10
1571.451354802348
 20
1282.925598076281
 30
0.0
 40
7.771439552307099
100
AcDbArc
 50
105.1878570414703
 51
161.2352897101483
1001
DEKIMAS
1000
破線（細）
1040
0.15
1001
DIMEXPLODE
1070
     0
  0
ARC
  5
11A4
330
1F
100
AcDbEntity
  8
RH0901_8
  6
Continuous
 62
     7
 48
0.5
100
AcDbCircle
 10
1807.476257172454
 20
1154.425598124691
 30
0.0
 40
10.0
100
AcDbArc
 50
0.0000000117508519
 51
89.99998202565205
1001
DEKIMAS
1000
実線（中）
1040
0.25
1001
DIMEXPLODE
1070
     0
  0
ARC
  5
11A5
330
1F
100
AcDbEntity
  8
RH0901_8
  6
Continuous
 62
     7
 48
0.5
100
AcDbCircle
 10
1737.476257178607
 20
1124.425598110334
 30
0.0
 40
10.0
100
AcDbArc
 50
179.9999776999511
 51
270.0000280157505
1001
DEKIMAS
1000
実線（中）
1040
0.25
1001
DIMEXPLODE
1070
     0
  0
ARC
  5
11A6
330
1F
100
AcDbEntity
  8
RH0901_8
  6
Continuous
 62
     7
 48
0.5
100
AcDbCircle
 10
1737.476257172454
 20
1154.425598110334
 30
0.0
 40
10.0
100
AcDbArc
 50
89.99998202565205
 51
179.9999640395727
1001
DEKIMAS
1000
実線（中）
1040
0.25
1001
DIMEXPLODE
1070
     0
  0
ARC
  5
11A7
330
1F
100
AcDbEntity
  8
RH0901_8
  6
Continuous
 62
     7
 48
0.5
100
AcDbCircle
 10
1807.476257178606
 20
1124.425598124691
 30
0.0
 40
10.0
100
AcDbArc
 50
270.0000179978366
 51
0.0000000117508519
1001
DEKIMAS
1000
実線（中）
1040
0.25
1001
DIMEXPLODE
1070
     0
  0
ARC
  5
11A8
330
1F
100
AcDbEntity
  8
RH0901_8
  6
HIDDEN2
 62
     4
100
AcDbCircle
 10
1612.476318265265
 20
873.342193543676
 30
0.0
 40
423.08340454101
100
AcDbArc
 50
95.57328003690249
 51
99.66086113491815
1001
DEKIMAS
1000
破線（細）
1040
0.15
1001
DIMEXPLODE
1070
     0
  0
ARC
  5
11A9
330
1F
100
AcDbEntity
  8
RH0901_8
  6
Continuous
 62
     7
100
AcDbCircle
 10
1612.476318265265
 20
873.342193543676
 30
0.0
 40
423.08340454101
100
AcDbArc
 50
84.4267199866061
 51
95.57328003690249
1001
DEKIMAS
1000
実線（中）
1040
0.25
1001
DIMEXPLODE
1070
     0
  0
ARC
  5
11AA
330
1F
100
AcDbEntity
  8
RH0901_8
  6
HIDDEN2
 62
     4
 48
0.5
100
AcDbCircle
 10
1612.476318265265
 20
873.342193543676
 30
0.0
 40
423.08340454101
100
AcDbArc
 50
83.25661636396571
 51
83.36765997943494
1001
DEKIMAS
1000
破線（細）
1040
0.15
1001
DIMEXPLODE
1070
     0
  0
ELLIPSE
  5
11AB
330
1F
100
AcDbEntity
  8
RH0901_8
  6
Continuous
 62
     7
100
AcDbEllipse
 10
1567.415100083313
 20
484.4255990291277
 30
0.0
 11
0.000000012306247
 21
-60.0001834077523
 31
0.0
210
0.0
220
0.0
230
1.0
 40
0.7071066427546001
 41
1.570796310900414
 42
4.712388996279252
1001
DEKIMAS
1000
実線（中）
1040
0.25
  0
ELLIPSE
  5
11AC
330
1F
100
AcDbEntity
  8
RH0901_8
  6
Continuous
 62
     7
100
AcDbEllipse
 10
1571.852050766913
 20
484.4255990300378
 30
0.0
 11
0.000000012306247
 21
-60.0001834077523
 31
0.0
210
0.0
220
0.0
230
1.0
 40
0.7071066427546001
 41
1.570796310900343
 42
3.193906034746593
1001
DEKIMAS
1000
実線（中）
1040
0.25
  0
DIMENSION
  5
132D
330
1F
100
AcDbEntity
  8
画層1
  6
DIMENSION
 62
     7
100
AcDbDimension
  2
*D20
 10
2160.742366083274
 20
414.425598173916
 30
0.0
 11
2140.742366083274
 21
854.425598173916
 31
0.0
 70
    32
  1
<>
 71
     5
 42
879.9999999999991
  3
ASKSTANDARD
100
AcDbAlignedDimension
 13
2047.476252911789
 23
1294.425598173915
 33
0.0
 14
2047.47625309228
 24
414.425598173916
 34
0.0
 50
90.0
100
AcDbRotatedDimension
1001
ACAD
1000
DSTYLE
1002
{
1070
     3
1000
<>
1070
    78
1070
     8
1002
}
  0
ENDSEC
  0
SECTION
  2
OBJECTS
  0
DICTIONARY
  5
C
330
0
100
AcDbDictionary
281
     1
  3
ACAD_2007HEADERVARS_RT
350
1360
  3
ACAD_CIP_PREVIOUS_PRODUCT_INFO
350
1353
  3
ACAD_COLOR
350
6B
  3
ACAD_DETAILVIEWSTYLE
350
134B
  3
ACAD_GROUP
350
D
  3
ACAD_IMAGE_VARS
350
731
  3
ACAD_LAYOUT
350
1A
  3
ACAD_MATERIAL
350
6A
  3
ACAD_MLEADERSTYLE
350
402
  3
ACAD_MLINESTYLE
350
17
  3
ACAD_PLOTSETTINGS
350
19
  3
ACAD_PLOTSTYLENAME
350
E
  3
ACAD_SCALELIST
350
3E0
  3
ACAD_SECTIONVIEWSTYLE
350
1349
  3
ACAD_TABLESTYLE
350
7E
  3
ACAD_VISUALSTYLE
350
F2
  3
ACDB_RECOMPOSE_DATA
350
135E
  3
AcDbVariableDictionary
350
5E
  3
ASKSYSVAR
350
6E7
  3
DWGPROPS
350
135F
  3
SAKAE_DICT
350
1252
  0
DICTIONARY
  5
688
330
2
100
AcDbDictionary
280
     1
281
     1
  3
ACAD_LAYERFILTERS
360
1305
  3
ACLYDICTIONARY
360
1304
  0
DICTIONARY
  5
785
330
10
100
AcDbDictionary
280
     1
281
     1
  3
ADSK_XREC_LAYER_RECONCILED
360
7F6
  0
DICTIONARY
  5
318
330
1F
100
AcDbDictionary
280
     1
281
     1
  0
DICTIONARY
  5
1391
330
125B
100
AcDbDictionary
280
     1
281
     1
  3
ACAD_MTEXT_RT
360
1392
  0
DICTIONARY
  5
1393
330
1289
100
AcDbDictionary
280
     1
281
     1
  3
ACAD_MTEXT_RT
360
1394
  0
DICTIONARY
  5
1395
330
1292
100
AcDbDictionary
280
     1
281
     1
  3
ACAD_MTEXT_RT
360
1396
  0
DICTIONARY
  5
1360
102
{ACAD_REACTORS
330
C
102
}
330
C
100
AcDbDictionary
281
     1
  3
DIMFXL
350
1361
  3
DIMJOGANG
350
1362
  0
XRECORD
  5
1353
102
{ACAD_REACTORS
330
C
102
}
330
C
100
AcDbXrecord
280
     1
300
AMECH_PP
300
2013
300
AMECH_PP_F_S
  0
DICTIONARY
  5
6B
102
{ACAD_REACTORS
330
C
102
}
330
C
100
AcDbDictionary
281
     1
  0
DICTIONARY
  5
134B
102
{ACAD_REACTORS
330
C
102
}
330
C
100
AcDbDictionary
281
     1
  3
Metric50
350
134C
  0
DICTIONARY
  5
D
102
{ACAD_REACTORS
330
C
102
}
330
C
100
AcDbDictionary
281
     1
  0
RASTERVARIABLES
  5
731
102
{ACAD_REACTORS
330
C
102
}
330
C
100
AcDbRasterVariables
 90
        0
 70
     3
 71
     1
 72
     1
  0
DICTIONARY
  5
1A
102
{ACAD_REACTORS
330
C
102
}
330
C
100
AcDbDictionary
281
     1
  3
Model
350
22
  3
レイアウト1
350
D3
  3
レイアウト2
350
D7
  0
DICTIONARY
  5
6A
102
{ACAD_REACTORS
330
C
102
}
330
C
100
AcDbDictionary
281
     1
  3
ByBlock
350
F0
  3
ByLayer
350
EF
  3
Global
350
F1
  0
DICTIONARY
  5
402
102
{ACAD_REACTORS
330
C
102
}
330
C
100
AcDbDictionary
281
     1
  3
Standard
350
403
  0
DICTIONARY
  5
17
102
{ACAD_REACTORS
330
C
102
}
330
C
100
AcDbDictionary
281
     1
  3
Standard
350
18
  0
DICTIONARY
  5
19
102
{ACAD_REACTORS
330
C
102
}
330
C
100
AcDbDictionary
281
     1
  0
ACDBDICTIONARYWDFLT
  5
E
102
{ACAD_REACTORS
330
C
102
}
330
C
100
AcDbDictionary
281
     1
  3
Normal
350
F
100
AcDbDictionaryWithDefault
340
F
  0
DICTIONARY
  5
3E0
102
{ACAD_REACTORS
330
C
102
}
330
C
100
AcDbDictionary
281
     1
  3
A0
350
3E1
  3
A1
350
3E2
  3
A2
350
3E3
  3
A3
350
3E4
  3
A4
350
3E5
  3
A5
350
3E6
  3
A6
350
3E7
  3
A7
350
3E8
  3
A8
350
3E9
  3
A9
350
3EA
  3
B0
350
3EB
  3
B1
350
3EC
  3
B2
350
3ED
  3
B3
350
3EE
  3
B4
350
3EF
  3
B5
350
3F0
  3
B6
350
3F1
  3
B7
350
3F2
  3
B8
350
3F3
  3
B9
350
3F4
  3
C0
350
3F5
  3
C1
350
3F6
  3
C2
350
3F7
  3
C3
350
3F8
  3
C4
350
3F9
  3
C5
350
3FA
  3
C6
350
3FB
  3
C7
350
3FC
  3
C8
350
3FD
  3
C9
350
3FE
  3
D0
350
3FF
  3
D1
350
400
  3
D2
350
401
  0
DICTIONARY
  5
1349
102
{ACAD_REACTORS
330
C
102
}
330
C
100
AcDbDictionary
281
     1
  3
Metric50
350
134A
  0
DICTIONARY
  5
7E
102
{ACAD_REACTORS
330
C
102
}
330
C
100
AcDbDictionary
281
     1
  3
Standard
350
7F
  0
DICTIONARY
  5
F2
102
{ACAD_REACTORS
330
C
102
}
330
C
100
AcDbDictionary
281
     1
  3
2dWireframe
350
F8
  3
3D Hidden
350
FA
  3
3dWireframe
350
F9
  3
Basic
350
F7
  3
Brighten
350
FE
  3
ColorChange
350
102
  3
Conceptual
350
FB
  3
Dim
350
FD
  3
EdgeColorOff
350
1348
  3
Facepattern
350
101
  3
Flat
350
F3
  3
FlatWithEdges
350
F4
  3
Gouraud
350
F5
  3
GouraudWithEdges
350
F6
  3
Hidden
350
1340
  3
JitterOff
350
1346
  3
Linepattern
350
100
  3
OverhangOff
350
1347
  3
Realistic
350
FC
  3
Shaded
350
1345
  3
Shaded with edges
350
1344
  3
Shades of Gray
350
1341
  3
Sketchy
350
1342
  3
Thicken
350
FF
  3
Wireframe
350
133F
  3
X-Ray
350
1343
  0
XRECORD
  5
135E
102
{ACAD_REACTORS
330
C
102
}
330
C
100
AcDbXrecord
280
     1
 90
        1
330
7F
  0
DICTIONARY
  5
5E
102
{ACAD_REACTORS
330
C
102
}
330
C
100
AcDbDictionary
281
     1
  3
CANNOSCALE
350
678
  3
CMLEADERSTYLE
350
676
  3
CTABLESTYLE
350
84
  3
CVIEWDETAILSTYLE
350
1354
  3
CVIEWSECTIONSTYLE
350
1355
  3
DIMASSOC
350
5F
  3
HIDETEXT
350
63
  3
INDEXCTL
350
1357
  3
LIGHTINGUNITS
350
679
  3
MSLTSCALE
350
677
  3
PSOLHEIGHT
350
135B
  3
PSOLWIDTH
350
135A
  3
SOLIDHIST
350
1359
  3
SORTENTS
350
1356
  3
XCLIPFRAME
350
1358
  0
DICTIONARY
  5
6E7
102
{ACAD_REACTORS
330
C
102
}
330
C
100
AcDbDictionary
281
     1
  3
ASK_SUMMARY
350
6E8
  3
ASKCURSC
350
7D3
  0
XRECORD
  5
135F
102
{ACAD_REACTORS
330
C
102
}
330
C
100
AcDbXrecord
280
     1
  1
DWGPROPS COOKIE
  2

  3

  4

  6

  7

  8
Administrator
  9

300
=
301
=
302
=
303
=
304
=
305
=
306
=
307
=
308
=
309
=
 40
0.2023856944444444
 41
2454497.602825139
 42
2455672.460275417
  1

 90
        0
  0
DICTIONARY
  5
1252
102
{ACAD_REACTORS
330
C
102
}
330
C
100
AcDbDictionary
281
     1
  3
XREC1
350
1253
  0
DICTIONARY
  5
1305
102
{ACAD_REACTORS
330
688
102
}
330
688
100
AcDbDictionary
281
     1
  0
DICTIONARY
  5
1304
102
{ACAD_REACTORS
330
688
102
}
330
688
100
AcDbDictionary
281
     1
1001
ACAD
1000
<All
  0
XRECORD
  5
7F6
102
{ACAD_REACTORS
330
785
102
}
330
785
100
AcDbXrecord
280
     1
290
     1
  0
XRECORD
  5
1392
102
{ACAD_REACTORS
330
1391
102
}
330
1391
100
AcDbXrecord
280
     1
 40
7784.0
  1
\A1;OD\U+2205580
  0
XRECORD
  5
1394
102
{ACAD_REACTORS
330
1393
102
}
330
1393
100
AcDbXrecord
280
     1
 40
5723.0
  1
\A1;\U+2205320
  0
XRECORD
  5
1396
102
{ACAD_REACTORS
330
1395
102
}
330
1395
100
AcDbXrecord
280
     1
 40
5800.0
  1
\A1;\U+2205470
  0
XRECORD
  5
1361
102
{ACAD_REACTORS
330
1360
102
}
330
1360
100
AcDbXrecord
280
     1
 40
2.0
  0
XRECORD
  5
1362
102
{ACAD_REACTORS
330
1360
102
}
330
1360
100
AcDbXrecord
280
     1
 40
1.570796326794896
  0
ACDBDETAILVIEWSTYLE
  5
134C
102
{ACAD_REACTORS
330
134B
102
}
330
134B
100
AcDbModelDocViewStyle
 70
     0
  3
Metric50
290
     0
100
AcDbDetailViewStyle
 70
     0
 71
     0
 90
        3
 71
     1
340
11
 40
5.0
340
0
 40
5.0
300

 40
0.0
280
     1
 71
     2
340
16
 90
       25
 71
     3
340
11
 40
5.0
 90
        0
 40
15.0
 90
        1
300
%<\AcVar ViewDetailId>% (%<\AcVar ViewScale \f "%sn">%)
 71
     4
340
16
 90
       25
340
16
 90
       25
280
     0
  0
LAYOUT
  5
22
102
{ACAD_XDICTIONARY
360
1363
102
}
102
{ACAD_REACTORS
330
1A
102
}
330
1A
100
AcDbPlotSettings
  1

  2
none_device
  4
ISO_A4_(210.00_x_297.00_MM)
  6

 40
7.5
 41
20.0
 42
7.5
 43
20.0
 44
210.0
 45
297.0
 46
0.0
 47
59.55357142857143
 48
0.0
 49
0.0
140
0.0
141
0.0
142
1.0
143
2.153846153846153
 70
 11956
 72
     1
 73
     0
 74
     2
  7
C:\Documents and Settings\tomiya\Application Data\Autodesk\AutoCAD Mechanical 2008\R17.1\jpn\Plot Styles\SUIKO.ctb
 75
     0
147
0.4642857142857144
148
0.0
149
0.0
100
AcDbLayout
  1
Model
 70
     1
 71
     0
 10
0.0
 20
0.0
 11
12.0
 21
9.0
 12
0.0
 22
0.0
 32
0.0
 14
0.0
 24
0.0
 34
0.0
 15
0.0
 25
0.0
 35
0.0
146
0.0
 13
0.0
 23
0.0
 33
0.0
 16
1.0
 26
0.0
 36
0.0
 17
0.0
 27
1.0
 37
0.0
 76
     0
330
1F
331
ED
1001
ACAD_PSEXT
1000
なし
1000
なし
1000
適切ではありません
1000
新しいプロッタ環境設定名を選択しない限り、レイアウトは印刷されません。
1070
     0
  0
LAYOUT
  5
D3
102
{ACAD_XDICTIONARY
360
1366
102
}
102
{ACAD_REACTORS
330
1A
102
}
330
1A
100
AcDbPlotSettings
  1

  2
C:\Documents and Settings\basas\Application Data\Autodesk\AutoCAD 2005\R16.1\enu\plotters\Default Windows System Printer.pc3
  4

  6

 40
0.0
 41
0.0
 42
0.0
 43
0.0
 44
0.0
 45
0.0
 46
0.0
 47
0.0
 48
0.0
 49
0.0
140
0.0
141
0.0
142
1.0
143
1.0
 70
   688
 72
     0
 73
     0
 74
     5
  7
C:\Documents and Settings\tomiya\Application Data\Autodesk\AutoCAD Mechanical 2008\R17.1\jpn\Plot Styles\SUIKO.ctb
 75
    16
147
1.0
148
0.0
149
0.0
100
AcDbLayout
  1
レイアウト1
 70
     1
 71
     1
 10
0.0
 20
0.0
 11
12.0
 21
9.0
 12
0.0
 22
0.0
 32
0.0
 14
0.0
 24
0.0
 34
0.0
 15
0.0
 25
0.0
 35
0.0
146
0.0
 13
0.0
 23
0.0
 33
0.0
 16
1.0
 26
0.0
 36
0.0
 17
0.0
 27
1.0
 37
0.0
 76
     0
330
D2
  0
LAYOUT
  5
D7
102
{ACAD_XDICTIONARY
360
1368
102
}
102
{ACAD_REACTORS
330
1A
102
}
330
1A
100
AcDbPlotSettings
  1

  2
C:\Documents and Settings\basas\Application Data\Autodesk\AutoCAD 2005\R16.1\enu\plotters\Default Windows System Printer.pc3
  4

  6

 40
0.0
 41
0.0
 42
0.0
 43
0.0
 44
0.0
 45
0.0
 46
0.0
 47
0.0
 48
0.0
 49
0.0
140
0.0
141
0.0
142
1.0
143
1.0
 70
   688
 72
     0
 73
     0
 74
     5
  7
C:\Documents and Settings\tomiya\Application Data\Autodesk\AutoCAD Mechanical 2008\R17.1\jpn\Plot Styles\SUIKO.ctb
 75
    16
147
1.0
148
0.0
149
0.0
100
AcDbLayout
  1
レイアウト2
 70
     1
 71
     2
 10
0.0
 20
0.0
 11
12.0
 21
9.0
 12
0.0
 22
0.0
 32
0.0
 14
0.0
 24
0.0
 34
0.0
 15
0.0
 25
0.0
 35
0.0
146
0.0
 13
0.0
 23
0.0
 33
0.0
 16
1.0
 26
0.0
 36
0.0
 17
0.0
 27
1.0
 37
0.0
 76
     0
330
D6
  0
MATERIAL
  5
F0
102
{ACAD_XDICTIONARY
360
136C
102
}
102
{ACAD_REACTORS
330
6A
102
}
330
6A
100
AcDbMaterial
  1
ByBlock
 73
     1
 78
     1
172
     1
176
     1
270
     1
274
     1
  0
MATERIAL
  5
EF
102
{ACAD_XDICTIONARY
360
136A
102
}
102
{ACAD_REACTORS
330
6A
102
}
330
6A
100
AcDbMaterial
  1
ByLayer
 73
     1
 78
     1
172
     1
176
     1
270
     1
274
     1
  0
MATERIAL
  5
F1
102
{ACAD_XDICTIONARY
360
136E
102
}
102
{ACAD_REACTORS
330
6A
102
}
330
6A
100
AcDbMaterial
  1
Global
 73
     1
 78
     1
172
     1
176
     1
270
     1
274
     1
  0
MLEADERSTYLE
  5
403
102
{ACAD_REACTORS
330
402
102
}
330
402
100
AcDbMLeaderStyle
170
     2
171
     1
172
     0
 90
        2
 40
0.0
 41
0.0
173
     1
 91
-1056964608
340
14
 92
       -2
290
     1
 42
2.0
291
     1
 43
0.36
  3
Standard
 44
4.0
300

342
11
174
     1
178
     6
175
     1
176
     0
 93
-1056964608
 45
4.0
292
     0
297
     0
 46
4.0
 94
-1056964608
 47
1.0
 49
1.0
140
1.0
293
     1
141
0.0
294
     1
177
     0
142
1.0
295
     0
296
     0
143
0.125
1001
ACAD_MLEADERVER
1070
     2
  0
MLINESTYLE
  5
18
102
{ACAD_REACTORS
330
17
102
}
330
17
100
AcDbMlineStyle
  2
STANDARD
 70
     0
  3

 62
   256
 51
90.0
 52
90.0
 71
     2
 49
0.5
 62
   256
  6
BYLAYER
 49
-0.5
 62
   256
  6
BYLAYER
  0
ACDBPLACEHOLDER
  5
F
102
{ACAD_REACTORS
330
E
102
}
330
E
  0
SCALE
  5
3E1
102
{ACAD_REACTORS
330
3E0
102
}
330
3E0
100
AcDbScale
 70
     0
300
1:1
140
1.0
141
1.0
290
     1
  0
SCALE
  5
3E2
102
{ACAD_REACTORS
330
3E0
102
}
330
3E0
100
AcDbScale
 70
     0
300
1:2
140
1.0
141
2.0
290
     0
  0
SCALE
  5
3E3
102
{ACAD_REACTORS
330
3E0
102
}
330
3E0
100
AcDbScale
 70
     0
300
1:4
140
1.0
141
4.0
290
     0
  0
SCALE
  5
3E4
102
{ACAD_REACTORS
330
3E0
102
}
330
3E0
100
AcDbScale
 70
     0
300
1:5
140
1.0
141
5.0
290
     0
  0
SCALE
  5
3E5
102
{ACAD_REACTORS
330
3E0
102
}
330
3E0
100
AcDbScale
 70
     0
300
1:8
140
1.0
141
8.0
290
     0
  0
SCALE
  5
3E6
102
{ACAD_REACTORS
330
3E0
102
}
330
3E0
100
AcDbScale
 70
     0
300
1:10
140
1.0
141
10.0
290
     0
  0
SCALE
  5
3E7
102
{ACAD_REACTORS
330
3E0
102
}
330
3E0
100
AcDbScale
 70
     0
300
1:16
140
1.0
141
16.0
290
     0
  0
SCALE
  5
3E8
102
{ACAD_REACTORS
330
3E0
102
}
330
3E0
100
AcDbScale
 70
     0
300
1:20
140
1.0
141
20.0
290
     0
  0
SCALE
  5
3E9
102
{ACAD_REACTORS
330
3E0
102
}
330
3E0
100
AcDbScale
 70
     0
300
1:30
140
1.0
141
30.0
290
     0
  0
SCALE
  5
3EA
102
{ACAD_REACTORS
330
3E0
102
}
330
3E0
100
AcDbScale
 70
     0
300
1:40
140
1.0
141
40.0
290
     0
  0
SCALE
  5
3EB
102
{ACAD_REACTORS
330
3E0
102
}
330
3E0
100
AcDbScale
 70
     0
300
1:50
140
1.0
141
50.0
290
     0
  0
SCALE
  5
3EC
102
{ACAD_REACTORS
330
3E0
102
}
330
3E0
100
AcDbScale
 70
     0
300
1:100
140
1.0
141
100.0
290
     0
  0
SCALE
  5
3ED
102
{ACAD_REACTORS
330
3E0
102
}
330
3E0
100
AcDbScale
 70
     0
300
2:1
140
2.0
141
1.0
290
     0
  0
SCALE
  5
3EE
102
{ACAD_REACTORS
330
3E0
102
}
330
3E0
100
AcDbScale
 70
     0
300
4:1
140
4.0
141
1.0
290
     0
  0
SCALE
  5
3EF
102
{ACAD_REACTORS
330
3E0
102
}
330
3E0
100
AcDbScale
 70
     0
300
8:1
140
8.0
141
1.0
290
     0
  0
SCALE
  5
3F0
102
{ACAD_REACTORS
330
3E0
102
}
330
3E0
100
AcDbScale
 70
     0
300
10:1
140
10.0
141
1.0
290
     0
  0
SCALE
  5
3F1
102
{ACAD_REACTORS
330
3E0
102
}
330
3E0
100
AcDbScale
 70
     0
300
100:1
140
100.0
141
1.0
290
     0
  0
SCALE
  5
3F2
102
{ACAD_REACTORS
330
3E0
102
}
330
3E0
100
AcDbScale
 70
     0
300
1/128" = 1'-0"
140
0.0078125
141
12.0
290
     0
  0
SCALE
  5
3F3
102
{ACAD_REACTORS
330
3E0
102
}
330
3E0
100
AcDbScale
 70
     0
300
1/64" = 1'-0"
140
0.015625
141
12.0
290
     0
  0
SCALE
  5
3F4
102
{ACAD_REACTORS
330
3E0
102
}
330
3E0
100
AcDbScale
 70
     0
300
1/32" = 1'-0"
140
0.03125
141
12.0
290
     0
  0
SCALE
  5
3F5
102
{ACAD_REACTORS
330
3E0
102
}
330
3E0
100
AcDbScale
 70
     0
300
1/16" = 1'-0"
140
0.0625
141
12.0
290
     0
  0
SCALE
  5
3F6
102
{ACAD_REACTORS
330
3E0
102
}
330
3E0
100
AcDbScale
 70
     0
300
3/32" = 1'-0"
140
0.09375
141
12.0
290
     0
  0
SCALE
  5
3F7
102
{ACAD_REACTORS
330
3E0
102
}
330
3E0
100
AcDbScale
 70
     0
300
1/8" = 1'-0"
140
0.125
141
12.0
290
     0
  0
SCALE
  5
3F8
102
{ACAD_REACTORS
330
3E0
102
}
330
3E0
100
AcDbScale
 70
     0
300
3/16" = 1'-0"
140
0.1875
141
12.0
290
     0
  0
SCALE
  5
3F9
102
{ACAD_REACTORS
330
3E0
102
}
330
3E0
100
AcDbScale
 70
     0
300
1/4" = 1'-0"
140
0.25
141
12.0
290
     0
  0
SCALE
  5
3FA
102
{ACAD_REACTORS
330
3E0
102
}
330
3E0
100
AcDbScale
 70
     0
300
3/8" = 1'-0"
140
0.375
141
12.0
290
     0
  0
SCALE
  5
3FB
102
{ACAD_REACTORS
330
3E0
102
}
330
3E0
100
AcDbScale
 70
     0
300
1/2" = 1'-0"
140
0.5
141
12.0
290
     0
  0
SCALE
  5
3FC
102
{ACAD_REACTORS
330
3E0
102
}
330
3E0
100
AcDbScale
 70
     0
300
3/4" = 1'-0"
140
0.75
141
12.0
290
     0
  0
SCALE
  5
3FD
102
{ACAD_REACTORS
330
3E0
102
}
330
3E0
100
AcDbScale
 70
     0
300
1" = 1'-0"
140
1.0
141
12.0
290
     0
  0
SCALE
  5
3FE
102
{ACAD_REACTORS
330
3E0
102
}
330
3E0
100
AcDbScale
 70
     0
300
1-1/2" = 1'-0"
140
1.5
141
12.0
290
     0
  0
SCALE
  5
3FF
102
{ACAD_REACTORS
330
3E0
102
}
330
3E0
100
AcDbScale
 70
     0
300
3" = 1'-0"
140
3.0
141
12.0
290
     0
  0
SCALE
  5
400
102
{ACAD_REACTORS
330
3E0
102
}
330
3E0
100
AcDbScale
 70
     0
300
6" = 1'-0"
140
6.0
141
12.0
290
     0
  0
SCALE
  5
401
102
{ACAD_REACTORS
330
3E0
102
}
330
3E0
100
AcDbScale
 70
     0
300
1'-0" = 1'-0"
140
12.0
141
12.0
290
     0
  0
ACDBSECTIONVIEWSTYLE
  5
134A
102
{ACAD_REACTORS
330
1349
102
}
330
1349
100
AcDbModelDocViewStyle
 70
     0
  3
Metric50
290
     0
100
AcDbSectionViewStyle
 70
     0
 71
     0
 90
      102
 71
     1
340
11
 40
5.0
340
0
340
0
 40
5.0
300
I, O, Q, S, X, Z
 40
10.0
 90
        0
 40
2.5
 90
        0
 71
     2
340
16
 90
       25
340
16
 90
       50
 40
5.0
 40
2.5
 40
5.0
 71
     3
340
11
 40
5.0
 90
        0
 40
15.0
 90
        1
300
%<\AcVar ViewSectionStartId>%-%<\AcVar ViewSectionEndId>% (%<\AcVar ViewScale \f "%sn">%)
 71
     4
300
ANSI31
 40
1.0
 90
        0
290
     0
290
     0
 90
        6
 40
0.0
 40
1.570796326794896
 40
0.2617993877991494
 40
1.308996938995747
 40
-0.2617993877991494
 40
1.832595714594046
  0
TABLESTYLE
  5
7F
102
{ACAD_XDICTIONARY
360
673
102
}
102
{ACAD_REACTORS
330
7E
102
}
330
7E
100
AcDbTableStyle
  3
Standard
 70
     0
 71
     0
 40
1.5
 41
1.5
280
     0
281
     0
  7
Standard
140
4.5
170
     2
 62
     0
 63
     7
283
     0
274
    -2
284
     1
 64
     0
275
    -2
285
     1
 65
     0
276
    -2
286
     1
 66
     0
277
    -2
287
     1
 67
     0
278
    -2
288
     1
 68
     0
279
    -2
289
     1
 69
     0
  7
Standard
140
6.0
170
     5
 62
     0
 63
     7
283
     0
274
    -2
284
     1
 64
     0
275
    -2
285
     1
 65
     0
276
    -2
286
     1
 66
     0
277
    -2
287
     1
 67
     0
278
    -2
288
     1
 68
     0
279
    -2
289
     1
 69
     0
  7
Standard
140
4.5
170
     5
 62
     0
 63
     7
283
     0
274
    -2
284
     1
 64
     0
275
    -2
285
     1
 65
     0
276
    -2
286
     1
 66
     0
277
    -2
287
     1
 67
     0
278
    -2
288
     1
 68
     0
279
    -2
289
     1
 69
     0
  0
VISUALSTYLE
  5
F8
102
{ACAD_XDICTIONARY
360
137A
102
}
102
{ACAD_REACTORS
330
F2
102
}
330
F2
100
AcDbVisualStyle
  2
2dWireframe
 70
     4
 71
     0
 72
     2
 73
     1
 90
        0
 40
-0.6
 41
-30.0
 62
     5
 63
     7
 74
     1
 91
        4
 64
     7
 65
   257
 75
     1
175
     1
 42
1.0
 92
        0
 66
   257
 43
1.0
 76
     1
 77
     6
 78
     2
 67
     7
 79
     5
170
     0
171
     0
290
     0
174
     0
 93
        1
 44
0.0
173
     0
291
     0
 45
0.0
1001
ACAD
1000
AcDbSavedByObjectVersion
1070
     0
  0
VISUALSTYLE
  5
FA
102
{ACAD_XDICTIONARY
360
137E
102
}
102
{ACAD_REACTORS
330
F2
102
}
330
F2
100
AcDbVisualStyle
  2
3D Hidden
 70
     6
 71
     1
 72
     2
 73
     2
 90
        0
 40
-0.6
 41
-30.0
 62
     5
 63
     7
 74
     2
 91
        2
 64
     7
 65
   257
 75
     2
175
     1
 42
40.0
 92
        0
 66
   257
 43
1.0
 76
     1
 77
     6
 78
     2
 67
     7
 79
     3
170
     0
171
     0
290
     0
174
     0
 93
        1
 44
0.0
173
     0
291
     0
 45
0.0
1001
ACAD
1000
AcDbSavedByObjectVersion
1070
     0
  0
VISUALSTYLE
  5
F9
102
{ACAD_XDICTIONARY
360
137C
102
}
102
{ACAD_REACTORS
330
F2
102
}
330
F2
100
AcDbVisualStyle
  2
3dWireframe
 70
     5
 71
     0
 72
     2
 73
     1
 90
        0
 40
-0.6
 41
-30.0
 62
     5
 63
     7
 74
     1
 91
        4
 64
     7
 65
   257
 75
     1
175
     1
 42
1.0
 92
        0
 66
   257
 43
1.0
 76
     1
 77
     6
 78
     2
 67
     7
 79
     5
170
     0
171
     0
290
     0
174
     0
 93
        1
 44
0.0
173
     0
291
     0
 45
0.0
1001
ACAD
1000
AcDbSavedByObjectVersion
1070
     0
  0
VISUALSTYLE
  5
F7
102
{ACAD_XDICTIONARY
360
1378
102
}
102
{ACAD_REACTORS
330
F2
102
}
330
F2
100
AcDbVisualStyle
  2
Basic
 70
     7
 71
     1
 72
     0
 73
     1
 90
        0
 40
-0.6
 41
-30.0
 62
     5
 63
     7
 74
     0
 91
        4
 64
     7
 65
   257
 75
     1
175
     1
 42
1.0
 92
        8
 66
     7
 43
1.0
 76
     1
 77
     6
 78
     2
 67
     7
 79
     5
170
     0
171
     0
290
     0
174
     0
 93
        1
 44
0.0
173
     0
291
     1
 45
0.0
1001
ACAD
1000
AcDbSavedByObjectVersion
1070
     0
  0
VISUALSTYLE
  5
FE
102
{ACAD_XDICTIONARY
360
1386
102
}
102
{ACAD_REACTORS
330
F2
102
}
330
F2
100
AcDbVisualStyle
  2
Brighten
 70
    12
 71
     2
 72
     2
 73
     1
 90
        0
 40
-0.6
 41
-30.0
 62
     5
 63
     7
 74
     1
 91
        4
 64
     7
 65
   257
 75
     1
175
     1
 42
1.0
 92
        8
 66
     7
 43
1.0
 76
     1
 77
     6
 78
     2
 67
     7
 79
     5
170
     0
171
     0
290
     0
174
     0
 93
        1
 44
50.0
173
     0
291
     1
 45
0.0
1001
ACAD
1000
AcDbSavedByObjectVersion
1070
     0
  0
VISUALSTYLE
  5
102
102
{ACAD_XDICTIONARY
360
138E
102
}
102
{ACAD_REACTORS
330
F2
102
}
330
F2
100
AcDbVisualStyle
  2
ColorChange
 70
    16
 71
     2
 72
     2
 73
     3
 90
        0
 40
-0.6
 41
-30.0
 62
     5
 63
     8
 74
     1
 91
        4
 64
     7
 65
   257
 75
     1
175
     1
 42
1.0
 92
        8
 66
     8
 43
1.0
 76
     1
 77
     6
 78
     2
 67
     7
 79
     5
170
     0
171
     0
290
     0
174
     0
 93
        1
 44
0.0
173
     0
291
     1
 45
0.0
1001
ACAD
1000
AcDbSavedByObjectVersion
1070
     0
  0
VISUALSTYLE
  5
FB
102
{ACAD_XDICTIONARY
360
1380
102
}
102
{ACAD_REACTORS
330
F2
102
}
330
F2
100
AcDbVisualStyle
  2
Conceptual
 70
     9
 71
     3
 72
     2
 73
     1
 90
        0
 40
-0.6
 41
-30.0
 62
     5
 63
     7
 74
     2
 91
        2
 64
     7
 65
   257
 75
     1
175
     1
 42
40.0
 92
        8
 66
     7
 43
1.0
 76
     1
 77
     6
 78
     2
 67
     7
 79
     3
170
     0
171
     0
290
     0
174
     0
 93
        1
 44
0.0
173
     0
291
     0
 45
0.0
1001
ACAD
1000
AcDbSavedByObjectVersion
1070
     0
  0
VISUALSTYLE
  5
FD
102
{ACAD_XDICTIONARY
360
1384
102
}
102
{ACAD_REACTORS
330
F2
102
}
330
F2
100
AcDbVisualStyle
  2
Dim
 70
    11
 71
     2
 72
     2
 73
     1
 90
        0
 40
-0.6
 41
-30.0
 62
     5
 63
     7
 74
     1
 91
        4
 64
     7
 65
   257
 75
     1
175
     1
 42
1.0
 92
        8
 66
     7
 43
1.0
 76
     1
 77
     6
 78
     2
 67
     7
 79
     5
170
     0
171
     0
290
     0
174
     0
 93
        1
 44
-50.0
173
     0
291
     1
 45
0.0
1001
ACAD
1000
AcDbSavedByObjectVersion
1070
     0
  0
VISUALSTYLE
  5
1348
102
{ACAD_XDICTIONARY
360
13A9
102
}
102
{ACAD_REACTORS
330
F2
102
}
330
F2
100
AcDbVisualStyle
  2
EdgeColorOff
 70
    22
 71
     2
 72
     2
 73
     0
 90
        0
 40
-0.6
 41
-30.0
 62
     5
 63
     7
 74
     1
 91
        4
 64
     7
 65
   257
 75
     1
175
     1
 42
1.0
 92
        8
 66
     7
 43
1.0
 76
     1
 77
     6
 78
     2
 67
     7
 79
     5
170
     0
171
     0
290
     0
174
     0
 93
        1
 44
0.0
173
     0
291
     1
 45
0.0
1001
ACAD
1000
AcDbSavedByObjectVersion
1070
     0
  0
VISUALSTYLE
  5
101
102
{ACAD_XDICTIONARY
360
138C
102
}
102
{ACAD_REACTORS
330
F2
102
}
330
F2
100
AcDbVisualStyle
  2
Facepattern
 70
    15
 71
     2
 72
     2
 73
     1
 90
        0
 40
-0.6
 41
-30.0
 62
     5
 63
     7
 74
     1
 91
        4
 64
     7
 65
   257
 75
     1
175
     1
 42
1.0
 92
        8
 66
     7
 43
1.0
 76
     1
 77
     6
 78
     2
 67
     7
 79
     5
170
     0
171
     0
290
     0
174
     0
 93
        1
 44
0.0
173
     0
291
     1
 45
0.0
1001
ACAD
1000
AcDbSavedByObjectVersion
1070
     0
  0
VISUALSTYLE
  5
F3
102
{ACAD_XDICTIONARY
360
1370
102
}
102
{ACAD_REACTORS
330
F2
102
}
330
F2
100
AcDbVisualStyle
  2
Flat
 70
     0
 71
     2
 72
     1
 73
     1
 90
        2
 40
-0.6
 41
30.0
 62
     5
 63
     7
 74
     0
 91
        4
 64
     7
 65
   257
 75
     1
175
     1
 42
1.0
 92
        8
 66
     7
 43
1.0
 76
     1
 77
     6
 78
     2
 67
     7
 79
     5
170
     0
171
     0
290
     0
174
     0
 93
       13
 44
0.0
173
     0
291
     1
 45
0.0
1001
ACAD
1000
AcDbSavedByObjectVersion
1070
     0
  0
VISUALSTYLE
  5
F4
102
{ACAD_XDICTIONARY
360
1372
102
}
102
{ACAD_REACTORS
330
F2
102
}
330
F2
100
AcDbVisualStyle
  2
FlatWithEdges
 70
     1
 71
     2
 72
     1
 73
     1
 90
        2
 40
-0.6
 41
30.0
 62
     5
 63
     7
 74
     1
 91
        4
 64
     7
 65
   257
 75
     1
175
     1
 42
1.0
 92
        0
 66
   257
 43
1.0
 76
     1
 77
     6
 78
     2
 67
     7
 79
     5
170
     0
171
     0
290
     0
174
     0
 93
       13
 44
0.0
173
     0
291
     1
 45
0.0
1001
ACAD
1000
AcDbSavedByObjectVersion
1070
     0
  0
VISUALSTYLE
  5
F5
102
{ACAD_XDICTIONARY
360
1374
102
}
102
{ACAD_REACTORS
330
F2
102
}
330
F2
100
AcDbVisualStyle
  2
Gouraud
 70
     2
 71
     2
 72
     2
 73
     1
 90
        2
 40
-0.6
 41
30.0
 62
     5
 63
     7
 74
     0
 91
        4
 64
     7
 65
   257
 75
     1
175
     1
 42
1.0
 92
        0
 66
     7
 43
1.0
 76
     1
 77
     6
 78
     2
 67
     7
 79
     5
170
     0
171
     0
290
     0
174
     0
 93
       13
 44
0.0
173
     0
291
     1
 45
0.0
1001
ACAD
1000
AcDbSavedByObjectVersion
1070
     0
  0
VISUALSTYLE
  5
F6
102
{ACAD_XDICTIONARY
360
1376
102
}
102
{ACAD_REACTORS
330
F2
102
}
330
F2
100
AcDbVisualStyle
  2
GouraudWithEdges
 70
     3
 71
     2
 72
     2
 73
     1
 90
        2
 40
-0.6
 41
30.0
 62
     5
 63
     7
 74
     1
 91
        4
 64
     7
 65
   257
 75
     1
175
     1
 42
1.0
 92
        0
 66
   257
 43
1.0
 76
     1
 77
     6
 78
     2
 67
     7
 79
     5
170
     0
171
     0
290
     0
174
     0
 93
       13
 44
0.0
173
     0
291
     1
 45
0.0
1001
ACAD
1000
AcDbSavedByObjectVersion
1070
     0
  0
VISUALSTYLE
  5
1340
102
{ACAD_XDICTIONARY
360
1399
102
}
102
{ACAD_REACTORS
330
F2
102
}
330
F2
100
AcDbVisualStyle
  2
Hidden
 70
     6
 71
     1
 72
     2
 73
     2
 90
        0
 40
-0.6
 41
-30.0
 62
     5
 63
     7
 74
     2
 91
        2
 64
     7
 65
   257
 75
     2
175
     1
 42
40.0
 92
        0
 66
   257
 43
1.0
 76
     1
 77
     6
 78
     2
 67
     7
 79
     3
170
     0
171
     0
290
     0
174
     0
 93
        1
 44
0.0
173
     0
291
     0
 45
0.0
1001
ACAD
1000
AcDbSavedByObjectVersion
1070
     0
  0
VISUALSTYLE
  5
1346
102
{ACAD_XDICTIONARY
360
13A5
102
}
102
{ACAD_REACTORS
330
F2
102
}
330
F2
100
AcDbVisualStyle
  2
JitterOff
 70
    20
 71
     2
 72
     2
 73
     0
 90
        0
 40
-0.6
 41
-30.0
 62
     5
 63
     7
 74
     1
 91
        4
 64
     7
 65
   257
 75
     1
175
     1
 42
1.0
 92
       10
 66
     7
 43
1.0
 76
     1
 77
     6
 78
     2
 67
     7
 79
     5
170
     0
171
     0
290
     0
174
     0
 93
        1
 44
0.0
173
     0
291
     1
 45
0.0
1001
ACAD
1000
AcDbSavedByObjectVersion
1070
     0
  0
VISUALSTYLE
  5
100
102
{ACAD_XDICTIONARY
360
138A
102
}
102
{ACAD_REACTORS
330
F2
102
}
330
F2
100
AcDbVisualStyle
  2
Linepattern
 70
    14
 71
     2
 72
     2
 73
     1
 90
        0
 40
-0.6
 41
-30.0
 62
     5
 63
     7
 74
     1
 91
        4
 64
     7
 65
   257
 75
     7
175
     7
 42
1.0
 92
        8
 66
     7
 43
1.0
 76
     1
 77
     6
 78
     2
 67
     7
 79
     5
170
     0
171
     0
290
     0
174
     0
 93
        1
 44
0.0
173
     0
291
     1
 45
0.0
1001
ACAD
1000
AcDbSavedByObjectVersion
1070
     0
  0
VISUALSTYLE
  5
1347
102
{ACAD_XDICTIONARY
360
13A7
102
}
102
{ACAD_REACTORS
330
F2
102
}
330
F2
100
AcDbVisualStyle
  2
OverhangOff
 70
    21
 71
     2
 72
     2
 73
     0
 90
        0
 40
-0.6
 41
-30.0
 62
     5
 63
     7
 74
     1
 91
        4
 64
     7
 65
   257
 75
     1
175
     1
 42
1.0
 92
        9
 66
     7
 43
1.0
 76
     1
 77
     6
 78
     2
 67
     7
 79
     5
170
     0
171
     0
290
     0
174
     0
 93
        1
 44
0.0
173
     0
291
     1
 45
0.0
1001
ACAD
1000
AcDbSavedByObjectVersion
1070
     0
  0
VISUALSTYLE
  5
FC
102
{ACAD_XDICTIONARY
360
1382
102
}
102
{ACAD_REACTORS
330
F2
102
}
330
F2
100
AcDbVisualStyle
  2
Realistic
 70
     8
 71
     2
 72
     2
 73
     1
 90
        0
 40
-0.6
 41
-30.0
 62
     5
 63
     7
 74
     1
 91
        0
 64
     7
 65
   257
 75
     1
175
     1
 42
1.0
 92
        8
 66
     8
 43
1.0
 76
     1
 77
     6
 78
     2
 67
     7
 79
     5
170
     0
171
     0
290
     0
174
     0
 93
       13
 44
0.0
173
     0
291
     0
 45
0.0
1001
ACAD
1000
AcDbSavedByObjectVersion
1070
     0
  0
VISUALSTYLE
  5
1345
102
{ACAD_XDICTIONARY
360
13A3
102
}
102
{ACAD_REACTORS
330
F2
102
}
330
F2
100
AcDbVisualStyle
  2
Shaded
 70
    27
 71
     2
 72
     2
 73
     1
 90
        2
 40
-0.6
 41
30.0
 62
     5
 63
     7
 74
     0
 91
        4
 64
     7
 65
   257
 75
     1
175
     1
 42
1.0
 92
        8
 66
   257
 43
1.0
 76
     1
 77
     6
 78
     2
 67
     8
 79
     3
170
     0
171
     0
290
     0
174
     0
 93
        5
 44
0.0
173
     0
291
     0
 45
0.0
1001
ACAD
1000
AcDbSavedByObjectVersion
1070
     0
  0
VISUALSTYLE
  5
1344
102
{ACAD_XDICTIONARY
360
13A1
102
}
102
{ACAD_REACTORS
330
F2
102
}
330
F2
100
AcDbVisualStyle
  2
Shaded with edges
 70
    26
 71
     2
 72
     2
 73
     1
 90
        2
 40
-0.6
 41
30.0
 62
     5
 63
     7
 74
     1
 91
       10
 64
     7
 65
   257
 75
     2
175
     1
 42
1.0
 92
        8
 66
   257
 43
1.0
 76
     1
 77
     6
 78
     2
 67
     7
 79
     3
170
     0
171
     0
290
     0
174
     0
 93
        5
 44
0.0
173
     0
291
     0
 45
0.0
1001
ACAD
1000
AcDbSavedByObjectVersion
1070
     0
  0
VISUALSTYLE
  5
1341
102
{ACAD_XDICTIONARY
360
139B
102
}
102
{ACAD_REACTORS
330
F2
102
}
330
F2
100
AcDbVisualStyle
  2
Shades of Gray
 70
    23
 71
     2
 72
     2
 73
     3
 90
        0
 40
-0.6
 41
-30.0
 62
     5
 63
     7
 74
     2
 91
        2
 64
     7
 65
     7
 75
     1
175
     1
 42
40.0
 92
        8
 66
     7
 43
1.0
 76
     1
 77
     6
 78
     2
 67
     7
 79
     3
170
     0
171
     0
290
     0
174
     0
 93
        1
 44
0.0
173
     0
291
     0
 45
0.0
1001
ACAD
1000
AcDbSavedByObjectVersion
1070
     0
  0
VISUALSTYLE
  5
1342
102
{ACAD_XDICTIONARY
360
139D
102
}
102
{ACAD_REACTORS
330
F2
102
}
330
F2
100
AcDbVisualStyle
  2
Sketchy
 70
    24
 71
     1
 72
     2
 73
     2
 90
        0
 40
-0.6
 41
-30.0
 62
     5
 63
     7
 74
     2
 91
        2
 64
     7
 65
     7
 75
     1
175
     1
 42
40.0
 92
       11
 66
     7
 43
1.0
 76
     1
 77
     6
 78
     2
 67
     7
 79
     6
170
     0
171
     0
290
     0
174
     0
 93
        1
 44
0.0
173
     0
291
     0
 45
0.0
1001
ACAD
1000
AcDbSavedByObjectVersion
1070
     0
  0
VISUALSTYLE
  5
FF
102
{ACAD_XDICTIONARY
360
1388
102
}
102
{ACAD_REACTORS
330
F2
102
}
330
F2
100
AcDbVisualStyle
  2
Thicken
 70
    13
 71
     2
 72
     2
 73
     1
 90
        0
 40
-0.6
 41
-30.0
 62
     5
 63
     7
 74
     1
 91
        4
 64
     7
 65
   257
 75
     1
175
     1
 42
1.0
 92
       12
 66
     7
 43
1.0
 76
     1
 77
     6
 78
     2
 67
     7
 79
     5
170
     0
171
     0
290
     0
174
     0
 93
        1
 44
0.0
173
     0
291
     1
 45
0.0
1001
ACAD
1000
AcDbSavedByObjectVersion
1070
     0
  0
VISUALSTYLE
  5
133F
102
{ACAD_XDICTIONARY
360
1397
102
}
102
{ACAD_REACTORS
330
F2
102
}
330
F2
100
AcDbVisualStyle
  2
Wireframe
 70
     5
 71
     0
 72
     2
 73
     0
 90
        0
 40
-0.6
 41
-30.0
 62
     5
 63
     7
 74
     1
 91
        4
 64
     7
 65
   257
 75
     1
175
     1
 42
1.0
 92
        0
 66
   257
 43
1.0
 76
     1
 77
     6
 78
     2
 67
     7
 79
     3
170
     0
171
     0
290
     0
174
     0
 93
        1
 44
0.0
173
     0
291
     0
 45
0.0
1001
ACAD
1000
AcDbSavedByObjectVersion
1070
     0
  0
VISUALSTYLE
  5
1343
102
{ACAD_XDICTIONARY
360
139F
102
}
102
{ACAD_REACTORS
330
F2
102
}
330
F2
100
AcDbVisualStyle
  2
X-Ray
 70
    25
 71
     2
 72
     2
 73
     1
 90
        1
 40
0.5
 41
-30.0
 62
     5
 63
     7
 74
     1
 91
        0
 64
     7
 65
   257
 75
     1
175
     1
 42
1.0
 92
        8
 66
     7
 43
1.0
 76
     1
 77
     6
 78
     2
 67
     7
 79
     3
170
     0
171
     0
290
     0
174
     0
 93
       13
 44
0.0
173
     0
291
     0
 45
0.0
1001
ACAD
1000
AcDbSavedByObjectVersion
1070
     0
  0
DICTIONARYVAR
  5
678
102
{ACAD_REACTORS
330
5E
102
}
330
5E
100
DictionaryVariables
280
     0
  1
1:1
  0
DICTIONARYVAR
  5
676
102
{ACAD_REACTORS
330
5E
102
}
330
5E
100
DictionaryVariables
280
     0
  1
STANDARD
  0
DICTIONARYVAR
  5
84
102
{ACAD_REACTORS
330
5E
102
}
330
5E
100
DictionaryVariables
280
     0
  1
STANDARD
  0
DICTIONARYVAR
  5
1354
102
{ACAD_REACTORS
330
5E
102
}
330
5E
100
DictionaryVariables
280
     0
  1
Metric50
  0
DICTIONARYVAR
  5
1355
102
{ACAD_REACTORS
330
5E
102
}
330
5E
100
DictionaryVariables
280
     0
  1
Metric50
  0
DICTIONARYVAR
  5
5F
102
{ACAD_REACTORS
330
5E
102
}
330
5E
100
DictionaryVariables
280
     0
  1
1
  0
DICTIONARYVAR
  5
63
102
{ACAD_REACTORS
330
5E
102
}
330
5E
100
DictionaryVariables
280
     0
  1
1
  0
DICTIONARYVAR
  5
1357
102
{ACAD_REACTORS
330
5E
102
}
330
5E
100
DictionaryVariables
280
     0
  1
0
  0
DICTIONARYVAR
  5
679
102
{ACAD_REACTORS
330
5E
102
}
330
5E
100
DictionaryVariables
280
     0
  1
0
  0
DICTIONARYVAR
  5
677
102
{ACAD_REACTORS
330
5E
102
}
330
5E
100
DictionaryVariables
280
     0
  1
0
  0
DICTIONARYVAR
  5
135B
102
{ACAD_REACTORS
330
5E
102
}
330
5E
100
DictionaryVariables
280
     0
  1
80.000000
  0
DICTIONARYVAR
  5
135A
102
{ACAD_REACTORS
330
5E
102
}
330
5E
100
DictionaryVariables
280
     0
  1
5.000000
  0
DICTIONARYVAR
  5
1359
102
{ACAD_REACTORS
330
5E
102
}
330
5E
100
DictionaryVariables
280
     0
  1
1
  0
DICTIONARYVAR
  5
1356
102
{ACAD_REACTORS
330
5E
102
}
330
5E
100
DictionaryVariables
280
     0
  1
127
  0
DICTIONARYVAR
  5
1358
102
{ACAD_REACTORS
330
5E
102
}
330
5E
100
DictionaryVariables
280
     0
  1
0
  0
XRECORD
  5
6E8
102
{ACAD_REACTORS
330
6E7
102
}
330
6E7
100
AcDbXrecord
280
     1
300
ASK2000BIKOU>>A3横 1/8        <<                                                                                                                                                                                                                                                                                
  0
XRECORD
  5
7D3
102
{ACAD_REACTORS
330
6E7
102
}
330
6E7
100
AcDbXrecord
280
     1
  1
DwgScale
  0
XRECORD
  5
1253
102
{ACAD_REACTORS
330
1252
102
}
330
1252
100
AcDbXrecord
280
     1
  1

 40
0.125
 50
-7888.77275943332
 51
-2968.104711983267
 52
16290.04619508742
 53
14163.33336242812
  0
DICTIONARY
  5
1363
330
22
100
AcDbDictionary
280
     1
281
     1
  3
ACAD_XREC_ROUNDTRIP
360
1364
  0
DICTIONARY
  5
1366
330
D3
100
AcDbDictionary
280
     1
281
     1
  3
ACAD_XREC_ROUNDTRIP
360
1367
  0
DICTIONARY
  5
1368
330
D7
100
AcDbDictionary
280
     1
281
     1
  3
ACAD_XREC_ROUNDTRIP
360
1369
  0
DICTIONARY
  5
136C
330
F0
100
AcDbDictionary
280
     1
281
     1
  3
ACAD_XREC_ROUNDTRIP
360
136D
  0
DICTIONARY
  5
136A
330
EF
100
AcDbDictionary
280
     1
281
     1
  3
ACAD_XREC_ROUNDTRIP
360
136B
  0
DICTIONARY
  5
136E
330
F1
100
AcDbDictionary
280
     1
281
     1
  3
ACAD_XREC_ROUNDTRIP
360
136F
  0
DICTIONARY
  5
673
330
7F
100
AcDbDictionary
280
     1
281
     1
  3
ACAD_ROUNDTRIP_2008_TABLESTYLE_CELLSTYLEMAP
360
135D
  3
ACAD_XREC_ROUNDTRIP
360
1365
  0
DICTIONARY
  5
137A
330
F8
100
AcDbDictionary
280
     1
281
     1
  3
ACAD_XREC_ROUNDTRIP
360
137B
  0
DICTIONARY
  5
137E
330
FA
100
AcDbDictionary
280
     1
281
     1
  3
ACAD_XREC_ROUNDTRIP
360
137F
  0
DICTIONARY
  5
137C
330
F9
100
AcDbDictionary
280
     1
281
     1
  3
ACAD_XREC_ROUNDTRIP
360
137D
  0
DICTIONARY
  5
1378
330
F7
100
AcDbDictionary
280
     1
281
     1
  3
ACAD_XREC_ROUNDTRIP
360
1379
  0
DICTIONARY
  5
1386
330
FE
100
AcDbDictionary
280
     1
281
     1
  3
ACAD_XREC_ROUNDTRIP
360
1387
  0
DICTIONARY
  5
138E
330
102
100
AcDbDictionary
280
     1
281
     1
  3
ACAD_XREC_ROUNDTRIP
360
138F
  0
DICTIONARY
  5
1380
330
FB
100
AcDbDictionary
280
     1
281
     1
  3
ACAD_XREC_ROUNDTRIP
360
1381
  0
DICTIONARY
  5
1384
330
FD
100
AcDbDictionary
280
     1
281
     1
  3
ACAD_XREC_ROUNDTRIP
360
1385
  0
DICTIONARY
  5
13A9
330
1348
100
AcDbDictionary
280
     1
281
     1
  3
ACAD_XREC_ROUNDTRIP
360
13AA
  0
DICTIONARY
  5
138C
330
101
100
AcDbDictionary
280
     1
281
     1
  3
ACAD_XREC_ROUNDTRIP
360
138D
  0
DICTIONARY
  5
1370
330
F3
100
AcDbDictionary
280
     1
281
     1
  3
ACAD_XREC_ROUNDTRIP
360
1371
  0
DICTIONARY
  5
1372
330
F4
100
AcDbDictionary
280
     1
281
     1
  3
ACAD_XREC_ROUNDTRIP
360
1373
  0
DICTIONARY
  5
1374
330
F5
100
AcDbDictionary
280
     1
281
     1
  3
ACAD_XREC_ROUNDTRIP
360
1375
  0
DICTIONARY
  5
1376
330
F6
100
AcDbDictionary
280
     1
281
     1
  3
ACAD_XREC_ROUNDTRIP
360
1377
  0
DICTIONARY
  5
1399
330
1340
100
AcDbDictionary
280
     1
281
     1
  3
ACAD_XREC_ROUNDTRIP
360
139A
  0
DICTIONARY
  5
13A5
330
1346
100
AcDbDictionary
280
     1
281
     1
  3
ACAD_XREC_ROUNDTRIP
360
13A6
  0
DICTIONARY
  5
138A
330
100
100
AcDbDictionary
280
     1
281
     1
  3
ACAD_XREC_ROUNDTRIP
360
138B
  0
DICTIONARY
  5
13A7
330
1347
100
AcDbDictionary
280
     1
281
     1
  3
ACAD_XREC_ROUNDTRIP
360
13A8
  0
DICTIONARY
  5
1382
330
FC
100
AcDbDictionary
280
     1
281
     1
  3
ACAD_XREC_ROUNDTRIP
360
1383
  0
DICTIONARY
  5
13A3
330
1345
100
AcDbDictionary
280
     1
281
     1
  3
ACAD_XREC_ROUNDTRIP
360
13A4
  0
DICTIONARY
  5
13A1
330
1344
100
AcDbDictionary
280
     1
281
     1
  3
ACAD_XREC_ROUNDTRIP
360
13A2
  0
DICTIONARY
  5
139B
330
1341
100
AcDbDictionary
280
     1
281
     1
  3
ACAD_XREC_ROUNDTRIP
360
139C
  0
DICTIONARY
  5
139D
330
1342
100
AcDbDictionary
280
     1
281
     1
  3
ACAD_XREC_ROUNDTRIP
360
139E
  0
DICTIONARY
  5
1388
330
FF
100
AcDbDictionary
280
     1
281
     1
  3
ACAD_XREC_ROUNDTRIP
360
1389
  0
DICTIONARY
  5
1397
330
133F
100
AcDbDictionary
280
     1
281
     1
  3
ACAD_XREC_ROUNDTRIP
360
1398
  0
DICTIONARY
  5
139F
330
1343
100
AcDbDictionary
280
     1
281
     1
  3
ACAD_XREC_ROUNDTRIP
360
13A0
  0
XRECORD
  5
1364
102
{ACAD_REACTORS
330
1363
102
}
330
1363
100
AcDbXrecord
280
     1
102
SHADEPLOT
 70
     0
102
SHADEPLOTRESLEVEL
 70
     2
102
SHADEPLOTCUSTOMDPI
 70
   300
  0
XRECORD
  5
1367
102
{ACAD_REACTORS
330
1366
102
}
330
1366
100
AcDbXrecord
280
     1
102
SHADEPLOT
 70
     0
102
SHADEPLOTRESLEVEL
 70
     2
102
SHADEPLOTCUSTOMDPI
 70
   300
  0
XRECORD
  5
1369
102
{ACAD_REACTORS
330
1368
102
}
330
1368
100
AcDbXrecord
280
     1
102
SHADEPLOT
 70
     0
102
SHADEPLOTRESLEVEL
 70
     2
102
SHADEPLOTCUSTOMDPI
 70
   300
  0
XRECORD
  5
136D
102
{ACAD_REACTORS
330
136C
102
}
330
136C
100
AcDbXrecord
280
     1
102
MATERIAL
148
0.0
149
0.0
149
0.0
 93
        0
 94
       63
282
     0
 72
     1
 77
     1
171
     1
175
     1
179
     1
273
     0
  0
XRECORD
  5
136B
102
{ACAD_REACTORS
330
136A
102
}
330
136A
100
AcDbXrecord
280
     1
102
MATERIAL
148
0.0
149
0.0
149
0.0
 93
        0
 94
       63
282
     0
 72
     1
 77
     1
171
     1
175
     1
179
     1
273
     0
  0
XRECORD
  5
136F
102
{ACAD_REACTORS
330
136E
102
}
330
136E
100
AcDbXrecord
280
     1
102
MATERIAL
148
0.0
149
0.0
149
0.0
 93
        0
 94
       63
282
     0
 72
     1
 77
     1
171
     1
175
     1
179
     1
273
     0
  0
CELLSTYLEMAP
  5
135D
102
{ACAD_REACTORS
330
673
102
}
330
673
100
AcDbCellStyleMap
 90
        3
300
CELLSTYLE
  1
TABLEFORMAT_BEGIN
 90
        5
170
     1
 91
        0
 92
    32768
 62
   257
 93
        1
300
CONTENTFORMAT
  1
CONTENTFORMAT_BEGIN
 90
        0
 91
        0
 92
      512
 93
        0
300

 40
0.0
140
1.0
 94
        5
 62
     0
340
11
144
6.0
309
CONTENTFORMAT_END
171
     1
301
MARGIN
  1
CELLMARGIN_BEGIN
 40
1.5
 40
1.5
 40
1.5
 40
1.5
 40
0.18
 40
0.18
309
CELLMARGIN_END
 94
        6
 95
        1
302
GRIDFORMAT
  1
GRIDFORMAT_BEGIN
 90
        0
 91
        1
 62
     0
 92
       -2
340
0
 93
        0
 40
0.045
309
GRIDFORMAT_END
 95
        2
302
GRIDFORMAT
  1
GRIDFORMAT_BEGIN
 90
        0
 91
        1
 62
     0
 92
       -2
340
0
 93
        0
 40
0.045
309
GRIDFORMAT_END
 95
        4
302
GRIDFORMAT
  1
GRIDFORMAT_BEGIN
 90
        0
 91
        1
 62
     0
 92
       -2
340
0
 93
        0
 40
0.045
309
GRIDFORMAT_END
 95
        8
302
GRIDFORMAT
  1
GRIDFORMAT_BEGIN
 90
        0
 91
        1
 62
     0
 92
       -2
340
0
 93
        0
 40
0.045
309
GRIDFORMAT_END
 95
       16
302
GRIDFORMAT
  1
GRIDFORMAT_BEGIN
 90
        0
 91
        1
 62
     0
 92
       -2
340
0
 93
        0
 40
0.045
309
GRIDFORMAT_END
 95
       32
302
GRIDFORMAT
  1
GRIDFORMAT_BEGIN
 90
        0
 91
        1
 62
     0
 92
       -2
340
0
 93
        0
 40
0.045
309
GRIDFORMAT_END
309
TABLEFORMAT_END
  1
CELLSTYLE_BEGIN
 90
        1
 91
        1
300
_TITLE
309
CELLSTYLE_END
300
CELLSTYLE
  1
TABLEFORMAT_BEGIN
 90
        5
170
     1
 91
        0
 92
        0
 62
   257
 93
        1
300
CONTENTFORMAT
  1
CONTENTFORMAT_BEGIN
 90
        0
 91
        0
 92
      512
 93
        0
300

 40
0.0
140
1.0
 94
        5
 62
     0
340
11
144
4.5
309
CONTENTFORMAT_END
171
     1
301
MARGIN
  1
CELLMARGIN_BEGIN
 40
1.5
 40
1.5
 40
1.5
 40
1.5
 40
0.18
 40
0.18
309
CELLMARGIN_END
 94
        6
 95
        1
302
GRIDFORMAT
  1
GRIDFORMAT_BEGIN
 90
        0
 91
        1
 62
     0
 92
       -2
340
0
 93
        0
 40
0.045
309
GRIDFORMAT_END
 95
        2
302
GRIDFORMAT
  1
GRIDFORMAT_BEGIN
 90
        0
 91
        1
 62
     0
 92
       -2
340
0
 93
        0
 40
0.045
309
GRIDFORMAT_END
 95
        4
302
GRIDFORMAT
  1
GRIDFORMAT_BEGIN
 90
        0
 91
        1
 62
     0
 92
       -2
340
0
 93
        0
 40
0.045
309
GRIDFORMAT_END
 95
        8
302
GRIDFORMAT
  1
GRIDFORMAT_BEGIN
 90
        0
 91
        1
 62
     0
 92
       -2
340
0
 93
        0
 40
0.045
309
GRIDFORMAT_END
 95
       16
302
GRIDFORMAT
  1
GRIDFORMAT_BEGIN
 90
        0
 91
        1
 62
     0
 92
       -2
340
0
 93
        0
 40
0.045
309
GRIDFORMAT_END
 95
       32
302
GRIDFORMAT
  1
GRIDFORMAT_BEGIN
 90
        0
 91
        1
 62
     0
 92
       -2
340
0
 93
        0
 40
0.045
309
GRIDFORMAT_END
309
TABLEFORMAT_END
  1
CELLSTYLE_BEGIN
 90
        2
 91
        1
300
_HEADER
309
CELLSTYLE_END
300
CELLSTYLE
  1
TABLEFORMAT_BEGIN
 90
        5
170
     1
 91
        0
 92
        0
 62
   257
 93
        1
300
CONTENTFORMAT
  1
CONTENTFORMAT_BEGIN
 90
        0
 91
        0
 92
      512
 93
        0
300

 40
0.0
140
1.0
 94
        2
 62
     0
340
11
144
4.5
309
CONTENTFORMAT_END
171
     1
301
MARGIN
  1
CELLMARGIN_BEGIN
 40
1.5
 40
1.5
 40
1.5
 40
1.5
 40
0.18
 40
0.18
309
CELLMARGIN_END
 94
        6
 95
        1
302
GRIDFORMAT
  1
GRIDFORMAT_BEGIN
 90
        0
 91
        1
 62
     0
 92
       -2
340
0
 93
        0
 40
0.045
309
GRIDFORMAT_END
 95
        2
302
GRIDFORMAT
  1
GRIDFORMAT_BEGIN
 90
        0
 91
        1
 62
     0
 92
       -2
340
0
 93
        0
 40
0.045
309
GRIDFORMAT_END
 95
        4
302
GRIDFORMAT
  1
GRIDFORMAT_BEGIN
 90
        0
 91
        1
 62
     0
 92
       -2
340
0
 93
        0
 40
0.045
309
GRIDFORMAT_END
 95
        8
302
GRIDFORMAT
  1
GRIDFORMAT_BEGIN
 90
        0
 91
        1
 62
     0
 92
       -2
340
0
 93
        0
 40
0.045
309
GRIDFORMAT_END
 95
       16
302
GRIDFORMAT
  1
GRIDFORMAT_BEGIN
 90
        0
 91
        1
 62
     0
 92
       -2
340
0
 93
        0
 40
0.045
309
GRIDFORMAT_END
 95
       32
302
GRIDFORMAT
  1
GRIDFORMAT_BEGIN
 90
        0
 91
        1
 62
     0
 92
       -2
340
0
 93
        0
 40
0.045
309
GRIDFORMAT_END
309
TABLEFORMAT_END
  1
CELLSTYLE_BEGIN
 90
        3
 91
        2
300
_DATA
309
CELLSTYLE_END
  0
XRECORD
  5
1365
102
{ACAD_REACTORS
330
673
102
}
330
673
100
AcDbXrecord
280
     1
102
ACAD_ROUNDTRIP_PRE2007_TABLESTYLE
 90
      512
 91
        0
  1

 92
      512
 93
        0
  2

 94
      512
 95
        0
  3

  0
XRECORD
  5
137B
102
{ACAD_REACTORS
330
137A
102
}
330
137A
100
AcDbXrecord
280
     1
102
RTVSPost2010Prop28
280
     1
102
RTVSPost2010PropOp28
 70
     1
102
RTVSPost2010Prop29
280
     1
102
RTVSPost2010PropOp29
 70
     1
102
RTVSPost2010Prop30
280
     0
102
RTVSPost2010PropOp30
 70
     1
102
RTVSPost2010Prop31
280
     0
102
RTVSPost2010PropOp31
 70
     1
102
RTVSPost2010Prop32
280
     0
102
RTVSPost2010PropOp32
 70
     1
102
RTVSPost2010Prop33
280
     0
102
RTVSPost2010PropOp33
 70
     1
102
RTVSPost2010Prop34
280
     0
102
RTVSPost2010PropOp34
 70
     1
102
RTVSPost2010Prop35
280
     0
102
RTVSPost2010PropOp35
 70
     1
102
RTVSPost2010Prop36
280
     0
102
RTVSPost2010PropOp36
 70
     1
102
RTVSPost2010Prop37
 90
       50
102
RTVSPost2010PropOp37
 70
     1
102
RTVSPost2010Prop38
140
0.0
102
RTVSPost2010PropOp38
 70
     1
102
RTVSPost2010Prop39
140
1.0
102
RTVSPost2010PropOp39
 70
     1
102
RTVSPost2010Prop40
 90
        0
102
RTVSPost2010PropOp40
 70
     1
102
RTVSPost2010Prop41ColorIndex
 90
       18
102
RTVSPost2010Prop41ColorRGB
 90
        0
102
RTVSPost2010PropOp41
 70
     1
102
RTVSPost2010Prop42
 90
       50
102
RTVSPost2010PropOp42
 70
     1
102
RTVSPost2010Prop43
 90
        3
102
RTVSPost2010PropOp43
 70
     1
102
RTVSPost2010Prop44ColorIndex
 90
        5
102
RTVSPost2010Prop44ColorRGB
 90
      255
102
RTVSPost2010PropOp44
 70
     1
102
RTVSPost2010Prop45
280
     0
102
RTVSPost2010PropOp45
 70
     1
102
RTVSPost2010Prop46
 90
       50
102
RTVSPost2010PropOp46
 70
     1
102
RTVSPost2010Prop47
 90
       50
102
RTVSPost2010PropOp47
 70
     1
102
RTVSPost2010Prop48
 90
       50
102
RTVSPost2010PropOp48
 70
     1
102
RTVSPost2010Prop49
280
     0
102
RTVSPost2010PropOp49
 70
     1
102
RTVSPost2010Prop50
 90
       50
102
RTVSPost2010PropOp50
 70
     1
102
RTVSPost2010Prop51ColorIndex
 90
      256
102
RTVSPost2010Prop51ColorRGB
 90
-16777216
102
RTVSPost2010PropOp51
 70
     0
102
RTVSPost2010Prop52
140
1.0
102
RTVSPost2010PropOp52
 70
     0
102
RTVSPost2010Prop53
 90
        2
102
RTVSPost2010PropOp53
 70
     1
102
RTVSPost2010Prop54
  1
strokes_ogs.tif
102
RTVSPost2010PropOp54
 70
     1
102
RTVSPost2010Prop55
280
     0
102
RTVSPost2010PropOp55
 70
     1
102
RTVSPost2010Prop56
140
1.0
102
RTVSPost2010PropOp56
 70
     1
102
RTVSPost2010Prop57
140
1.0
102
RTVSPost2010PropOp57
 70
     1
102
RTVSPropertyOp0
 70
     1
102
RTVSPropertyOp1
 70
     1
102
RTVSPropertyOp2
 70
     1
102
RTVSPropertyOp3
 70
     1
102
RTVSPropertyOp4
 70
     1
102
RTVSPropertyOp5
 70
     1
102
RTVSPropertyOp6
 70
     1
102
RTVSPropertyOp7
 70
     1
102
RTVSPropertyOp8
 70
     1
102
RTVSPropertyOp9
 70
     1
102
RTVSPropertyOp10
 70
     1
102
RTVSPropertyOp11
 70
     1
102
RTVSPropertyOp12
 70
     1
102
RTVSPropertyOp13
 70
     1
102
RTVSPropertyOp14
 70
     1
102
RTVSPropertyOp15
 70
     1
102
RTVSPropertyOp16
 70
     1
102
RTVSPropertyOp17
 70
     1
102
RTVSPropertyOp18
 70
     1
102
RTVSPropertyOp19
 70
     1
102
RTVSPropertyOp20
 70
     1
102
RTVSPropertyOp21
 70
     1
102
RTVSPropertyOp22
 70
     1
102
RTVSPropertyOp23
 70
     1
102
RTVSPropertyOp24
 70
     1
102
RTVSPropertyOp25
 70
     1
102
RTVSPropertyOp26
 70
     1
102
RTVSPropertyOp27
 70
     1
102
RTVSPropertyOp28
 70
     1
102
RTVSPropertyOp29
 70
     1
102
RTVSPropertyOp30
 70
     1
102
RTVSPropertyOp31
 70
     1
102
RTVSPropertyOp32
 70
     1
102
RTVSPropertyOp33
 70
     1
102
RTVSPropertyOp34
 70
     1
102
RTVSPropertyOp35
 70
     1
102
RTVSPropertyOp36
 70
     1
102
RTVSPropertyOp37
 70
     1
102
RTVSPropertyOp38
 70
     1
102
RTVSPropertyOp39
 70
     1
102
RTVSPropertyOp40
 70
     1
102
RTVSPropertyOp41
 70
     1
102
RTVSPropertyOp42
 70
     1
102
RTVSPropertyOp43
 70
     1
102
RTVSPropertyOp44
 70
     1
102
RTVSPropertyOp45
 70
     1
102
RTVSPropertyOp46
 70
     1
102
RTVSPropertyOp47
 70
     1
102
RTVSPropertyOp48
 70
     1
102
RTVSPropertyOp49
 70
     1
102
RTVSPropertyOp50
 70
     1
102
RTVSPropertyOp51
 70
     0
102
RTVSPropertyOp52
 70
     0
102
RTVSPropertyOp53
 70
     1
102
RTVSPropertyOp54
 70
     1
102
RTVSPropertyOp55
 70
     1
102
RTVSPropertyOp56
 70
     1
102
RTVSPropertyOp57
 70
     1
102
RTVSPropertyOp58
 70
     1
102
RTVSPropertyOp59
 70
     1
102
RTVSPropertyOp60
 70
     1
102
RTVSPropertyOp61
 70
     1
102
RTVSPropertyOp62
 70
     1
  0
XRECORD
  5
137F
102
{ACAD_REACTORS
330
137E
102
}
330
137E
100
AcDbXrecord
280
     1
102
RTVSPost2010Prop28
280
     0
102
RTVSPost2010PropOp28
 70
     1
102
RTVSPost2010Prop29
280
     1
102
RTVSPost2010PropOp29
 70
     1
102
RTVSPost2010Prop30
280
     1
102
RTVSPost2010PropOp30
 70
     1
102
RTVSPost2010Prop31
280
     0
102
RTVSPost2010PropOp31
 70
     1
102
RTVSPost2010Prop32
280
     0
102
RTVSPost2010PropOp32
 70
     1
102
RTVSPost2010Prop33
280
     0
102
RTVSPost2010PropOp33
 70
     1
102
RTVSPost2010Prop34
280
     0
102
RTVSPost2010PropOp34
 70
     1
102
RTVSPost2010Prop35
280
     0
102
RTVSPost2010PropOp35
 70
     1
102
RTVSPost2010Prop36
280
     0
102
RTVSPost2010PropOp36
 70
     1
102
RTVSPost2010Prop37
 90
       50
102
RTVSPost2010PropOp37
 70
     1
102
RTVSPost2010Prop38
140
0.0
102
RTVSPost2010PropOp38
 70
     1
102
RTVSPost2010Prop39
140
1.0
102
RTVSPost2010PropOp39
 70
     1
102
RTVSPost2010Prop40
 90
        0
102
RTVSPost2010PropOp40
 70
     1
102
RTVSPost2010Prop41ColorIndex
 90
       18
102
RTVSPost2010Prop41ColorRGB
 90
        0
102
RTVSPost2010PropOp41
 70
     1
102
RTVSPost2010Prop42
 90
       50
102
RTVSPost2010PropOp42
 70
     1
102
RTVSPost2010Prop43
 90
        3
102
RTVSPost2010PropOp43
 70
     1
102
RTVSPost2010Prop44ColorIndex
 90
        5
102
RTVSPost2010Prop44ColorRGB
 90
      255
102
RTVSPost2010PropOp44
 70
     1
102
RTVSPost2010Prop45
280
     0
102
RTVSPost2010PropOp45
 70
     1
102
RTVSPost2010Prop46
 90
       50
102
RTVSPost2010PropOp46
 70
     1
102
RTVSPost2010Prop47
 90
       50
102
RTVSPost2010PropOp47
 70
     1
102
RTVSPost2010Prop48
 90
       50
102
RTVSPost2010PropOp48
 70
     1
102
RTVSPost2010Prop49
280
     0
102
RTVSPost2010PropOp49
 70
     1
102
RTVSPost2010Prop50
 90
       50
102
RTVSPost2010PropOp50
 70
     1
102
RTVSPost2010Prop51ColorIndex
 90
      256
102
RTVSPost2010Prop51ColorRGB
 90
-16777216
102
RTVSPost2010PropOp51
 70
     0
102
RTVSPost2010Prop52
140
1.0
102
RTVSPost2010PropOp52
 70
     0
102
RTVSPost2010Prop53
 90
        2
102
RTVSPost2010PropOp53
 70
     1
102
RTVSPost2010Prop54
  1
strokes_ogs.tif
102
RTVSPost2010PropOp54
 70
     1
102
RTVSPost2010Prop55
280
     0
102
RTVSPost2010PropOp55
 70
     1
102
RTVSPost2010Prop56
140
1.0
102
RTVSPost2010PropOp56
 70
     1
102
RTVSPost2010Prop57
140
1.0
102
RTVSPost2010PropOp57
 70
     1
102
RTVSPropertyOp0
 70
     1
102
RTVSPropertyOp1
 70
     1
102
RTVSPropertyOp2
 70
     1
102
RTVSPropertyOp3
 70
     1
102
RTVSPropertyOp4
 70
     1
102
RTVSPropertyOp5
 70
     1
102
RTVSPropertyOp6
 70
     1
102
RTVSPropertyOp7
 70
     1
102
RTVSPropertyOp8
 70
     1
102
RTVSPropertyOp9
 70
     1
102
RTVSPropertyOp10
 70
     1
102
RTVSPropertyOp11
 70
     1
102
RTVSPropertyOp12
 70
     1
102
RTVSPropertyOp13
 70
     1
102
RTVSPropertyOp14
 70
     1
102
RTVSPropertyOp15
 70
     1
102
RTVSPropertyOp16
 70
     1
102
RTVSPropertyOp17
 70
     1
102
RTVSPropertyOp18
 70
     1
102
RTVSPropertyOp19
 70
     1
102
RTVSPropertyOp20
 70
     1
102
RTVSPropertyOp21
 70
     1
102
RTVSPropertyOp22
 70
     1
102
RTVSPropertyOp23
 70
     1
102
RTVSPropertyOp24
 70
     1
102
RTVSPropertyOp25
 70
     1
102
RTVSPropertyOp26
 70
     1
102
RTVSPropertyOp27
 70
     1
102
RTVSPropertyOp28
 70
     1
102
RTVSPropertyOp29
 70
     1
102
RTVSPropertyOp30
 70
     1
102
RTVSPropertyOp31
 70
     1
102
RTVSPropertyOp32
 70
     1
102
RTVSPropertyOp33
 70
     1
102
RTVSPropertyOp34
 70
     1
102
RTVSPropertyOp35
 70
     1
102
RTVSPropertyOp36
 70
     1
102
RTVSPropertyOp37
 70
     1
102
RTVSPropertyOp38
 70
     1
102
RTVSPropertyOp39
 70
     1
102
RTVSPropertyOp40
 70
     1
102
RTVSPropertyOp41
 70
     1
102
RTVSPropertyOp42
 70
     1
102
RTVSPropertyOp43
 70
     1
102
RTVSPropertyOp44
 70
     1
102
RTVSPropertyOp45
 70
     1
102
RTVSPropertyOp46
 70
     1
102
RTVSPropertyOp47
 70
     1
102
RTVSPropertyOp48
 70
     1
102
RTVSPropertyOp49
 70
     1
102
RTVSPropertyOp50
 70
     1
102
RTVSPropertyOp51
 70
     0
102
RTVSPropertyOp52
 70
     0
102
RTVSPropertyOp53
 70
     1
102
RTVSPropertyOp54
 70
     1
102
RTVSPropertyOp55
 70
     1
102
RTVSPropertyOp56
 70
     1
102
RTVSPropertyOp57
 70
     1
102
RTVSPropertyOp58
 70
     1
102
RTVSPropertyOp59
 70
     1
102
RTVSPropertyOp60
 70
     1
102
RTVSPropertyOp61
 70
     1
102
RTVSPropertyOp62
 70
     1
  0
XRECORD
  5
137D
102
{ACAD_REACTORS
330
137C
102
}
330
137C
100
AcDbXrecord
280
     1
102
RTVSPost2010Prop28
280
     0
102
RTVSPost2010PropOp28
 70
     1
102
RTVSPost2010Prop29
280
     1
102
RTVSPost2010PropOp29
 70
     1
102
RTVSPost2010Prop30
280
     1
102
RTVSPost2010PropOp30
 70
     1
102
RTVSPost2010Prop31
280
     0
102
RTVSPost2010PropOp31
 70
     1
102
RTVSPost2010Prop32
280
     0
102
RTVSPost2010PropOp32
 70
     1
102
RTVSPost2010Prop33
280
     0
102
RTVSPost2010PropOp33
 70
     1
102
RTVSPost2010Prop34
280
     0
102
RTVSPost2010PropOp34
 70
     1
102
RTVSPost2010Prop35
280
     0
102
RTVSPost2010PropOp35
 70
     1
102
RTVSPost2010Prop36
280
     0
102
RTVSPost2010PropOp36
 70
     1
102
RTVSPost2010Prop37
 90
       50
102
RTVSPost2010PropOp37
 70
     1
102
RTVSPost2010Prop38
140
0.0
102
RTVSPost2010PropOp38
 70
     1
102
RTVSPost2010Prop39
140
1.0
102
RTVSPost2010PropOp39
 70
     1
102
RTVSPost2010Prop40
 90
        0
102
RTVSPost2010PropOp40
 70
     1
102
RTVSPost2010Prop41ColorIndex
 90
       18
102
RTVSPost2010Prop41ColorRGB
 90
        0
102
RTVSPost2010PropOp41
 70
     1
102
RTVSPost2010Prop42
 90
       50
102
RTVSPost2010PropOp42
 70
     1
102
RTVSPost2010Prop43
 90
        3
102
RTVSPost2010PropOp43
 70
     1
102
RTVSPost2010Prop44ColorIndex
 90
        5
102
RTVSPost2010Prop44ColorRGB
 90
      255
102
RTVSPost2010PropOp44
 70
     1
102
RTVSPost2010Prop45
280
     0
102
RTVSPost2010PropOp45
 70
     1
102
RTVSPost2010Prop46
 90
       50
102
RTVSPost2010PropOp46
 70
     1
102
RTVSPost2010Prop47
 90
       50
102
RTVSPost2010PropOp47
 70
     1
102
RTVSPost2010Prop48
 90
       50
102
RTVSPost2010PropOp48
 70
     1
102
RTVSPost2010Prop49
280
     0
102
RTVSPost2010PropOp49
 70
     1
102
RTVSPost2010Prop50
 90
       50
102
RTVSPost2010PropOp50
 70
     1
102
RTVSPost2010Prop51ColorIndex
 90
      256
102
RTVSPost2010Prop51ColorRGB
 90
-16777216
102
RTVSPost2010PropOp51
 70
     0
102
RTVSPost2010Prop52
140
1.0
102
RTVSPost2010PropOp52
 70
     0
102
RTVSPost2010Prop53
 90
        2
102
RTVSPost2010PropOp53
 70
     1
102
RTVSPost2010Prop54
  1
strokes_ogs.tif
102
RTVSPost2010PropOp54
 70
     1
102
RTVSPost2010Prop55
280
     0
102
RTVSPost2010PropOp55
 70
     1
102
RTVSPost2010Prop56
140
1.0
102
RTVSPost2010PropOp56
 70
     1
102
RTVSPost2010Prop57
140
1.0
102
RTVSPost2010PropOp57
 70
     1
102
RTVSPropertyOp0
 70
     1
102
RTVSPropertyOp1
 70
     1
102
RTVSPropertyOp2
 70
     1
102
RTVSPropertyOp3
 70
     1
102
RTVSPropertyOp4
 70
     1
102
RTVSPropertyOp5
 70
     1
102
RTVSPropertyOp6
 70
     1
102
RTVSPropertyOp7
 70
     1
102
RTVSPropertyOp8
 70
     1
102
RTVSPropertyOp9
 70
     1
102
RTVSPropertyOp10
 70
     1
102
RTVSPropertyOp11
 70
     1
102
RTVSPropertyOp12
 70
     1
102
RTVSPropertyOp13
 70
     1
102
RTVSPropertyOp14
 70
     1
102
RTVSPropertyOp15
 70
     1
102
RTVSPropertyOp16
 70
     1
102
RTVSPropertyOp17
 70
     1
102
RTVSPropertyOp18
 70
     1
102
RTVSPropertyOp19
 70
     1
102
RTVSPropertyOp20
 70
     1
102
RTVSPropertyOp21
 70
     1
102
RTVSPropertyOp22
 70
     1
102
RTVSPropertyOp23
 70
     1
102
RTVSPropertyOp24
 70
     1
102
RTVSPropertyOp25
 70
     1
102
RTVSPropertyOp26
 70
     1
102
RTVSPropertyOp27
 70
     1
102
RTVSPropertyOp28
 70
     1
102
RTVSPropertyOp29
 70
     1
102
RTVSPropertyOp30
 70
     1
102
RTVSPropertyOp31
 70
     1
102
RTVSPropertyOp32
 70
     1
102
RTVSPropertyOp33
 70
     1
102
RTVSPropertyOp34
 70
     1
102
RTVSPropertyOp35
 70
     1
102
RTVSPropertyOp36
 70
     1
102
RTVSPropertyOp37
 70
     1
102
RTVSPropertyOp38
 70
     1
102
RTVSPropertyOp39
 70
     1
102
RTVSPropertyOp40
 70
     1
102
RTVSPropertyOp41
 70
     1
102
RTVSPropertyOp42
 70
     1
102
RTVSPropertyOp43
 70
     1
102
RTVSPropertyOp44
 70
     1
102
RTVSPropertyOp45
 70
     1
102
RTVSPropertyOp46
 70
     1
102
RTVSPropertyOp47
 70
     1
102
RTVSPropertyOp48
 70
     1
102
RTVSPropertyOp49
 70
     1
102
RTVSPropertyOp50
 70
     1
102
RTVSPropertyOp51
 70
     0
102
RTVSPropertyOp52
 70
     0
102
RTVSPropertyOp53
 70
     1
102
RTVSPropertyOp54
 70
     1
102
RTVSPropertyOp55
 70
     1
102
RTVSPropertyOp56
 70
     1
102
RTVSPropertyOp57
 70
     1
102
RTVSPropertyOp58
 70
     1
102
RTVSPropertyOp59
 70
     1
102
RTVSPropertyOp60
 70
     1
102
RTVSPropertyOp61
 70
     1
102
RTVSPropertyOp62
 70
     1
  0
XRECORD
  5
1379
102
{ACAD_REACTORS
330
1378
102
}
330
1378
100
AcDbXrecord
280
     1
102
RTVSPost2010Prop28
280
     0
102
RTVSPost2010PropOp28
 70
     1
102
RTVSPost2010Prop29
280
     1
102
RTVSPost2010PropOp29
 70
     1
102
RTVSPost2010Prop30
280
     1
102
RTVSPost2010PropOp30
 70
     1
102
RTVSPost2010Prop31
280
     0
102
RTVSPost2010PropOp31
 70
     1
102
RTVSPost2010Prop32
280
     0
102
RTVSPost2010PropOp32
 70
     1
102
RTVSPost2010Prop33
280
     0
102
RTVSPost2010PropOp33
 70
     1
102
RTVSPost2010Prop34
280
     0
102
RTVSPost2010PropOp34
 70
     1
102
RTVSPost2010Prop35
280
     0
102
RTVSPost2010PropOp35
 70
     1
102
RTVSPost2010Prop36
280
     0
102
RTVSPost2010PropOp36
 70
     1
102
RTVSPost2010Prop37
 90
       50
102
RTVSPost2010PropOp37
 70
     1
102
RTVSPost2010Prop38
140
0.0
102
RTVSPost2010PropOp38
 70
     1
102
RTVSPost2010Prop39
140
1.0
102
RTVSPost2010PropOp39
 70
     1
102
RTVSPost2010Prop40
 90
        0
102
RTVSPost2010PropOp40
 70
     1
102
RTVSPost2010Prop41ColorIndex
 90
       18
102
RTVSPost2010Prop41ColorRGB
 90
        0
102
RTVSPost2010PropOp41
 70
     1
102
RTVSPost2010Prop42
 90
       50
102
RTVSPost2010PropOp42
 70
     1
102
RTVSPost2010Prop43
 90
        3
102
RTVSPost2010PropOp43
 70
     1
102
RTVSPost2010Prop44ColorIndex
 90
        5
102
RTVSPost2010Prop44ColorRGB
 90
      255
102
RTVSPost2010PropOp44
 70
     1
102
RTVSPost2010Prop45
280
     0
102
RTVSPost2010PropOp45
 70
     1
102
RTVSPost2010Prop46
 90
       50
102
RTVSPost2010PropOp46
 70
     1
102
RTVSPost2010Prop47
 90
       50
102
RTVSPost2010PropOp47
 70
     1
102
RTVSPost2010Prop48
 90
       50
102
RTVSPost2010PropOp48
 70
     1
102
RTVSPost2010Prop49
280
     0
102
RTVSPost2010PropOp49
 70
     1
102
RTVSPost2010Prop50
 90
       50
102
RTVSPost2010PropOp50
 70
     1
102
RTVSPost2010Prop51ColorIndex
 90
      256
102
RTVSPost2010Prop51ColorRGB
 90
-16777216
102
RTVSPost2010PropOp51
 70
     0
102
RTVSPost2010Prop52
140
1.0
102
RTVSPost2010PropOp52
 70
     0
102
RTVSPost2010Prop53
 90
        2
102
RTVSPost2010PropOp53
 70
     1
102
RTVSPost2010Prop54
  1
strokes_ogs.tif
102
RTVSPost2010PropOp54
 70
     1
102
RTVSPost2010Prop55
280
     0
102
RTVSPost2010PropOp55
 70
     1
102
RTVSPost2010Prop56
140
1.0
102
RTVSPost2010PropOp56
 70
     1
102
RTVSPost2010Prop57
140
1.0
102
RTVSPost2010PropOp57
 70
     1
102
RTVSPropertyOp0
 70
     1
102
RTVSPropertyOp1
 70
     1
102
RTVSPropertyOp2
 70
     1
102
RTVSPropertyOp3
 70
     1
102
RTVSPropertyOp4
 70
     1
102
RTVSPropertyOp5
 70
     1
102
RTVSPropertyOp6
 70
     1
102
RTVSPropertyOp7
 70
     1
102
RTVSPropertyOp8
 70
     1
102
RTVSPropertyOp9
 70
     1
102
RTVSPropertyOp10
 70
     1
102
RTVSPropertyOp11
 70
     1
102
RTVSPropertyOp12
 70
     1
102
RTVSPropertyOp13
 70
     1
102
RTVSPropertyOp14
 70
     1
102
RTVSPropertyOp15
 70
     1
102
RTVSPropertyOp16
 70
     1
102
RTVSPropertyOp17
 70
     1
102
RTVSPropertyOp18
 70
     1
102
RTVSPropertyOp19
 70
     1
102
RTVSPropertyOp20
 70
     1
102
RTVSPropertyOp21
 70
     1
102
RTVSPropertyOp22
 70
     1
102
RTVSPropertyOp23
 70
     1
102
RTVSPropertyOp24
 70
     1
102
RTVSPropertyOp25
 70
     1
102
RTVSPropertyOp26
 70
     1
102
RTVSPropertyOp27
 70
     1
102
RTVSPropertyOp28
 70
     1
102
RTVSPropertyOp29
 70
     1
102
RTVSPropertyOp30
 70
     1
102
RTVSPropertyOp31
 70
     1
102
RTVSPropertyOp32
 70
     1
102
RTVSPropertyOp33
 70
     1
102
RTVSPropertyOp34
 70
     1
102
RTVSPropertyOp35
 70
     1
102
RTVSPropertyOp36
 70
     1
102
RTVSPropertyOp37
 70
     1
102
RTVSPropertyOp38
 70
     1
102
RTVSPropertyOp39
 70
     1
102
RTVSPropertyOp40
 70
     1
102
RTVSPropertyOp41
 70
     1
102
RTVSPropertyOp42
 70
     1
102
RTVSPropertyOp43
 70
     1
102
RTVSPropertyOp44
 70
     1
102
RTVSPropertyOp45
 70
     1
102
RTVSPropertyOp46
 70
     1
102
RTVSPropertyOp47
 70
     1
102
RTVSPropertyOp48
 70
     1
102
RTVSPropertyOp49
 70
     1
102
RTVSPropertyOp50
 70
     1
102
RTVSPropertyOp51
 70
     0
102
RTVSPropertyOp52
 70
     0
102
RTVSPropertyOp53
 70
     1
102
RTVSPropertyOp54
 70
     1
102
RTVSPropertyOp55
 70
     1
102
RTVSPropertyOp56
 70
     1
102
RTVSPropertyOp57
 70
     1
102
RTVSPropertyOp58
 70
     1
102
RTVSPropertyOp59
 70
     1
102
RTVSPropertyOp60
 70
     1
102
RTVSPropertyOp61
 70
     1
102
RTVSPropertyOp62
 70
     1
  0
XRECORD
  5
1387
102
{ACAD_REACTORS
330
1386
102
}
330
1386
100
AcDbXrecord
280
     1
102
RTVSPost2010Prop28
280
     0
102
RTVSPost2010PropOp28
 70
     1
102
RTVSPost2010Prop29
280
     1
102
RTVSPost2010PropOp29
 70
     1
102
RTVSPost2010Prop30
280
     1
102
RTVSPost2010PropOp30
 70
     1
102
RTVSPost2010Prop31
280
     0
102
RTVSPost2010PropOp31
 70
     1
102
RTVSPost2010Prop32
280
     0
102
RTVSPost2010PropOp32
 70
     1
102
RTVSPost2010Prop33
280
     0
102
RTVSPost2010PropOp33
 70
     1
102
RTVSPost2010Prop34
280
     0
102
RTVSPost2010PropOp34
 70
     1
102
RTVSPost2010Prop35
280
     0
102
RTVSPost2010PropOp35
 70
     1
102
RTVSPost2010Prop36
280
     0
102
RTVSPost2010PropOp36
 70
     1
102
RTVSPost2010Prop37
 90
       50
102
RTVSPost2010PropOp37
 70
     1
102
RTVSPost2010Prop38
140
0.0
102
RTVSPost2010PropOp38
 70
     1
102
RTVSPost2010Prop39
140
1.0
102
RTVSPost2010PropOp39
 70
     1
102
RTVSPost2010Prop40
 90
        0
102
RTVSPost2010PropOp40
 70
     1
102
RTVSPost2010Prop41ColorIndex
 90
       18
102
RTVSPost2010Prop41ColorRGB
 90
        0
102
RTVSPost2010PropOp41
 70
     1
102
RTVSPost2010Prop42
 90
       50
102
RTVSPost2010PropOp42
 70
     1
102
RTVSPost2010Prop43
 90
        3
102
RTVSPost2010PropOp43
 70
     1
102
RTVSPost2010Prop44ColorIndex
 90
        5
102
RTVSPost2010Prop44ColorRGB
 90
      255
102
RTVSPost2010PropOp44
 70
     1
102
RTVSPost2010Prop45
280
     0
102
RTVSPost2010PropOp45
 70
     1
102
RTVSPost2010Prop46
 90
       50
102
RTVSPost2010PropOp46
 70
     1
102
RTVSPost2010Prop47
 90
       50
102
RTVSPost2010PropOp47
 70
     1
102
RTVSPost2010Prop48
 90
       50
102
RTVSPost2010PropOp48
 70
     1
102
RTVSPost2010Prop49
280
     0
102
RTVSPost2010PropOp49
 70
     1
102
RTVSPost2010Prop50
 90
       50
102
RTVSPost2010PropOp50
 70
     1
102
RTVSPost2010Prop51ColorIndex
 90
      256
102
RTVSPost2010Prop51ColorRGB
 90
-16777216
102
RTVSPost2010PropOp51
 70
     0
102
RTVSPost2010Prop52
140
1.0
102
RTVSPost2010PropOp52
 70
     0
102
RTVSPost2010Prop53
 90
        2
102
RTVSPost2010PropOp53
 70
     1
102
RTVSPost2010Prop54
  1
strokes_ogs.tif
102
RTVSPost2010PropOp54
 70
     1
102
RTVSPost2010Prop55
280
     0
102
RTVSPost2010PropOp55
 70
     1
102
RTVSPost2010Prop56
140
1.0
102
RTVSPost2010PropOp56
 70
     1
102
RTVSPost2010Prop57
140
1.0
102
RTVSPost2010PropOp57
 70
     1
102
RTVSPropertyOp0
 70
     1
102
RTVSPropertyOp1
 70
     1
102
RTVSPropertyOp2
 70
     1
102
RTVSPropertyOp3
 70
     1
102
RTVSPropertyOp4
 70
     1
102
RTVSPropertyOp5
 70
     1
102
RTVSPropertyOp6
 70
     1
102
RTVSPropertyOp7
 70
     1
102
RTVSPropertyOp8
 70
     1
102
RTVSPropertyOp9
 70
     1
102
RTVSPropertyOp10
 70
     1
102
RTVSPropertyOp11
 70
     1
102
RTVSPropertyOp12
 70
     1
102
RTVSPropertyOp13
 70
     1
102
RTVSPropertyOp14
 70
     1
102
RTVSPropertyOp15
 70
     1
102
RTVSPropertyOp16
 70
     1
102
RTVSPropertyOp17
 70
     1
102
RTVSPropertyOp18
 70
     1
102
RTVSPropertyOp19
 70
     1
102
RTVSPropertyOp20
 70
     1
102
RTVSPropertyOp21
 70
     1
102
RTVSPropertyOp22
 70
     1
102
RTVSPropertyOp23
 70
     1
102
RTVSPropertyOp24
 70
     1
102
RTVSPropertyOp25
 70
     1
102
RTVSPropertyOp26
 70
     1
102
RTVSPropertyOp27
 70
     1
102
RTVSPropertyOp28
 70
     1
102
RTVSPropertyOp29
 70
     1
102
RTVSPropertyOp30
 70
     1
102
RTVSPropertyOp31
 70
     1
102
RTVSPropertyOp32
 70
     1
102
RTVSPropertyOp33
 70
     1
102
RTVSPropertyOp34
 70
     1
102
RTVSPropertyOp35
 70
     1
102
RTVSPropertyOp36
 70
     1
102
RTVSPropertyOp37
 70
     1
102
RTVSPropertyOp38
 70
     1
102
RTVSPropertyOp39
 70
     1
102
RTVSPropertyOp40
 70
     1
102
RTVSPropertyOp41
 70
     1
102
RTVSPropertyOp42
 70
     1
102
RTVSPropertyOp43
 70
     1
102
RTVSPropertyOp44
 70
     1
102
RTVSPropertyOp45
 70
     1
102
RTVSPropertyOp46
 70
     1
102
RTVSPropertyOp47
 70
     1
102
RTVSPropertyOp48
 70
     1
102
RTVSPropertyOp49
 70
     1
102
RTVSPropertyOp50
 70
     1
102
RTVSPropertyOp51
 70
     0
102
RTVSPropertyOp52
 70
     0
102
RTVSPropertyOp53
 70
     1
102
RTVSPropertyOp54
 70
     1
102
RTVSPropertyOp55
 70
     1
102
RTVSPropertyOp56
 70
     1
102
RTVSPropertyOp57
 70
     1
102
RTVSPropertyOp58
 70
     1
102
RTVSPropertyOp59
 70
     1
102
RTVSPropertyOp60
 70
     1
102
RTVSPropertyOp61
 70
     1
102
RTVSPropertyOp62
 70
     1
  0
XRECORD
  5
138F
102
{ACAD_REACTORS
330
138E
102
}
330
138E
100
AcDbXrecord
280
     1
102
RTVSPost2010Prop28
280
     0
102
RTVSPost2010PropOp28
 70
     1
102
RTVSPost2010Prop29
280
     1
102
RTVSPost2010PropOp29
 70
     1
102
RTVSPost2010Prop30
280
     1
102
RTVSPost2010PropOp30
 70
     1
102
RTVSPost2010Prop31
280
     0
102
RTVSPost2010PropOp31
 70
     1
102
RTVSPost2010Prop32
280
     0
102
RTVSPost2010PropOp32
 70
     1
102
RTVSPost2010Prop33
280
     0
102
RTVSPost2010PropOp33
 70
     1
102
RTVSPost2010Prop34
280
     0
102
RTVSPost2010PropOp34
 70
     1
102
RTVSPost2010Prop35
280
     0
102
RTVSPost2010PropOp35
 70
     1
102
RTVSPost2010Prop36
280
     0
102
RTVSPost2010PropOp36
 70
     1
102
RTVSPost2010Prop37
 90
       50
102
RTVSPost2010PropOp37
 70
     1
102
RTVSPost2010Prop38
140
0.0
102
RTVSPost2010PropOp38
 70
     1
102
RTVSPost2010Prop39
140
1.0
102
RTVSPost2010PropOp39
 70
     1
102
RTVSPost2010Prop40
 90
        0
102
RTVSPost2010PropOp40
 70
     1
102
RTVSPost2010Prop41ColorIndex
 90
       18
102
RTVSPost2010Prop41ColorRGB
 90
        0
102
RTVSPost2010PropOp41
 70
     1
102
RTVSPost2010Prop42
 90
       50
102
RTVSPost2010PropOp42
 70
     1
102
RTVSPost2010Prop43
 90
        3
102
RTVSPost2010PropOp43
 70
     1
102
RTVSPost2010Prop44ColorIndex
 90
        5
102
RTVSPost2010Prop44ColorRGB
 90
      255
102
RTVSPost2010PropOp44
 70
     1
102
RTVSPost2010Prop45
280
     0
102
RTVSPost2010PropOp45
 70
     1
102
RTVSPost2010Prop46
 90
       50
102
RTVSPost2010PropOp46
 70
     1
102
RTVSPost2010Prop47
 90
       50
102
RTVSPost2010PropOp47
 70
     1
102
RTVSPost2010Prop48
 90
       50
102
RTVSPost2010PropOp48
 70
     1
102
RTVSPost2010Prop49
280
     0
102
RTVSPost2010PropOp49
 70
     1
102
RTVSPost2010Prop50
 90
       50
102
RTVSPost2010PropOp50
 70
     1
102
RTVSPost2010Prop51ColorIndex
 90
      256
102
RTVSPost2010Prop51ColorRGB
 90
-16777216
102
RTVSPost2010PropOp51
 70
     0
102
RTVSPost2010Prop52
140
1.0
102
RTVSPost2010PropOp52
 70
     0
102
RTVSPost2010Prop53
 90
        2
102
RTVSPost2010PropOp53
 70
     1
102
RTVSPost2010Prop54
  1
strokes_ogs.tif
102
RTVSPost2010PropOp54
 70
     1
102
RTVSPost2010Prop55
280
     0
102
RTVSPost2010PropOp55
 70
     1
102
RTVSPost2010Prop56
140
1.0
102
RTVSPost2010PropOp56
 70
     1
102
RTVSPost2010Prop57
140
1.0
102
RTVSPost2010PropOp57
 70
     1
102
RTVSPropertyOp0
 70
     1
102
RTVSPropertyOp1
 70
     1
102
RTVSPropertyOp2
 70
     1
102
RTVSPropertyOp3
 70
     1
102
RTVSPropertyOp4
 70
     1
102
RTVSPropertyOp5
 70
     1
102
RTVSPropertyOp6
 70
     1
102
RTVSPropertyOp7
 70
     1
102
RTVSPropertyOp8
 70
     1
102
RTVSPropertyOp9
 70
     1
102
RTVSPropertyOp10
 70
     1
102
RTVSPropertyOp11
 70
     1
102
RTVSPropertyOp12
 70
     1
102
RTVSPropertyOp13
 70
     1
102
RTVSPropertyOp14
 70
     1
102
RTVSPropertyOp15
 70
     1
102
RTVSPropertyOp16
 70
     1
102
RTVSPropertyOp17
 70
     1
102
RTVSPropertyOp18
 70
     1
102
RTVSPropertyOp19
 70
     1
102
RTVSPropertyOp20
 70
     1
102
RTVSPropertyOp21
 70
     1
102
RTVSPropertyOp22
 70
     1
102
RTVSPropertyOp23
 70
     1
102
RTVSPropertyOp24
 70
     1
102
RTVSPropertyOp25
 70
     1
102
RTVSPropertyOp26
 70
     1
102
RTVSPropertyOp27
 70
     1
102
RTVSPropertyOp28
 70
     1
102
RTVSPropertyOp29
 70
     1
102
RTVSPropertyOp30
 70
     1
102
RTVSPropertyOp31
 70
     1
102
RTVSPropertyOp32
 70
     1
102
RTVSPropertyOp33
 70
     1
102
RTVSPropertyOp34
 70
     1
102
RTVSPropertyOp35
 70
     1
102
RTVSPropertyOp36
 70
     1
102
RTVSPropertyOp37
 70
     1
102
RTVSPropertyOp38
 70
     1
102
RTVSPropertyOp39
 70
     1
102
RTVSPropertyOp40
 70
     1
102
RTVSPropertyOp41
 70
     1
102
RTVSPropertyOp42
 70
     1
102
RTVSPropertyOp43
 70
     1
102
RTVSPropertyOp44
 70
     1
102
RTVSPropertyOp45
 70
     1
102
RTVSPropertyOp46
 70
     1
102
RTVSPropertyOp47
 70
     1
102
RTVSPropertyOp48
 70
     1
102
RTVSPropertyOp49
 70
     1
102
RTVSPropertyOp50
 70
     1
102
RTVSPropertyOp51
 70
     0
102
RTVSPropertyOp52
 70
     0
102
RTVSPropertyOp53
 70
     1
102
RTVSPropertyOp54
 70
     1
102
RTVSPropertyOp55
 70
     1
102
RTVSPropertyOp56
 70
     1
102
RTVSPropertyOp57
 70
     1
102
RTVSPropertyOp58
 70
     1
102
RTVSPropertyOp59
 70
     1
102
RTVSPropertyOp60
 70
     1
102
RTVSPropertyOp61
 70
     1
102
RTVSPropertyOp62
 70
     1
  0
XRECORD
  5
1381
102
{ACAD_REACTORS
330
1380
102
}
330
1380
100
AcDbXrecord
280
     1
102
RTVSPost2010Prop28
280
     0
102
RTVSPost2010PropOp28
 70
     1
102
RTVSPost2010Prop29
280
     1
102
RTVSPost2010PropOp29
 70
     1
102
RTVSPost2010Prop30
280
     1
102
RTVSPost2010PropOp30
 70
     1
102
RTVSPost2010Prop31
280
     0
102
RTVSPost2010PropOp31
 70
     1
102
RTVSPost2010Prop32
280
     0
102
RTVSPost2010PropOp32
 70
     1
102
RTVSPost2010Prop33
280
     0
102
RTVSPost2010PropOp33
 70
     1
102
RTVSPost2010Prop34
280
     0
102
RTVSPost2010PropOp34
 70
     1
102
RTVSPost2010Prop35
280
     0
102
RTVSPost2010PropOp35
 70
     1
102
RTVSPost2010Prop36
280
     0
102
RTVSPost2010PropOp36
 70
     1
102
RTVSPost2010Prop37
 90
       50
102
RTVSPost2010PropOp37
 70
     1
102
RTVSPost2010Prop38
140
0.0
102
RTVSPost2010PropOp38
 70
     1
102
RTVSPost2010Prop39
140
1.0
102
RTVSPost2010PropOp39
 70
     1
102
RTVSPost2010Prop40
 90
        0
102
RTVSPost2010PropOp40
 70
     1
102
RTVSPost2010Prop41ColorIndex
 90
       18
102
RTVSPost2010Prop41ColorRGB
 90
        0
102
RTVSPost2010PropOp41
 70
     1
102
RTVSPost2010Prop42
 90
       50
102
RTVSPost2010PropOp42
 70
     1
102
RTVSPost2010Prop43
 90
        3
102
RTVSPost2010PropOp43
 70
     1
102
RTVSPost2010Prop44ColorIndex
 90
        5
102
RTVSPost2010Prop44ColorRGB
 90
      255
102
RTVSPost2010PropOp44
 70
     1
102
RTVSPost2010Prop45
280
     0
102
RTVSPost2010PropOp45
 70
     1
102
RTVSPost2010Prop46
 90
       50
102
RTVSPost2010PropOp46
 70
     1
102
RTVSPost2010Prop47
 90
       50
102
RTVSPost2010PropOp47
 70
     1
102
RTVSPost2010Prop48
 90
       50
102
RTVSPost2010PropOp48
 70
     1
102
RTVSPost2010Prop49
280
     0
102
RTVSPost2010PropOp49
 70
     1
102
RTVSPost2010Prop50
 90
       50
102
RTVSPost2010PropOp50
 70
     1
102
RTVSPost2010Prop51ColorIndex
 90
      256
102
RTVSPost2010Prop51ColorRGB
 90
-16777216
102
RTVSPost2010PropOp51
 70
     0
102
RTVSPost2010Prop52
140
1.0
102
RTVSPost2010PropOp52
 70
     0
102
RTVSPost2010Prop53
 90
        2
102
RTVSPost2010PropOp53
 70
     1
102
RTVSPost2010Prop54
  1
strokes_ogs.tif
102
RTVSPost2010PropOp54
 70
     1
102
RTVSPost2010Prop55
280
     0
102
RTVSPost2010PropOp55
 70
     1
102
RTVSPost2010Prop56
140
1.0
102
RTVSPost2010PropOp56
 70
     1
102
RTVSPost2010Prop57
140
1.0
102
RTVSPost2010PropOp57
 70
     1
102
RTVSPropertyOp0
 70
     1
102
RTVSPropertyOp1
 70
     1
102
RTVSPropertyOp2
 70
     1
102
RTVSPropertyOp3
 70
     1
102
RTVSPropertyOp4
 70
     1
102
RTVSPropertyOp5
 70
     1
102
RTVSPropertyOp6
 70
     1
102
RTVSPropertyOp7
 70
     1
102
RTVSPropertyOp8
 70
     1
102
RTVSPropertyOp9
 70
     1
102
RTVSPropertyOp10
 70
     1
102
RTVSPropertyOp11
 70
     1
102
RTVSPropertyOp12
 70
     1
102
RTVSPropertyOp13
 70
     1
102
RTVSPropertyOp14
 70
     1
102
RTVSPropertyOp15
 70
     1
102
RTVSPropertyOp16
 70
     1
102
RTVSPropertyOp17
 70
     1
102
RTVSPropertyOp18
 70
     1
102
RTVSPropertyOp19
 70
     1
102
RTVSPropertyOp20
 70
     1
102
RTVSPropertyOp21
 70
     1
102
RTVSPropertyOp22
 70
     1
102
RTVSPropertyOp23
 70
     1
102
RTVSPropertyOp24
 70
     1
102
RTVSPropertyOp25
 70
     1
102
RTVSPropertyOp26
 70
     1
102
RTVSPropertyOp27
 70
     1
102
RTVSPropertyOp28
 70
     1
102
RTVSPropertyOp29
 70
     1
102
RTVSPropertyOp30
 70
     1
102
RTVSPropertyOp31
 70
     1
102
RTVSPropertyOp32
 70
     1
102
RTVSPropertyOp33
 70
     1
102
RTVSPropertyOp34
 70
     1
102
RTVSPropertyOp35
 70
     1
102
RTVSPropertyOp36
 70
     1
102
RTVSPropertyOp37
 70
     1
102
RTVSPropertyOp38
 70
     1
102
RTVSPropertyOp39
 70
     1
102
RTVSPropertyOp40
 70
     1
102
RTVSPropertyOp41
 70
     1
102
RTVSPropertyOp42
 70
     1
102
RTVSPropertyOp43
 70
     1
102
RTVSPropertyOp44
 70
     1
102
RTVSPropertyOp45
 70
     1
102
RTVSPropertyOp46
 70
     1
102
RTVSPropertyOp47
 70
     1
102
RTVSPropertyOp48
 70
     1
102
RTVSPropertyOp49
 70
     1
102
RTVSPropertyOp50
 70
     1
102
RTVSPropertyOp51
 70
     0
102
RTVSPropertyOp52
 70
     0
102
RTVSPropertyOp53
 70
     1
102
RTVSPropertyOp54
 70
     1
102
RTVSPropertyOp55
 70
     1
102
RTVSPropertyOp56
 70
     1
102
RTVSPropertyOp57
 70
     1
102
RTVSPropertyOp58
 70
     1
102
RTVSPropertyOp59
 70
     1
102
RTVSPropertyOp60
 70
     1
102
RTVSPropertyOp61
 70
     1
102
RTVSPropertyOp62
 70
     1
  0
XRECORD
  5
1385
102
{ACAD_REACTORS
330
1384
102
}
330
1384
100
AcDbXrecord
280
     1
102
RTVSPost2010Prop28
280
     0
102
RTVSPost2010PropOp28
 70
     1
102
RTVSPost2010Prop29
280
     1
102
RTVSPost2010PropOp29
 70
     1
102
RTVSPost2010Prop30
280
     1
102
RTVSPost2010PropOp30
 70
     1
102
RTVSPost2010Prop31
280
     0
102
RTVSPost2010PropOp31
 70
     1
102
RTVSPost2010Prop32
280
     0
102
RTVSPost2010PropOp32
 70
     1
102
RTVSPost2010Prop33
280
     0
102
RTVSPost2010PropOp33
 70
     1
102
RTVSPost2010Prop34
280
     0
102
RTVSPost2010PropOp34
 70
     1
102
RTVSPost2010Prop35
280
     0
102
RTVSPost2010PropOp35
 70
     1
102
RTVSPost2010Prop36
280
     0
102
RTVSPost2010PropOp36
 70
     1
102
RTVSPost2010Prop37
 90
       50
102
RTVSPost2010PropOp37
 70
     1
102
RTVSPost2010Prop38
140
0.0
102
RTVSPost2010PropOp38
 70
     1
102
RTVSPost2010Prop39
140
1.0
102
RTVSPost2010PropOp39
 70
     1
102
RTVSPost2010Prop40
 90
        0
102
RTVSPost2010PropOp40
 70
     1
102
RTVSPost2010Prop41ColorIndex
 90
       18
102
RTVSPost2010Prop41ColorRGB
 90
        0
102
RTVSPost2010PropOp41
 70
     1
102
RTVSPost2010Prop42
 90
       50
102
RTVSPost2010PropOp42
 70
     1
102
RTVSPost2010Prop43
 90
        3
102
RTVSPost2010PropOp43
 70
     1
102
RTVSPost2010Prop44ColorIndex
 90
        5
102
RTVSPost2010Prop44ColorRGB
 90
      255
102
RTVSPost2010PropOp44
 70
     1
102
RTVSPost2010Prop45
280
     0
102
RTVSPost2010PropOp45
 70
     1
102
RTVSPost2010Prop46
 90
       50
102
RTVSPost2010PropOp46
 70
     1
102
RTVSPost2010Prop47
 90
       50
102
RTVSPost2010PropOp47
 70
     1
102
RTVSPost2010Prop48
 90
       50
102
RTVSPost2010PropOp48
 70
     1
102
RTVSPost2010Prop49
280
     0
102
RTVSPost2010PropOp49
 70
     1
102
RTVSPost2010Prop50
 90
       50
102
RTVSPost2010PropOp50
 70
     1
102
RTVSPost2010Prop51ColorIndex
 90
      256
102
RTVSPost2010Prop51ColorRGB
 90
-16777216
102
RTVSPost2010PropOp51
 70
     0
102
RTVSPost2010Prop52
140
1.0
102
RTVSPost2010PropOp52
 70
     0
102
RTVSPost2010Prop53
 90
        2
102
RTVSPost2010PropOp53
 70
     1
102
RTVSPost2010Prop54
  1
strokes_ogs.tif
102
RTVSPost2010PropOp54
 70
     1
102
RTVSPost2010Prop55
280
     0
102
RTVSPost2010PropOp55
 70
     1
102
RTVSPost2010Prop56
140
1.0
102
RTVSPost2010PropOp56
 70
     1
102
RTVSPost2010Prop57
140
1.0
102
RTVSPost2010PropOp57
 70
     1
102
RTVSPropertyOp0
 70
     1
102
RTVSPropertyOp1
 70
     1
102
RTVSPropertyOp2
 70
     1
102
RTVSPropertyOp3
 70
     1
102
RTVSPropertyOp4
 70
     1
102
RTVSPropertyOp5
 70
     1
102
RTVSPropertyOp6
 70
     1
102
RTVSPropertyOp7
 70
     1
102
RTVSPropertyOp8
 70
     1
102
RTVSPropertyOp9
 70
     1
102
RTVSPropertyOp10
 70
     1
102
RTVSPropertyOp11
 70
     1
102
RTVSPropertyOp12
 70
     1
102
RTVSPropertyOp13
 70
     1
102
RTVSPropertyOp14
 70
     1
102
RTVSPropertyOp15
 70
     1
102
RTVSPropertyOp16
 70
     1
102
RTVSPropertyOp17
 70
     1
102
RTVSPropertyOp18
 70
     1
102
RTVSPropertyOp19
 70
     1
102
RTVSPropertyOp20
 70
     1
102
RTVSPropertyOp21
 70
     1
102
RTVSPropertyOp22
 70
     1
102
RTVSPropertyOp23
 70
     1
102
RTVSPropertyOp24
 70
     1
102
RTVSPropertyOp25
 70
     1
102
RTVSPropertyOp26
 70
     1
102
RTVSPropertyOp27
 70
     1
102
RTVSPropertyOp28
 70
     1
102
RTVSPropertyOp29
 70
     1
102
RTVSPropertyOp30
 70
     1
102
RTVSPropertyOp31
 70
     1
102
RTVSPropertyOp32
 70
     1
102
RTVSPropertyOp33
 70
     1
102
RTVSPropertyOp34
 70
     1
102
RTVSPropertyOp35
 70
     1
102
RTVSPropertyOp36
 70
     1
102
RTVSPropertyOp37
 70
     1
102
RTVSPropertyOp38
 70
     1
102
RTVSPropertyOp39
 70
     1
102
RTVSPropertyOp40
 70
     1
102
RTVSPropertyOp41
 70
     1
102
RTVSPropertyOp42
 70
     1
102
RTVSPropertyOp43
 70
     1
102
RTVSPropertyOp44
 70
     1
102
RTVSPropertyOp45
 70
     1
102
RTVSPropertyOp46
 70
     1
102
RTVSPropertyOp47
 70
     1
102
RTVSPropertyOp48
 70
     1
102
RTVSPropertyOp49
 70
     1
102
RTVSPropertyOp50
 70
     1
102
RTVSPropertyOp51
 70
     0
102
RTVSPropertyOp52
 70
     0
102
RTVSPropertyOp53
 70
     1
102
RTVSPropertyOp54
 70
     1
102
RTVSPropertyOp55
 70
     1
102
RTVSPropertyOp56
 70
     1
102
RTVSPropertyOp57
 70
     1
102
RTVSPropertyOp58
 70
     1
102
RTVSPropertyOp59
 70
     1
102
RTVSPropertyOp60
 70
     1
102
RTVSPropertyOp61
 70
     1
102
RTVSPropertyOp62
 70
     1
  0
XRECORD
  5
13AA
102
{ACAD_REACTORS
330
13A9
102
}
330
13A9
100
AcDbXrecord
280
     1
102
RTVSPost2010Prop28
280
     0
102
RTVSPost2010PropOp28
 70
     0
102
RTVSPost2010Prop29
280
     1
102
RTVSPost2010PropOp29
 70
     0
102
RTVSPost2010Prop30
280
     1
102
RTVSPost2010PropOp30
 70
     0
102
RTVSPost2010Prop31
280
     0
102
RTVSPost2010PropOp31
 70
     0
102
RTVSPost2010Prop32
280
     0
102
RTVSPost2010PropOp32
 70
     0
102
RTVSPost2010Prop33
280
     0
102
RTVSPost2010PropOp33
 70
     0
102
RTVSPost2010Prop34
280
     0
102
RTVSPost2010PropOp34
 70
     0
102
RTVSPost2010Prop35
280
     0
102
RTVSPost2010PropOp35
 70
     0
102
RTVSPost2010Prop36
280
     0
102
RTVSPost2010PropOp36
 70
     0
102
RTVSPost2010Prop37
 90
       50
102
RTVSPost2010PropOp37
 70
     0
102
RTVSPost2010Prop38
140
0.0
102
RTVSPost2010PropOp38
 70
     0
102
RTVSPost2010Prop39
140
1.0
102
RTVSPost2010PropOp39
 70
     0
102
RTVSPost2010Prop40
 90
        0
102
RTVSPost2010PropOp40
 70
     0
102
RTVSPost2010Prop41ColorIndex
 90
       18
102
RTVSPost2010Prop41ColorRGB
 90
        0
102
RTVSPost2010PropOp41
 70
     0
102
RTVSPost2010Prop42
 90
       50
102
RTVSPost2010PropOp42
 70
     0
102
RTVSPost2010Prop43
 90
        3
102
RTVSPost2010PropOp43
 70
     0
102
RTVSPost2010Prop44ColorIndex
 90
        5
102
RTVSPost2010Prop44ColorRGB
 90
      255
102
RTVSPost2010PropOp44
 70
     0
102
RTVSPost2010Prop45
280
     0
102
RTVSPost2010PropOp45
 70
     0
102
RTVSPost2010Prop46
 90
       50
102
RTVSPost2010PropOp46
 70
     0
102
RTVSPost2010Prop47
 90
       50
102
RTVSPost2010PropOp47
 70
     0
102
RTVSPost2010Prop48
 90
       50
102
RTVSPost2010PropOp48
 70
     0
102
RTVSPost2010Prop49
280
     0
102
RTVSPost2010PropOp49
 70
     0
102
RTVSPost2010Prop50
 90
       50
102
RTVSPost2010PropOp50
 70
     0
102
RTVSPost2010Prop51ColorIndex
 90
      256
102
RTVSPost2010Prop51ColorRGB
 90
-16777216
102
RTVSPost2010PropOp51
 70
     0
102
RTVSPost2010Prop52
140
1.0
102
RTVSPost2010PropOp52
 70
     0
102
RTVSPost2010Prop53
 90
        2
102
RTVSPost2010PropOp53
 70
     0
102
RTVSPost2010Prop54
  1
strokes_ogs.tif
102
RTVSPost2010PropOp54
 70
     0
102
RTVSPost2010Prop55
280
     0
102
RTVSPost2010PropOp55
 70
     0
102
RTVSPost2010Prop56
140
1.0
102
RTVSPost2010PropOp56
 70
     0
102
RTVSPost2010Prop57
140
1.0
102
RTVSPost2010PropOp57
 70
     0
102
RTVSPropertyOp0
 70
     0
102
RTVSPropertyOp1
 70
     0
102
RTVSPropertyOp2
 70
     0
102
RTVSPropertyOp3
 70
     0
102
RTVSPropertyOp4
 70
     0
102
RTVSPropertyOp5
 70
     0
102
RTVSPropertyOp6
 70
     0
102
RTVSPropertyOp7
 70
     0
102
RTVSPropertyOp8
 70
     0
102
RTVSPropertyOp9
 70
     0
102
RTVSPropertyOp10
 70
     0
102
RTVSPropertyOp11
 70
     0
102
RTVSPropertyOp12
 70
     0
102
RTVSPropertyOp13
 70
     0
102
RTVSPropertyOp14
 70
     2
102
RTVSPropertyOp15
 70
     0
102
RTVSPropertyOp16
 70
     0
102
RTVSPropertyOp17
 70
     0
102
RTVSPropertyOp18
 70
     0
102
RTVSPropertyOp19
 70
     0
102
RTVSPropertyOp20
 70
     0
102
RTVSPropertyOp21
 70
     0
102
RTVSPropertyOp22
 70
     0
102
RTVSPropertyOp23
 70
     0
102
RTVSPropertyOp24
 70
     0
102
RTVSPropertyOp25
 70
     0
102
RTVSPropertyOp26
 70
     0
102
RTVSPropertyOp27
 70
     0
102
RTVSPropertyOp28
 70
     0
102
RTVSPropertyOp29
 70
     0
102
RTVSPropertyOp30
 70
     0
102
RTVSPropertyOp31
 70
     0
102
RTVSPropertyOp32
 70
     0
102
RTVSPropertyOp33
 70
     0
102
RTVSPropertyOp34
 70
     0
102
RTVSPropertyOp35
 70
     0
102
RTVSPropertyOp36
 70
     0
102
RTVSPropertyOp37
 70
     0
102
RTVSPropertyOp38
 70
     0
102
RTVSPropertyOp39
 70
     0
102
RTVSPropertyOp40
 70
     0
102
RTVSPropertyOp41
 70
     0
102
RTVSPropertyOp42
 70
     0
102
RTVSPropertyOp43
 70
     0
102
RTVSPropertyOp44
 70
     0
102
RTVSPropertyOp45
 70
     0
102
RTVSPropertyOp46
 70
     0
102
RTVSPropertyOp47
 70
     0
102
RTVSPropertyOp48
 70
     0
102
RTVSPropertyOp49
 70
     0
102
RTVSPropertyOp50
 70
     0
102
RTVSPropertyOp51
 70
     0
102
RTVSPropertyOp52
 70
     0
102
RTVSPropertyOp53
 70
     0
102
RTVSPropertyOp54
 70
     0
102
RTVSPropertyOp55
 70
     0
102
RTVSPropertyOp56
 70
     0
102
RTVSPropertyOp57
 70
     0
102
RTVSPropertyOp58
 70
     0
102
RTVSPropertyOp59
 70
     0
102
RTVSPropertyOp60
 70
     0
102
RTVSPropertyOp61
 70
     0
102
RTVSPropertyOp62
 70
     0
  0
XRECORD
  5
138D
102
{ACAD_REACTORS
330
138C
102
}
330
138C
100
AcDbXrecord
280
     1
102
RTVSPost2010Prop28
280
     0
102
RTVSPost2010PropOp28
 70
     1
102
RTVSPost2010Prop29
280
     1
102
RTVSPost2010PropOp29
 70
     1
102
RTVSPost2010Prop30
280
     1
102
RTVSPost2010PropOp30
 70
     1
102
RTVSPost2010Prop31
280
     0
102
RTVSPost2010PropOp31
 70
     1
102
RTVSPost2010Prop32
280
     0
102
RTVSPost2010PropOp32
 70
     1
102
RTVSPost2010Prop33
280
     0
102
RTVSPost2010PropOp33
 70
     1
102
RTVSPost2010Prop34
280
     0
102
RTVSPost2010PropOp34
 70
     1
102
RTVSPost2010Prop35
280
     0
102
RTVSPost2010PropOp35
 70
     1
102
RTVSPost2010Prop36
280
     0
102
RTVSPost2010PropOp36
 70
     1
102
RTVSPost2010Prop37
 90
       50
102
RTVSPost2010PropOp37
 70
     1
102
RTVSPost2010Prop38
140
0.0
102
RTVSPost2010PropOp38
 70
     1
102
RTVSPost2010Prop39
140
1.0
102
RTVSPost2010PropOp39
 70
     1
102
RTVSPost2010Prop40
 90
        0
102
RTVSPost2010PropOp40
 70
     1
102
RTVSPost2010Prop41ColorIndex
 90
       18
102
RTVSPost2010Prop41ColorRGB
 90
        0
102
RTVSPost2010PropOp41
 70
     1
102
RTVSPost2010Prop42
 90
       50
102
RTVSPost2010PropOp42
 70
     1
102
RTVSPost2010Prop43
 90
        3
102
RTVSPost2010PropOp43
 70
     1
102
RTVSPost2010Prop44ColorIndex
 90
        5
102
RTVSPost2010Prop44ColorRGB
 90
      255
102
RTVSPost2010PropOp44
 70
     1
102
RTVSPost2010Prop45
280
     0
102
RTVSPost2010PropOp45
 70
     1
102
RTVSPost2010Prop46
 90
       50
102
RTVSPost2010PropOp46
 70
     1
102
RTVSPost2010Prop47
 90
       50
102
RTVSPost2010PropOp47
 70
     1
102
RTVSPost2010Prop48
 90
       50
102
RTVSPost2010PropOp48
 70
     1
102
RTVSPost2010Prop49
280
     0
102
RTVSPost2010PropOp49
 70
     1
102
RTVSPost2010Prop50
 90
       50
102
RTVSPost2010PropOp50
 70
     1
102
RTVSPost2010Prop51ColorIndex
 90
      256
102
RTVSPost2010Prop51ColorRGB
 90
-16777216
102
RTVSPost2010PropOp51
 70
     0
102
RTVSPost2010Prop52
140
1.0
102
RTVSPost2010PropOp52
 70
     0
102
RTVSPost2010Prop53
 90
        2
102
RTVSPost2010PropOp53
 70
     1
102
RTVSPost2010Prop54
  1
strokes_ogs.tif
102
RTVSPost2010PropOp54
 70
     1
102
RTVSPost2010Prop55
280
     0
102
RTVSPost2010PropOp55
 70
     1
102
RTVSPost2010Prop56
140
1.0
102
RTVSPost2010PropOp56
 70
     1
102
RTVSPost2010Prop57
140
1.0
102
RTVSPost2010PropOp57
 70
     1
102
RTVSPropertyOp0
 70
     1
102
RTVSPropertyOp1
 70
     1
102
RTVSPropertyOp2
 70
     1
102
RTVSPropertyOp3
 70
     1
102
RTVSPropertyOp4
 70
     1
102
RTVSPropertyOp5
 70
     1
102
RTVSPropertyOp6
 70
     1
102
RTVSPropertyOp7
 70
     1
102
RTVSPropertyOp8
 70
     1
102
RTVSPropertyOp9
 70
     1
102
RTVSPropertyOp10
 70
     1
102
RTVSPropertyOp11
 70
     1
102
RTVSPropertyOp12
 70
     1
102
RTVSPropertyOp13
 70
     1
102
RTVSPropertyOp14
 70
     1
102
RTVSPropertyOp15
 70
     1
102
RTVSPropertyOp16
 70
     1
102
RTVSPropertyOp17
 70
     1
102
RTVSPropertyOp18
 70
     1
102
RTVSPropertyOp19
 70
     1
102
RTVSPropertyOp20
 70
     1
102
RTVSPropertyOp21
 70
     1
102
RTVSPropertyOp22
 70
     1
102
RTVSPropertyOp23
 70
     1
102
RTVSPropertyOp24
 70
     1
102
RTVSPropertyOp25
 70
     1
102
RTVSPropertyOp26
 70
     1
102
RTVSPropertyOp27
 70
     1
102
RTVSPropertyOp28
 70
     1
102
RTVSPropertyOp29
 70
     1
102
RTVSPropertyOp30
 70
     1
102
RTVSPropertyOp31
 70
     1
102
RTVSPropertyOp32
 70
     1
102
RTVSPropertyOp33
 70
     1
102
RTVSPropertyOp34
 70
     1
102
RTVSPropertyOp35
 70
     1
102
RTVSPropertyOp36
 70
     1
102
RTVSPropertyOp37
 70
     1
102
RTVSPropertyOp38
 70
     1
102
RTVSPropertyOp39
 70
     1
102
RTVSPropertyOp40
 70
     1
102
RTVSPropertyOp41
 70
     1
102
RTVSPropertyOp42
 70
     1
102
RTVSPropertyOp43
 70
     1
102
RTVSPropertyOp44
 70
     1
102
RTVSPropertyOp45
 70
     1
102
RTVSPropertyOp46
 70
     1
102
RTVSPropertyOp47
 70
     1
102
RTVSPropertyOp48
 70
     1
102
RTVSPropertyOp49
 70
     1
102
RTVSPropertyOp50
 70
     1
102
RTVSPropertyOp51
 70
     0
102
RTVSPropertyOp52
 70
     0
102
RTVSPropertyOp53
 70
     1
102
RTVSPropertyOp54
 70
     1
102
RTVSPropertyOp55
 70
     1
102
RTVSPropertyOp56
 70
     1
102
RTVSPropertyOp57
 70
     1
102
RTVSPropertyOp58
 70
     1
102
RTVSPropertyOp59
 70
     1
102
RTVSPropertyOp60
 70
     1
102
RTVSPropertyOp61
 70
     1
102
RTVSPropertyOp62
 70
     1
  0
XRECORD
  5
1371
102
{ACAD_REACTORS
330
1370
102
}
330
1370
100
AcDbXrecord
280
     1
102
RTVSPost2010Prop28
280
     0
102
RTVSPost2010PropOp28
 70
     1
102
RTVSPost2010Prop29
280
     1
102
RTVSPost2010PropOp29
 70
     1
102
RTVSPost2010Prop30
280
     1
102
RTVSPost2010PropOp30
 70
     1
102
RTVSPost2010Prop31
280
     0
102
RTVSPost2010PropOp31
 70
     1
102
RTVSPost2010Prop32
280
     0
102
RTVSPost2010PropOp32
 70
     1
102
RTVSPost2010Prop33
280
     0
102
RTVSPost2010PropOp33
 70
     1
102
RTVSPost2010Prop34
280
     0
102
RTVSPost2010PropOp34
 70
     1
102
RTVSPost2010Prop35
280
     0
102
RTVSPost2010PropOp35
 70
     1
102
RTVSPost2010Prop36
280
     0
102
RTVSPost2010PropOp36
 70
     1
102
RTVSPost2010Prop37
 90
       50
102
RTVSPost2010PropOp37
 70
     1
102
RTVSPost2010Prop38
140
0.0
102
RTVSPost2010PropOp38
 70
     1
102
RTVSPost2010Prop39
140
1.0
102
RTVSPost2010PropOp39
 70
     1
102
RTVSPost2010Prop40
 90
        0
102
RTVSPost2010PropOp40
 70
     1
102
RTVSPost2010Prop41ColorIndex
 90
       18
102
RTVSPost2010Prop41ColorRGB
 90
        0
102
RTVSPost2010PropOp41
 70
     1
102
RTVSPost2010Prop42
 90
       50
102
RTVSPost2010PropOp42
 70
     1
102
RTVSPost2010Prop43
 90
        3
102
RTVSPost2010PropOp43
 70
     1
102
RTVSPost2010Prop44ColorIndex
 90
        5
102
RTVSPost2010Prop44ColorRGB
 90
      255
102
RTVSPost2010PropOp44
 70
     1
102
RTVSPost2010Prop45
280
     0
102
RTVSPost2010PropOp45
 70
     1
102
RTVSPost2010Prop46
 90
       50
102
RTVSPost2010PropOp46
 70
     1
102
RTVSPost2010Prop47
 90
       50
102
RTVSPost2010PropOp47
 70
     1
102
RTVSPost2010Prop48
 90
       50
102
RTVSPost2010PropOp48
 70
     1
102
RTVSPost2010Prop49
280
     0
102
RTVSPost2010PropOp49
 70
     1
102
RTVSPost2010Prop50
 90
       50
102
RTVSPost2010PropOp50
 70
     1
102
RTVSPost2010Prop51ColorIndex
 90
      256
102
RTVSPost2010Prop51ColorRGB
 90
-16777216
102
RTVSPost2010PropOp51
 70
     0
102
RTVSPost2010Prop52
140
1.0
102
RTVSPost2010PropOp52
 70
     0
102
RTVSPost2010Prop53
 90
        2
102
RTVSPost2010PropOp53
 70
     1
102
RTVSPost2010Prop54
  1
strokes_ogs.tif
102
RTVSPost2010PropOp54
 70
     1
102
RTVSPost2010Prop55
280
     0
102
RTVSPost2010PropOp55
 70
     1
102
RTVSPost2010Prop56
140
1.0
102
RTVSPost2010PropOp56
 70
     1
102
RTVSPost2010Prop57
140
1.0
102
RTVSPost2010PropOp57
 70
     1
102
RTVSPropertyOp0
 70
     1
102
RTVSPropertyOp1
 70
     1
102
RTVSPropertyOp2
 70
     1
102
RTVSPropertyOp3
 70
     1
102
RTVSPropertyOp4
 70
     1
102
RTVSPropertyOp5
 70
     1
102
RTVSPropertyOp6
 70
     1
102
RTVSPropertyOp7
 70
     1
102
RTVSPropertyOp8
 70
     1
102
RTVSPropertyOp9
 70
     1
102
RTVSPropertyOp10
 70
     1
102
RTVSPropertyOp11
 70
     1
102
RTVSPropertyOp12
 70
     1
102
RTVSPropertyOp13
 70
     1
102
RTVSPropertyOp14
 70
     1
102
RTVSPropertyOp15
 70
     1
102
RTVSPropertyOp16
 70
     1
102
RTVSPropertyOp17
 70
     1
102
RTVSPropertyOp18
 70
     1
102
RTVSPropertyOp19
 70
     1
102
RTVSPropertyOp20
 70
     1
102
RTVSPropertyOp21
 70
     1
102
RTVSPropertyOp22
 70
     1
102
RTVSPropertyOp23
 70
     1
102
RTVSPropertyOp24
 70
     1
102
RTVSPropertyOp25
 70
     1
102
RTVSPropertyOp26
 70
     1
102
RTVSPropertyOp27
 70
     1
102
RTVSPropertyOp28
 70
     1
102
RTVSPropertyOp29
 70
     1
102
RTVSPropertyOp30
 70
     1
102
RTVSPropertyOp31
 70
     1
102
RTVSPropertyOp32
 70
     1
102
RTVSPropertyOp33
 70
     1
102
RTVSPropertyOp34
 70
     1
102
RTVSPropertyOp35
 70
     1
102
RTVSPropertyOp36
 70
     1
102
RTVSPropertyOp37
 70
     1
102
RTVSPropertyOp38
 70
     1
102
RTVSPropertyOp39
 70
     1
102
RTVSPropertyOp40
 70
     1
102
RTVSPropertyOp41
 70
     1
102
RTVSPropertyOp42
 70
     1
102
RTVSPropertyOp43
 70
     1
102
RTVSPropertyOp44
 70
     1
102
RTVSPropertyOp45
 70
     1
102
RTVSPropertyOp46
 70
     1
102
RTVSPropertyOp47
 70
     1
102
RTVSPropertyOp48
 70
     1
102
RTVSPropertyOp49
 70
     1
102
RTVSPropertyOp50
 70
     1
102
RTVSPropertyOp51
 70
     0
102
RTVSPropertyOp52
 70
     0
102
RTVSPropertyOp53
 70
     1
102
RTVSPropertyOp54
 70
     1
102
RTVSPropertyOp55
 70
     1
102
RTVSPropertyOp56
 70
     1
102
RTVSPropertyOp57
 70
     1
102
RTVSPropertyOp58
 70
     1
102
RTVSPropertyOp59
 70
     1
102
RTVSPropertyOp60
 70
     1
102
RTVSPropertyOp61
 70
     1
102
RTVSPropertyOp62
 70
     1
  0
XRECORD
  5
1373
102
{ACAD_REACTORS
330
1372
102
}
330
1372
100
AcDbXrecord
280
     1
102
RTVSPost2010Prop28
280
     0
102
RTVSPost2010PropOp28
 70
     1
102
RTVSPost2010Prop29
280
     1
102
RTVSPost2010PropOp29
 70
     1
102
RTVSPost2010Prop30
280
     1
102
RTVSPost2010PropOp30
 70
     1
102
RTVSPost2010Prop31
280
     0
102
RTVSPost2010PropOp31
 70
     1
102
RTVSPost2010Prop32
280
     0
102
RTVSPost2010PropOp32
 70
     1
102
RTVSPost2010Prop33
280
     0
102
RTVSPost2010PropOp33
 70
     1
102
RTVSPost2010Prop34
280
     0
102
RTVSPost2010PropOp34
 70
     1
102
RTVSPost2010Prop35
280
     0
102
RTVSPost2010PropOp35
 70
     1
102
RTVSPost2010Prop36
280
     0
102
RTVSPost2010PropOp36
 70
     1
102
RTVSPost2010Prop37
 90
       50
102
RTVSPost2010PropOp37
 70
     1
102
RTVSPost2010Prop38
140
0.0
102
RTVSPost2010PropOp38
 70
     1
102
RTVSPost2010Prop39
140
1.0
102
RTVSPost2010PropOp39
 70
     1
102
RTVSPost2010Prop40
 90
        0
102
RTVSPost2010PropOp40
 70
     1
102
RTVSPost2010Prop41ColorIndex
 90
       18
102
RTVSPost2010Prop41ColorRGB
 90
        0
102
RTVSPost2010PropOp41
 70
     1
102
RTVSPost2010Prop42
 90
       50
102
RTVSPost2010PropOp42
 70
     1
102
RTVSPost2010Prop43
 90
        3
102
RTVSPost2010PropOp43
 70
     1
102
RTVSPost2010Prop44ColorIndex
 90
        5
102
RTVSPost2010Prop44ColorRGB
 90
      255
102
RTVSPost2010PropOp44
 70
     1
102
RTVSPost2010Prop45
280
     0
102
RTVSPost2010PropOp45
 70
     1
102
RTVSPost2010Prop46
 90
       50
102
RTVSPost2010PropOp46
 70
     1
102
RTVSPost2010Prop47
 90
       50
102
RTVSPost2010PropOp47
 70
     1
102
RTVSPost2010Prop48
 90
       50
102
RTVSPost2010PropOp48
 70
     1
102
RTVSPost2010Prop49
280
     0
102
RTVSPost2010PropOp49
 70
     1
102
RTVSPost2010Prop50
 90
       50
102
RTVSPost2010PropOp50
 70
     1
102
RTVSPost2010Prop51ColorIndex
 90
      256
102
RTVSPost2010Prop51ColorRGB
 90
-16777216
102
RTVSPost2010PropOp51
 70
     0
102
RTVSPost2010Prop52
140
1.0
102
RTVSPost2010PropOp52
 70
     0
102
RTVSPost2010Prop53
 90
        2
102
RTVSPost2010PropOp53
 70
     1
102
RTVSPost2010Prop54
  1
strokes_ogs.tif
102
RTVSPost2010PropOp54
 70
     1
102
RTVSPost2010Prop55
280
     0
102
RTVSPost2010PropOp55
 70
     1
102
RTVSPost2010Prop56
140
1.0
102
RTVSPost2010PropOp56
 70
     1
102
RTVSPost2010Prop57
140
1.0
102
RTVSPost2010PropOp57
 70
     1
102
RTVSPropertyOp0
 70
     1
102
RTVSPropertyOp1
 70
     1
102
RTVSPropertyOp2
 70
     1
102
RTVSPropertyOp3
 70
     1
102
RTVSPropertyOp4
 70
     1
102
RTVSPropertyOp5
 70
     1
102
RTVSPropertyOp6
 70
     1
102
RTVSPropertyOp7
 70
     1
102
RTVSPropertyOp8
 70
     1
102
RTVSPropertyOp9
 70
     1
102
RTVSPropertyOp10
 70
     1
102
RTVSPropertyOp11
 70
     1
102
RTVSPropertyOp12
 70
     1
102
RTVSPropertyOp13
 70
     1
102
RTVSPropertyOp14
 70
     1
102
RTVSPropertyOp15
 70
     1
102
RTVSPropertyOp16
 70
     1
102
RTVSPropertyOp17
 70
     1
102
RTVSPropertyOp18
 70
     1
102
RTVSPropertyOp19
 70
     1
102
RTVSPropertyOp20
 70
     1
102
RTVSPropertyOp21
 70
     1
102
RTVSPropertyOp22
 70
     1
102
RTVSPropertyOp23
 70
     1
102
RTVSPropertyOp24
 70
     1
102
RTVSPropertyOp25
 70
     1
102
RTVSPropertyOp26
 70
     1
102
RTVSPropertyOp27
 70
     1
102
RTVSPropertyOp28
 70
     1
102
RTVSPropertyOp29
 70
     1
102
RTVSPropertyOp30
 70
     1
102
RTVSPropertyOp31
 70
     1
102
RTVSPropertyOp32
 70
     1
102
RTVSPropertyOp33
 70
     1
102
RTVSPropertyOp34
 70
     1
102
RTVSPropertyOp35
 70
     1
102
RTVSPropertyOp36
 70
     1
102
RTVSPropertyOp37
 70
     1
102
RTVSPropertyOp38
 70
     1
102
RTVSPropertyOp39
 70
     1
102
RTVSPropertyOp40
 70
     1
102
RTVSPropertyOp41
 70
     1
102
RTVSPropertyOp42
 70
     1
102
RTVSPropertyOp43
 70
     1
102
RTVSPropertyOp44
 70
     1
102
RTVSPropertyOp45
 70
     1
102
RTVSPropertyOp46
 70
     1
102
RTVSPropertyOp47
 70
     1
102
RTVSPropertyOp48
 70
     1
102
RTVSPropertyOp49
 70
     1
102
RTVSPropertyOp50
 70
     1
102
RTVSPropertyOp51
 70
     0
102
RTVSPropertyOp52
 70
     0
102
RTVSPropertyOp53
 70
     1
102
RTVSPropertyOp54
 70
     1
102
RTVSPropertyOp55
 70
     1
102
RTVSPropertyOp56
 70
     1
102
RTVSPropertyOp57
 70
     1
102
RTVSPropertyOp58
 70
     1
102
RTVSPropertyOp59
 70
     1
102
RTVSPropertyOp60
 70
     1
102
RTVSPropertyOp61
 70
     1
102
RTVSPropertyOp62
 70
     1
  0
XRECORD
  5
1375
102
{ACAD_REACTORS
330
1374
102
}
330
1374
100
AcDbXrecord
280
     1
102
RTVSPost2010Prop28
280
     0
102
RTVSPost2010PropOp28
 70
     1
102
RTVSPost2010Prop29
280
     1
102
RTVSPost2010PropOp29
 70
     1
102
RTVSPost2010Prop30
280
     1
102
RTVSPost2010PropOp30
 70
     1
102
RTVSPost2010Prop31
280
     0
102
RTVSPost2010PropOp31
 70
     1
102
RTVSPost2010Prop32
280
     0
102
RTVSPost2010PropOp32
 70
     1
102
RTVSPost2010Prop33
280
     0
102
RTVSPost2010PropOp33
 70
     1
102
RTVSPost2010Prop34
280
     0
102
RTVSPost2010PropOp34
 70
     1
102
RTVSPost2010Prop35
280
     0
102
RTVSPost2010PropOp35
 70
     1
102
RTVSPost2010Prop36
280
     0
102
RTVSPost2010PropOp36
 70
     1
102
RTVSPost2010Prop37
 90
       50
102
RTVSPost2010PropOp37
 70
     1
102
RTVSPost2010Prop38
140
0.0
102
RTVSPost2010PropOp38
 70
     1
102
RTVSPost2010Prop39
140
1.0
102
RTVSPost2010PropOp39
 70
     1
102
RTVSPost2010Prop40
 90
        0
102
RTVSPost2010PropOp40
 70
     1
102
RTVSPost2010Prop41ColorIndex
 90
       18
102
RTVSPost2010Prop41ColorRGB
 90
        0
102
RTVSPost2010PropOp41
 70
     1
102
RTVSPost2010Prop42
 90
       50
102
RTVSPost2010PropOp42
 70
     1
102
RTVSPost2010Prop43
 90
        3
102
RTVSPost2010PropOp43
 70
     1
102
RTVSPost2010Prop44ColorIndex
 90
        5
102
RTVSPost2010Prop44ColorRGB
 90
      255
102
RTVSPost2010PropOp44
 70
     1
102
RTVSPost2010Prop45
280
     0
102
RTVSPost2010PropOp45
 70
     1
102
RTVSPost2010Prop46
 90
       50
102
RTVSPost2010PropOp46
 70
     1
102
RTVSPost2010Prop47
 90
       50
102
RTVSPost2010PropOp47
 70
     1
102
RTVSPost2010Prop48
 90
       50
102
RTVSPost2010PropOp48
 70
     1
102
RTVSPost2010Prop49
280
     0
102
RTVSPost2010PropOp49
 70
     1
102
RTVSPost2010Prop50
 90
       50
102
RTVSPost2010PropOp50
 70
     1
102
RTVSPost2010Prop51ColorIndex
 90
      256
102
RTVSPost2010Prop51ColorRGB
 90
-16777216
102
RTVSPost2010PropOp51
 70
     0
102
RTVSPost2010Prop52
140
1.0
102
RTVSPost2010PropOp52
 70
     0
102
RTVSPost2010Prop53
 90
        2
102
RTVSPost2010PropOp53
 70
     1
102
RTVSPost2010Prop54
  1
strokes_ogs.tif
102
RTVSPost2010PropOp54
 70
     1
102
RTVSPost2010Prop55
280
     0
102
RTVSPost2010PropOp55
 70
     1
102
RTVSPost2010Prop56
140
1.0
102
RTVSPost2010PropOp56
 70
     1
102
RTVSPost2010Prop57
140
1.0
102
RTVSPost2010PropOp57
 70
     1
102
RTVSPropertyOp0
 70
     1
102
RTVSPropertyOp1
 70
     1
102
RTVSPropertyOp2
 70
     1
102
RTVSPropertyOp3
 70
     1
102
RTVSPropertyOp4
 70
     1
102
RTVSPropertyOp5
 70
     1
102
RTVSPropertyOp6
 70
     1
102
RTVSPropertyOp7
 70
     1
102
RTVSPropertyOp8
 70
     1
102
RTVSPropertyOp9
 70
     1
102
RTVSPropertyOp10
 70
     1
102
RTVSPropertyOp11
 70
     1
102
RTVSPropertyOp12
 70
     1
102
RTVSPropertyOp13
 70
     1
102
RTVSPropertyOp14
 70
     1
102
RTVSPropertyOp15
 70
     1
102
RTVSPropertyOp16
 70
     1
102
RTVSPropertyOp17
 70
     1
102
RTVSPropertyOp18
 70
     1
102
RTVSPropertyOp19
 70
     1
102
RTVSPropertyOp20
 70
     1
102
RTVSPropertyOp21
 70
     1
102
RTVSPropertyOp22
 70
     1
102
RTVSPropertyOp23
 70
     1
102
RTVSPropertyOp24
 70
     1
102
RTVSPropertyOp25
 70
     1
102
RTVSPropertyOp26
 70
     1
102
RTVSPropertyOp27
 70
     1
102
RTVSPropertyOp28
 70
     1
102
RTVSPropertyOp29
 70
     1
102
RTVSPropertyOp30
 70
     1
102
RTVSPropertyOp31
 70
     1
102
RTVSPropertyOp32
 70
     1
102
RTVSPropertyOp33
 70
     1
102
RTVSPropertyOp34
 70
     1
102
RTVSPropertyOp35
 70
     1
102
RTVSPropertyOp36
 70
     1
102
RTVSPropertyOp37
 70
     1
102
RTVSPropertyOp38
 70
     1
102
RTVSPropertyOp39
 70
     1
102
RTVSPropertyOp40
 70
     1
102
RTVSPropertyOp41
 70
     1
102
RTVSPropertyOp42
 70
     1
102
RTVSPropertyOp43
 70
     1
102
RTVSPropertyOp44
 70
     1
102
RTVSPropertyOp45
 70
     1
102
RTVSPropertyOp46
 70
     1
102
RTVSPropertyOp47
 70
     1
102
RTVSPropertyOp48
 70
     1
102
RTVSPropertyOp49
 70
     1
102
RTVSPropertyOp50
 70
     1
102
RTVSPropertyOp51
 70
     0
102
RTVSPropertyOp52
 70
     0
102
RTVSPropertyOp53
 70
     1
102
RTVSPropertyOp54
 70
     1
102
RTVSPropertyOp55
 70
     1
102
RTVSPropertyOp56
 70
     1
102
RTVSPropertyOp57
 70
     1
102
RTVSPropertyOp58
 70
     1
102
RTVSPropertyOp59
 70
     1
102
RTVSPropertyOp60
 70
     1
102
RTVSPropertyOp61
 70
     1
102
RTVSPropertyOp62
 70
     1
  0
XRECORD
  5
1377
102
{ACAD_REACTORS
330
1376
102
}
330
1376
100
AcDbXrecord
280
     1
102
RTVSPost2010Prop28
280
     0
102
RTVSPost2010PropOp28
 70
     1
102
RTVSPost2010Prop29
280
     1
102
RTVSPost2010PropOp29
 70
     1
102
RTVSPost2010Prop30
280
     1
102
RTVSPost2010PropOp30
 70
     1
102
RTVSPost2010Prop31
280
     0
102
RTVSPost2010PropOp31
 70
     1
102
RTVSPost2010Prop32
280
     0
102
RTVSPost2010PropOp32
 70
     1
102
RTVSPost2010Prop33
280
     0
102
RTVSPost2010PropOp33
 70
     1
102
RTVSPost2010Prop34
280
     0
102
RTVSPost2010PropOp34
 70
     1
102
RTVSPost2010Prop35
280
     0
102
RTVSPost2010PropOp35
 70
     1
102
RTVSPost2010Prop36
280
     0
102
RTVSPost2010PropOp36
 70
     1
102
RTVSPost2010Prop37
 90
       50
102
RTVSPost2010PropOp37
 70
     1
102
RTVSPost2010Prop38
140
0.0
102
RTVSPost2010PropOp38
 70
     1
102
RTVSPost2010Prop39
140
1.0
102
RTVSPost2010PropOp39
 70
     1
102
RTVSPost2010Prop40
 90
        0
102
RTVSPost2010PropOp40
 70
     1
102
RTVSPost2010Prop41ColorIndex
 90
       18
102
RTVSPost2010Prop41ColorRGB
 90
        0
102
RTVSPost2010PropOp41
 70
     1
102
RTVSPost2010Prop42
 90
       50
102
RTVSPost2010PropOp42
 70
     1
102
RTVSPost2010Prop43
 90
        3
102
RTVSPost2010PropOp43
 70
     1
102
RTVSPost2010Prop44ColorIndex
 90
        5
102
RTVSPost2010Prop44ColorRGB
 90
      255
102
RTVSPost2010PropOp44
 70
     1
102
RTVSPost2010Prop45
280
     0
102
RTVSPost2010PropOp45
 70
     1
102
RTVSPost2010Prop46
 90
       50
102
RTVSPost2010PropOp46
 70
     1
102
RTVSPost2010Prop47
 90
       50
102
RTVSPost2010PropOp47
 70
     1
102
RTVSPost2010Prop48
 90
       50
102
RTVSPost2010PropOp48
 70
     1
102
RTVSPost2010Prop49
280
     0
102
RTVSPost2010PropOp49
 70
     1
102
RTVSPost2010Prop50
 90
       50
102
RTVSPost2010PropOp50
 70
     1
102
RTVSPost2010Prop51ColorIndex
 90
      256
102
RTVSPost2010Prop51ColorRGB
 90
-16777216
102
RTVSPost2010PropOp51
 70
     0
102
RTVSPost2010Prop52
140
1.0
102
RTVSPost2010PropOp52
 70
     0
102
RTVSPost2010Prop53
 90
        2
102
RTVSPost2010PropOp53
 70
     1
102
RTVSPost2010Prop54
  1
strokes_ogs.tif
102
RTVSPost2010PropOp54
 70
     1
102
RTVSPost2010Prop55
280
     0
102
RTVSPost2010PropOp55
 70
     1
102
RTVSPost2010Prop56
140
1.0
102
RTVSPost2010PropOp56
 70
     1
102
RTVSPost2010Prop57
140
1.0
102
RTVSPost2010PropOp57
 70
     1
102
RTVSPropertyOp0
 70
     1
102
RTVSPropertyOp1
 70
     1
102
RTVSPropertyOp2
 70
     1
102
RTVSPropertyOp3
 70
     1
102
RTVSPropertyOp4
 70
     1
102
RTVSPropertyOp5
 70
     1
102
RTVSPropertyOp6
 70
     1
102
RTVSPropertyOp7
 70
     1
102
RTVSPropertyOp8
 70
     1
102
RTVSPropertyOp9
 70
     1
102
RTVSPropertyOp10
 70
     1
102
RTVSPropertyOp11
 70
     1
102
RTVSPropertyOp12
 70
     1
102
RTVSPropertyOp13
 70
     1
102
RTVSPropertyOp14
 70
     1
102
RTVSPropertyOp15
 70
     1
102
RTVSPropertyOp16
 70
     1
102
RTVSPropertyOp17
 70
     1
102
RTVSPropertyOp18
 70
     1
102
RTVSPropertyOp19
 70
     1
102
RTVSPropertyOp20
 70
     1
102
RTVSPropertyOp21
 70
     1
102
RTVSPropertyOp22
 70
     1
102
RTVSPropertyOp23
 70
     1
102
RTVSPropertyOp24
 70
     1
102
RTVSPropertyOp25
 70
     1
102
RTVSPropertyOp26
 70
     1
102
RTVSPropertyOp27
 70
     1
102
RTVSPropertyOp28
 70
     1
102
RTVSPropertyOp29
 70
     1
102
RTVSPropertyOp30
 70
     1
102
RTVSPropertyOp31
 70
     1
102
RTVSPropertyOp32
 70
     1
102
RTVSPropertyOp33
 70
     1
102
RTVSPropertyOp34
 70
     1
102
RTVSPropertyOp35
 70
     1
102
RTVSPropertyOp36
 70
     1
102
RTVSPropertyOp37
 70
     1
102
RTVSPropertyOp38
 70
     1
102
RTVSPropertyOp39
 70
     1
102
RTVSPropertyOp40
 70
     1
102
RTVSPropertyOp41
 70
     1
102
RTVSPropertyOp42
 70
     1
102
RTVSPropertyOp43
 70
     1
102
RTVSPropertyOp44
 70
     1
102
RTVSPropertyOp45
 70
     1
102
RTVSPropertyOp46
 70
     1
102
RTVSPropertyOp47
 70
     1
102
RTVSPropertyOp48
 70
     1
102
RTVSPropertyOp49
 70
     1
102
RTVSPropertyOp50
 70
     1
102
RTVSPropertyOp51
 70
     0
102
RTVSPropertyOp52
 70
     0
102
RTVSPropertyOp53
 70
     1
102
RTVSPropertyOp54
 70
     1
102
RTVSPropertyOp55
 70
     1
102
RTVSPropertyOp56
 70
     1
102
RTVSPropertyOp57
 70
     1
102
RTVSPropertyOp58
 70
     1
102
RTVSPropertyOp59
 70
     1
102
RTVSPropertyOp60
 70
     1
102
RTVSPropertyOp61
 70
     1
102
RTVSPropertyOp62
 70
     1
  0
XRECORD
  5
139A
102
{ACAD_REACTORS
330
1399
102
}
330
1399
100
AcDbXrecord
280
     1
102
RTVSPost2010Prop28
280
     0
102
RTVSPost2010PropOp28
 70
     1
102
RTVSPost2010Prop29
280
     1
102
RTVSPost2010PropOp29
 70
     1
102
RTVSPost2010Prop30
280
     1
102
RTVSPost2010PropOp30
 70
     1
102
RTVSPost2010Prop31
280
     0
102
RTVSPost2010PropOp31
 70
     1
102
RTVSPost2010Prop32
280
     0
102
RTVSPost2010PropOp32
 70
     1
102
RTVSPost2010Prop33
280
     0
102
RTVSPost2010PropOp33
 70
     1
102
RTVSPost2010Prop34
280
     0
102
RTVSPost2010PropOp34
 70
     1
102
RTVSPost2010Prop35
280
     0
102
RTVSPost2010PropOp35
 70
     1
102
RTVSPost2010Prop36
280
     0
102
RTVSPost2010PropOp36
 70
     1
102
RTVSPost2010Prop37
 90
       50
102
RTVSPost2010PropOp37
 70
     1
102
RTVSPost2010Prop38
140
0.0
102
RTVSPost2010PropOp38
 70
     1
102
RTVSPost2010Prop39
140
1.0
102
RTVSPost2010PropOp39
 70
     1
102
RTVSPost2010Prop40
 90
        0
102
RTVSPost2010PropOp40
 70
     1
102
RTVSPost2010Prop41ColorIndex
 90
       18
102
RTVSPost2010Prop41ColorRGB
 90
        0
102
RTVSPost2010PropOp41
 70
     1
102
RTVSPost2010Prop42
 90
       50
102
RTVSPost2010PropOp42
 70
     1
102
RTVSPost2010Prop43
 90
        3
102
RTVSPost2010PropOp43
 70
     1
102
RTVSPost2010Prop44ColorIndex
 90
        5
102
RTVSPost2010Prop44ColorRGB
 90
      255
102
RTVSPost2010PropOp44
 70
     1
102
RTVSPost2010Prop45
280
     0
102
RTVSPost2010PropOp45
 70
     1
102
RTVSPost2010Prop46
 90
       50
102
RTVSPost2010PropOp46
 70
     1
102
RTVSPost2010Prop47
 90
       50
102
RTVSPost2010PropOp47
 70
     1
102
RTVSPost2010Prop48
 90
       50
102
RTVSPost2010PropOp48
 70
     1
102
RTVSPost2010Prop49
280
     0
102
RTVSPost2010PropOp49
 70
     1
102
RTVSPost2010Prop50
 90
       50
102
RTVSPost2010PropOp50
 70
     1
102
RTVSPost2010Prop51ColorIndex
 90
      256
102
RTVSPost2010Prop51ColorRGB
 90
-16777216
102
RTVSPost2010PropOp51
 70
     0
102
RTVSPost2010Prop52
140
1.0
102
RTVSPost2010PropOp52
 70
     0
102
RTVSPost2010Prop53
 90
        2
102
RTVSPost2010PropOp53
 70
     1
102
RTVSPost2010Prop54
  1
strokes_ogs.tif
102
RTVSPost2010PropOp54
 70
     1
102
RTVSPost2010Prop55
280
     0
102
RTVSPost2010PropOp55
 70
     1
102
RTVSPost2010Prop56
140
1.0
102
RTVSPost2010PropOp56
 70
     1
102
RTVSPost2010Prop57
140
1.0
102
RTVSPost2010PropOp57
 70
     1
102
RTVSPropertyOp0
 70
     1
102
RTVSPropertyOp1
 70
     1
102
RTVSPropertyOp2
 70
     1
102
RTVSPropertyOp3
 70
     1
102
RTVSPropertyOp4
 70
     1
102
RTVSPropertyOp5
 70
     1
102
RTVSPropertyOp6
 70
     1
102
RTVSPropertyOp7
 70
     1
102
RTVSPropertyOp8
 70
     1
102
RTVSPropertyOp9
 70
     1
102
RTVSPropertyOp10
 70
     1
102
RTVSPropertyOp11
 70
     1
102
RTVSPropertyOp12
 70
     1
102
RTVSPropertyOp13
 70
     1
102
RTVSPropertyOp14
 70
     1
102
RTVSPropertyOp15
 70
     1
102
RTVSPropertyOp16
 70
     1
102
RTVSPropertyOp17
 70
     1
102
RTVSPropertyOp18
 70
     1
102
RTVSPropertyOp19
 70
     1
102
RTVSPropertyOp20
 70
     1
102
RTVSPropertyOp21
 70
     1
102
RTVSPropertyOp22
 70
     1
102
RTVSPropertyOp23
 70
     1
102
RTVSPropertyOp24
 70
     1
102
RTVSPropertyOp25
 70
     1
102
RTVSPropertyOp26
 70
     1
102
RTVSPropertyOp27
 70
     1
102
RTVSPropertyOp28
 70
     1
102
RTVSPropertyOp29
 70
     1
102
RTVSPropertyOp30
 70
     1
102
RTVSPropertyOp31
 70
     1
102
RTVSPropertyOp32
 70
     1
102
RTVSPropertyOp33
 70
     1
102
RTVSPropertyOp34
 70
     1
102
RTVSPropertyOp35
 70
     1
102
RTVSPropertyOp36
 70
     1
102
RTVSPropertyOp37
 70
     1
102
RTVSPropertyOp38
 70
     1
102
RTVSPropertyOp39
 70
     1
102
RTVSPropertyOp40
 70
     1
102
RTVSPropertyOp41
 70
     1
102
RTVSPropertyOp42
 70
     1
102
RTVSPropertyOp43
 70
     1
102
RTVSPropertyOp44
 70
     1
102
RTVSPropertyOp45
 70
     1
102
RTVSPropertyOp46
 70
     1
102
RTVSPropertyOp47
 70
     1
102
RTVSPropertyOp48
 70
     1
102
RTVSPropertyOp49
 70
     1
102
RTVSPropertyOp50
 70
     1
102
RTVSPropertyOp51
 70
     0
102
RTVSPropertyOp52
 70
     0
102
RTVSPropertyOp53
 70
     1
102
RTVSPropertyOp54
 70
     1
102
RTVSPropertyOp55
 70
     1
102
RTVSPropertyOp56
 70
     1
102
RTVSPropertyOp57
 70
     1
102
RTVSPropertyOp58
 70
     1
102
RTVSPropertyOp59
 70
     1
102
RTVSPropertyOp60
 70
     1
102
RTVSPropertyOp61
 70
     1
102
RTVSPropertyOp62
 70
     1
  0
XRECORD
  5
13A6
102
{ACAD_REACTORS
330
13A5
102
}
330
13A5
100
AcDbXrecord
280
     1
102
RTVSPost2010Prop28
280
     0
102
RTVSPost2010PropOp28
 70
     0
102
RTVSPost2010Prop29
280
     1
102
RTVSPost2010PropOp29
 70
     0
102
RTVSPost2010Prop30
280
     1
102
RTVSPost2010PropOp30
 70
     0
102
RTVSPost2010Prop31
280
     0
102
RTVSPost2010PropOp31
 70
     0
102
RTVSPost2010Prop32
280
     0
102
RTVSPost2010PropOp32
 70
     0
102
RTVSPost2010Prop33
280
     0
102
RTVSPost2010PropOp33
 70
     0
102
RTVSPost2010Prop34
280
     0
102
RTVSPost2010PropOp34
 70
     0
102
RTVSPost2010Prop35
280
     0
102
RTVSPost2010PropOp35
 70
     0
102
RTVSPost2010Prop36
280
     0
102
RTVSPost2010PropOp36
 70
     0
102
RTVSPost2010Prop37
 90
       50
102
RTVSPost2010PropOp37
 70
     0
102
RTVSPost2010Prop38
140
0.0
102
RTVSPost2010PropOp38
 70
     0
102
RTVSPost2010Prop39
140
1.0
102
RTVSPost2010PropOp39
 70
     0
102
RTVSPost2010Prop40
 90
        0
102
RTVSPost2010PropOp40
 70
     0
102
RTVSPost2010Prop41ColorIndex
 90
       18
102
RTVSPost2010Prop41ColorRGB
 90
        0
102
RTVSPost2010PropOp41
 70
     0
102
RTVSPost2010Prop42
 90
       50
102
RTVSPost2010PropOp42
 70
     0
102
RTVSPost2010Prop43
 90
        3
102
RTVSPost2010PropOp43
 70
     0
102
RTVSPost2010Prop44ColorIndex
 90
        5
102
RTVSPost2010Prop44ColorRGB
 90
      255
102
RTVSPost2010PropOp44
 70
     0
102
RTVSPost2010Prop45
280
     0
102
RTVSPost2010PropOp45
 70
     0
102
RTVSPost2010Prop46
 90
       50
102
RTVSPost2010PropOp46
 70
     0
102
RTVSPost2010Prop47
 90
       50
102
RTVSPost2010PropOp47
 70
     0
102
RTVSPost2010Prop48
 90
       50
102
RTVSPost2010PropOp48
 70
     0
102
RTVSPost2010Prop49
280
     0
102
RTVSPost2010PropOp49
 70
     0
102
RTVSPost2010Prop50
 90
       50
102
RTVSPost2010PropOp50
 70
     0
102
RTVSPost2010Prop51ColorIndex
 90
      256
102
RTVSPost2010Prop51ColorRGB
 90
-16777216
102
RTVSPost2010PropOp51
 70
     0
102
RTVSPost2010Prop52
140
1.0
102
RTVSPost2010PropOp52
 70
     0
102
RTVSPost2010Prop53
 90
        2
102
RTVSPost2010PropOp53
 70
     0
102
RTVSPost2010Prop54
  1
strokes_ogs.tif
102
RTVSPost2010PropOp54
 70
     0
102
RTVSPost2010Prop55
280
     0
102
RTVSPost2010PropOp55
 70
     0
102
RTVSPost2010Prop56
140
1.0
102
RTVSPost2010PropOp56
 70
     0
102
RTVSPost2010Prop57
140
1.0
102
RTVSPost2010PropOp57
 70
     0
102
RTVSPropertyOp0
 70
     0
102
RTVSPropertyOp1
 70
     0
102
RTVSPropertyOp2
 70
     0
102
RTVSPropertyOp3
 70
     0
102
RTVSPropertyOp4
 70
     0
102
RTVSPropertyOp5
 70
     0
102
RTVSPropertyOp6
 70
     0
102
RTVSPropertyOp7
 70
     0
102
RTVSPropertyOp8
 70
     0
102
RTVSPropertyOp9
 70
     0
102
RTVSPropertyOp10
 70
     0
102
RTVSPropertyOp11
 70
     0
102
RTVSPropertyOp12
 70
     0
102
RTVSPropertyOp13
 70
     0
102
RTVSPropertyOp14
 70
     2
102
RTVSPropertyOp15
 70
     0
102
RTVSPropertyOp16
 70
     0
102
RTVSPropertyOp17
 70
     0
102
RTVSPropertyOp18
 70
     0
102
RTVSPropertyOp19
 70
     0
102
RTVSPropertyOp20
 70
     0
102
RTVSPropertyOp21
 70
     0
102
RTVSPropertyOp22
 70
     0
102
RTVSPropertyOp23
 70
     0
102
RTVSPropertyOp24
 70
     0
102
RTVSPropertyOp25
 70
     0
102
RTVSPropertyOp26
 70
     0
102
RTVSPropertyOp27
 70
     0
102
RTVSPropertyOp28
 70
     0
102
RTVSPropertyOp29
 70
     0
102
RTVSPropertyOp30
 70
     0
102
RTVSPropertyOp31
 70
     0
102
RTVSPropertyOp32
 70
     0
102
RTVSPropertyOp33
 70
     0
102
RTVSPropertyOp34
 70
     0
102
RTVSPropertyOp35
 70
     0
102
RTVSPropertyOp36
 70
     0
102
RTVSPropertyOp37
 70
     0
102
RTVSPropertyOp38
 70
     0
102
RTVSPropertyOp39
 70
     0
102
RTVSPropertyOp40
 70
     0
102
RTVSPropertyOp41
 70
     0
102
RTVSPropertyOp42
 70
     0
102
RTVSPropertyOp43
 70
     0
102
RTVSPropertyOp44
 70
     0
102
RTVSPropertyOp45
 70
     0
102
RTVSPropertyOp46
 70
     0
102
RTVSPropertyOp47
 70
     0
102
RTVSPropertyOp48
 70
     0
102
RTVSPropertyOp49
 70
     0
102
RTVSPropertyOp50
 70
     0
102
RTVSPropertyOp51
 70
     0
102
RTVSPropertyOp52
 70
     0
102
RTVSPropertyOp53
 70
     0
102
RTVSPropertyOp54
 70
     0
102
RTVSPropertyOp55
 70
     0
102
RTVSPropertyOp56
 70
     0
102
RTVSPropertyOp57
 70
     0
102
RTVSPropertyOp58
 70
     0
102
RTVSPropertyOp59
 70
     0
102
RTVSPropertyOp60
 70
     0
102
RTVSPropertyOp61
 70
     0
102
RTVSPropertyOp62
 70
     0
  0
XRECORD
  5
138B
102
{ACAD_REACTORS
330
138A
102
}
330
138A
100
AcDbXrecord
280
     1
102
RTVSPost2010Prop28
280
     0
102
RTVSPost2010PropOp28
 70
     1
102
RTVSPost2010Prop29
280
     1
102
RTVSPost2010PropOp29
 70
     1
102
RTVSPost2010Prop30
280
     1
102
RTVSPost2010PropOp30
 70
     1
102
RTVSPost2010Prop31
280
     0
102
RTVSPost2010PropOp31
 70
     1
102
RTVSPost2010Prop32
280
     0
102
RTVSPost2010PropOp32
 70
     1
102
RTVSPost2010Prop33
280
     0
102
RTVSPost2010PropOp33
 70
     1
102
RTVSPost2010Prop34
280
     0
102
RTVSPost2010PropOp34
 70
     1
102
RTVSPost2010Prop35
280
     0
102
RTVSPost2010PropOp35
 70
     1
102
RTVSPost2010Prop36
280
     0
102
RTVSPost2010PropOp36
 70
     1
102
RTVSPost2010Prop37
 90
       50
102
RTVSPost2010PropOp37
 70
     1
102
RTVSPost2010Prop38
140
0.0
102
RTVSPost2010PropOp38
 70
     1
102
RTVSPost2010Prop39
140
1.0
102
RTVSPost2010PropOp39
 70
     1
102
RTVSPost2010Prop40
 90
        0
102
RTVSPost2010PropOp40
 70
     1
102
RTVSPost2010Prop41ColorIndex
 90
       18
102
RTVSPost2010Prop41ColorRGB
 90
        0
102
RTVSPost2010PropOp41
 70
     1
102
RTVSPost2010Prop42
 90
       50
102
RTVSPost2010PropOp42
 70
     1
102
RTVSPost2010Prop43
 90
        3
102
RTVSPost2010PropOp43
 70
     1
102
RTVSPost2010Prop44ColorIndex
 90
        5
102
RTVSPost2010Prop44ColorRGB
 90
      255
102
RTVSPost2010PropOp44
 70
     1
102
RTVSPost2010Prop45
280
     0
102
RTVSPost2010PropOp45
 70
     1
102
RTVSPost2010Prop46
 90
       50
102
RTVSPost2010PropOp46
 70
     1
102
RTVSPost2010Prop47
 90
       50
102
RTVSPost2010PropOp47
 70
     1
102
RTVSPost2010Prop48
 90
       50
102
RTVSPost2010PropOp48
 70
     1
102
RTVSPost2010Prop49
280
     0
102
RTVSPost2010PropOp49
 70
     1
102
RTVSPost2010Prop50
 90
       50
102
RTVSPost2010PropOp50
 70
     1
102
RTVSPost2010Prop51ColorIndex
 90
      256
102
RTVSPost2010Prop51ColorRGB
 90
-16777216
102
RTVSPost2010PropOp51
 70
     0
102
RTVSPost2010Prop52
140
1.0
102
RTVSPost2010PropOp52
 70
     0
102
RTVSPost2010Prop53
 90
        2
102
RTVSPost2010PropOp53
 70
     1
102
RTVSPost2010Prop54
  1
strokes_ogs.tif
102
RTVSPost2010PropOp54
 70
     1
102
RTVSPost2010Prop55
280
     0
102
RTVSPost2010PropOp55
 70
     1
102
RTVSPost2010Prop56
140
1.0
102
RTVSPost2010PropOp56
 70
     1
102
RTVSPost2010Prop57
140
1.0
102
RTVSPost2010PropOp57
 70
     1
102
RTVSPropertyOp0
 70
     1
102
RTVSPropertyOp1
 70
     1
102
RTVSPropertyOp2
 70
     1
102
RTVSPropertyOp3
 70
     1
102
RTVSPropertyOp4
 70
     1
102
RTVSPropertyOp5
 70
     1
102
RTVSPropertyOp6
 70
     1
102
RTVSPropertyOp7
 70
     1
102
RTVSPropertyOp8
 70
     1
102
RTVSPropertyOp9
 70
     1
102
RTVSPropertyOp10
 70
     1
102
RTVSPropertyOp11
 70
     1
102
RTVSPropertyOp12
 70
     1
102
RTVSPropertyOp13
 70
     1
102
RTVSPropertyOp14
 70
     1
102
RTVSPropertyOp15
 70
     1
102
RTVSPropertyOp16
 70
     1
102
RTVSPropertyOp17
 70
     1
102
RTVSPropertyOp18
 70
     1
102
RTVSPropertyOp19
 70
     1
102
RTVSPropertyOp20
 70
     1
102
RTVSPropertyOp21
 70
     1
102
RTVSPropertyOp22
 70
     1
102
RTVSPropertyOp23
 70
     1
102
RTVSPropertyOp24
 70
     1
102
RTVSPropertyOp25
 70
     1
102
RTVSPropertyOp26
 70
     1
102
RTVSPropertyOp27
 70
     1
102
RTVSPropertyOp28
 70
     1
102
RTVSPropertyOp29
 70
     1
102
RTVSPropertyOp30
 70
     1
102
RTVSPropertyOp31
 70
     1
102
RTVSPropertyOp32
 70
     1
102
RTVSPropertyOp33
 70
     1
102
RTVSPropertyOp34
 70
     1
102
RTVSPropertyOp35
 70
     1
102
RTVSPropertyOp36
 70
     1
102
RTVSPropertyOp37
 70
     1
102
RTVSPropertyOp38
 70
     1
102
RTVSPropertyOp39
 70
     1
102
RTVSPropertyOp40
 70
     1
102
RTVSPropertyOp41
 70
     1
102
RTVSPropertyOp42
 70
     1
102
RTVSPropertyOp43
 70
     1
102
RTVSPropertyOp44
 70
     1
102
RTVSPropertyOp45
 70
     1
102
RTVSPropertyOp46
 70
     1
102
RTVSPropertyOp47
 70
     1
102
RTVSPropertyOp48
 70
     1
102
RTVSPropertyOp49
 70
     1
102
RTVSPropertyOp50
 70
     1
102
RTVSPropertyOp51
 70
     0
102
RTVSPropertyOp52
 70
     0
102
RTVSPropertyOp53
 70
     1
102
RTVSPropertyOp54
 70
     1
102
RTVSPropertyOp55
 70
     1
102
RTVSPropertyOp56
 70
     1
102
RTVSPropertyOp57
 70
     1
102
RTVSPropertyOp58
 70
     1
102
RTVSPropertyOp59
 70
     1
102
RTVSPropertyOp60
 70
     1
102
RTVSPropertyOp61
 70
     1
102
RTVSPropertyOp62
 70
     1
  0
XRECORD
  5
13A8
102
{ACAD_REACTORS
330
13A7
102
}
330
13A7
100
AcDbXrecord
280
     1
102
RTVSPost2010Prop28
280
     0
102
RTVSPost2010PropOp28
 70
     0
102
RTVSPost2010Prop29
280
     1
102
RTVSPost2010PropOp29
 70
     0
102
RTVSPost2010Prop30
280
     1
102
RTVSPost2010PropOp30
 70
     0
102
RTVSPost2010Prop31
280
     0
102
RTVSPost2010PropOp31
 70
     0
102
RTVSPost2010Prop32
280
     0
102
RTVSPost2010PropOp32
 70
     0
102
RTVSPost2010Prop33
280
     0
102
RTVSPost2010PropOp33
 70
     0
102
RTVSPost2010Prop34
280
     0
102
RTVSPost2010PropOp34
 70
     0
102
RTVSPost2010Prop35
280
     0
102
RTVSPost2010PropOp35
 70
     0
102
RTVSPost2010Prop36
280
     0
102
RTVSPost2010PropOp36
 70
     0
102
RTVSPost2010Prop37
 90
       50
102
RTVSPost2010PropOp37
 70
     0
102
RTVSPost2010Prop38
140
0.0
102
RTVSPost2010PropOp38
 70
     0
102
RTVSPost2010Prop39
140
1.0
102
RTVSPost2010PropOp39
 70
     0
102
RTVSPost2010Prop40
 90
        0
102
RTVSPost2010PropOp40
 70
     0
102
RTVSPost2010Prop41ColorIndex
 90
       18
102
RTVSPost2010Prop41ColorRGB
 90
        0
102
RTVSPost2010PropOp41
 70
     0
102
RTVSPost2010Prop42
 90
       50
102
RTVSPost2010PropOp42
 70
     0
102
RTVSPost2010Prop43
 90
        3
102
RTVSPost2010PropOp43
 70
     0
102
RTVSPost2010Prop44ColorIndex
 90
        5
102
RTVSPost2010Prop44ColorRGB
 90
      255
102
RTVSPost2010PropOp44
 70
     0
102
RTVSPost2010Prop45
280
     0
102
RTVSPost2010PropOp45
 70
     0
102
RTVSPost2010Prop46
 90
       50
102
RTVSPost2010PropOp46
 70
     0
102
RTVSPost2010Prop47
 90
       50
102
RTVSPost2010PropOp47
 70
     0
102
RTVSPost2010Prop48
 90
       50
102
RTVSPost2010PropOp48
 70
     0
102
RTVSPost2010Prop49
280
     0
102
RTVSPost2010PropOp49
 70
     0
102
RTVSPost2010Prop50
 90
       50
102
RTVSPost2010PropOp50
 70
     0
102
RTVSPost2010Prop51ColorIndex
 90
      256
102
RTVSPost2010Prop51ColorRGB
 90
-16777216
102
RTVSPost2010PropOp51
 70
     0
102
RTVSPost2010Prop52
140
1.0
102
RTVSPost2010PropOp52
 70
     0
102
RTVSPost2010Prop53
 90
        2
102
RTVSPost2010PropOp53
 70
     0
102
RTVSPost2010Prop54
  1
strokes_ogs.tif
102
RTVSPost2010PropOp54
 70
     0
102
RTVSPost2010Prop55
280
     0
102
RTVSPost2010PropOp55
 70
     0
102
RTVSPost2010Prop56
140
1.0
102
RTVSPost2010PropOp56
 70
     0
102
RTVSPost2010Prop57
140
1.0
102
RTVSPost2010PropOp57
 70
     0
102
RTVSPropertyOp0
 70
     0
102
RTVSPropertyOp1
 70
     0
102
RTVSPropertyOp2
 70
     0
102
RTVSPropertyOp3
 70
     0
102
RTVSPropertyOp4
 70
     0
102
RTVSPropertyOp5
 70
     0
102
RTVSPropertyOp6
 70
     0
102
RTVSPropertyOp7
 70
     0
102
RTVSPropertyOp8
 70
     0
102
RTVSPropertyOp9
 70
     0
102
RTVSPropertyOp10
 70
     0
102
RTVSPropertyOp11
 70
     0
102
RTVSPropertyOp12
 70
     0
102
RTVSPropertyOp13
 70
     0
102
RTVSPropertyOp14
 70
     2
102
RTVSPropertyOp15
 70
     0
102
RTVSPropertyOp16
 70
     0
102
RTVSPropertyOp17
 70
     0
102
RTVSPropertyOp18
 70
     0
102
RTVSPropertyOp19
 70
     0
102
RTVSPropertyOp20
 70
     0
102
RTVSPropertyOp21
 70
     0
102
RTVSPropertyOp22
 70
     0
102
RTVSPropertyOp23
 70
     0
102
RTVSPropertyOp24
 70
     0
102
RTVSPropertyOp25
 70
     0
102
RTVSPropertyOp26
 70
     0
102
RTVSPropertyOp27
 70
     0
102
RTVSPropertyOp28
 70
     0
102
RTVSPropertyOp29
 70
     0
102
RTVSPropertyOp30
 70
     0
102
RTVSPropertyOp31
 70
     0
102
RTVSPropertyOp32
 70
     0
102
RTVSPropertyOp33
 70
     0
102
RTVSPropertyOp34
 70
     0
102
RTVSPropertyOp35
 70
     0
102
RTVSPropertyOp36
 70
     0
102
RTVSPropertyOp37
 70
     0
102
RTVSPropertyOp38
 70
     0
102
RTVSPropertyOp39
 70
     0
102
RTVSPropertyOp40
 70
     0
102
RTVSPropertyOp41
 70
     0
102
RTVSPropertyOp42
 70
     0
102
RTVSPropertyOp43
 70
     0
102
RTVSPropertyOp44
 70
     0
102
RTVSPropertyOp45
 70
     0
102
RTVSPropertyOp46
 70
     0
102
RTVSPropertyOp47
 70
     0
102
RTVSPropertyOp48
 70
     0
102
RTVSPropertyOp49
 70
     0
102
RTVSPropertyOp50
 70
     0
102
RTVSPropertyOp51
 70
     0
102
RTVSPropertyOp52
 70
     0
102
RTVSPropertyOp53
 70
     0
102
RTVSPropertyOp54
 70
     0
102
RTVSPropertyOp55
 70
     0
102
RTVSPropertyOp56
 70
     0
102
RTVSPropertyOp57
 70
     0
102
RTVSPropertyOp58
 70
     0
102
RTVSPropertyOp59
 70
     0
102
RTVSPropertyOp60
 70
     0
102
RTVSPropertyOp61
 70
     0
102
RTVSPropertyOp62
 70
     0
  0
XRECORD
  5
1383
102
{ACAD_REACTORS
330
1382
102
}
330
1382
100
AcDbXrecord
280
     1
102
RTVSPost2010Prop28
280
     0
102
RTVSPost2010PropOp28
 70
     1
102
RTVSPost2010Prop29
280
     1
102
RTVSPost2010PropOp29
 70
     1
102
RTVSPost2010Prop30
280
     1
102
RTVSPost2010PropOp30
 70
     1
102
RTVSPost2010Prop31
280
     0
102
RTVSPost2010PropOp31
 70
     1
102
RTVSPost2010Prop32
280
     0
102
RTVSPost2010PropOp32
 70
     1
102
RTVSPost2010Prop33
280
     0
102
RTVSPost2010PropOp33
 70
     1
102
RTVSPost2010Prop34
280
     0
102
RTVSPost2010PropOp34
 70
     1
102
RTVSPost2010Prop35
280
     0
102
RTVSPost2010PropOp35
 70
     1
102
RTVSPost2010Prop36
280
     0
102
RTVSPost2010PropOp36
 70
     1
102
RTVSPost2010Prop37
 90
       50
102
RTVSPost2010PropOp37
 70
     1
102
RTVSPost2010Prop38
140
0.0
102
RTVSPost2010PropOp38
 70
     1
102
RTVSPost2010Prop39
140
1.0
102
RTVSPost2010PropOp39
 70
     1
102
RTVSPost2010Prop40
 90
        0
102
RTVSPost2010PropOp40
 70
     1
102
RTVSPost2010Prop41ColorIndex
 90
       18
102
RTVSPost2010Prop41ColorRGB
 90
        0
102
RTVSPost2010PropOp41
 70
     1
102
RTVSPost2010Prop42
 90
       50
102
RTVSPost2010PropOp42
 70
     1
102
RTVSPost2010Prop43
 90
        3
102
RTVSPost2010PropOp43
 70
     1
102
RTVSPost2010Prop44ColorIndex
 90
        5
102
RTVSPost2010Prop44ColorRGB
 90
      255
102
RTVSPost2010PropOp44
 70
     1
102
RTVSPost2010Prop45
280
     0
102
RTVSPost2010PropOp45
 70
     1
102
RTVSPost2010Prop46
 90
       50
102
RTVSPost2010PropOp46
 70
     1
102
RTVSPost2010Prop47
 90
       50
102
RTVSPost2010PropOp47
 70
     1
102
RTVSPost2010Prop48
 90
       50
102
RTVSPost2010PropOp48
 70
     1
102
RTVSPost2010Prop49
280
     0
102
RTVSPost2010PropOp49
 70
     1
102
RTVSPost2010Prop50
 90
       50
102
RTVSPost2010PropOp50
 70
     1
102
RTVSPost2010Prop51ColorIndex
 90
      256
102
RTVSPost2010Prop51ColorRGB
 90
-16777216
102
RTVSPost2010PropOp51
 70
     0
102
RTVSPost2010Prop52
140
1.0
102
RTVSPost2010PropOp52
 70
     0
102
RTVSPost2010Prop53
 90
        2
102
RTVSPost2010PropOp53
 70
     1
102
RTVSPost2010Prop54
  1
strokes_ogs.tif
102
RTVSPost2010PropOp54
 70
     1
102
RTVSPost2010Prop55
280
     0
102
RTVSPost2010PropOp55
 70
     1
102
RTVSPost2010Prop56
140
1.0
102
RTVSPost2010PropOp56
 70
     1
102
RTVSPost2010Prop57
140
1.0
102
RTVSPost2010PropOp57
 70
     1
102
RTVSPropertyOp0
 70
     1
102
RTVSPropertyOp1
 70
     1
102
RTVSPropertyOp2
 70
     1
102
RTVSPropertyOp3
 70
     1
102
RTVSPropertyOp4
 70
     1
102
RTVSPropertyOp5
 70
     1
102
RTVSPropertyOp6
 70
     1
102
RTVSPropertyOp7
 70
     1
102
RTVSPropertyOp8
 70
     1
102
RTVSPropertyOp9
 70
     1
102
RTVSPropertyOp10
 70
     1
102
RTVSPropertyOp11
 70
     1
102
RTVSPropertyOp12
 70
     1
102
RTVSPropertyOp13
 70
     1
102
RTVSPropertyOp14
 70
     1
102
RTVSPropertyOp15
 70
     1
102
RTVSPropertyOp16
 70
     1
102
RTVSPropertyOp17
 70
     1
102
RTVSPropertyOp18
 70
     1
102
RTVSPropertyOp19
 70
     1
102
RTVSPropertyOp20
 70
     1
102
RTVSPropertyOp21
 70
     1
102
RTVSPropertyOp22
 70
     1
102
RTVSPropertyOp23
 70
     1
102
RTVSPropertyOp24
 70
     1
102
RTVSPropertyOp25
 70
     1
102
RTVSPropertyOp26
 70
     1
102
RTVSPropertyOp27
 70
     1
102
RTVSPropertyOp28
 70
     1
102
RTVSPropertyOp29
 70
     1
102
RTVSPropertyOp30
 70
     1
102
RTVSPropertyOp31
 70
     1
102
RTVSPropertyOp32
 70
     1
102
RTVSPropertyOp33
 70
     1
102
RTVSPropertyOp34
 70
     1
102
RTVSPropertyOp35
 70
     1
102
RTVSPropertyOp36
 70
     1
102
RTVSPropertyOp37
 70
     1
102
RTVSPropertyOp38
 70
     1
102
RTVSPropertyOp39
 70
     1
102
RTVSPropertyOp40
 70
     1
102
RTVSPropertyOp41
 70
     1
102
RTVSPropertyOp42
 70
     1
102
RTVSPropertyOp43
 70
     1
102
RTVSPropertyOp44
 70
     1
102
RTVSPropertyOp45
 70
     1
102
RTVSPropertyOp46
 70
     1
102
RTVSPropertyOp47
 70
     1
102
RTVSPropertyOp48
 70
     1
102
RTVSPropertyOp49
 70
     1
102
RTVSPropertyOp50
 70
     1
102
RTVSPropertyOp51
 70
     0
102
RTVSPropertyOp52
 70
     0
102
RTVSPropertyOp53
 70
     1
102
RTVSPropertyOp54
 70
     1
102
RTVSPropertyOp55
 70
     1
102
RTVSPropertyOp56
 70
     1
102
RTVSPropertyOp57
 70
     1
102
RTVSPropertyOp58
 70
     1
102
RTVSPropertyOp59
 70
     1
102
RTVSPropertyOp60
 70
     1
102
RTVSPropertyOp61
 70
     1
102
RTVSPropertyOp62
 70
     1
  0
XRECORD
  5
13A4
102
{ACAD_REACTORS
330
13A3
102
}
330
13A3
100
AcDbXrecord
280
     1
102
RTVSPost2010Prop28
280
     0
102
RTVSPost2010PropOp28
 70
     1
102
RTVSPost2010Prop29
280
     1
102
RTVSPost2010PropOp29
 70
     1
102
RTVSPost2010Prop30
280
     1
102
RTVSPost2010PropOp30
 70
     1
102
RTVSPost2010Prop31
280
     0
102
RTVSPost2010PropOp31
 70
     1
102
RTVSPost2010Prop32
280
     0
102
RTVSPost2010PropOp32
 70
     1
102
RTVSPost2010Prop33
280
     0
102
RTVSPost2010PropOp33
 70
     1
102
RTVSPost2010Prop34
280
     0
102
RTVSPost2010PropOp34
 70
     1
102
RTVSPost2010Prop35
280
     0
102
RTVSPost2010PropOp35
 70
     1
102
RTVSPost2010Prop36
280
     0
102
RTVSPost2010PropOp36
 70
     1
102
RTVSPost2010Prop37
 90
       50
102
RTVSPost2010PropOp37
 70
     1
102
RTVSPost2010Prop38
140
0.0
102
RTVSPost2010PropOp38
 70
     1
102
RTVSPost2010Prop39
140
1.0
102
RTVSPost2010PropOp39
 70
     1
102
RTVSPost2010Prop40
 90
        0
102
RTVSPost2010PropOp40
 70
     1
102
RTVSPost2010Prop41ColorIndex
 90
       18
102
RTVSPost2010Prop41ColorRGB
 90
        0
102
RTVSPost2010PropOp41
 70
     1
102
RTVSPost2010Prop42
 90
       50
102
RTVSPost2010PropOp42
 70
     1
102
RTVSPost2010Prop43
 90
        3
102
RTVSPost2010PropOp43
 70
     1
102
RTVSPost2010Prop44ColorIndex
 90
        5
102
RTVSPost2010Prop44ColorRGB
 90
      255
102
RTVSPost2010PropOp44
 70
     1
102
RTVSPost2010Prop45
280
     0
102
RTVSPost2010PropOp45
 70
     1
102
RTVSPost2010Prop46
 90
       50
102
RTVSPost2010PropOp46
 70
     1
102
RTVSPost2010Prop47
 90
       50
102
RTVSPost2010PropOp47
 70
     1
102
RTVSPost2010Prop48
 90
       50
102
RTVSPost2010PropOp48
 70
     1
102
RTVSPost2010Prop49
280
     0
102
RTVSPost2010PropOp49
 70
     1
102
RTVSPost2010Prop50
 90
       50
102
RTVSPost2010PropOp50
 70
     1
102
RTVSPost2010Prop51ColorIndex
 90
      256
102
RTVSPost2010Prop51ColorRGB
 90
-16777216
102
RTVSPost2010PropOp51
 70
     0
102
RTVSPost2010Prop52
140
1.0
102
RTVSPost2010PropOp52
 70
     0
102
RTVSPost2010Prop53
 90
        2
102
RTVSPost2010PropOp53
 70
     1
102
RTVSPost2010Prop54
  1
strokes_ogs.tif
102
RTVSPost2010PropOp54
 70
     1
102
RTVSPost2010Prop55
280
     0
102
RTVSPost2010PropOp55
 70
     1
102
RTVSPost2010Prop56
140
1.0
102
RTVSPost2010PropOp56
 70
     1
102
RTVSPost2010Prop57
140
1.0
102
RTVSPost2010PropOp57
 70
     1
102
RTVSPropertyOp0
 70
     1
102
RTVSPropertyOp1
 70
     1
102
RTVSPropertyOp2
 70
     1
102
RTVSPropertyOp3
 70
     1
102
RTVSPropertyOp4
 70
     1
102
RTVSPropertyOp5
 70
     1
102
RTVSPropertyOp6
 70
     1
102
RTVSPropertyOp7
 70
     1
102
RTVSPropertyOp8
 70
     1
102
RTVSPropertyOp9
 70
     1
102
RTVSPropertyOp10
 70
     1
102
RTVSPropertyOp11
 70
     1
102
RTVSPropertyOp12
 70
     1
102
RTVSPropertyOp13
 70
     1
102
RTVSPropertyOp14
 70
     1
102
RTVSPropertyOp15
 70
     1
102
RTVSPropertyOp16
 70
     1
102
RTVSPropertyOp17
 70
     1
102
RTVSPropertyOp18
 70
     1
102
RTVSPropertyOp19
 70
     1
102
RTVSPropertyOp20
 70
     1
102
RTVSPropertyOp21
 70
     1
102
RTVSPropertyOp22
 70
     1
102
RTVSPropertyOp23
 70
     1
102
RTVSPropertyOp24
 70
     1
102
RTVSPropertyOp25
 70
     1
102
RTVSPropertyOp26
 70
     1
102
RTVSPropertyOp27
 70
     1
102
RTVSPropertyOp28
 70
     1
102
RTVSPropertyOp29
 70
     1
102
RTVSPropertyOp30
 70
     1
102
RTVSPropertyOp31
 70
     1
102
RTVSPropertyOp32
 70
     1
102
RTVSPropertyOp33
 70
     1
102
RTVSPropertyOp34
 70
     1
102
RTVSPropertyOp35
 70
     1
102
RTVSPropertyOp36
 70
     1
102
RTVSPropertyOp37
 70
     1
102
RTVSPropertyOp38
 70
     1
102
RTVSPropertyOp39
 70
     1
102
RTVSPropertyOp40
 70
     1
102
RTVSPropertyOp41
 70
     1
102
RTVSPropertyOp42
 70
     1
102
RTVSPropertyOp43
 70
     1
102
RTVSPropertyOp44
 70
     1
102
RTVSPropertyOp45
 70
     1
102
RTVSPropertyOp46
 70
     1
102
RTVSPropertyOp47
 70
     1
102
RTVSPropertyOp48
 70
     1
102
RTVSPropertyOp49
 70
     1
102
RTVSPropertyOp50
 70
     1
102
RTVSPropertyOp51
 70
     0
102
RTVSPropertyOp52
 70
     0
102
RTVSPropertyOp53
 70
     1
102
RTVSPropertyOp54
 70
     1
102
RTVSPropertyOp55
 70
     1
102
RTVSPropertyOp56
 70
     1
102
RTVSPropertyOp57
 70
     1
102
RTVSPropertyOp58
 70
     1
102
RTVSPropertyOp59
 70
     1
102
RTVSPropertyOp60
 70
     1
102
RTVSPropertyOp61
 70
     1
102
RTVSPropertyOp62
 70
     1
  0
XRECORD
  5
13A2
102
{ACAD_REACTORS
330
13A1
102
}
330
13A1
100
AcDbXrecord
280
     1
102
RTVSPost2010Prop28
280
     0
102
RTVSPost2010PropOp28
 70
     1
102
RTVSPost2010Prop29
280
     1
102
RTVSPost2010PropOp29
 70
     1
102
RTVSPost2010Prop30
280
     1
102
RTVSPost2010PropOp30
 70
     1
102
RTVSPost2010Prop31
280
     0
102
RTVSPost2010PropOp31
 70
     1
102
RTVSPost2010Prop32
280
     0
102
RTVSPost2010PropOp32
 70
     1
102
RTVSPost2010Prop33
280
     0
102
RTVSPost2010PropOp33
 70
     1
102
RTVSPost2010Prop34
280
     0
102
RTVSPost2010PropOp34
 70
     1
102
RTVSPost2010Prop35
280
     0
102
RTVSPost2010PropOp35
 70
     1
102
RTVSPost2010Prop36
280
     0
102
RTVSPost2010PropOp36
 70
     1
102
RTVSPost2010Prop37
 90
       50
102
RTVSPost2010PropOp37
 70
     1
102
RTVSPost2010Prop38
140
0.0
102
RTVSPost2010PropOp38
 70
     1
102
RTVSPost2010Prop39
140
1.0
102
RTVSPost2010PropOp39
 70
     1
102
RTVSPost2010Prop40
 90
        0
102
RTVSPost2010PropOp40
 70
     1
102
RTVSPost2010Prop41ColorIndex
 90
       18
102
RTVSPost2010Prop41ColorRGB
 90
        0
102
RTVSPost2010PropOp41
 70
     1
102
RTVSPost2010Prop42
 90
       50
102
RTVSPost2010PropOp42
 70
     1
102
RTVSPost2010Prop43
 90
        3
102
RTVSPost2010PropOp43
 70
     1
102
RTVSPost2010Prop44ColorIndex
 90
        5
102
RTVSPost2010Prop44ColorRGB
 90
      255
102
RTVSPost2010PropOp44
 70
     1
102
RTVSPost2010Prop45
280
     0
102
RTVSPost2010PropOp45
 70
     1
102
RTVSPost2010Prop46
 90
       50
102
RTVSPost2010PropOp46
 70
     1
102
RTVSPost2010Prop47
 90
       50
102
RTVSPost2010PropOp47
 70
     1
102
RTVSPost2010Prop48
 90
       50
102
RTVSPost2010PropOp48
 70
     1
102
RTVSPost2010Prop49
280
     0
102
RTVSPost2010PropOp49
 70
     1
102
RTVSPost2010Prop50
 90
       50
102
RTVSPost2010PropOp50
 70
     1
102
RTVSPost2010Prop51ColorIndex
 90
      256
102
RTVSPost2010Prop51ColorRGB
 90
-16777216
102
RTVSPost2010PropOp51
 70
     0
102
RTVSPost2010Prop52
140
1.0
102
RTVSPost2010PropOp52
 70
     0
102
RTVSPost2010Prop53
 90
        2
102
RTVSPost2010PropOp53
 70
     1
102
RTVSPost2010Prop54
  1
strokes_ogs.tif
102
RTVSPost2010PropOp54
 70
     1
102
RTVSPost2010Prop55
280
     0
102
RTVSPost2010PropOp55
 70
     1
102
RTVSPost2010Prop56
140
1.0
102
RTVSPost2010PropOp56
 70
     1
102
RTVSPost2010Prop57
140
1.0
102
RTVSPost2010PropOp57
 70
     1
102
RTVSPropertyOp0
 70
     1
102
RTVSPropertyOp1
 70
     1
102
RTVSPropertyOp2
 70
     1
102
RTVSPropertyOp3
 70
     1
102
RTVSPropertyOp4
 70
     1
102
RTVSPropertyOp5
 70
     1
102
RTVSPropertyOp6
 70
     1
102
RTVSPropertyOp7
 70
     1
102
RTVSPropertyOp8
 70
     1
102
RTVSPropertyOp9
 70
     1
102
RTVSPropertyOp10
 70
     1
102
RTVSPropertyOp11
 70
     1
102
RTVSPropertyOp12
 70
     1
102
RTVSPropertyOp13
 70
     1
102
RTVSPropertyOp14
 70
     1
102
RTVSPropertyOp15
 70
     1
102
RTVSPropertyOp16
 70
     1
102
RTVSPropertyOp17
 70
     1
102
RTVSPropertyOp18
 70
     1
102
RTVSPropertyOp19
 70
     1
102
RTVSPropertyOp20
 70
     1
102
RTVSPropertyOp21
 70
     1
102
RTVSPropertyOp22
 70
     1
102
RTVSPropertyOp23
 70
     1
102
RTVSPropertyOp24
 70
     1
102
RTVSPropertyOp25
 70
     1
102
RTVSPropertyOp26
 70
     1
102
RTVSPropertyOp27
 70
     1
102
RTVSPropertyOp28
 70
     1
102
RTVSPropertyOp29
 70
     1
102
RTVSPropertyOp30
 70
     1
102
RTVSPropertyOp31
 70
     1
102
RTVSPropertyOp32
 70
     1
102
RTVSPropertyOp33
 70
     1
102
RTVSPropertyOp34
 70
     1
102
RTVSPropertyOp35
 70
     1
102
RTVSPropertyOp36
 70
     1
102
RTVSPropertyOp37
 70
     1
102
RTVSPropertyOp38
 70
     1
102
RTVSPropertyOp39
 70
     1
102
RTVSPropertyOp40
 70
     1
102
RTVSPropertyOp41
 70
     1
102
RTVSPropertyOp42
 70
     1
102
RTVSPropertyOp43
 70
     1
102
RTVSPropertyOp44
 70
     1
102
RTVSPropertyOp45
 70
     1
102
RTVSPropertyOp46
 70
     1
102
RTVSPropertyOp47
 70
     1
102
RTVSPropertyOp48
 70
     1
102
RTVSPropertyOp49
 70
     1
102
RTVSPropertyOp50
 70
     1
102
RTVSPropertyOp51
 70
     0
102
RTVSPropertyOp52
 70
     0
102
RTVSPropertyOp53
 70
     1
102
RTVSPropertyOp54
 70
     1
102
RTVSPropertyOp55
 70
     1
102
RTVSPropertyOp56
 70
     1
102
RTVSPropertyOp57
 70
     1
102
RTVSPropertyOp58
 70
     1
102
RTVSPropertyOp59
 70
     1
102
RTVSPropertyOp60
 70
     1
102
RTVSPropertyOp61
 70
     1
102
RTVSPropertyOp62
 70
     1
  0
XRECORD
  5
139C
102
{ACAD_REACTORS
330
139B
102
}
330
139B
100
AcDbXrecord
280
     1
102
RTVSPost2010Prop28
280
     0
102
RTVSPost2010PropOp28
 70
     1
102
RTVSPost2010Prop29
280
     1
102
RTVSPost2010PropOp29
 70
     1
102
RTVSPost2010Prop30
280
     1
102
RTVSPost2010PropOp30
 70
     1
102
RTVSPost2010Prop31
280
     0
102
RTVSPost2010PropOp31
 70
     1
102
RTVSPost2010Prop32
280
     0
102
RTVSPost2010PropOp32
 70
     1
102
RTVSPost2010Prop33
280
     0
102
RTVSPost2010PropOp33
 70
     1
102
RTVSPost2010Prop34
280
     0
102
RTVSPost2010PropOp34
 70
     1
102
RTVSPost2010Prop35
280
     0
102
RTVSPost2010PropOp35
 70
     1
102
RTVSPost2010Prop36
280
     0
102
RTVSPost2010PropOp36
 70
     1
102
RTVSPost2010Prop37
 90
       50
102
RTVSPost2010PropOp37
 70
     1
102
RTVSPost2010Prop38
140
0.0
102
RTVSPost2010PropOp38
 70
     1
102
RTVSPost2010Prop39
140
1.0
102
RTVSPost2010PropOp39
 70
     1
102
RTVSPost2010Prop40
 90
        0
102
RTVSPost2010PropOp40
 70
     1
102
RTVSPost2010Prop41ColorIndex
 90
       18
102
RTVSPost2010Prop41ColorRGB
 90
        0
102
RTVSPost2010PropOp41
 70
     1
102
RTVSPost2010Prop42
 90
       50
102
RTVSPost2010PropOp42
 70
     1
102
RTVSPost2010Prop43
 90
        3
102
RTVSPost2010PropOp43
 70
     1
102
RTVSPost2010Prop44ColorIndex
 90
        5
102
RTVSPost2010Prop44ColorRGB
 90
      255
102
RTVSPost2010PropOp44
 70
     1
102
RTVSPost2010Prop45
280
     0
102
RTVSPost2010PropOp45
 70
     1
102
RTVSPost2010Prop46
 90
       50
102
RTVSPost2010PropOp46
 70
     1
102
RTVSPost2010Prop47
 90
       50
102
RTVSPost2010PropOp47
 70
     1
102
RTVSPost2010Prop48
 90
       50
102
RTVSPost2010PropOp48
 70
     1
102
RTVSPost2010Prop49
280
     0
102
RTVSPost2010PropOp49
 70
     1
102
RTVSPost2010Prop50
 90
       50
102
RTVSPost2010PropOp50
 70
     1
102
RTVSPost2010Prop51ColorIndex
 90
      256
102
RTVSPost2010Prop51ColorRGB
 90
-16777216
102
RTVSPost2010PropOp51
 70
     0
102
RTVSPost2010Prop52
140
1.0
102
RTVSPost2010PropOp52
 70
     0
102
RTVSPost2010Prop53
 90
        2
102
RTVSPost2010PropOp53
 70
     1
102
RTVSPost2010Prop54
  1
strokes_ogs.tif
102
RTVSPost2010PropOp54
 70
     1
102
RTVSPost2010Prop55
280
     0
102
RTVSPost2010PropOp55
 70
     1
102
RTVSPost2010Prop56
140
1.0
102
RTVSPost2010PropOp56
 70
     1
102
RTVSPost2010Prop57
140
1.0
102
RTVSPost2010PropOp57
 70
     1
102
RTVSPropertyOp0
 70
     1
102
RTVSPropertyOp1
 70
     1
102
RTVSPropertyOp2
 70
     1
102
RTVSPropertyOp3
 70
     1
102
RTVSPropertyOp4
 70
     1
102
RTVSPropertyOp5
 70
     1
102
RTVSPropertyOp6
 70
     1
102
RTVSPropertyOp7
 70
     1
102
RTVSPropertyOp8
 70
     1
102
RTVSPropertyOp9
 70
     1
102
RTVSPropertyOp10
 70
     1
102
RTVSPropertyOp11
 70
     1
102
RTVSPropertyOp12
 70
     1
102
RTVSPropertyOp13
 70
     1
102
RTVSPropertyOp14
 70
     1
102
RTVSPropertyOp15
 70
     1
102
RTVSPropertyOp16
 70
     1
102
RTVSPropertyOp17
 70
     1
102
RTVSPropertyOp18
 70
     1
102
RTVSPropertyOp19
 70
     1
102
RTVSPropertyOp20
 70
     1
102
RTVSPropertyOp21
 70
     1
102
RTVSPropertyOp22
 70
     1
102
RTVSPropertyOp23
 70
     1
102
RTVSPropertyOp24
 70
     1
102
RTVSPropertyOp25
 70
     1
102
RTVSPropertyOp26
 70
     1
102
RTVSPropertyOp27
 70
     1
102
RTVSPropertyOp28
 70
     1
102
RTVSPropertyOp29
 70
     1
102
RTVSPropertyOp30
 70
     1
102
RTVSPropertyOp31
 70
     1
102
RTVSPropertyOp32
 70
     1
102
RTVSPropertyOp33
 70
     1
102
RTVSPropertyOp34
 70
     1
102
RTVSPropertyOp35
 70
     1
102
RTVSPropertyOp36
 70
     1
102
RTVSPropertyOp37
 70
     1
102
RTVSPropertyOp38
 70
     1
102
RTVSPropertyOp39
 70
     1
102
RTVSPropertyOp40
 70
     1
102
RTVSPropertyOp41
 70
     1
102
RTVSPropertyOp42
 70
     1
102
RTVSPropertyOp43
 70
     1
102
RTVSPropertyOp44
 70
     1
102
RTVSPropertyOp45
 70
     1
102
RTVSPropertyOp46
 70
     1
102
RTVSPropertyOp47
 70
     1
102
RTVSPropertyOp48
 70
     1
102
RTVSPropertyOp49
 70
     1
102
RTVSPropertyOp50
 70
     1
102
RTVSPropertyOp51
 70
     0
102
RTVSPropertyOp52
 70
     0
102
RTVSPropertyOp53
 70
     1
102
RTVSPropertyOp54
 70
     1
102
RTVSPropertyOp55
 70
     1
102
RTVSPropertyOp56
 70
     1
102
RTVSPropertyOp57
 70
     1
102
RTVSPropertyOp58
 70
     1
102
RTVSPropertyOp59
 70
     1
102
RTVSPropertyOp60
 70
     1
102
RTVSPropertyOp61
 70
     1
102
RTVSPropertyOp62
 70
     1
  0
XRECORD
  5
139E
102
{ACAD_REACTORS
330
139D
102
}
330
139D
100
AcDbXrecord
280
     1
102
RTVSPost2010Prop28
280
     0
102
RTVSPost2010PropOp28
 70
     1
102
RTVSPost2010Prop29
280
     1
102
RTVSPost2010PropOp29
 70
     1
102
RTVSPost2010Prop30
280
     1
102
RTVSPost2010PropOp30
 70
     1
102
RTVSPost2010Prop31
280
     0
102
RTVSPost2010PropOp31
 70
     1
102
RTVSPost2010Prop32
280
     0
102
RTVSPost2010PropOp32
 70
     1
102
RTVSPost2010Prop33
280
     0
102
RTVSPost2010PropOp33
 70
     1
102
RTVSPost2010Prop34
280
     0
102
RTVSPost2010PropOp34
 70
     1
102
RTVSPost2010Prop35
280
     0
102
RTVSPost2010PropOp35
 70
     1
102
RTVSPost2010Prop36
280
     0
102
RTVSPost2010PropOp36
 70
     1
102
RTVSPost2010Prop37
 90
       50
102
RTVSPost2010PropOp37
 70
     1
102
RTVSPost2010Prop38
140
0.0
102
RTVSPost2010PropOp38
 70
     1
102
RTVSPost2010Prop39
140
1.0
102
RTVSPost2010PropOp39
 70
     1
102
RTVSPost2010Prop40
 90
        0
102
RTVSPost2010PropOp40
 70
     1
102
RTVSPost2010Prop41ColorIndex
 90
       18
102
RTVSPost2010Prop41ColorRGB
 90
        0
102
RTVSPost2010PropOp41
 70
     1
102
RTVSPost2010Prop42
 90
       50
102
RTVSPost2010PropOp42
 70
     1
102
RTVSPost2010Prop43
 90
        3
102
RTVSPost2010PropOp43
 70
     1
102
RTVSPost2010Prop44ColorIndex
 90
        5
102
RTVSPost2010Prop44ColorRGB
 90
      255
102
RTVSPost2010PropOp44
 70
     1
102
RTVSPost2010Prop45
280
     0
102
RTVSPost2010PropOp45
 70
     1
102
RTVSPost2010Prop46
 90
       50
102
RTVSPost2010PropOp46
 70
     1
102
RTVSPost2010Prop47
 90
       50
102
RTVSPost2010PropOp47
 70
     1
102
RTVSPost2010Prop48
 90
       50
102
RTVSPost2010PropOp48
 70
     1
102
RTVSPost2010Prop49
280
     0
102
RTVSPost2010PropOp49
 70
     1
102
RTVSPost2010Prop50
 90
       50
102
RTVSPost2010PropOp50
 70
     1
102
RTVSPost2010Prop51ColorIndex
 90
      256
102
RTVSPost2010Prop51ColorRGB
 90
-16777216
102
RTVSPost2010PropOp51
 70
     0
102
RTVSPost2010Prop52
140
1.0
102
RTVSPost2010PropOp52
 70
     0
102
RTVSPost2010Prop53
 90
        2
102
RTVSPost2010PropOp53
 70
     1
102
RTVSPost2010Prop54
  1
strokes_ogs.tif
102
RTVSPost2010PropOp54
 70
     1
102
RTVSPost2010Prop55
280
     0
102
RTVSPost2010PropOp55
 70
     1
102
RTVSPost2010Prop56
140
1.0
102
RTVSPost2010PropOp56
 70
     1
102
RTVSPost2010Prop57
140
1.0
102
RTVSPost2010PropOp57
 70
     1
102
RTVSPropertyOp0
 70
     1
102
RTVSPropertyOp1
 70
     1
102
RTVSPropertyOp2
 70
     1
102
RTVSPropertyOp3
 70
     1
102
RTVSPropertyOp4
 70
     1
102
RTVSPropertyOp5
 70
     1
102
RTVSPropertyOp6
 70
     1
102
RTVSPropertyOp7
 70
     1
102
RTVSPropertyOp8
 70
     1
102
RTVSPropertyOp9
 70
     1
102
RTVSPropertyOp10
 70
     1
102
RTVSPropertyOp11
 70
     1
102
RTVSPropertyOp12
 70
     1
102
RTVSPropertyOp13
 70
     1
102
RTVSPropertyOp14
 70
     1
102
RTVSPropertyOp15
 70
     1
102
RTVSPropertyOp16
 70
     1
102
RTVSPropertyOp17
 70
     1
102
RTVSPropertyOp18
 70
     1
102
RTVSPropertyOp19
 70
     1
102
RTVSPropertyOp20
 70
     1
102
RTVSPropertyOp21
 70
     1
102
RTVSPropertyOp22
 70
     1
102
RTVSPropertyOp23
 70
     1
102
RTVSPropertyOp24
 70
     1
102
RTVSPropertyOp25
 70
     1
102
RTVSPropertyOp26
 70
     1
102
RTVSPropertyOp27
 70
     1
102
RTVSPropertyOp28
 70
     1
102
RTVSPropertyOp29
 70
     1
102
RTVSPropertyOp30
 70
     1
102
RTVSPropertyOp31
 70
     1
102
RTVSPropertyOp32
 70
     1
102
RTVSPropertyOp33
 70
     1
102
RTVSPropertyOp34
 70
     1
102
RTVSPropertyOp35
 70
     1
102
RTVSPropertyOp36
 70
     1
102
RTVSPropertyOp37
 70
     1
102
RTVSPropertyOp38
 70
     1
102
RTVSPropertyOp39
 70
     1
102
RTVSPropertyOp40
 70
     1
102
RTVSPropertyOp41
 70
     1
102
RTVSPropertyOp42
 70
     1
102
RTVSPropertyOp43
 70
     1
102
RTVSPropertyOp44
 70
     1
102
RTVSPropertyOp45
 70
     1
102
RTVSPropertyOp46
 70
     1
102
RTVSPropertyOp47
 70
     1
102
RTVSPropertyOp48
 70
     1
102
RTVSPropertyOp49
 70
     1
102
RTVSPropertyOp50
 70
     1
102
RTVSPropertyOp51
 70
     0
102
RTVSPropertyOp52
 70
     0
102
RTVSPropertyOp53
 70
     1
102
RTVSPropertyOp54
 70
     1
102
RTVSPropertyOp55
 70
     1
102
RTVSPropertyOp56
 70
     1
102
RTVSPropertyOp57
 70
     1
102
RTVSPropertyOp58
 70
     1
102
RTVSPropertyOp59
 70
     1
102
RTVSPropertyOp60
 70
     1
102
RTVSPropertyOp61
 70
     1
102
RTVSPropertyOp62
 70
     1
  0
XRECORD
  5
1389
102
{ACAD_REACTORS
330
1388
102
}
330
1388
100
AcDbXrecord
280
     1
102
RTVSPost2010Prop28
280
     0
102
RTVSPost2010PropOp28
 70
     1
102
RTVSPost2010Prop29
280
     1
102
RTVSPost2010PropOp29
 70
     1
102
RTVSPost2010Prop30
280
     1
102
RTVSPost2010PropOp30
 70
     1
102
RTVSPost2010Prop31
280
     0
102
RTVSPost2010PropOp31
 70
     1
102
RTVSPost2010Prop32
280
     0
102
RTVSPost2010PropOp32
 70
     1
102
RTVSPost2010Prop33
280
     0
102
RTVSPost2010PropOp33
 70
     1
102
RTVSPost2010Prop34
280
     0
102
RTVSPost2010PropOp34
 70
     1
102
RTVSPost2010Prop35
280
     0
102
RTVSPost2010PropOp35
 70
     1
102
RTVSPost2010Prop36
280
     0
102
RTVSPost2010PropOp36
 70
     1
102
RTVSPost2010Prop37
 90
       50
102
RTVSPost2010PropOp37
 70
     1
102
RTVSPost2010Prop38
140
0.0
102
RTVSPost2010PropOp38
 70
     1
102
RTVSPost2010Prop39
140
1.0
102
RTVSPost2010PropOp39
 70
     1
102
RTVSPost2010Prop40
 90
        0
102
RTVSPost2010PropOp40
 70
     1
102
RTVSPost2010Prop41ColorIndex
 90
       18
102
RTVSPost2010Prop41ColorRGB
 90
        0
102
RTVSPost2010PropOp41
 70
     1
102
RTVSPost2010Prop42
 90
       50
102
RTVSPost2010PropOp42
 70
     1
102
RTVSPost2010Prop43
 90
        3
102
RTVSPost2010PropOp43
 70
     1
102
RTVSPost2010Prop44ColorIndex
 90
        5
102
RTVSPost2010Prop44ColorRGB
 90
      255
102
RTVSPost2010PropOp44
 70
     1
102
RTVSPost2010Prop45
280
     0
102
RTVSPost2010PropOp45
 70
     1
102
RTVSPost2010Prop46
 90
       50
102
RTVSPost2010PropOp46
 70
     1
102
RTVSPost2010Prop47
 90
       50
102
RTVSPost2010PropOp47
 70
     1
102
RTVSPost2010Prop48
 90
       50
102
RTVSPost2010PropOp48
 70
     1
102
RTVSPost2010Prop49
280
     0
102
RTVSPost2010PropOp49
 70
     1
102
RTVSPost2010Prop50
 90
       50
102
RTVSPost2010PropOp50
 70
     1
102
RTVSPost2010Prop51ColorIndex
 90
      256
102
RTVSPost2010Prop51ColorRGB
 90
-16777216
102
RTVSPost2010PropOp51
 70
     0
102
RTVSPost2010Prop52
140
1.0
102
RTVSPost2010PropOp52
 70
     0
102
RTVSPost2010Prop53
 90
        2
102
RTVSPost2010PropOp53
 70
     1
102
RTVSPost2010Prop54
  1
strokes_ogs.tif
102
RTVSPost2010PropOp54
 70
     1
102
RTVSPost2010Prop55
280
     0
102
RTVSPost2010PropOp55
 70
     1
102
RTVSPost2010Prop56
140
1.0
102
RTVSPost2010PropOp56
 70
     1
102
RTVSPost2010Prop57
140
1.0
102
RTVSPost2010PropOp57
 70
     1
102
RTVSPropertyOp0
 70
     1
102
RTVSPropertyOp1
 70
     1
102
RTVSPropertyOp2
 70
     1
102
RTVSPropertyOp3
 70
     1
102
RTVSPropertyOp4
 70
     1
102
RTVSPropertyOp5
 70
     1
102
RTVSPropertyOp6
 70
     1
102
RTVSPropertyOp7
 70
     1
102
RTVSPropertyOp8
 70
     1
102
RTVSPropertyOp9
 70
     1
102
RTVSPropertyOp10
 70
     1
102
RTVSPropertyOp11
 70
     1
102
RTVSPropertyOp12
 70
     1
102
RTVSPropertyOp13
 70
     1
102
RTVSPropertyOp14
 70
     1
102
RTVSPropertyOp15
 70
     1
102
RTVSPropertyOp16
 70
     1
102
RTVSPropertyOp17
 70
     1
102
RTVSPropertyOp18
 70
     1
102
RTVSPropertyOp19
 70
     1
102
RTVSPropertyOp20
 70
     1
102
RTVSPropertyOp21
 70
     1
102
RTVSPropertyOp22
 70
     1
102
RTVSPropertyOp23
 70
     1
102
RTVSPropertyOp24
 70
     1
102
RTVSPropertyOp25
 70
     1
102
RTVSPropertyOp26
 70
     1
102
RTVSPropertyOp27
 70
     1
102
RTVSPropertyOp28
 70
     1
102
RTVSPropertyOp29
 70
     1
102
RTVSPropertyOp30
 70
     1
102
RTVSPropertyOp31
 70
     1
102
RTVSPropertyOp32
 70
     1
102
RTVSPropertyOp33
 70
     1
102
RTVSPropertyOp34
 70
     1
102
RTVSPropertyOp35
 70
     1
102
RTVSPropertyOp36
 70
     1
102
RTVSPropertyOp37
 70
     1
102
RTVSPropertyOp38
 70
     1
102
RTVSPropertyOp39
 70
     1
102
RTVSPropertyOp40
 70
     1
102
RTVSPropertyOp41
 70
     1
102
RTVSPropertyOp42
 70
     1
102
RTVSPropertyOp43
 70
     1
102
RTVSPropertyOp44
 70
     1
102
RTVSPropertyOp45
 70
     1
102
RTVSPropertyOp46
 70
     1
102
RTVSPropertyOp47
 70
     1
102
RTVSPropertyOp48
 70
     1
102
RTVSPropertyOp49
 70
     1
102
RTVSPropertyOp50
 70
     1
102
RTVSPropertyOp51
 70
     0
102
RTVSPropertyOp52
 70
     0
102
RTVSPropertyOp53
 70
     1
102
RTVSPropertyOp54
 70
     1
102
RTVSPropertyOp55
 70
     1
102
RTVSPropertyOp56
 70
     1
102
RTVSPropertyOp57
 70
     1
102
RTVSPropertyOp58
 70
     1
102
RTVSPropertyOp59
 70
     1
102
RTVSPropertyOp60
 70
     1
102
RTVSPropertyOp61
 70
     1
102
RTVSPropertyOp62
 70
     1
  0
XRECORD
  5
1398
102
{ACAD_REACTORS
330
1397
102
}
330
1397
100
AcDbXrecord
280
     1
102
RTVSPost2010Prop28
280
     0
102
RTVSPost2010PropOp28
 70
     1
102
RTVSPost2010Prop29
280
     1
102
RTVSPost2010PropOp29
 70
     1
102
RTVSPost2010Prop30
280
     1
102
RTVSPost2010PropOp30
 70
     1
102
RTVSPost2010Prop31
280
     0
102
RTVSPost2010PropOp31
 70
     1
102
RTVSPost2010Prop32
280
     0
102
RTVSPost2010PropOp32
 70
     1
102
RTVSPost2010Prop33
280
     0
102
RTVSPost2010PropOp33
 70
     1
102
RTVSPost2010Prop34
280
     0
102
RTVSPost2010PropOp34
 70
     1
102
RTVSPost2010Prop35
280
     0
102
RTVSPost2010PropOp35
 70
     1
102
RTVSPost2010Prop36
280
     0
102
RTVSPost2010PropOp36
 70
     1
102
RTVSPost2010Prop37
 90
       50
102
RTVSPost2010PropOp37
 70
     1
102
RTVSPost2010Prop38
140
0.0
102
RTVSPost2010PropOp38
 70
     1
102
RTVSPost2010Prop39
140
1.0
102
RTVSPost2010PropOp39
 70
     1
102
RTVSPost2010Prop40
 90
        0
102
RTVSPost2010PropOp40
 70
     1
102
RTVSPost2010Prop41ColorIndex
 90
       18
102
RTVSPost2010Prop41ColorRGB
 90
        0
102
RTVSPost2010PropOp41
 70
     1
102
RTVSPost2010Prop42
 90
       50
102
RTVSPost2010PropOp42
 70
     1
102
RTVSPost2010Prop43
 90
        3
102
RTVSPost2010PropOp43
 70
     1
102
RTVSPost2010Prop44ColorIndex
 90
        5
102
RTVSPost2010Prop44ColorRGB
 90
      255
102
RTVSPost2010PropOp44
 70
     1
102
RTVSPost2010Prop45
280
     0
102
RTVSPost2010PropOp45
 70
     1
102
RTVSPost2010Prop46
 90
       50
102
RTVSPost2010PropOp46
 70
     1
102
RTVSPost2010Prop47
 90
       50
102
RTVSPost2010PropOp47
 70
     1
102
RTVSPost2010Prop48
 90
       50
102
RTVSPost2010PropOp48
 70
     1
102
RTVSPost2010Prop49
280
     0
102
RTVSPost2010PropOp49
 70
     1
102
RTVSPost2010Prop50
 90
       50
102
RTVSPost2010PropOp50
 70
     1
102
RTVSPost2010Prop51ColorIndex
 90
      256
102
RTVSPost2010Prop51ColorRGB
 90
-16777216
102
RTVSPost2010PropOp51
 70
     0
102
RTVSPost2010Prop52
140
1.0
102
RTVSPost2010PropOp52
 70
     0
102
RTVSPost2010Prop53
 90
        2
102
RTVSPost2010PropOp53
 70
     1
102
RTVSPost2010Prop54
  1
strokes_ogs.tif
102
RTVSPost2010PropOp54
 70
     1
102
RTVSPost2010Prop55
280
     0
102
RTVSPost2010PropOp55
 70
     1
102
RTVSPost2010Prop56
140
1.0
102
RTVSPost2010PropOp56
 70
     1
102
RTVSPost2010Prop57
140
1.0
102
RTVSPost2010PropOp57
 70
     1
102
RTVSPropertyOp0
 70
     1
102
RTVSPropertyOp1
 70
     1
102
RTVSPropertyOp2
 70
     1
102
RTVSPropertyOp3
 70
     1
102
RTVSPropertyOp4
 70
     1
102
RTVSPropertyOp5
 70
     1
102
RTVSPropertyOp6
 70
     1
102
RTVSPropertyOp7
 70
     1
102
RTVSPropertyOp8
 70
     1
102
RTVSPropertyOp9
 70
     1
102
RTVSPropertyOp10
 70
     1
102
RTVSPropertyOp11
 70
     1
102
RTVSPropertyOp12
 70
     1
102
RTVSPropertyOp13
 70
     1
102
RTVSPropertyOp14
 70
     1
102
RTVSPropertyOp15
 70
     1
102
RTVSPropertyOp16
 70
     1
102
RTVSPropertyOp17
 70
     1
102
RTVSPropertyOp18
 70
     1
102
RTVSPropertyOp19
 70
     1
102
RTVSPropertyOp20
 70
     1
102
RTVSPropertyOp21
 70
     1
102
RTVSPropertyOp22
 70
     1
102
RTVSPropertyOp23
 70
     1
102
RTVSPropertyOp24
 70
     1
102
RTVSPropertyOp25
 70
     1
102
RTVSPropertyOp26
 70
     1
102
RTVSPropertyOp27
 70
     1
102
RTVSPropertyOp28
 70
     1
102
RTVSPropertyOp29
 70
     1
102
RTVSPropertyOp30
 70
     1
102
RTVSPropertyOp31
 70
     1
102
RTVSPropertyOp32
 70
     1
102
RTVSPropertyOp33
 70
     1
102
RTVSPropertyOp34
 70
     1
102
RTVSPropertyOp35
 70
     1
102
RTVSPropertyOp36
 70
     1
102
RTVSPropertyOp37
 70
     1
102
RTVSPropertyOp38
 70
     1
102
RTVSPropertyOp39
 70
     1
102
RTVSPropertyOp40
 70
     1
102
RTVSPropertyOp41
 70
     1
102
RTVSPropertyOp42
 70
     1
102
RTVSPropertyOp43
 70
     1
102
RTVSPropertyOp44
 70
     1
102
RTVSPropertyOp45
 70
     1
102
RTVSPropertyOp46
 70
     1
102
RTVSPropertyOp47
 70
     1
102
RTVSPropertyOp48
 70
     1
102
RTVSPropertyOp49
 70
     1
102
RTVSPropertyOp50
 70
     1
102
RTVSPropertyOp51
 70
     0
102
RTVSPropertyOp52
 70
     0
102
RTVSPropertyOp53
 70
     1
102
RTVSPropertyOp54
 70
     1
102
RTVSPropertyOp55
 70
     1
102
RTVSPropertyOp56
 70
     1
102
RTVSPropertyOp57
 70
     1
102
RTVSPropertyOp58
 70
     1
102
RTVSPropertyOp59
 70
     1
102
RTVSPropertyOp60
 70
     1
102
RTVSPropertyOp61
 70
     1
102
RTVSPropertyOp62
 70
     1
  0
XRECORD
  5
13A0
102
{ACAD_REACTORS
330
139F
102
}
330
139F
100
AcDbXrecord
280
     1
102
RTVSPost2010Prop28
280
     0
102
RTVSPost2010PropOp28
 70
     1
102
RTVSPost2010Prop29
280
     1
102
RTVSPost2010PropOp29
 70
     1
102
RTVSPost2010Prop30
280
     1
102
RTVSPost2010PropOp30
 70
     1
102
RTVSPost2010Prop31
280
     0
102
RTVSPost2010PropOp31
 70
     1
102
RTVSPost2010Prop32
280
     0
102
RTVSPost2010PropOp32
 70
     1
102
RTVSPost2010Prop33
280
     0
102
RTVSPost2010PropOp33
 70
     1
102
RTVSPost2010Prop34
280
     0
102
RTVSPost2010PropOp34
 70
     1
102
RTVSPost2010Prop35
280
     0
102
RTVSPost2010PropOp35
 70
     1
102
RTVSPost2010Prop36
280
     0
102
RTVSPost2010PropOp36
 70
     1
102
RTVSPost2010Prop37
 90
       50
102
RTVSPost2010PropOp37
 70
     1
102
RTVSPost2010Prop38
140
0.0
102
RTVSPost2010PropOp38
 70
     1
102
RTVSPost2010Prop39
140
1.0
102
RTVSPost2010PropOp39
 70
     1
102
RTVSPost2010Prop40
 90
        0
102
RTVSPost2010PropOp40
 70
     1
102
RTVSPost2010Prop41ColorIndex
 90
       18
102
RTVSPost2010Prop41ColorRGB
 90
        0
102
RTVSPost2010PropOp41
 70
     1
102
RTVSPost2010Prop42
 90
       50
102
RTVSPost2010PropOp42
 70
     1
102
RTVSPost2010Prop43
 90
        3
102
RTVSPost2010PropOp43
 70
     1
102
RTVSPost2010Prop44ColorIndex
 90
        5
102
RTVSPost2010Prop44ColorRGB
 90
      255
102
RTVSPost2010PropOp44
 70
     1
102
RTVSPost2010Prop45
280
     0
102
RTVSPost2010PropOp45
 70
     1
102
RTVSPost2010Prop46
 90
       50
102
RTVSPost2010PropOp46
 70
     1
102
RTVSPost2010Prop47
 90
       50
102
RTVSPost2010PropOp47
 70
     1
102
RTVSPost2010Prop48
 90
       50
102
RTVSPost2010PropOp48
 70
     1
102
RTVSPost2010Prop49
280
     0
102
RTVSPost2010PropOp49
 70
     1
102
RTVSPost2010Prop50
 90
       50
102
RTVSPost2010PropOp50
 70
     1
102
RTVSPost2010Prop51ColorIndex
 90
      256
102
RTVSPost2010Prop51ColorRGB
 90
-16777216
102
RTVSPost2010PropOp51
 70
     0
102
RTVSPost2010Prop52
140
1.0
102
RTVSPost2010PropOp52
 70
     0
102
RTVSPost2010Prop53
 90
        2
102
RTVSPost2010PropOp53
 70
     1
102
RTVSPost2010Prop54
  1
strokes_ogs.tif
102
RTVSPost2010PropOp54
 70
     1
102
RTVSPost2010Prop55
280
     0
102
RTVSPost2010PropOp55
 70
     1
102
RTVSPost2010Prop56
140
1.0
102
RTVSPost2010PropOp56
 70
     1
102
RTVSPost2010Prop57
140
1.0
102
RTVSPost2010PropOp57
 70
     1
102
RTVSPropertyOp0
 70
     1
102
RTVSPropertyOp1
 70
     1
102
RTVSPropertyOp2
 70
     1
102
RTVSPropertyOp3
 70
     1
102
RTVSPropertyOp4
 70
     1
102
RTVSPropertyOp5
 70
     1
102
RTVSPropertyOp6
 70
     1
102
RTVSPropertyOp7
 70
     1
102
RTVSPropertyOp8
 70
     1
102
RTVSPropertyOp9
 70
     1
102
RTVSPropertyOp10
 70
     1
102
RTVSPropertyOp11
 70
     1
102
RTVSPropertyOp12
 70
     1
102
RTVSPropertyOp13
 70
     1
102
RTVSPropertyOp14
 70
     1
102
RTVSPropertyOp15
 70
     1
102
RTVSPropertyOp16
 70
     1
102
RTVSPropertyOp17
 70
     1
102
RTVSPropertyOp18
 70
     1
102
RTVSPropertyOp19
 70
     1
102
RTVSPropertyOp20
 70
     1
102
RTVSPropertyOp21
 70
     1
102
RTVSPropertyOp22
 70
     1
102
RTVSPropertyOp23
 70
     1
102
RTVSPropertyOp24
 70
     1
102
RTVSPropertyOp25
 70
     1
102
RTVSPropertyOp26
 70
     1
102
RTVSPropertyOp27
 70
     1
102
RTVSPropertyOp28
 70
     1
102
RTVSPropertyOp29
 70
     1
102
RTVSPropertyOp30
 70
     1
102
RTVSPropertyOp31
 70
     1
102
RTVSPropertyOp32
 70
     1
102
RTVSPropertyOp33
 70
     1
102
RTVSPropertyOp34
 70
     1
102
RTVSPropertyOp35
 70
     1
102
RTVSPropertyOp36
 70
     1
102
RTVSPropertyOp37
 70
     1
102
RTVSPropertyOp38
 70
     1
102
RTVSPropertyOp39
 70
     1
102
RTVSPropertyOp40
 70
     1
102
RTVSPropertyOp41
 70
     1
102
RTVSPropertyOp42
 70
     1
102
RTVSPropertyOp43
 70
     1
102
RTVSPropertyOp44
 70
     1
102
RTVSPropertyOp45
 70
     1
102
RTVSPropertyOp46
 70
     1
102
RTVSPropertyOp47
 70
     1
102
RTVSPropertyOp48
 70
     1
102
RTVSPropertyOp49
 70
     1
102
RTVSPropertyOp50
 70
     1
102
RTVSPropertyOp51
 70
     0
102
RTVSPropertyOp52
 70
     0
102
RTVSPropertyOp53
 70
     1
102
RTVSPropertyOp54
 70
     1
102
RTVSPropertyOp55
 70
     1
102
RTVSPropertyOp56
 70
     1
102
RTVSPropertyOp57
 70
     1
102
RTVSPropertyOp58
 70
     1
102
RTVSPropertyOp59
 70
     1
102
RTVSPropertyOp60
 70
     1
102
RTVSPropertyOp61
 70
     1
102
RTVSPropertyOp62
 70
     1
  0
ENDSEC
  0
EOF
