  0
SECTION
  2
HEADER
  9
$ACADVER
  1
AC1015
  9
$ACADMAINTVER
 70
    18
  9
$DWGCODEPAGE
  3
ANSI_932
  9
$INSBASE
 10
0.0
 20
0.0
 30
0.0
  9
$EXTMIN
 10
4.0
 20
3.999999999993065
 30
0.0
  9
$EXTMAX
 10
1683.99999999996
 20
1191.999999999965
 30
0.0
  9
$LIMMIN
 10
0.0
 20
0.0
  9
$LIMMAX
 10
1680.0
 20
1188.0
  9
$ORTHOMODE
 70
     0
  9
$REGENMODE
 70
     1
  9
$FILLMODE
 70
     1
  9
$QTEXTMODE
 70
     0
  9
$MIRRTEXT
 70
     0
  9
$LTSCALE
 40
4.0
  9
$ATTMODE
 70
     1
  9
$TEXTSIZE
 40
2.5
  9
$TRACEWID
 40
1.0
  9
$TEXTSTYLE
  7
STD
  9
$CLAYER
  8
画層1
  9
$CELTYPE
  6
Continuous
  9
$CECOLOR
 62
     7
  9
$CELTSCALE
 40
1.0
  9
$DISPSILH
 70
     0
  9
$DIMSCALE
 40
4.0
  9
$DIMASZ
 40
3.0
  9
$DIMEXO
 40
1.0
  9
$DIMDLI
 40
8.0
  9
$DIMRND
 40
0.0
  9
$DIMDLE
 40
0.0
  9
$DIMEXE
 40
1.0
  9
$DIMTP
 40
0.0
  9
$DIMTM
 40
0.000000001
  9
$DIMTXT
 40
3.0
  9
$DIMCEN
 40
0.0
  9
$DIMTSZ
 40
0.0
  9
$DIMTOL
 70
     0
  9
$DIMLIM
 70
     0
  9
$DIMTIH
 70
     0
  9
$DIMTOH
 70
     0
  9
$DIMSE1
 70
     0
  9
$DIMSE2
 70
     0
  9
$DIMTAD
 70
     3
  9
$DIMZIN
 70
     8
  9
$DIMBLK
  1
Open30
  9
$DIMASO
 70
     1
  9
$DIMSHO
 70
     1
  9
$DIMPOST
  1

  9
$DIMAPOST
  1

  9
$DIMALT
 70
     0
  9
$DIMALTD
 70
     2
  9
$DIMALTF
 40
0.0005
  9
$DIMLFAC
 40
1.0
  9
$DIMTOFL
 70
     1
  9
$DIMTVP
 40
0.0
  9
$DIMTIX
 70
     0
  9
$DIMSOXD
 70
     0
  9
$DIMSAH
 70
     0
  9
$DIMBLK1
  1

  9
$DIMBLK2
  1

  9
$DIMSTYLE
  2
ASKSTANDARD
  9
$DIMCLRD
 70
     4
  9
$DIMCLRE
 70
     4
  9
$DIMCLRT
 70
     4
  9
$DIMTFAC
 40
0.5
  9
$DIMGAP
 40
1.0
  9
$DIMJUST
 70
     0
  9
$DIMSD1
 70
     0
  9
$DIMSD2
 70
     0
  9
$DIMTOLJ
 70
     1
  9
$DIMTZIN
 70
     0
  9
$DIMALTZ
 70
     0
  9
$DIMALTTZ
 70
     0
  9
$DIMUPT
 70
     0
  9
$DIMDEC
 70
     2
  9
$DIMTDEC
 70
     2
  9
$DIMALTU
 70
     2
  9
$DIMALTTD
 70
     2
  9
$DIMTXSTY
  7
STD
  9
$DIMAUNIT
 70
     0
  9
$DIMADEC
 70
     2
  9
$DIMALTRND
 40
0.0
  9
$DIMAZIN
 70
     2
  9
$DIMDSEP
 70
    46
  9
$DIMATFIT
 70
     0
  9
$DIMFRAC
 70
     0
  9
$DIMLDRBLK
  1
Open30
  9
$DIMLUNIT
 70
     2
  9
$DIMLWD
 70
     9
  9
$DIMLWE
 70
     9
  9
$DIMTMOVE
 70
     0
  9
$LUNITS
 70
     2
  9
$LUPREC
 70
     4
  9
$SKETCHINC
 40
1.0
  9
$FILLETRAD
 40
0.0
  9
$AUNITS
 70
     0
  9
$AUPREC
 70
     0
  9
$MENU
  1
.
  9
$ELEVATION
 40
0.0
  9
$PELEVATION
 40
0.0
  9
$THICKNESS
 40
0.0
  9
$LIMCHECK
 70
     0
  9
$CHAMFERA
 40
0.0
  9
$CHAMFERB
 40
0.0
  9
$CHAMFERC
 40
0.0
  9
$CHAMFERD
 40
0.0
  9
$SKPOLY
 70
     0
  9
$TDCREATE
 40
2454497.602825139
  9
$TDUCREATE
 40
2454497.227825139
  9
$TDUPDATE
 40
2455672.457246088
  9
$TDUUPDATE
 40
2455672.082246088
  9
$TDINDWG
 40
0.1979915972
  9
$TDUSRTIMER
 40
0.1979915972
  9
$USRTIMER
 70
     1
  9
$ANGBASE
 50
0.0
  9
$ANGDIR
 70
     0
  9
$PDMODE
 70
     1
  9
$PDSIZE
 40
0.0
  9
$PLINEWID
 40
0.0
  9
$SPLFRAME
 70
     0
  9
$SPLINETYPE
 70
     6
  9
$SPLINESEGS
 70
     8
  9
$HANDSEED
  5
1299
  9
$SURFTAB1
 70
     6
  9
$SURFTAB2
 70
     6
  9
$SURFTYPE
 70
     6
  9
$SURFU
 70
     6
  9
$SURFV
 70
     6
  9
$UCSBASE
  2

  9
$UCSNAME
  2

  9
$UCSORG
 10
0.0
 20
0.0
 30
0.0
  9
$UCSXDIR
 10
1.0
 20
0.0
 30
0.0
  9
$UCSYDIR
 10
0.0
 20
1.0
 30
0.0
  9
$UCSORTHOREF
  2

  9
$UCSORTHOVIEW
 70
     0
  9
$UCSORGTOP
 10
0.0
 20
0.0
 30
0.0
  9
$UCSORGBOTTOM
 10
0.0
 20
0.0
 30
0.0
  9
$UCSORGLEFT
 10
0.0
 20
0.0
 30
0.0
  9
$UCSORGRIGHT
 10
0.0
 20
0.0
 30
0.0
  9
$UCSORGFRONT
 10
0.0
 20
0.0
 30
0.0
  9
$UCSORGBACK
 10
0.0
 20
0.0
 30
0.0
  9
$PUCSBASE
  2

  9
$PUCSNAME
  2

  9
$PUCSORG
 10
0.0
 20
0.0
 30
0.0
  9
$PUCSXDIR
 10
1.0
 20
0.0
 30
0.0
  9
$PUCSYDIR
 10
0.0
 20
1.0
 30
0.0
  9
$PUCSORTHOREF
  2

  9
$PUCSORTHOVIEW
 70
     0
  9
$PUCSORGTOP
 10
0.0
 20
0.0
 30
0.0
  9
$PUCSORGBOTTOM
 10
0.0
 20
0.0
 30
0.0
  9
$PUCSORGLEFT
 10
0.0
 20
0.0
 30
0.0
  9
$PUCSORGRIGHT
 10
0.0
 20
0.0
 30
0.0
  9
$PUCSORGFRONT
 10
0.0
 20
0.0
 30
0.0
  9
$PUCSORGBACK
 10
0.0
 20
0.0
 30
0.0
  9
$USERI1
 70
     0
  9
$USERI2
 70
     0
  9
$USERI3
 70
     0
  9
$USERI4
 70
     0
  9
$USERI5
 70
     0
  9
$USERR1
 40
0.0
  9
$USERR2
 40
0.0
  9
$USERR3
 40
0.0
  9
$USERR4
 40
0.0
  9
$USERR5
 40
0.0
  9
$WORLDVIEW
 70
     1
  9
$SHADEDGE
 70
     3
  9
$SHADEDIF
 70
    70
  9
$TILEMODE
 70
     1
  9
$MAXACTVP
 70
    64
  9
$PINSBASE
 10
0.0
 20
0.0
 30
0.0
  9
$PLIMCHECK
 70
     0
  9
$PEXTMIN
 10
0.0
 20
0.0
 30
0.0
  9
$PEXTMAX
 10
0.0
 20
0.0
 30
0.0
  9
$PLIMMIN
 10
0.0
 20
0.0
  9
$PLIMMAX
 10
12.0
 20
9.0
  9
$UNITMODE
 70
     0
  9
$VISRETAIN
 70
     1
  9
$PLINEGEN
 70
     0
  9
$PSLTSCALE
 70
     1
  9
$TREEDEPTH
 70
  3020
  9
$CMLSTYLE
  2
Standard
  9
$CMLJUST
 70
     0
  9
$CMLSCALE
 40
20.0
  9
$PROXYGRAPHICS
 70
     1
  9
$MEASUREMENT
 70
     1
  9
$CELWEIGHT
370
    -1
  9
$ENDCAPS
280
     0
  9
$JOINSTYLE
280
     0
  9
$LWDISPLAY
290
     0
  9
$INSUNITS
 70
     4
  9
$HYPERLINKBASE
  1

  9
$STYLESHEET
  1

  9
$XEDIT
290
     1
  9
$CEPSNTYPE
380
     0
  9
$PSTYLEMODE
290
     1
  9
$FINGERPRINTGUID
  2
{D178A04D-76D8-4F2C-AB2D-4FB1B243C31E}
  9
$VERSIONGUID
  2
{3CC87B6C-D341-4449-8AE4-DAD431709C1F}
  9
$EXTNAMES
290
     1
  9
$PSVPSCALE
 40
0.0
  9
$OLESTARTUP
290
     0
  0
ENDSEC
  0
SECTION
  2
CLASSES
  0
CLASS
  1
ACDBDICTIONARYWDFLT
  2
AcDbDictionaryWithDefault
  3
ObjectDBX Classes
 90
        0
280
     0
281
     0
  0
CLASS
  1
DICTIONARYVAR
  2
AcDbDictionaryVar
  3
ObjectDBX Classes
 90
        0
280
     0
281
     0
  0
CLASS
  1
TABLESTYLE
  2
AcDbTableStyle
  3
ObjectDBX Classes
 90
     4095
280
     0
281
     0
  0
CLASS
  1
MATERIAL
  2
AcDbMaterial
  3
ObjectDBX Classes
 90
     1153
280
     0
281
     0
  0
CLASS
  1
VISUALSTYLE
  2
AcDbVisualStyle
  3
ObjectDBX Classes
 90
     4095
280
     0
281
     0
  0
CLASS
  1
SORTENTSTABLE
  2
AcDbSortentsTable
  3
ObjectDBX Classes
 90
    32768
280
     0
281
     0
  0
CLASS
  1
SCALE
  2
AcDbScale
  3
ObjectDBX Classes
 90
     1153
280
     0
281
     0
  0
CLASS
  1
MLEADERSTYLE
  2
AcDbMLeaderStyle
  3
ACDB_MLEADERSTYLE_CLASS
 90
     4095
280
     0
281
     0
  0
CLASS
  1
CELLSTYLEMAP
  2
AcDbCellStyleMap
  3
ObjectDBX Classes
 90
     1152
280
     0
281
     0
  0
CLASS
  1
EXACXREFPANELOBJECT
  2
ExAcXREFPanelObject
  3
EXAC_ESW
 90
    33793
280
     0
281
     0
  0
CLASS
  1
NPOCOLLECTION
  2
AcDbImpNonPersistentObjectsCollection
  3
ObjectDBX Classes
 90
    33921
280
     0
281
     0
  0
CLASS
  1
RASTERVARIABLES
  2
AcDbRasterVariables
  3
ISM
 90
        0
280
     0
281
     0
  0
CLASS
  1
ACDBSECTIONVIEWSTYLE
  2
AcDbSectionViewStyle
  3
ObjectDBX Classes
 90
     1025
280
     0
281
     0
  0
CLASS
  1
ACDBDETAILVIEWSTYLE
  2
AcDbDetailViewStyle
  3
ObjectDBX Classes
 90
     1025
280
     0
281
     0
  0
CLASS
  1
ACDBPLACEHOLDER
  2
AcDbPlaceHolder
  3
ObjectDBX Classes
 90
        0
280
     0
281
     0
  0
CLASS
  1
LAYOUT
  2
AcDbLayout
  3
ObjectDBX Classes
 90
        0
280
     0
281
     0
  0
ENDSEC
  0
SECTION
  2
TABLES
  0
TABLE
  2
VPORT
  5
8
330
0
100
AcDbSymbolTable
 70
     1
  0
VPORT
  5
ED
330
8
100
AcDbSymbolTableRecord
100
AcDbViewportTableRecord
  2
*Active
 70
     0
 10
0.0
 20
0.0
 11
1.0
 21
1.0
 12
840.0
 22
594.0
 13
0.0
 23
0.0
 14
10.0
 24
10.0
 15
10.0
 25
10.0
 16
0.0
 26
0.0
 36
1.0
 17
0.0
 27
0.0
 37
0.0
 40
1188.0
 41
1.724334600760456
 42
50.0
 43
0.0
 44
0.0
 50
0.0
 51
0.0
 71
     0
 72
  1000
 73
     1
 74
     3
 75
     0
 76
     0
 77
     0
 78
     0
281
     0
 65
     1
110
0.0
120
0.0
130
0.0
111
1.0
121
0.0
131
0.0
112
0.0
122
1.0
132
0.0
 79
     0
146
0.0
1001
ACAD_NAV_VCDISPLAY
1070
     3
  0
ENDTAB
  0
TABLE
  2
LTYPE
  5
5
330
0
100
AcDbSymbolTable
 70
     6
  0
LTYPE
  5
14
330
5
100
AcDbSymbolTableRecord
100
AcDbLinetypeTableRecord
  2
ByBlock
 70
     0
  3

 72
    65
 73
     0
 40
0.0
  0
LTYPE
  5
15
330
5
100
AcDbSymbolTableRecord
100
AcDbLinetypeTableRecord
  2
ByLayer
 70
     0
  3

 72
    65
 73
     0
 40
0.0
  0
LTYPE
  5
16
330
5
100
AcDbSymbolTableRecord
100
AcDbLinetypeTableRecord
  2
Continuous
 70
     0
  3
Solid line
 72
    65
 73
     0
 40
0.0
  0
LTYPE
  5
780
330
5
100
AcDbSymbolTableRecord
100
AcDbLinetypeTableRecord
  2
CENTER2
 70
     0
  3
Center (.5x) ___ _ ___ _ ___ _ ___ _ ___ _ ___
 72
    65
 73
     4
 40
28.575
 49
19.05
 74
     0
 49
-3.174999999999999
 74
     0
 49
3.174999999999999
 74
     0
 49
-3.174999999999999
 74
     0
  0
LTYPE
  5
781
330
5
100
AcDbSymbolTableRecord
100
AcDbLinetypeTableRecord
  2
HIDDEN2
 70
     0
  3
Hidden (.5x) _ _ _ _ _ _ _ _ _ _ _ _ _ _ _ _ _
 72
    65
 73
     2
 40
4.762499999999999
 49
3.174999999999999
 74
     0
 49
-1.587499999999999
 74
     0
  0
LTYPE
  5
782
330
5
100
AcDbSymbolTableRecord
100
AcDbLinetypeTableRecord
  2
PHANTOM2
 70
     0
  3
Phantom (.5x) ___ _ _ ___ _ _ ___ _ _ ___ _ _
 72
    65
 73
     6
 40
31.75
 49
15.875
 74
     0
 49
-3.174999999999999
 74
     0
 49
3.174999999999999
 74
     0
 49
-3.174999999999999
 74
     0
 49
3.174999999999999
 74
     0
 49
-3.174999999999999
 74
     0
  0
LTYPE
  5
7A8
330
5
100
AcDbSymbolTableRecord
100
AcDbLinetypeTableRecord
  2
zigzag
 70
     0
  3
/\/-/\/-/\/-/\/-/\/-/\/
 72
    65
 73
     2
 40
11.0001
 49
0.0001
 74
     4
 75
   135
340
77F
 46
0.04
 50
0.0
 44
0.0
 45
0.0
 49
-11.0
 74
     0
  0
LTYPE
  5
7D1
330
5
100
AcDbSymbolTableRecord
100
AcDbLinetypeTableRecord
  2
DIMENSION
 70
     0
  3
_______________________________________________
 72
    65
 73
     2
 40
0.000000000000002
 49
0.000000000000001
 74
     0
 49
0.000000000000001
 74
     0
  0
ENDTAB
  0
TABLE
  2
LAYER
  5
2
102
{ACAD_XDICTIONARY
360
688
102
}
330
0
100
AcDbSymbolTable
 70
     7
  0
LAYER
  5
10
102
{ACAD_XDICTIONARY
360
785
102
}
330
2
100
AcDbSymbolTableRecord
100
AcDbLayerTableRecord
  2
0
 70
     0
 62
     7
  6
Continuous
370
    -3
390
F
  0
LAYER
  5
14A
330
2
100
AcDbSymbolTableRecord
100
AcDbLayerTableRecord
  2
Defpoints
 70
     0
 62
     7
  6
Continuous
290
     0
370
    -3
390
F
  0
LAYER
  5
7F9
330
2
100
AcDbSymbolTableRecord
100
AcDbLayerTableRecord
  2
PV0001_4
 70
     0
 62
     7
  6
Continuous
370
    -3
390
F
  0
LAYER
  5
C65
330
2
100
AcDbSymbolTableRecord
100
AcDbLayerTableRecord
  2
TP1791_4
 70
     0
 62
     7
  6
Continuous
370
    -3
390
F
  0
LAYER
  5
F1C
330
2
100
AcDbSymbolTableRecord
100
AcDbLayerTableRecord
  2
F00001_1
 70
     0
 62
     7
  6
Continuous
370
    -3
390
F
  0
LAYER
  5
F97
330
2
100
AcDbSymbolTableRecord
100
AcDbLayerTableRecord
  2
LH0901_4
 70
     0
 62
     7
  6
Continuous
370
    -3
390
F
  0
LAYER
  5
11EA
330
2
100
AcDbSymbolTableRecord
100
AcDbLayerTableRecord
  2
画層1
 70
     0
 62
     7
  6
Continuous
370
    -3
390
F
1001
AcAecLayerStandard
1000

1000

  0
ENDTAB
  0
TABLE
  2
STYLE
  5
3
330
0
100
AcDbSymbolTable
 70
     3
  0
STYLE
  5
11
330
3
100
AcDbSymbolTableRecord
100
AcDbTextStyleTableRecord
  2
Standard
 70
     0
 40
0.0
 41
0.8
 50
0.0
 71
     0
 42
2.5
  3
romans.shx
  4
extfont2.shx
  0
STYLE
  5
77F
330
3
100
AcDbSymbolTableRecord
100
AcDbTextStyleTableRecord
  2

 70
     1
 40
0.0
 41
1.0
 50
0.0
 71
     0
 42
2.5
  3
ltypeshp.shx
  4

  0
STYLE
  5
783
330
3
100
AcDbSymbolTableRecord
100
AcDbTextStyleTableRecord
  2
STD
 70
     0
 40
0.0
 41
0.6
 50
0.0
 71
     0
 42
2.5
  3
monotxt.shx
  4
extfont2.shx
  0
ENDTAB
  0
TABLE
  2
VIEW
  5
6
330
0
100
AcDbSymbolTable
 70
     0
  0
ENDTAB
  0
TABLE
  2
UCS
  5
7
330
0
100
AcDbSymbolTable
 70
     0
  0
ENDTAB
  0
TABLE
  2
APPID
  5
9
330
0
100
AcDbSymbolTable
 70
    22
  0
APPID
  5
12
330
9
100
AcDbSymbolTableRecord
100
AcDbRegAppTableRecord
  2
ACAD
 70
     0
  0
APPID
  5
9E
330
9
100
AcDbSymbolTableRecord
100
AcDbRegAppTableRecord
  2
ACAD_PSEXT
 70
     0
  0
APPID
  5
15A
330
9
100
AcDbSymbolTableRecord
100
AcDbRegAppTableRecord
  2
ACAD_DSTYLE_DIMTEXT_FILL
 70
     0
  0
APPID
  5
15B
330
9
100
AcDbSymbolTableRecord
100
AcDbRegAppTableRecord
  2
ACAD_DSTYLE_DIMEXT_LENGTH
 70
     0
  0
APPID
  5
15C
330
9
100
AcDbSymbolTableRecord
100
AcDbRegAppTableRecord
  2
ACAD_DSTYLE_DIMEXT_ENABLED
 70
     0
  0
APPID
  5
15D
330
9
100
AcDbSymbolTableRecord
100
AcDbRegAppTableRecord
  2
ACAD_DSTYLE_DIM_LINETYPE
 70
     0
  0
APPID
  5
15E
330
9
100
AcDbSymbolTableRecord
100
AcDbRegAppTableRecord
  2
ACAD_DSTYLE_DIM_EXT1_LINETYPE
 70
     0
  0
APPID
  5
15F
330
9
100
AcDbSymbolTableRecord
100
AcDbRegAppTableRecord
  2
ACAD_DSTYLE_DIM_EXT2_LINETYPE
 70
     0
  0
APPID
  5
160
330
9
100
AcDbSymbolTableRecord
100
AcDbRegAppTableRecord
  2
ACAD_DSTYLE_DIMJOGGED_JOGANGLE_SYMBOL
 70
     0
  0
APPID
  5
161
330
9
100
AcDbSymbolTableRecord
100
AcDbRegAppTableRecord
  2
ACAD_DSTYLE_DIMARC_LENGTH_SYMBOL
 70
     0
  0
APPID
  5
162
330
9
100
AcDbSymbolTableRecord
100
AcDbRegAppTableRecord
  2
ACAD_MLEADERVER
 70
     0
  0
APPID
  5
163
330
9
100
AcDbSymbolTableRecord
100
AcDbRegAppTableRecord
  2
AcAecLayerStandard
 70
     0
  0
APPID
  5
164
330
9
100
AcDbSymbolTableRecord
100
AcDbRegAppTableRecord
  2
ACAD_DSTYLE_DIMJAG
 70
     0
  0
APPID
  5
165
330
9
100
AcDbSymbolTableRecord
100
AcDbRegAppTableRecord
  2
ACAD_DSTYLE_DIMTALN
 70
     0
  0
APPID
  5
166
330
9
100
AcDbSymbolTableRecord
100
AcDbRegAppTableRecord
  2
DIMEXPLODE
 70
     0
  0
APPID
  5
41A
330
9
100
AcDbSymbolTableRecord
100
AcDbRegAppTableRecord
  2
AcadAnnoPO
 70
     0
  0
APPID
  5
7AC
330
9
100
AcDbSymbolTableRecord
100
AcDbRegAppTableRecord
  2
AcadAnnotative
 70
     0
  0
APPID
  5
7C9
330
9
100
AcDbSymbolTableRecord
100
AcDbRegAppTableRecord
  2
ACAD_EXEMPT_FROM_CAD_STANDARDS
 70
     0
  0
APPID
  5
A81
330
9
100
AcDbSymbolTableRecord
100
AcDbRegAppTableRecord
  2
DEKIMAS
 70
     0
  0
APPID
  5
114D
330
9
100
AcDbSymbolTableRecord
100
AcDbRegAppTableRecord
  2
ASKOBJSC
 70
     0
  0
APPID
  5
114E
330
9
100
AcDbSymbolTableRecord
100
AcDbRegAppTableRecord
  2
ASKDWGSC
 70
     0
  0
APPID
  5
124A
330
9
100
AcDbSymbolTableRecord
100
AcDbRegAppTableRecord
  2
ACAD_NAV_VCDISPLAY
 70
     0
  0
ENDTAB
  0
TABLE
  2
DIMSTYLE
  5
A
330
0
100
AcDbSymbolTable
 70
     4
100
AcDbDimStyleTable
 71
     1
340
159
  0
DIMSTYLE
105
159
102
{ACAD_REACTORS
330
7FA
330
845
330
888
330
8D3
330
916
330
961
330
9AC
330
9EF
330
A32
330
C66
330
CA9
330
CEC
330
D2F
330
D72
330
DCD
330
E43
330
E45
330
F98
330
FDB
330
1202
102
}
330
A
100
AcDbSymbolTableRecord
100
AcDbDimStyleTableRecord
  2
ASKSTANDARD
 70
     0
 40
4.0
 41
3.0
 42
1.0
 43
8.0
 44
1.0
 48
0.000000001
 73
     0
 74
     0
 77
     3
 78
     9
 79
     2
140
3.0
141
0.0
143
0.0005
146
0.5
147
1.0
172
     1
176
     4
177
     4
178
     4
179
     2
271
     2
272
     2
289
     0
340
783
341
71F
342
71F
371
     9
372
     9
1001
ACAD_DSTYLE_DIMJAG
1070
   388
1040
1.5
1001
ACAD_DSTYLE_DIMTALN
1070
   392
1070
     0
1001
ACAD_DSTYLE_DIMEXT_LENGTH
1070
   378
1040
2.0
1001
ACAD_DSTYLE_DIMJOGGED_JOGANGLE_SYMBOL
1070
   384
1040
1.570796326794896
  0
DIMSTYLE
105
7AA
330
A
100
AcDbSymbolTableRecord
100
AcDbDimStyleTableRecord
  2
Standard
 70
     0
340
11
  0
DIMSTYLE
105
7F8
330
A
100
AcDbSymbolTableRecord
100
AcDbDimStyleTableRecord
  2
SYMBOL
 70
     0
 40
4.0
 41
3.0
 42
1.0
 43
8.0
 44
1.0
 48
0.000000001
 73
     0
 74
     0
 77
     3
 78
     9
 79
     2
140
3.0
141
0.0
143
0.0005
146
0.5
147
1.0
172
     1
176
     4
177
     4
178
     4
179
     2
271
     2
272
     2
289
     0
340
783
341
71F
342
71F
371
     9
372
     9
1001
ACAD_DSTYLE_DIMJAG
1070
   388
1040
1.5
1001
ACAD_DSTYLE_DIMTALN
1070
   392
1070
     0
1001
ACAD_DSTYLE_DIMEXT_LENGTH
1070
   378
1040
2.0
1001
ACAD_DSTYLE_DIMJOGGED_JOGANGLE_SYMBOL
1070
   384
1040
1.570796326794896
  0
DIMSTYLE
105
F1B
102
{ACAD_REACTORS
330
7FA
330
845
330
888
330
8D3
330
916
330
961
330
9AC
330
9EF
330
A32
330
C66
330
CA9
330
CEC
330
D2F
330
D72
330
DCD
102
}
330
A
100
AcDbSymbolTableRecord
100
AcDbDimStyleTableRecord
  2
ASKSTANDARDF00P25
 70
     0
 40
4.0
 41
3.0
 42
1.0
 43
8.0
 44
1.0
 48
0.000000001
 73
     0
 74
     0
 77
     3
 78
     9
 79
     2
140
3.0
141
0.0
143
0.0005
144
0.25
146
0.5
147
1.0
172
     1
176
     4
177
     4
178
     4
179
     2
271
     2
272
     2
289
     0
340
783
341
71F
342
71F
371
     9
372
     9
1001
ACAD_DSTYLE_DIMJAG
1070
   388
1040
1.5
1001
ACAD_DSTYLE_DIMTALN
1070
   392
1070
     0
1001
ACAD_DSTYLE_DIMEXT_LENGTH
1070
   378
1040
2.0
1001
ACAD_DSTYLE_DIMJOGGED_JOGANGLE_SYMBOL
1070
   384
1040
1.570796326794896
  0
ENDTAB
  0
TABLE
  2
BLOCK_RECORD
  5
1
330
0
100
AcDbSymbolTable
 70
    20
  0
BLOCK_RECORD
  5
1F
102
{ACAD_XDICTIONARY
360
318
102
}
330
1
100
AcDbSymbolTableRecord
100
AcDbBlockTableRecord
  2
*Model_Space
340
22
  0
BLOCK_RECORD
  5
D2
330
1
100
AcDbSymbolTableRecord
100
AcDbBlockTableRecord
  2
*Paper_Space
340
D3
  0
BLOCK_RECORD
  5
D6
330
1
100
AcDbSymbolTableRecord
100
AcDbBlockTableRecord
  2
*Paper_Space0
340
D7
  0
BLOCK_RECORD
  5
71F
330
1
100
AcDbSymbolTableRecord
100
AcDbBlockTableRecord
  2
_Open30
340
0
102
{BLKREFS
331
1151
331
1152
331
115A
331
115B
331
1162
331
1163
331
116B
331
116C
331
1173
331
1174
331
117B
331
117C
331
1184
331
1185
331
118D
331
118E
331
1195
331
1196
331
119E
331
119F
331
11A7
331
11A8
331
11B0
331
11B1
331
11B9
331
11BA
331
11C0
331
11C1
331
11CA
331
11CB
331
1213
331
1214
331
121C
331
121D
331
1225
331
1226
102
}
  0
BLOCK_RECORD
  5
7FB
330
1
100
AcDbSymbolTableRecord
100
AcDbBlockTableRecord
  2
*D2
340
0
  0
BLOCK_RECORD
  5
846
330
1
100
AcDbSymbolTableRecord
100
AcDbBlockTableRecord
  2
*D3
340
0
  0
BLOCK_RECORD
  5
889
330
1
100
AcDbSymbolTableRecord
100
AcDbBlockTableRecord
  2
*D4
340
0
  0
BLOCK_RECORD
  5
8D4
330
1
100
AcDbSymbolTableRecord
100
AcDbBlockTableRecord
  2
*D5
340
0
  0
BLOCK_RECORD
  5
917
330
1
100
AcDbSymbolTableRecord
100
AcDbBlockTableRecord
  2
*D6
340
0
  0
BLOCK_RECORD
  5
962
330
1
100
AcDbSymbolTableRecord
100
AcDbBlockTableRecord
  2
*D7
340
0
  0
BLOCK_RECORD
  5
9AD
330
1
100
AcDbSymbolTableRecord
100
AcDbBlockTableRecord
  2
*D8
340
0
  0
BLOCK_RECORD
  5
9F0
330
1
100
AcDbSymbolTableRecord
100
AcDbBlockTableRecord
  2
*D9
340
0
  0
BLOCK_RECORD
  5
A33
330
1
100
AcDbSymbolTableRecord
100
AcDbBlockTableRecord
  2
*D10
340
0
  0
BLOCK_RECORD
  5
C67
330
1
100
AcDbSymbolTableRecord
100
AcDbBlockTableRecord
  2
*D11
340
0
  0
BLOCK_RECORD
  5
CAA
330
1
100
AcDbSymbolTableRecord
100
AcDbBlockTableRecord
  2
*D12
340
0
  0
BLOCK_RECORD
  5
CED
330
1
100
AcDbSymbolTableRecord
100
AcDbBlockTableRecord
  2
*D13
340
0
  0
BLOCK_RECORD
  5
D30
330
1
100
AcDbSymbolTableRecord
100
AcDbBlockTableRecord
  2
*D14
340
0
  0
BLOCK_RECORD
  5
D73
330
1
100
AcDbSymbolTableRecord
100
AcDbBlockTableRecord
  2
*D15
340
0
  0
BLOCK_RECORD
  5
DCE
330
1
100
AcDbSymbolTableRecord
100
AcDbBlockTableRecord
  2
*D16
340
0
  0
BLOCK_RECORD
  5
F99
330
1
100
AcDbSymbolTableRecord
100
AcDbBlockTableRecord
  2
*D17
340
0
  0
BLOCK_RECORD
  5
FDC
330
1
100
AcDbSymbolTableRecord
100
AcDbBlockTableRecord
  2
*D18
340
0
  0
BLOCK_RECORD
  5
1203
330
1
100
AcDbSymbolTableRecord
100
AcDbBlockTableRecord
  2
*D19
340
0
  0
ENDTAB
  0
ENDSEC
  0
SECTION
  2
BLOCKS
  0
BLOCK
  5
20
330
1F
100
AcDbEntity
  8
0
100
AcDbBlockBegin
  2
*Model_Space
 70
     0
 10
0.0
 20
0.0
 30
0.0
  3
*Model_Space
  1

  0
ENDBLK
  5
21
330
1F
100
AcDbEntity
  8
0
100
AcDbBlockEnd
  0
BLOCK
  5
D4
330
D2
100
AcDbEntity
 67
     1
  8
0
100
AcDbBlockBegin
  2
*Paper_Space
 70
     0
 10
0.0
 20
0.0
 30
0.0
  3
*Paper_Space
  1

  0
ENDBLK
  5
D5
330
D2
100
AcDbEntity
 67
     1
  8
0
100
AcDbBlockEnd
  0
BLOCK
  5
D8
330
D6
100
AcDbEntity
 67
     1
  8
0
100
AcDbBlockBegin
  2
*Paper_Space0
 70
     0
 10
0.0
 20
0.0
 30
0.0
  3
*Paper_Space0
  1

  0
ENDBLK
  5
D9
330
D6
100
AcDbEntity
 67
     1
  8
0
100
AcDbBlockEnd
  0
BLOCK
  5
723
330
71F
100
AcDbEntity
  8
0
100
AcDbBlockBegin
  2
_Open30
 70
     0
 10
0.0
 20
0.0
 30
0.0
  3
_Open30
  1

  0
LINE
  5
720
330
71F
100
AcDbEntity
  8
0
  6
ByBlock
 62
     0
370
    -2
100
AcDbLine
 10
-1.0
 20
0.26794919
 30
0.0
 11
0.0
 21
0.0
 31
0.0
  0
LINE
  5
721
330
71F
100
AcDbEntity
  8
0
  6
ByBlock
 62
     0
370
    -2
100
AcDbLine
 10
0.0
 20
0.0
 30
0.0
 11
-1.0
 21
-0.26794919
 31
0.0
  0
LINE
  5
722
330
71F
100
AcDbEntity
  8
0
  6
ByBlock
 62
     0
370
    -2
100
AcDbLine
 10
0.0
 20
0.0
 30
0.0
 11
-1.0
 21
0.0
 31
0.0
  0
ENDBLK
  5
724
330
71F
100
AcDbEntity
  8
0
100
AcDbBlockEnd
  0
BLOCK
  5
7FC
330
7FB
100
AcDbEntity
  8
0
 62
     7
100
AcDbBlockBegin
  2
*D2
 70
     1
 10
0.0
 20
0.0
 30
0.0
  3
*D2
  1

  0
LINE
  5
114F
330
7FB
100
AcDbEntity
  8
PV0001_4
  6
Continuous
 62
     4
370
     9
100
AcDbLine
 10
322.97973632812
 20
455.0380249023399
 30
0.0
 11
322.97973632812
 21
492.6954345702999
 31
0.0
  0
LINE
  5
1150
330
7FB
100
AcDbEntity
  8
PV0001_4
  6
Continuous
 62
     4
370
     9
100
AcDbLine
 10
299.97973632812
 20
483.5514221191299
 30
0.0
 11
310.97973632812
 21
483.5514221191299
 31
0.0
  0
INSERT
  5
1151
330
7FB
100
AcDbEntity
  8
PV0001_4
  6
Continuous
 62
     4
370
     9
100
AcDbBlockReference
  2
_Open30
 10
287.97973632812
 20
483.5514221191299
 30
0.0
 41
12.0
 42
12.0
 43
12.0
 50
180.0
  0
INSERT
  5
1152
330
7FB
100
AcDbEntity
  8
PV0001_4
  6
Continuous
 62
     4
370
     9
100
AcDbBlockReference
  2
_Open30
 10
322.97973632812
 20
483.5514221191299
 30
0.0
 41
12.0
 42
12.0
 43
12.0
  0
MTEXT
  5
1153
330
7FB
100
AcDbEntity
  8
PV0001_4
  6
Continuous
 62
     4
100
AcDbMText
 10
305.47973632812
 20
493.55142211913
 30
0.0
 40
12.0
 41
0.0
 71
     5
 72
     1
  1
\A1;35
  7
STD
 73
     1
 44
1.0
1001
ACAD
1000
MTEXTBEGIN
1070
    73
1070
     1
1070
    44
1040
1.0
1070
    74
1070
     0
1000
MTEXTEND
  0
POINT
  5
1154
330
7FB
100
AcDbEntity
  8
Defpoints
  6
Continuous
 62
     0
100
AcDbPoint
 10
287.97973632812
 20
551.0380249023399
 30
0.0
  0
POINT
  5
1155
330
7FB
100
AcDbEntity
  8
Defpoints
  6
Continuous
 62
     0
100
AcDbPoint
 10
322.97973632812
 20
451.0380249023399
 30
0.0
  0
POINT
  5
1156
330
7FB
100
AcDbEntity
  8
Defpoints
  6
Continuous
 62
     0
100
AcDbPoint
 10
322.97973632812
 20
483.5514221191299
 30
0.0
  0
ENDBLK
  5
7FD
330
7FB
100
AcDbEntity
  8
0
 62
     7
100
AcDbBlockEnd
  0
BLOCK
  5
847
330
846
100
AcDbEntity
  8
0
 62
     7
100
AcDbBlockBegin
  2
*D3
 70
     1
 10
0.0
 20
0.0
 30
0.0
  3
*D3
  1

  0
LINE
  5
1157
330
846
100
AcDbEntity
  8
PV0001_4
  6
Continuous
 62
     4
370
     9
100
AcDbLine
 10
287.97973632812
 20
192.03802490234
 30
0.0
 11
287.97973632812
 21
89.32204725342
 31
0.0
  0
LINE
  5
1158
330
846
100
AcDbEntity
  8
PV0001_4
  6
Continuous
 62
     4
370
     9
100
AcDbLine
 10
597.97973632812
 20
192.03802490234
 30
0.0
 11
597.97973632812
 21
89.32204725342
 31
0.0
  0
LINE
  5
1159
330
846
100
AcDbEntity
  8
PV0001_4
  6
Continuous
 62
     4
370
     9
100
AcDbLine
 10
299.97973632812
 20
98.46604725342
 30
0.0
 11
585.97973632812
 21
98.46604725342
 31
0.0
  0
INSERT
  5
115A
330
846
100
AcDbEntity
  8
PV0001_4
  6
Continuous
 62
     4
370
     9
100
AcDbBlockReference
  2
_Open30
 10
287.97973632812
 20
98.46604725342
 30
0.0
 41
12.0
 42
12.0
 43
12.0
 50
180.0
  0
INSERT
  5
115B
330
846
100
AcDbEntity
  8
PV0001_4
  6
Continuous
 62
     4
370
     9
100
AcDbBlockReference
  2
_Open30
 10
597.97973632812
 20
98.46604725342
 30
0.0
 41
12.0
 42
12.0
 43
12.0
  0
MTEXT
  5
115C
102
{ACAD_XDICTIONARY
360
127F
102
}
330
846
100
AcDbEntity
  8
PV0001_4
  6
Continuous
 62
     4
100
AcDbMText
 10
442.97973632812
 20
108.46604725342
 30
0.0
 40
12.0
 41
0.0
 71
     5
 72
     1
  1
\A1;OD\U+2205310
  7
STD
 73
     1
 44
1.0
1001
ACAD
1000
MTEXTBEGIN
1070
    73
1070
     1
1070
    44
1040
1.0
1070
    74
1070
     0
1000
MTEXTEND
  0
POINT
  5
115D
330
846
100
AcDbEntity
  8
Defpoints
  6
Continuous
 62
     0
100
AcDbPoint
 10
287.97973632812
 20
196.03802490234
 30
0.0
  0
POINT
  5
115E
330
846
100
AcDbEntity
  8
Defpoints
  6
Continuous
 62
     0
100
AcDbPoint
 10
597.97973632812
 20
196.03802490234
 30
0.0
  0
POINT
  5
115F
330
846
100
AcDbEntity
  8
Defpoints
  6
Continuous
 62
     0
100
AcDbPoint
 10
597.97973632812
 20
98.46604725342
 30
0.0
  0
ENDBLK
  5
848
330
846
100
AcDbEntity
  8
0
 62
     7
100
AcDbBlockEnd
  0
BLOCK
  5
88A
330
889
100
AcDbEntity
  8
0
 62
     7
100
AcDbBlockBegin
  2
*D4
 70
     1
 10
0.0
 20
0.0
 30
0.0
  3
*D4
  1

  0
LINE
  5
1160
330
889
100
AcDbEntity
  8
PV0001_4
  6
Continuous
 62
     4
370
     9
100
AcDbLine
 10
382.765602111812
 20
231.03802490234
 30
0.0
 11
365.2016525268511
 21
231.03802490234
 31
0.0
  0
LINE
  5
1161
330
889
100
AcDbEntity
  8
PV0001_4
  6
Continuous
 62
     4
370
     9
100
AcDbLine
 10
374.345657348628
 20
198.0380249023399
 30
0.0
 11
374.345657348628
 21
219.03802490234
 31
0.0
  0
INSERT
  5
1162
330
889
100
AcDbEntity
  8
PV0001_4
  6
Continuous
 62
     4
370
     9
100
AcDbBlockReference
  2
_Open30
 10
374.345657348628
 20
186.03802490234
 30
0.0
 41
12.0
 42
12.0
 43
12.0
 50
270.0
  0
INSERT
  5
1163
330
889
100
AcDbEntity
  8
PV0001_4
  6
Continuous
 62
     4
370
     9
100
AcDbBlockReference
  2
_Open30
 10
374.345657348628
 20
231.03802490234
 30
0.0
 41
12.0
 42
12.0
 43
12.0
 50
90.0
  0
MTEXT
  5
1164
330
889
100
AcDbEntity
  8
PV0001_4
  6
Continuous
 62
     4
100
AcDbMText
 10
364.345657348628
 20
208.53802490234
 30
0.0
 40
12.0
 41
0.0
 71
     5
 72
     1
  1
\A1;45
  7
STD
 11
0.0000000000000001
 21
1.0
 31
0.0
 73
     1
 44
1.0
1001
ACAD
1000
MTEXTBEGIN
1070
    73
1070
     1
1070
    44
1040
1.0
1070
    74
1070
     0
1000
MTEXTEND
  0
POINT
  5
1165
330
889
100
AcDbEntity
  8
Defpoints
  6
Continuous
 62
     0
100
AcDbPoint
 10
297.97973632812
 20
186.03802490234
 30
0.0
  0
POINT
  5
1166
330
889
100
AcDbEntity
  8
Defpoints
  6
Continuous
 62
     0
100
AcDbPoint
 10
386.765602111812
 20
231.03802490234
 30
0.0
  0
POINT
  5
1167
330
889
100
AcDbEntity
  8
Defpoints
  6
Continuous
 62
     0
100
AcDbPoint
 10
374.345657348628
 20
231.03802490234
 30
0.0
  0
ENDBLK
  5
88B
330
889
100
AcDbEntity
  8
0
 62
     7
100
AcDbBlockEnd
  0
BLOCK
  5
8D5
330
8D4
100
AcDbEntity
  8
0
 62
     7
100
AcDbBlockBegin
  2
*D5
 70
     1
 10
0.0
 20
0.0
 30
0.0
  3
*D5
  1

  0
LINE
  5
1168
330
8D4
100
AcDbEntity
  8
PV0001_4
  6
Continuous
 62
     4
370
     9
100
AcDbLine
 10
591.9797363281199
 20
186.03802490234
 30
0.0
 11
682.87949336717
 21
186.03802490234
 31
0.0
  0
LINE
  5
1169
330
8D4
100
AcDbEntity
  8
PV0001_4
  6
Continuous
 62
     4
370
     9
100
AcDbLine
 10
601.97973632812
 20
401.0380249023399
 30
0.0
 11
682.8794933671701
 21
401.0380249023399
 31
0.0
  0
LINE
  5
116A
330
8D4
100
AcDbEntity
  8
PV0001_4
  6
Continuous
 62
     4
370
     9
100
AcDbLine
 10
673.7354933671699
 20
198.03802490234
 30
0.0
 11
673.73549336717
 21
389.0380249023399
 31
0.0
  0
INSERT
  5
116B
330
8D4
100
AcDbEntity
  8
PV0001_4
  6
Continuous
 62
     4
370
     9
100
AcDbBlockReference
  2
_Open30
 10
673.7354933671699
 20
186.03802490234
 30
0.0
 41
12.0
 42
12.0
 43
12.0
 50
270.0
  0
INSERT
  5
116C
330
8D4
100
AcDbEntity
  8
PV0001_4
  6
Continuous
 62
     4
370
     9
100
AcDbBlockReference
  2
_Open30
 10
673.73549336717
 20
401.0380249023399
 30
0.0
 41
12.0
 42
12.0
 43
12.0
 50
90.0
  0
MTEXT
  5
116D
330
8D4
100
AcDbEntity
  8
PV0001_4
  6
Continuous
 62
     4
100
AcDbMText
 10
663.73549336717
 20
293.53802490234
 30
0.0
 40
12.0
 41
0.0
 71
     5
 72
     1
  1
\A1;215
  7
STD
 11
0.0000000000000001
 21
1.0
 31
0.0
 73
     1
 44
1.0
1001
ACAD
1000
MTEXTBEGIN
1070
    73
1070
     1
1070
    44
1040
1.0
1070
    74
1070
     0
1000
MTEXTEND
  0
POINT
  5
116E
330
8D4
100
AcDbEntity
  8
Defpoints
  6
Continuous
 62
     0
100
AcDbPoint
 10
587.9797363281199
 20
186.03802490234
 30
0.0
  0
POINT
  5
116F
330
8D4
100
AcDbEntity
  8
Defpoints
  6
Continuous
 62
     0
100
AcDbPoint
 10
597.97973632812
 20
401.0380249023399
 30
0.0
  0
POINT
  5
1170
330
8D4
100
AcDbEntity
  8
Defpoints
  6
Continuous
 62
     0
100
AcDbPoint
 10
673.73549336717
 20
401.0380249023399
 30
0.0
  0
ENDBLK
  5
8D6
330
8D4
100
AcDbEntity
  8
0
 62
     7
100
AcDbBlockEnd
  0
BLOCK
  5
918
330
917
100
AcDbEntity
  8
0
 62
     7
100
AcDbBlockBegin
  2
*D6
 70
     1
 10
0.0
 20
0.0
 30
0.0
  3
*D6
  1

  0
LINE
  5
1171
330
917
100
AcDbEntity
  8
PV0001_4
  6
Continuous
 62
     4
370
     9
100
AcDbLine
 10
601.97973632812
 20
451.0380249023399
 30
0.0
 11
682.8794933671701
 21
451.0380249023399
 31
0.0
  0
LINE
  5
1172
330
917
100
AcDbEntity
  8
PV0001_4
  6
Continuous
 62
     4
370
     9
100
AcDbLine
 10
673.73549336717
 20
413.0380249023399
 30
0.0
 11
673.73549336717
 21
439.0380249023399
 31
0.0
  0
INSERT
  5
1173
330
917
100
AcDbEntity
  8
PV0001_4
  6
Continuous
 62
     4
370
     9
100
AcDbBlockReference
  2
_Open30
 10
673.73549336717
 20
401.0380249023399
 30
0.0
 41
12.0
 42
12.0
 43
12.0
 50
270.0
  0
INSERT
  5
1174
330
917
100
AcDbEntity
  8
PV0001_4
  6
Continuous
 62
     4
370
     9
100
AcDbBlockReference
  2
_Open30
 10
673.73549336717
 20
451.0380249023399
 30
0.0
 41
12.0
 42
12.0
 43
12.0
 50
90.0
  0
MTEXT
  5
1175
330
917
100
AcDbEntity
  8
PV0001_4
  6
Continuous
 62
     4
100
AcDbMText
 10
663.73549336717
 20
426.0380249023399
 30
0.0
 40
12.0
 41
0.0
 71
     5
 72
     1
  1
\A1;50
  7
STD
 11
0.0000000000000001
 21
1.0
 31
0.0
 73
     1
 44
1.0
1001
ACAD
1000
MTEXTBEGIN
1070
    73
1070
     1
1070
    44
1040
1.0
1070
    74
1070
     0
1000
MTEXTEND
  0
POINT
  5
1176
330
917
100
AcDbEntity
  8
Defpoints
  6
Continuous
 62
     0
100
AcDbPoint
 10
597.97973632812
 20
401.0380249023399
 30
0.0
  0
POINT
  5
1177
330
917
100
AcDbEntity
  8
Defpoints
  6
Continuous
 62
     0
100
AcDbPoint
 10
597.97973632812
 20
451.0380249023399
 30
0.0
  0
POINT
  5
1178
330
917
100
AcDbEntity
  8
Defpoints
  6
Continuous
 62
     0
100
AcDbPoint
 10
673.73549336717
 20
451.0380249023399
 30
0.0
  0
ENDBLK
  5
919
330
917
100
AcDbEntity
  8
0
 62
     7
100
AcDbBlockEnd
  0
BLOCK
  5
963
330
962
100
AcDbEntity
  8
0
 62
     7
100
AcDbBlockBegin
  2
*D7
 70
     1
 10
0.0
 20
0.0
 30
0.0
  3
*D7
  1

  0
LINE
  5
1179
330
962
100
AcDbEntity
  8
PV0001_4
  6
Continuous
 62
     4
370
     9
100
AcDbLine
 10
591.9797363281199
 20
561.03802490234
 30
0.0
 11
682.8794933671701
 21
561.03802490234
 31
0.0
  0
LINE
  5
117A
330
962
100
AcDbEntity
  8
PV0001_4
  6
Continuous
 62
     4
370
     9
100
AcDbLine
 10
673.73549336717
 20
463.0380249023399
 30
0.0
 11
673.73549336717
 21
549.03802490234
 31
0.0
  0
INSERT
  5
117B
330
962
100
AcDbEntity
  8
PV0001_4
  6
Continuous
 62
     4
370
     9
100
AcDbBlockReference
  2
_Open30
 10
673.73549336717
 20
451.0380249023399
 30
0.0
 41
12.0
 42
12.0
 43
12.0
 50
270.0
  0
INSERT
  5
117C
330
962
100
AcDbEntity
  8
PV0001_4
  6
Continuous
 62
     4
370
     9
100
AcDbBlockReference
  2
_Open30
 10
673.73549336717
 20
561.03802490234
 30
0.0
 41
12.0
 42
12.0
 43
12.0
 50
90.0
  0
MTEXT
  5
117D
330
962
100
AcDbEntity
  8
PV0001_4
  6
Continuous
 62
     4
100
AcDbMText
 10
663.73549336717
 20
506.03802490234
 30
0.0
 40
12.0
 41
0.0
 71
     5
 72
     1
  1
\A1;110
  7
STD
 11
0.0000000000000001
 21
1.0
 31
0.0
 73
     1
 44
1.0
1001
ACAD
1000
MTEXTBEGIN
1070
    73
1070
     1
1070
    44
1040
1.0
1070
    74
1070
     0
1000
MTEXTEND
  0
POINT
  5
117E
330
962
100
AcDbEntity
  8
Defpoints
  6
Continuous
 62
     0
100
AcDbPoint
 10
597.97973632812
 20
451.0380249023399
 30
0.0
  0
POINT
  5
117F
330
962
100
AcDbEntity
  8
Defpoints
  6
Continuous
 62
     0
100
AcDbPoint
 10
587.9797363281199
 20
561.03802490234
 30
0.0
  0
POINT
  5
1180
330
962
100
AcDbEntity
  8
Defpoints
  6
Continuous
 62
     0
100
AcDbPoint
 10
673.73549336717
 20
561.03802490234
 30
0.0
  0
ENDBLK
  5
964
330
962
100
AcDbEntity
  8
0
 62
     7
100
AcDbBlockEnd
  0
BLOCK
  5
9AE
330
9AD
100
AcDbEntity
  8
0
 62
     7
100
AcDbBlockBegin
  2
*D8
 70
     1
 10
0.0
 20
0.0
 30
0.0
  3
*D8
  1

  0
LINE
  5
1181
330
9AD
100
AcDbEntity
  8
PV0001_4
  6
Continuous
 62
     4
370
     9
100
AcDbLine
 10
397.97973632812
 20
182.03802490234
 30
0.0
 11
397.97973632812
 21
127.520450592038
 31
0.0
  0
LINE
  5
1182
330
9AD
100
AcDbEntity
  8
PV0001_4
  6
Continuous
 62
     4
370
     9
100
AcDbLine
 10
487.9797363281199
 20
182.03802490234
 30
0.0
 11
487.9797363281199
 21
127.520450592038
 31
0.0
  0
LINE
  5
1183
330
9AD
100
AcDbEntity
  8
PV0001_4
  6
Continuous
 62
     4
370
     9
100
AcDbLine
 10
409.97973632812
 20
136.664451599118
 30
0.0
 11
475.97973632812
 21
136.664451599118
 31
0.0
  0
INSERT
  5
1184
330
9AD
100
AcDbEntity
  8
PV0001_4
  6
Continuous
 62
     4
370
     9
100
AcDbBlockReference
  2
_Open30
 10
397.97973632812
 20
136.664451599118
 30
0.0
 41
12.0
 42
12.0
 43
12.0
 50
180.0
  0
INSERT
  5
1185
330
9AD
100
AcDbEntity
  8
PV0001_4
  6
Continuous
 62
     4
370
     9
100
AcDbBlockReference
  2
_Open30
 10
487.9797363281199
 20
136.664451599118
 30
0.0
 41
12.0
 42
12.0
 43
12.0
  0
MTEXT
  5
1186
330
9AD
100
AcDbEntity
  8
PV0001_4
  6
Continuous
 62
     4
100
AcDbMText
 10
442.97973632812
 20
146.664451599118
 30
0.0
 40
12.0
 41
0.0
 71
     5
 72
     1
  1
\A1;90
  7
STD
 73
     1
 44
1.0
1001
ACAD
1000
MTEXTBEGIN
1070
    73
1070
     1
1070
    44
1040
1.0
1070
    74
1070
     0
1000
MTEXTEND
  0
POINT
  5
1187
330
9AD
100
AcDbEntity
  8
Defpoints
  6
Continuous
 62
     0
100
AcDbPoint
 10
397.97973632812
 20
186.03802490234
 30
0.0
  0
POINT
  5
1188
330
9AD
100
AcDbEntity
  8
Defpoints
  6
Continuous
 62
     0
100
AcDbPoint
 10
487.9797363281199
 20
186.03802490234
 30
0.0
  0
POINT
  5
1189
330
9AD
100
AcDbEntity
  8
Defpoints
  6
Continuous
 62
     0
100
AcDbPoint
 10
487.9797363281199
 20
136.664451599118
 30
0.0
  0
ENDBLK
  5
9AF
330
9AD
100
AcDbEntity
  8
0
 62
     7
100
AcDbBlockEnd
  0
BLOCK
  5
9F1
330
9F0
100
AcDbEntity
  8
0
 62
     7
100
AcDbBlockBegin
  2
*D9
 70
     1
 10
0.0
 20
0.0
 30
0.0
  3
*D9
  1

  0
LINE
  5
118A
330
9F0
100
AcDbEntity
  8
PV0001_4
  6
Continuous
 62
     4
370
     9
100
AcDbLine
 10
293.97973632812
 20
186.03802490234
 30
0.0
 11
234.83531263721
 21
186.03802490234
 31
0.0
  0
LINE
  5
118B
330
9F0
100
AcDbEntity
  8
PV0001_4
  6
Continuous
 62
     4
370
     9
100
AcDbLine
 10
438.979730606074
 20
563.0380249023399
 30
0.0
 11
234.8353126372101
 21
563.0380249023401
 31
0.0
  0
LINE
  5
118C
330
9F0
100
AcDbEntity
  8
PV0001_4
  6
Continuous
 62
     4
370
     9
100
AcDbLine
 10
243.97931263721
 20
198.03802490234
 30
0.0
 11
243.9793126372101
 21
551.0380249023401
 31
0.0
  0
INSERT
  5
118D
330
9F0
100
AcDbEntity
  8
PV0001_4
  6
Continuous
 62
     4
370
     9
100
AcDbBlockReference
  2
_Open30
 10
243.97931263721
 20
186.03802490234
 30
0.0
 41
12.0
 42
12.0
 43
12.0
 50
270.0
  0
INSERT
  5
118E
330
9F0
100
AcDbEntity
  8
PV0001_4
  6
Continuous
 62
     4
370
     9
100
AcDbBlockReference
  2
_Open30
 10
243.9793126372101
 20
563.0380249023401
 30
0.0
 41
12.0
 42
12.0
 43
12.0
 50
90.0
  0
MTEXT
  5
118F
330
9F0
100
AcDbEntity
  8
PV0001_4
  6
Continuous
 62
     4
100
AcDbMText
 10
233.97931263721
 20
374.53802490234
 30
0.0
 40
12.0
 41
0.0
 71
     5
 72
     1
  1
\A1;377
  7
STD
 11
0.0000000000000001
 21
1.0
 31
0.0
 73
     1
 44
1.0
1001
ACAD
1000
MTEXTBEGIN
1070
    73
1070
     1
1070
    44
1040
1.0
1070
    74
1070
     0
1000
MTEXTEND
  0
POINT
  5
1190
330
9F0
100
AcDbEntity
  8
Defpoints
  6
Continuous
 62
     0
100
AcDbPoint
 10
297.97973632812
 20
186.03802490234
 30
0.0
  0
POINT
  5
1191
330
9F0
100
AcDbEntity
  8
Defpoints
  6
Continuous
 62
     0
100
AcDbPoint
 10
442.979730606074
 20
563.0380249023399
 30
0.0
  0
POINT
  5
1192
330
9F0
100
AcDbEntity
  8
Defpoints
  6
Continuous
 62
     0
100
AcDbPoint
 10
243.9793126372101
 20
563.0380249023401
 30
0.0
  0
ENDBLK
  5
9F2
330
9F0
100
AcDbEntity
  8
0
 62
     7
100
AcDbBlockEnd
  0
BLOCK
  5
A34
330
A33
100
AcDbEntity
  8
0
 62
     7
100
AcDbBlockBegin
  2
*D10
 70
     1
 10
0.0
 20
0.0
 30
0.0
  3
*D10
  1

  0
LINE
  5
1193
330
A33
100
AcDbEntity
  8
PV0001_4
  6
Continuous
 62
     4
370
     9
100
AcDbLine
 10
544.171974182123
 20
521.0380249023399
 30
0.0
 11
640.4808813344101
 21
521.0380249023399
 31
0.0
  0
LINE
  5
1194
330
A33
100
AcDbEntity
  8
PV0001_4
  6
Continuous
 62
     4
370
     9
100
AcDbLine
 10
631.3368813344101
 20
533.03802490234
 30
0.0
 11
631.3368813344101
 21
549.03802490234
 31
0.0
  0
INSERT
  5
1195
330
A33
100
AcDbEntity
  8
PV0001_4
  6
Continuous
 62
     4
370
     9
100
AcDbBlockReference
  2
_Open30
 10
631.3368813344101
 20
521.0380249023399
 30
0.0
 41
12.0
 42
12.0
 43
12.0
 50
270.0
  0
INSERT
  5
1196
330
A33
100
AcDbEntity
  8
PV0001_4
  6
Continuous
 62
     4
370
     9
100
AcDbBlockReference
  2
_Open30
 10
631.3368813344101
 20
561.03802490234
 30
0.0
 41
12.0
 42
12.0
 43
12.0
 50
90.0
  0
MTEXT
  5
1197
330
A33
100
AcDbEntity
  8
PV0001_4
  6
Continuous
 62
     4
100
AcDbMText
 10
621.33688133441
 20
541.03802490234
 30
0.0
 40
12.0
 41
0.0
 71
     5
 72
     1
  1
\A1;40
  7
STD
 11
0.0000000000000001
 21
1.0
 31
0.0
 73
     1
 44
1.0
1001
ACAD
1000
MTEXTBEGIN
1070
    73
1070
     1
1070
    44
1040
1.0
1070
    74
1070
     0
1000
MTEXTEND
  0
POINT
  5
1198
330
A33
100
AcDbEntity
  8
Defpoints
  6
Continuous
 62
     0
100
AcDbPoint
 10
540.171974182123
 20
521.0380249023399
 30
0.0
  0
POINT
  5
1199
330
A33
100
AcDbEntity
  8
Defpoints
  6
Continuous
 62
     0
100
AcDbPoint
 10
587.9797363281199
 20
561.03802490234
 30
0.0
  0
POINT
  5
119A
330
A33
100
AcDbEntity
  8
Defpoints
  6
Continuous
 62
     0
100
AcDbPoint
 10
631.3368813344101
 20
561.03802490234
 30
0.0
  0
ENDBLK
  5
A35
330
A33
100
AcDbEntity
  8
0
 62
     7
100
AcDbBlockEnd
  0
BLOCK
  5
C68
330
C67
100
AcDbEntity
  8
0
 62
     7
100
AcDbBlockBegin
  2
*D11
 70
     1
 10
0.0
 20
0.0
 30
0.0
  3
*D11
  1

  0
LINE
  5
119B
330
C67
100
AcDbEntity
  8
TP1791_4
  6
Continuous
 62
     4
370
     9
100
AcDbLine
 10
337.9797362846462
 20
738.7725830508842
 30
0.0
 11
337.9797362432183
 21
637.7737122012716
 31
0.0
  0
LINE
  5
119C
330
C67
100
AcDbEntity
  8
TP1791_4
  6
Continuous
 62
     4
370
     9
100
AcDbLine
 10
547.9797362846461
 20
738.7725829647408
 30
0.0
 11
547.9797362432183
 21
637.7737121151333
 31
0.0
  0
LINE
  5
119D
330
C67
100
AcDbEntity
  8
TP1791_4
  6
Continuous
 62
     4
370
     9
100
AcDbLine
 10
349.979736246969
 20
646.9176941299494
 30
0.0
 11
535.979736246969
 21
646.9176940536555
 31
0.0
  0
INSERT
  5
119E
330
C67
100
AcDbEntity
  8
TP1791_4
  6
Continuous
 62
     4
370
     9
100
AcDbBlockReference
  2
_Open30
 10
337.979736246969
 20
646.9176941348715
 30
0.0
 41
12.0
 42
12.0
 43
12.0
 50
179.9999999764983
  0
INSERT
  5
119F
330
C67
100
AcDbEntity
  8
TP1791_4
  6
Continuous
 62
     4
370
     9
100
AcDbBlockReference
  2
_Open30
 10
547.9797362469689
 20
646.9176940487333
 30
0.0
 41
12.0
 42
12.0
 43
12.0
 50
359.9999999764983
  0
MTEXT
  5
11A0
330
C67
100
AcDbEntity
  8
TP1791_4
  6
Continuous
 62
     4
100
AcDbMText
 10
442.9797362510684
 20
656.9176940918024
 30
0.0
 40
12.0
 41
0.0
 71
     5
 72
     1
  1
\A1;210
  7
STD
 73
     1
 44
1.0
1001
ACAD
1000
MTEXTBEGIN
1070
    73
1070
     1
1070
    44
1040
1.0
1070
    74
1070
     0
1000
MTEXTEND
  0
POINT
  5
11A1
330
C67
100
AcDbEntity
  8
Defpoints
  6
Continuous
 62
     0
100
AcDbPoint
 10
337.9797362862869
 20
742.7725830508842
 30
0.0
  0
POINT
  5
11A2
330
C67
100
AcDbEntity
  8
Defpoints
  6
Continuous
 62
     0
100
AcDbPoint
 10
547.9797362862869
 20
742.7725829647407
 30
0.0
  0
POINT
  5
11A3
330
C67
100
AcDbEntity
  8
Defpoints
  6
Continuous
 62
     0
100
AcDbPoint
 10
547.9797362469689
 20
646.9176940487333
 30
0.0
  0
ENDBLK
  5
C69
330
C67
100
AcDbEntity
  8
0
 62
     7
100
AcDbBlockEnd
  0
BLOCK
  5
CAB
330
CAA
100
AcDbEntity
  8
0
 62
     7
100
AcDbBlockBegin
  2
*D12
 70
     1
 10
0.0
 20
0.0
 30
0.0
  3
*D12
  1

  0
LINE
  5
11A4
330
CAA
100
AcDbEntity
  8
TP1791_4
  6
Continuous
 62
     4
370
     9
100
AcDbLine
 10
327.9797362895607
 20
750.7529907698263
 30
0.0
 11
327.9797362306504
 21
607.1332092756834
 31
0.0
  0
LINE
  5
11A5
330
CAA
100
AcDbEntity
  8
TP1791_4
  6
Continuous
 62
     4
370
     9
100
AcDbLine
 10
557.9797362895606
 20
750.7529906754787
 30
0.0
 11
557.9797362306504
 21
607.1332091813415
 31
0.0
  0
LINE
  5
11A6
330
CAA
100
AcDbEntity
  8
TP1791_4
  6
Continuous
 62
     4
370
     9
100
AcDbLine
 10
339.9797362344011
 20
616.2771912043612
 30
0.0
 11
545.9797362344009
 21
616.2771911198636
 31
0.0
  0
INSERT
  5
11A7
330
CAA
100
AcDbEntity
  8
TP1791_4
  6
Continuous
 62
     4
370
     9
100
AcDbBlockReference
  2
_Open30
 10
327.9797362344011
 20
616.2771912092834
 30
0.0
 41
12.0
 42
12.0
 43
12.0
 50
179.9999999764983
  0
INSERT
  5
11A8
330
CAA
100
AcDbEntity
  8
TP1791_4
  6
Continuous
 62
     4
370
     9
100
AcDbBlockReference
  2
_Open30
 10
557.979736234401
 20
616.2771911149414
 30
0.0
 41
12.0
 42
12.0
 43
12.0
 50
359.9999999764983
  0
MTEXT
  5
11A9
330
CAA
100
AcDbEntity
  8
TP1791_4
  6
Continuous
 62
     4
100
AcDbMText
 10
442.9797362384994
 20
626.2771911621124
 30
0.0
 40
12.0
 41
0.0
 71
     5
 72
     1
  1
\A1;230
  7
STD
 73
     1
 44
1.0
1001
ACAD
1000
MTEXTBEGIN
1070
    73
1070
     1
1070
    44
1040
1.0
1070
    74
1070
     0
1000
MTEXTEND
  0
POINT
  5
11AA
330
CAA
100
AcDbEntity
  8
Defpoints
  6
Continuous
 62
     0
100
AcDbPoint
 10
327.9797362912014
 20
754.7529907698263
 30
0.0
  0
POINT
  5
11AB
330
CAA
100
AcDbEntity
  8
Defpoints
  6
Continuous
 62
     0
100
AcDbPoint
 10
557.9797362912013
 20
754.7529906754787
 30
0.0
  0
POINT
  5
11AC
330
CAA
100
AcDbEntity
  8
Defpoints
  6
Continuous
 62
     0
100
AcDbPoint
 10
557.979736234401
 20
616.2771911149414
 30
0.0
  0
ENDBLK
  5
CAC
330
CAA
100
AcDbEntity
  8
0
 62
     7
100
AcDbBlockEnd
  0
BLOCK
  5
CEE
330
CED
100
AcDbEntity
  8
0
 62
     7
100
AcDbBlockBegin
  2
*D13
 70
     1
 10
0.0
 20
0.0
 30
0.0
  3
*D13
  1

  0
LINE
  5
11AD
330
CED
100
AcDbEntity
  8
TP1791_4
  6
Continuous
 62
     4
370
     9
100
AcDbLine
 10
566.9797363117116
 20
804.7529906734277
 30
0.0
 11
666.3968963622901
 21
804.7529906734277
 31
0.0
  0
LINE
  5
11AE
330
CED
100
AcDbEntity
  8
TP1791_4
  6
Continuous
 62
     4
370
     9
100
AcDbLine
 10
566.9797363445282
 20
884.7529906734276
 30
0.0
 11
666.3968963622901
 21
884.7529906734276
 31
0.0
  0
LINE
  5
11AF
330
CED
100
AcDbEntity
  8
TP1791_4
  6
Continuous
 62
     4
370
     9
100
AcDbLine
 10
657.2528839111202
 20
816.7529906734277
 30
0.0
 11
657.2528839111202
 21
872.7529906734277
 31
0.0
  0
INSERT
  5
11B0
330
CED
100
AcDbEntity
  8
TP1791_4
  6
Continuous
 62
     4
370
     9
100
AcDbBlockReference
  2
_Open30
 10
657.2528839111202
 20
804.7529906734277
 30
0.0
 41
12.0
 42
12.0
 43
12.0
 50
270.0
  0
INSERT
  5
11B1
330
CED
100
AcDbEntity
  8
TP1791_4
  6
Continuous
 62
     4
370
     9
100
AcDbBlockReference
  2
_Open30
 10
657.2528839111202
 20
884.7529906734276
 30
0.0
 41
12.0
 42
12.0
 43
12.0
 50
90.0
  0
MTEXT
  5
11B2
330
CED
100
AcDbEntity
  8
TP1791_4
  6
Continuous
 62
     4
100
AcDbMText
 10
647.2528839111199
 20
844.7529906347561
 30
0.0
 40
12.0
 41
0.0
 71
     5
 72
     1
  1
\A1;80
  7
STD
 11
0.0000000000000001
 21
1.0
 31
0.0
 73
     1
 44
1.0
1001
ACAD
1000
MTEXTBEGIN
1070
    73
1070
     1
1070
    44
1040
1.0
1070
    74
1070
     0
1000
MTEXTEND
  0
POINT
  5
11B3
330
CED
100
AcDbEntity
  8
Defpoints
  6
Continuous
 62
     0
100
AcDbPoint
 10
562.9797363117116
 20
804.7529906734277
 30
0.0
  0
POINT
  5
11B4
330
CED
100
AcDbEntity
  8
Defpoints
  6
Continuous
 62
     0
100
AcDbPoint
 10
562.9797363445283
 20
884.7529906734276
 30
0.0
  0
POINT
  5
11B5
330
CED
100
AcDbEntity
  8
Defpoints
  6
Continuous
 62
     0
100
AcDbPoint
 10
657.2528839111202
 20
884.7529906734276
 30
0.0
  0
ENDBLK
  5
CEF
330
CED
100
AcDbEntity
  8
0
 62
     7
100
AcDbBlockEnd
  0
BLOCK
  5
D31
330
D30
100
AcDbEntity
  8
0
 62
     7
100
AcDbBlockBegin
  2
*D14
 70
     1
 10
0.0
 20
0.0
 30
0.0
  3
*D14
  1

  0
LINE
  5
11B6
330
D30
100
AcDbEntity
  8
TP1791_4
  6
Continuous
 62
     4
370
     9
100
AcDbLine
 10
595.3036956971593
 20
889.7529906618089
 30
0.0
 11
701.3959960937402
 21
889.7529906618089
 31
0.0
  0
LINE
  5
11B7
330
D30
100
AcDbEntity
  8
TP1791_4
  6
Continuous
 62
     4
370
     9
100
AcDbLine
 10
595.3037109190306
 20
799.752990661809
 30
0.0
 11
701.3959960937402
 21
799.752990661809
 31
0.0
  0
LINE
  5
11B8
330
D30
100
AcDbEntity
  8
TP1791_4
  6
Continuous
 62
     4
370
     9
100
AcDbLine
 10
692.2520141601502
 20
877.752990661809
 30
0.0
 11
692.2520141601502
 21
811.752990661809
 31
0.0
  0
INSERT
  5
11B9
330
D30
100
AcDbEntity
  8
TP1791_4
  6
Continuous
 62
     4
370
     9
100
AcDbBlockReference
  2
_Open30
 10
692.2520141601502
 20
889.7529906618089
 30
0.0
 41
12.0
 42
12.0
 43
12.0
 50
90.0
  0
INSERT
  5
11BA
330
D30
100
AcDbEntity
  8
TP1791_4
  6
Continuous
 62
     4
370
     9
100
AcDbBlockReference
  2
_Open30
 10
692.2520141601502
 20
799.752990661809
 30
0.0
 41
12.0
 42
12.0
 43
12.0
 50
270.0
  0
MTEXT
  5
11BB
330
D30
100
AcDbEntity
  8
TP1791_4
  6
Continuous
 62
     4
100
AcDbMText
 10
682.25201416015
 20
844.7529906203993
 30
0.0
 40
12.0
 41
0.0
 71
     5
 72
     1
  1
\A1;90
  7
STD
 11
0.0000000000000001
 21
1.0
 31
0.0
 73
     1
 44
1.0
1001
ACAD
1000
MTEXTBEGIN
1070
    73
1070
     1
1070
    44
1040
1.0
1070
    74
1070
     0
1000
MTEXTEND
  0
POINT
  5
11BC
330
D30
100
AcDbEntity
  8
Defpoints
  6
Continuous
 62
     0
100
AcDbPoint
 10
591.3036956971593
 20
889.7529906618089
 30
0.0
  0
POINT
  5
11BD
330
D30
100
AcDbEntity
  8
Defpoints
  6
Continuous
 62
     0
100
AcDbPoint
 10
591.3037109190306
 20
799.752990661809
 30
0.0
  0
POINT
  5
11BE
330
D30
100
AcDbEntity
  8
Defpoints
  6
Continuous
 62
     0
100
AcDbPoint
 10
692.2520141601502
 20
799.752990661809
 30
0.0
  0
ENDBLK
  5
D32
330
D30
100
AcDbEntity
  8
0
 62
     7
100
AcDbBlockEnd
  0
BLOCK
  5
D74
330
D73
100
AcDbEntity
  8
0
 62
     7
100
AcDbBlockBegin
  2
*D15
 70
     1
 10
0.0
 20
0.0
 30
0.0
  3
*D15
  1

  0
ARC
  5
11BF
330
D73
100
AcDbEntity
  8
TP1791_4
  6
Continuous
 62
     4
370
     9
100
AcDbCircle
 10
442.97973632812
 20
844.7529907226526
 30
0.0
 40
182.6999236713682
100
AcDbArc
 50
318.7639466720936
 51
356.2360520286617
  0
INSERT
  5
11C0
330
D73
100
AcDbEntity
  8
TP1791_4
  6
Continuous
 62
     4
370
     9
100
AcDbBlockReference
  2
_Open30
 10
572.168088401915
 20
715.5646328958695
 30
0.0
 41
12.0
 42
12.0
 43
12.0
 50
226.881972698176
  0
INSERT
  5
11C1
330
D73
100
AcDbEntity
  8
TP1791_4
  6
Continuous
 62
     4
370
     9
100
AcDbBlockReference
  2
_Open30
 10
625.6796599994881
 20
844.7529906477075
 30
0.0
 41
12.0
 42
12.0
 43
12.0
 50
88.11802600257927
  0
MTEXT
  5
11C2
330
D73
100
AcDbEntity
  8
TP1791_4
  6
Continuous
 62
     4
100
AcDbMText
 10
602.5336509132732
 20
778.6635666318804
 30
0.0
 40
12.0
 41
0.0
 71
     5
 72
     1
  1
\A1;45\U+00B0
  7
STD
 11
0.3826835744092993
 21
0.923879473674636
 31
0.0
 73
     1
 44
1.0
1001
ACAD
1000
MTEXTBEGIN
1070
    73
1070
     1
1070
    44
1040
1.0
1070
    74
1070
     0
1000
MTEXTEND
  0
POINT
  5
11C3
330
D73
100
AcDbEntity
  8
Defpoints
  6
Continuous
 62
     0
100
AcDbPoint
 10
442.97973632812
 20
844.7529907226526
 30
0.0
  0
POINT
  5
11C4
330
D73
100
AcDbEntity
  8
Defpoints
  6
Continuous
 62
     0
100
AcDbPoint
 10
572.168086268516
 20
715.5646350292685
 30
0.0
  0
POINT
  5
11C5
330
D73
100
AcDbEntity
  8
Defpoints
  6
Continuous
 62
     0
100
AcDbPoint
 10
625.67965698241
 20
844.7529906477077
 30
0.0
  0
POINT
  5
11C6
330
D73
100
AcDbEntity
  8
Defpoints
  6
Continuous
 62
     0
100
AcDbPoint
 10
619.4543106994479
 20
797.4667695796768
 30
0.0
  0
ENDBLK
  5
D75
330
D73
100
AcDbEntity
  8
0
 62
     7
100
AcDbBlockEnd
  0
BLOCK
  5
DCF
330
DCE
100
AcDbEntity
  8
0
 62
     7
100
AcDbBlockBegin
  2
*D16
 70
     1
 10
0.0
 20
0.0
 30
0.0
  3
*D16
  1

  0
LINE
  5
11C7
330
DCE
100
AcDbEntity
  8
TP1791_4
  6
Continuous
 62
     4
370
     9
100
AcDbLine
 10
263.36717224121
 20
844.7529907946899
 30
0.0
 11
237.835678090335
 21
844.7529907946901
 31
0.0
  0
LINE
  5
11C8
330
DCE
100
AcDbEntity
  8
TP1791_4
  6
Continuous
 62
     4
370
     9
100
AcDbLine
 10
319.6259536538097
 20
794.7529907716122
 30
0.0
 11
237.8356780903349
 21
794.7529907716122
 31
0.0
  0
LINE
  5
11C9
330
DCE
100
AcDbEntity
  8
TP1791_4
  6
Continuous
 62
     4
370
     9
100
AcDbLine
 10
246.979675282715
 20
832.75299079469
 30
0.0
 11
246.979675282715
 21
806.7529907716123
 31
0.0
  0
INSERT
  5
11CA
330
DCE
100
AcDbEntity
  8
TP1791_4
  6
Continuous
 62
     4
370
     9
100
AcDbBlockReference
  2
_Open30
 10
246.979675282715
 20
844.7529907946901
 30
0.0
 41
12.0
 42
12.0
 43
12.0
 50
90.0
  0
INSERT
  5
11CB
330
DCE
100
AcDbEntity
  8
TP1791_4
  6
Continuous
 62
     4
370
     9
100
AcDbBlockReference
  2
_Open30
 10
246.979675282715
 20
794.7529907716122
 30
0.0
 41
12.0
 42
12.0
 43
12.0
 50
270.0
  0
MTEXT
  5
11CC
330
DCE
100
AcDbEntity
  8
TP1791_4
  6
Continuous
 62
     4
100
AcDbMText
 10
236.9796752827148
 20
819.752990803053
 30
0.0
 40
12.0
 41
0.0
 71
     5
 72
     1
  1
\A1;50
  7
STD
 11
0.0000000000000001
 21
1.0
 31
0.0
 73
     1
 44
1.0
1001
ACAD
1000
MTEXTBEGIN
1070
    73
1070
     1
1070
    44
1040
1.0
1070
    74
1070
     0
1000
MTEXTEND
  0
POINT
  5
11CD
330
DCE
100
AcDbEntity
  8
Defpoints
  6
Continuous
 62
     0
100
AcDbPoint
 10
267.36717224121
 20
844.7529907946899
 30
0.0
  0
POINT
  5
11CE
330
DCE
100
AcDbEntity
  8
Defpoints
  6
Continuous
 62
     0
100
AcDbPoint
 10
323.6259536538097
 20
794.7529907716122
 30
0.0
  0
POINT
  5
11CF
330
DCE
100
AcDbEntity
  8
Defpoints
  6
Continuous
 62
     0
100
AcDbPoint
 10
246.979675282715
 20
794.7529907716122
 30
0.0
  0
ENDBLK
  5
DD0
330
DCE
100
AcDbEntity
  8
0
 62
     7
100
AcDbBlockEnd
  0
BLOCK
  5
F9A
330
F99
100
AcDbEntity
  8
0
 62
     7
100
AcDbBlockBegin
  2
*D17
 70
     1
 10
0.0
 20
0.0
 30
0.0
  3
*D17
  1

  0
LINE
  5
1210
330
F99
100
AcDbEntity
  8
LH0901_4
  6
Continuous
 62
     4
370
     9
100
AcDbLine
 10
795.268230491853
 20
182.0380248792658
 30
0.0
 11
795.2682305023788
 21
130.7158698804878
 31
0.0
  0
LINE
  5
1211
330
F99
100
AcDbEntity
  8
LH0901_4
  6
Continuous
 62
     4
370
     9
100
AcDbLine
 10
950.268230491852
 20
182.0380249110568
 30
0.0
 11
950.2682305023778
 21
130.7158699122769
 31
0.0
  0
LINE
  5
1212
330
F99
100
AcDbEntity
  8
LH0901_4
  6
Continuous
 62
     4
370
     9
100
AcDbLine
 10
807.2682305005034
 20
139.8598708900289
 30
0.0
 11
938.2682305005024
 21
139.8598709168958
 31
0.0
  0
INSERT
  5
1213
330
F99
100
AcDbEntity
  8
LH0901_4
  6
Continuous
 62
     4
370
     9
100
AcDbBlockReference
  2
_Open30
 10
795.2682305005034
 20
139.8598708875678
 30
0.0
 41
12.0
 42
12.0
 43
12.0
 50
180.0000000117508
  0
INSERT
  5
1214
330
F99
100
AcDbEntity
  8
LH0901_4
  6
Continuous
 62
     4
370
     9
100
AcDbBlockReference
  2
_Open30
 10
950.2682305005023
 20
139.8598709193569
 30
0.0
 41
12.0
 42
12.0
 43
12.0
 50
0.0000000117508519
  0
MTEXT
  5
1215
102
{ACAD_XDICTIONARY
360
1281
102
}
330
F99
100
AcDbEntity
  8
LH0901_4
  6
Continuous
 62
     4
100
AcDbMText
 10
872.768230498452
 20
149.8598709034624
 30
0.0
 40
12.0
 41
0.0
 71
     5
 72
     1
  1
\A1;\U+2205155
  7
STD
 73
     1
 44
1.0
1001
ACAD
1000
MTEXTBEGIN
1070
    73
1070
     1
1070
    44
1040
1.0
1070
    74
1070
     0
1000
MTEXTEND
  0
POINT
  5
1216
330
F99
100
AcDbEntity
  8
Defpoints
  6
Continuous
 62
     0
100
AcDbPoint
 10
795.2682304910326
 20
186.0380248792658
 30
0.0
  0
POINT
  5
1217
330
F99
100
AcDbEntity
  8
Defpoints
  6
Continuous
 62
     0
100
AcDbPoint
 10
950.2682304910317
 20
186.0380249110568
 30
0.0
  0
POINT
  5
1218
330
F99
100
AcDbEntity
  8
Defpoints
  6
Continuous
 62
     0
100
AcDbPoint
 10
950.2682305005023
 20
139.8598709193569
 30
0.0
  0
ENDBLK
  5
F9B
330
F99
100
AcDbEntity
  8
0
 62
     7
100
AcDbBlockEnd
  0
BLOCK
  5
FDD
330
FDC
100
AcDbEntity
  8
0
 62
     7
100
AcDbBlockBegin
  2
*D18
 70
     1
 10
0.0
 20
0.0
 30
0.0
  3
*D18
  1

  0
LINE
  5
1219
330
FDC
100
AcDbEntity
  8
LH0901_4
  6
Continuous
 62
     4
370
     9
100
AcDbLine
 10
760.268199974274
 20
182.0380248720872
 30
0.0
 11
760.2681999903411
 21
103.6966476137886
 31
0.0
  0
LINE
  5
121A
330
FDC
100
AcDbEntity
  8
LH0901_4
  6
Continuous
 62
     4
370
     9
100
AcDbLine
 10
985.268230491844
 20
182.0380249182355
 30
0.0
 11
985.2682305079111
 21
103.6966476599341
 31
0.0
  0
LINE
  5
121B
330
FDC
100
AcDbEntity
  8
LH0901_4
  6
Continuous
 62
     4
370
     9
100
AcDbLine
 10
772.2681999884657
 20
112.8406448086317
 30
0.0
 11
973.2682305060357
 21
112.840644849855
 31
0.0
  0
INSERT
  5
121C
330
FDC
100
AcDbEntity
  8
LH0901_4
  6
Continuous
 62
     4
370
     9
100
AcDbBlockReference
  2
_Open30
 10
760.2681999884658
 20
112.8406448061706
 30
0.0
 41
12.0
 42
12.0
 43
12.0
 50
180.0000000117508
  0
INSERT
  5
121D
330
FDC
100
AcDbEntity
  8
LH0901_4
  6
Continuous
 62
     4
370
     9
100
AcDbBlockReference
  2
_Open30
 10
985.2682305060358
 20
112.8406448523161
 30
0.0
 41
12.0
 42
12.0
 43
12.0
 50
0.0000000117508519
  0
MTEXT
  5
121E
102
{ACAD_XDICTIONARY
360
1283
102
}
330
FDC
100
AcDbEntity
  8
LH0901_4
  6
Continuous
 62
     4
100
AcDbMText
 10
872.7682305039939
 20
122.8406448292434
 30
0.0
 40
12.0
 41
0.0
 71
     5
 72
     1
  1
\A1;\U+2205225
  7
STD
 73
     1
 44
1.0
1001
ACAD
1000
MTEXTBEGIN
1070
    73
1070
     1
1070
    44
1040
1.0
1070
    74
1070
     0
1000
MTEXTEND
  0
POINT
  5
121F
330
FDC
100
AcDbEntity
  8
Defpoints
  6
Continuous
 62
     0
100
AcDbPoint
 10
760.2681999734536
 20
186.0380248720872
 30
0.0
  0
POINT
  5
1220
330
FDC
100
AcDbEntity
  8
Defpoints
  6
Continuous
 62
     0
100
AcDbPoint
 10
985.2682304910237
 20
186.0380249182355
 30
0.0
  0
POINT
  5
1221
330
FDC
100
AcDbEntity
  8
Defpoints
  6
Continuous
 62
     0
100
AcDbPoint
 10
985.2682305060358
 20
112.8406448523161
 30
0.0
  0
ENDBLK
  5
FDE
330
FDC
100
AcDbEntity
  8
0
 62
     7
100
AcDbBlockEnd
  0
BLOCK
  5
1204
330
1203
100
AcDbEntity
  8
0
 62
     7
100
AcDbBlockBegin
  2
*D19
 70
     1
 10
0.0
 20
0.0
 30
0.0
  3
*D19
  1

  0
LINE
  5
1222
330
1203
100
AcDbEntity
  8
画層1
  6
DIMENSION
 62
     4
370
     9
100
AcDbLine
 10
1021.768229976996
 20
561.0380249249013
 30
0.0
 11
1065.056178251918
 21
561.0380249249013
 31
0.0
  0
LINE
  5
1223
330
1203
100
AcDbEntity
  8
画層1
  6
DIMENSION
 62
     4
370
     9
100
AcDbLine
 10
1021.768230053909
 20
186.0380249249013
 30
0.0
 11
1065.056178251917
 21
186.0380249249013
 31
0.0
  0
LINE
  5
1224
330
1203
100
AcDbEntity
  8
画層1
  6
DIMENSION
 62
     4
370
     9
100
AcDbLine
 10
1061.056178251918
 20
549.0380249249013
 30
0.0
 11
1061.056178251917
 21
198.0380249249014
 31
0.0
  0
INSERT
  5
1225
330
1203
100
AcDbEntity
  8
画層1
  6
DIMENSION
 62
     4
370
     9
100
AcDbBlockReference
  2
_Open30
 10
1061.056178251918
 20
561.0380249249013
 30
0.0
 41
12.0
 42
12.0
 43
12.0
 50
90.0
  0
INSERT
  5
1226
330
1203
100
AcDbEntity
  8
画層1
  6
DIMENSION
 62
     4
370
     9
100
AcDbBlockReference
  2
_Open30
 10
1061.056178251917
 20
186.0380249249013
 30
0.0
 41
12.0
 42
12.0
 43
12.0
 50
270.0
  0
MTEXT
  5
1227
330
1203
100
AcDbEntity
  8
画層1
  6
DIMENSION
 62
     4
100
AcDbMText
 10
1051.056178251917
 20
373.5380249249015
 30
0.0
 40
12.0
 41
0.0
 71
     5
 72
     1
  1
\A1;375
  7
STD
 11
0.0000000000000001
 21
1.0
 31
0.0
 73
     1
 44
1.0
1001
ACAD
1000
MTEXTBEGIN
1070
    73
1070
     1
1070
    44
1040
1.0
1070
    74
1070
     0
1000
MTEXTEND
  0
POINT
  5
1228
330
1203
100
AcDbEntity
  8
Defpoints
  6
DIMENSION
 62
     0
100
AcDbPoint
 10
1017.768229976996
 20
561.0380249249013
 30
0.0
  0
POINT
  5
1229
330
1203
100
AcDbEntity
  8
Defpoints
  6
DIMENSION
 62
     0
100
AcDbPoint
 10
1017.768230053909
 20
186.0380249249013
 30
0.0
  0
POINT
  5
122A
330
1203
100
AcDbEntity
  8
Defpoints
  6
DIMENSION
 62
     0
100
AcDbPoint
 10
1061.056178251917
 20
186.0380249249013
 30
0.0
  0
ENDBLK
  5
1205
330
1203
100
AcDbEntity
  8
0
 62
     7
100
AcDbBlockEnd
  0
ENDSEC
  0
SECTION
  2
ENTITIES
  0
DIMENSION
  5
7FA
330
1F
100
AcDbEntity
  8
PV0001_4
  6
Continuous
 62
     7
100
AcDbDimension
  2
*D2
 10
322.97973632812
 20
483.5514221191299
 30
0.0
 11
305.47973632812
 21
483.5514221191299
 31
0.0
 70
   160
  1
<>
 71
     5
 42
35.0
  3
ASKSTANDARD
100
AcDbAlignedDimension
 13
287.97973632812
 23
551.0380249023399
 33
0.0
 14
322.97973632812
 24
451.0380249023399
 34
0.0
100
AcDbRotatedDimension
1001
ACAD
1000
DSTYLE
1002
{
1070
    44
1040
2.286003112792499
1070
    40
1040
4.0
1070
   284
1070
     8
1070
   140
1040
3.0
1070
   271
1070
     0
1070
   173
1070
     1
1070
   343
1005
71F
1070
   344
1005
71F
1070
    75
1070
     1
1002
}
  0
DIMENSION
  5
845
330
1F
100
AcDbEntity
  8
PV0001_4
  6
Continuous
 62
     7
100
AcDbDimension
  2
*D3
 10
597.97973632812
 20
98.46604725342
 30
0.0
 11
442.97973632812
 21
98.46604725342
 31
0.0
 70
   160
  1
OD\U+2205<>
 71
     5
 42
310.0
  3
ASKSTANDARD
100
AcDbAlignedDimension
 13
287.97973632812
 23
196.03802490234
 33
0.0
 14
597.97973632812
 24
196.03802490234
 34
0.0
100
AcDbRotatedDimension
1001
ACAD
1000
DSTYLE
1002
{
1070
    44
1040
2.286000000000001
1070
    40
1040
4.0
1070
   284
1070
     8
1070
   140
1040
3.0
1070
   271
1070
     0
1070
   173
1070
     1
1070
   343
1005
71F
1070
   344
1005
71F
1002
}
  0
DIMENSION
  5
888
330
1F
100
AcDbEntity
  8
PV0001_4
  6
Continuous
 62
     7
100
AcDbDimension
  2
*D4
 10
374.345657348628
 20
231.03802490234
 30
0.0
 11
374.345657348628
 21
208.53802490234
 31
0.0
 70
   160
  1
<>
 71
     5
 42
45.00000000000002
  3
ASKSTANDARD
100
AcDbAlignedDimension
 13
297.97973632812
 23
186.03802490234
 33
0.0
 14
386.765602111812
 24
231.03802490234
 34
0.0
 50
90.0
100
AcDbRotatedDimension
1001
ACAD
1000
DSTYLE
1002
{
1070
    44
1040
2.28600120544425
1070
    40
1040
4.0
1070
   284
1070
     8
1070
   140
1040
3.0
1070
   271
1070
     0
1070
   173
1070
     1
1070
   343
1005
71F
1070
   344
1005
71F
1070
    75
1070
     1
1002
}
  0
DIMENSION
  5
8D3
330
1F
100
AcDbEntity
  8
PV0001_4
  6
Continuous
 62
     7
100
AcDbDimension
  2
*D5
 10
673.73549336717
 20
401.0380249023399
 30
0.0
 11
673.7354933671699
 21
293.53802490234
 31
0.0
 70
   160
  1
<>
 71
     5
 42
215.0
  3
ASKSTANDARD
100
AcDbAlignedDimension
 13
587.9797363281199
 23
186.03802490234
 33
0.0
 14
597.97973632812
 24
401.0380249023399
 34
0.0
 50
90.0
100
AcDbRotatedDimension
1001
ACAD
1000
DSTYLE
1002
{
1070
    44
1040
2.286000000000001
1070
    40
1040
4.0
1070
   284
1070
     8
1070
   140
1040
3.0
1070
   271
1070
     0
1070
   173
1070
     1
1070
   343
1005
71F
1070
   344
1005
71F
1002
}
  0
DIMENSION
  5
916
330
1F
100
AcDbEntity
  8
PV0001_4
  6
Continuous
 62
     7
100
AcDbDimension
  2
*D6
 10
673.73549336717
 20
451.0380249023399
 30
0.0
 11
673.7354933671699
 21
426.0380249023399
 31
0.0
 70
   160
  1
<>
 71
     5
 42
50.0
  3
ASKSTANDARD
100
AcDbAlignedDimension
 13
597.97973632812
 23
401.0380249023399
 33
0.0
 14
597.97973632812
 24
451.0380249023399
 34
0.0
 50
90.0
100
AcDbRotatedDimension
1001
ACAD
1000
DSTYLE
1002
{
1070
    44
1040
2.286000000000001
1070
    40
1040
4.0
1070
   284
1070
     8
1070
   140
1040
3.0
1070
   271
1070
     0
1070
   173
1070
     1
1070
   343
1005
71F
1070
   344
1005
71F
1070
    75
1070
     1
1002
}
  0
DIMENSION
  5
961
330
1F
100
AcDbEntity
  8
PV0001_4
  6
Continuous
 62
     7
100
AcDbDimension
  2
*D7
 10
673.73549336717
 20
561.03802490234
 30
0.0
 11
673.7354933671699
 21
506.03802490234
 31
0.0
 70
   160
  1
<>
 71
     5
 42
110.0
  3
ASKSTANDARD
100
AcDbAlignedDimension
 13
597.97973632812
 23
451.0380249023399
 33
0.0
 14
587.9797363281199
 24
561.03802490234
 34
0.0
 50
90.0
100
AcDbRotatedDimension
1001
ACAD
1000
DSTYLE
1002
{
1070
    44
1040
2.286000000000001
1070
    40
1040
4.0
1070
   284
1070
     8
1070
   140
1040
3.0
1070
   271
1070
     0
1070
   173
1070
     1
1070
   343
1005
71F
1070
   344
1005
71F
1070
    75
1070
     1
1002
}
  0
DIMENSION
  5
9AC
330
1F
100
AcDbEntity
  8
PV0001_4
  6
Continuous
 62
     7
100
AcDbDimension
  2
*D8
 10
487.9797363281199
 20
136.664451599118
 30
0.0
 11
442.97973632812
 21
136.664451599118
 31
0.0
 70
   160
  1
<>
 71
     5
 42
90.0
  3
ASKSTANDARD
100
AcDbAlignedDimension
 13
397.97973632812
 23
186.03802490234
 33
0.0
 14
487.9797363281199
 24
186.03802490234
 34
0.0
100
AcDbRotatedDimension
1001
ACAD
1000
DSTYLE
1002
{
1070
    44
1040
2.286000251769999
1070
    40
1040
4.0
1070
   284
1070
     8
1070
   140
1040
3.0
1070
   271
1070
     0
1070
   173
1070
     1
1070
   343
1005
71F
1070
   344
1005
71F
1002
}
  0
DIMENSION
  5
9EF
330
1F
100
AcDbEntity
  8
PV0001_4
  6
Continuous
 62
     7
100
AcDbDimension
  2
*D9
 10
243.9793126372101
 20
563.0380249023401
 30
0.0
 11
243.97931263721
 21
374.53802490234
 31
0.0
 70
   160
  1
<>
 71
     5
 42
377.0
  3
ASKSTANDARD
100
AcDbAlignedDimension
 13
297.97973632812
 23
186.03802490234
 33
0.0
 14
442.979730606074
 24
563.0380249023399
 34
0.0
 50
90.0
100
AcDbRotatedDimension
1001
ACAD
1000
DSTYLE
1002
{
1070
    44
1040
2.286000000000001
1070
    40
1040
4.0
1070
   284
1070
     8
1070
   140
1040
3.0
1070
   271
1070
     0
1070
   173
1070
     1
1070
   343
1005
71F
1070
   344
1005
71F
1002
}
  0
DIMENSION
  5
A32
330
1F
100
AcDbEntity
  8
PV0001_4
  6
Continuous
 62
     7
100
AcDbDimension
  2
*D10
 10
631.3368813344101
 20
561.03802490234
 30
0.0
 11
631.33688133441
 21
541.03802490234
 31
0.0
 70
   160
  1
<>
 71
     5
 42
40.0
  3
ASKSTANDARD
100
AcDbAlignedDimension
 13
540.171974182123
 23
521.0380249023399
 33
0.0
 14
587.9797363281199
 24
561.03802490234
 34
0.0
 50
90.0
100
AcDbRotatedDimension
1001
ACAD
1000
DSTYLE
1002
{
1070
    44
1040
2.285999999999994
1070
    40
1040
4.0
1070
   284
1070
     8
1070
   140
1040
3.0
1070
   271
1070
     0
1070
   173
1070
     1
1070
   343
1005
71F
1070
   344
1005
71F
1070
    76
1070
     1
1002
}
  0
POINT
  5
A7D
330
1F
100
AcDbEntity
  8
PV0001_4
  6
Continuous
 62
     4
100
AcDbPoint
 10
442.97973632812
 20
563.0380249023399
 30
0.0
  0
POINT
  5
A7E
330
1F
100
AcDbEntity
  8
PV0001_4
  6
Continuous
 62
     4
100
AcDbPoint
 10
371.979906440578
 20
556.03796386718
 30
0.0
  0
POINT
  5
A7F
330
1F
100
AcDbEntity
  8
PV0001_4
  6
Continuous
 62
     4
100
AcDbPoint
 10
513.9795547715699
 20
556.03796386718
 30
0.0
  0
POINT
  5
A80
330
1F
100
AcDbEntity
  8
PV0001_4
  6
Continuous
 62
     4
100
AcDbPoint
 10
442.97973632812
 20
563.0380249023399
 30
0.0
  0
LINE
  5
A82
330
1F
100
AcDbEntity
  8
PV0001_4
  6
Continuous
 62
     7
100
AcDbLine
 10
297.97973632812
 20
186.03802490234
 30
0.0
 11
587.9797363281199
 21
186.03802490234
 31
0.0
1001
DEKIMAS
1000
実線（中）
1040
0.25
1001
DIMEXPLODE
1070
     0
  0
LINE
  5
A83
330
1F
100
AcDbEntity
  8
PV0001_4
  6
CENTER2
 62
     1
100
AcDbLine
 10
442.97973632812
 20
582.4981689452999
 30
0.0
 11
442.97973632812
 21
177.6132659912072
 31
0.0
1001
DEKIMAS
1000
一点鎖線（細）
1040
0.15
1001
DIMEXPLODE
1070
     0
  0
LINE
  5
A84
330
1F
100
AcDbEntity
  8
PV0001_4
  6
Continuous
 62
     7
100
AcDbLine
 10
287.97973632812
 20
551.0380249023399
 30
0.0
 11
287.97973632812
 21
196.03802490234
 31
0.0
1001
DEKIMAS
1000
実線（中）
1040
0.25
1001
DIMEXPLODE
1070
     0
  0
LINE
  5
A85
330
1F
100
AcDbEntity
  8
PV0001_4
  6
Continuous
 62
     7
100
AcDbLine
 10
297.97973632812
 20
561.03802490234
 30
0.0
 11
404.897370590119
 21
561.03802490234
 31
0.0
1001
DEKIMAS
1000
実線（中）
1040
0.25
1001
DIMEXPLODE
1070
     0
  0
LINE
  5
A86
330
1F
100
AcDbEntity
  8
PV0001_4
  6
Continuous
 62
     7
100
AcDbLine
 10
345.787498474117
 20
521.0380249023399
 30
0.0
 11
540.171974182123
 21
521.0380249023399
 31
0.0
1001
DEKIMAS
1000
実線（中）
1040
0.25
1001
DIMEXPLODE
1070
     0
  0
LINE
  5
A87
330
1F
100
AcDbEntity
  8
PV0001_4
  6
Continuous
 62
     7
 48
0.5
100
AcDbLine
 10
329.87339784491
 20
553.46337892343
 30
0.0
 11
336.0860787405
 21
528.6126553410599
 31
0.0
1001
DEKIMAS
1000
実線（中）
1040
0.25
1001
DIMEXPLODE
1070
     0
  0
LINE
  5
A88
330
1F
100
AcDbEntity
  8
PV0001_4
  6
Continuous
 62
     7
100
AcDbLine
 10
597.97973632812
 20
551.0380249023399
 30
0.0
 11
597.97973632812
 21
196.03802490234
 31
0.0
1001
DEKIMAS
1000
実線（中）
1040
0.25
1001
DIMEXPLODE
1070
     0
  0
LINE
  5
A89
330
1F
100
AcDbEntity
  8
PV0001_4
  6
Continuous
 62
     7
 48
0.5
100
AcDbLine
 10
556.08607481133
 20
553.46337892343
 30
0.0
 11
549.8733865141399
 21
528.61262573466
 31
0.0
1001
DEKIMAS
1000
実線（中）
1040
0.25
1001
DIMEXPLODE
1070
     0
  0
LINE
  5
A8A
330
1F
100
AcDbEntity
  8
PV0001_4
  6
CENTER2
 62
     1
100
AcDbLine
 10
386.765602111812
 20
231.03802490234
 30
0.0
 11
498.8266983032169
 21
231.03802490234
 31
0.0
1001
DEKIMAS
1000
一点鎖線（細）
1040
0.15
1001
DIMEXPLODE
1070
     0
  0
LINE
  5
A8B
330
1F
100
AcDbEntity
  8
PV0001_4
  6
Continuous
 62
     7
100
AcDbLine
 10
397.97973632812
 20
231.03802490234
 30
0.0
 11
397.97973632812
 21
186.03802490234
 31
0.0
1001
DEKIMAS
1000
実線（中）
1040
0.25
1001
DIMEXPLODE
1070
     0
  0
LINE
  5
A8C
330
1F
100
AcDbEntity
  8
PV0001_4
  6
Continuous
 62
     7
100
AcDbLine
 10
487.9797363281199
 20
231.03802490234
 30
0.0
 11
487.9797363281199
 21
186.03802490234
 31
0.0
1001
DEKIMAS
1000
実線（中）
1040
0.25
1001
DIMEXPLODE
1070
     0
  0
LINE
  5
A8D
330
1F
100
AcDbEntity
  8
PV0001_4
  6
Continuous
 62
     7
100
AcDbLine
 10
527.97973632812
 20
556.03796386718
 30
0.0
 11
357.97973632812
 21
556.03796386718
 31
0.0
1001
DEKIMAS
1000
実線（中）
1040
0.25
1001
DIMEXPLODE
1070
     0
  0
LINE
  5
A8E
330
1F
100
AcDbEntity
  8
PV0001_4
  6
Continuous
 62
     7
100
AcDbLine
 10
530.47973632812
 20
524.03790283202
 30
0.0
 11
355.47973632812
 21
524.03790283202
 31
0.0
1001
DEKIMAS
1000
実線（中）
1040
0.25
1001
DIMEXPLODE
1070
     0
  0
LINE
  5
A8F
330
1F
100
AcDbEntity
  8
PV0001_4
  6
Continuous
 62
     7
 48
0.5
100
AcDbLine
 10
357.97973632812
 20
553.0379638671799
 30
0.0
 11
357.97973632812
 21
529.03784179687
 31
0.0
1001
DEKIMAS
1000
実線（中）
1040
0.25
1001
DIMEXPLODE
1070
     0
  0
LINE
  5
A90
330
1F
100
AcDbEntity
  8
PV0001_4
  6
Continuous
 62
     7
 48
0.5
100
AcDbLine
 10
360.47973632812
 20
524.03790283202
 30
0.0
 11
360.47973632812
 21
523.0379028320199
 31
0.0
1001
DEKIMAS
1000
実線（中）
1040
0.25
1001
DIMEXPLODE
1070
     0
  0
LINE
  5
A91
330
1F
100
AcDbEntity
  8
PV0001_4
  6
Continuous
 62
     7
 48
0.5
100
AcDbLine
 10
352.97973632812
 20
526.20770263671
 30
0.0
 11
352.97973632812
 21
524.70770263671
 31
0.0
1001
DEKIMAS
1000
実線（中）
1040
0.25
1001
DIMEXPLODE
1070
     0
  0
LINE
  5
A92
330
1F
100
AcDbEntity
  8
PV0001_4
  6
Continuous
 62
     7
100
AcDbLine
 10
481.9688644409129
 20
529.03790283202
 30
0.0
 11
403.990608215327
 21
529.03790283202
 31
0.0
1001
DEKIMAS
1000
実線（中）
1040
0.25
1001
DIMEXPLODE
1070
     0
  0
LINE
  5
A93
330
1F
100
AcDbEntity
  8
PV0001_4
  6
Continuous
 62
     7
 48
0.5
100
AcDbLine
 10
352.979706777602
 20
524.70753256699
 30
0.0
 11
355.479711962949
 21
524.0376582680199
 31
0.0
1001
DEKIMAS
1000
実線（中）
1040
0.25
1001
DIMEXPLODE
1070
     0
  0
LINE
  5
A94
330
1F
100
AcDbEntity
  8
PV0001_4
  6
Continuous
 62
     7
100
AcDbLine
 10
537.9797363281199
 20
524.70770263671
 30
0.0
 11
347.97973632812
 21
524.70770263671
 31
0.0
1001
DEKIMAS
1000
実線（中）
1040
0.25
1001
DIMEXPLODE
1070
     0
  0
LINE
  5
A95
330
1F
100
AcDbEntity
  8
PV0001_4
  6
Continuous
 62
     7
100
AcDbLine
 10
481.9688644409129
 20
526.20770263671
 30
0.0
 11
403.990608215327
 21
526.20770263671
 31
0.0
1001
DEKIMAS
1000
実線（中）
1040
0.25
1001
DIMEXPLODE
1070
     0
  0
LINE
  5
A96
330
1F
100
AcDbEntity
  8
PV0001_4
  6
Continuous
 62
     7
 48
0.5
100
AcDbLine
 10
357.979491521288
 20
529.03826617209
 30
0.0
 11
352.979437556145
 21
526.20806479632
 31
0.0
1001
DEKIMAS
1000
実線（中）
1040
0.25
1001
DIMEXPLODE
1070
     0
  0
LINE
  5
A97
330
1F
100
AcDbEntity
  8
PV0001_4
  6
Continuous
 62
     7
 48
0.5
100
AcDbLine
 10
347.97973632812
 20
546.03790283202
 30
0.0
 11
347.97973632812
 21
524.70770263671
 31
0.0
1001
DEKIMAS
1000
実線（中）
1040
0.25
1001
DIMEXPLODE
1070
     0
  0
LINE
  5
A98
330
1F
100
AcDbEntity
  8
PV0001_4
  6
Continuous
 62
     7
 48
0.5
100
AcDbLine
 10
527.97973632812
 20
553.0379638671799
 30
0.0
 11
527.97973632812
 21
529.03784179687
 31
0.0
1001
DEKIMAS
1000
実線（中）
1040
0.25
1001
DIMEXPLODE
1070
     0
  0
LINE
  5
A99
330
1F
100
AcDbEntity
  8
PV0001_4
  6
Continuous
 62
     7
 48
0.5
100
AcDbLine
 10
532.9797363281199
 20
526.20770263671
 30
0.0
 11
532.9797363281199
 21
524.70770263671
 31
0.0
1001
DEKIMAS
1000
実線（中）
1040
0.25
1001
DIMEXPLODE
1070
     0
  0
LINE
  5
A9A
330
1F
100
AcDbEntity
  8
PV0001_4
  6
Continuous
 62
     7
 48
0.5
100
AcDbLine
 10
527.979858866572
 20
529.03854578378
 30
0.0
 11
532.9798331571979
 21
526.20838950652
 31
0.0
1001
DEKIMAS
1000
実線（中）
1040
0.25
1001
DIMEXPLODE
1070
     0
  0
LINE
  5
A9B
330
1F
100
AcDbEntity
  8
PV0001_4
  6
Continuous
 62
     7
 48
0.5
100
AcDbLine
 10
532.979765878638
 20
524.70753256699
 30
0.0
 11
530.479760693291
 21
524.0376582680199
 31
0.0
1001
DEKIMAS
1000
実線（中）
1040
0.25
1001
DIMEXPLODE
1070
     0
  0
LINE
  5
A9C
330
1F
100
AcDbEntity
  8
PV0001_4
  6
Continuous
 62
     7
 48
0.5
100
AcDbLine
 10
537.9797363281199
 20
546.03790283202
 30
0.0
 11
537.9797363281199
 21
524.70770263671
 31
0.0
1001
DEKIMAS
1000
実線（中）
1040
0.25
1001
DIMEXPLODE
1070
     0
  0
LINE
  5
A9D
330
1F
100
AcDbEntity
  8
PV0001_4
  6
Continuous
 62
     7
 48
0.5
100
AcDbLine
 10
525.4797363281199
 20
524.03790283202
 30
0.0
 11
525.4797363281199
 21
523.0379028320199
 31
0.0
1001
DEKIMAS
1000
実線（中）
1040
0.25
1001
DIMEXPLODE
1070
     0
  0
LINE
  5
A9E
330
1F
100
AcDbEntity
  8
PV0001_4
  6
Continuous
 62
     7
 48
0.5
100
AcDbLine
 10
397.818759918208
 20
524.70770263671
 30
0.0
 11
397.818759918208
 21
551.0378417968699
 31
0.0
1001
DEKIMAS
1000
実線（中）
1040
0.25
1001
DIMEXPLODE
1070
     0
  0
LINE
  5
A9F
330
1F
100
AcDbEntity
  8
PV0001_4
  6
Continuous
 62
     7
100
AcDbLine
 10
403.990608215327
 20
524.70770263671
 30
0.0
 11
403.990608215327
 21
556.0379028320199
 31
0.0
1001
DEKIMAS
1000
実線（中）
1040
0.25
1001
DIMEXPLODE
1070
     0
  0
LINE
  5
AA0
330
1F
100
AcDbEntity
  8
PV0001_4
  6
Continuous
 62
     7
 48
0.5
100
AcDbLine
 10
394.596427917476
 20
524.70770263671
 30
0.0
 11
394.596427917476
 21
551.0378417968699
 31
0.0
1001
DEKIMAS
1000
実線（中）
1040
0.25
1001
DIMEXPLODE
1070
     0
  0
LINE
  5
AA1
330
1F
100
AcDbEntity
  8
PV0001_4
  6
Continuous
 62
     7
100
AcDbLine
 10
394.596427917476
 20
529.03790283202
 30
0.0
 11
357.97973632812
 21
529.03790283202
 31
0.0
1001
DEKIMAS
1000
実線（中）
1040
0.25
1001
DIMEXPLODE
1070
     0
  0
LINE
  5
AA2
330
1F
100
AcDbEntity
  8
PV0001_4
  6
Continuous
 62
     7
100
AcDbLine
 10
394.596427917476
 20
526.20770263671
 30
0.0
 11
352.979782104488
 21
526.20770263671
 31
0.0
1001
DEKIMAS
1000
実線（中）
1040
0.25
1001
DIMEXPLODE
1070
     0
  0
LINE
  5
AA3
330
1F
100
AcDbEntity
  8
PV0001_4
  6
Continuous
 62
     7
100
AcDbLine
 10
481.9688644409129
 20
524.70770263671
 30
0.0
 11
481.9688644409129
 21
556.0379028320199
 31
0.0
1001
DEKIMAS
1000
実線（中）
1040
0.25
1001
DIMEXPLODE
1070
     0
  0
LINE
  5
AA4
330
1F
100
AcDbEntity
  8
PV0001_4
  6
Continuous
 62
     7
 48
0.5
100
AcDbLine
 10
488.1407127380319
 20
524.70770263671
 30
0.0
 11
488.1407127380319
 21
551.0378417968699
 31
0.0
1001
DEKIMAS
1000
実線（中）
1040
0.25
1001
DIMEXPLODE
1070
     0
  0
LINE
  5
AA5
330
1F
100
AcDbEntity
  8
PV0001_4
  6
Continuous
 62
     7
 48
0.5
100
AcDbLine
 10
491.363044738764
 20
524.70770263671
 30
0.0
 11
491.363044738764
 21
551.0378417968699
 31
0.0
1001
DEKIMAS
1000
実線（中）
1040
0.25
1001
DIMEXPLODE
1070
     0
  0
LINE
  5
AA6
330
1F
100
AcDbEntity
  8
PV0001_4
  6
Continuous
 62
     7
100
AcDbLine
 10
491.363044738764
 20
529.03790283202
 30
0.0
 11
527.97973632812
 21
529.03790283202
 31
0.0
1001
DEKIMAS
1000
実線（中）
1040
0.25
1001
DIMEXPLODE
1070
     0
  0
LINE
  5
AA7
330
1F
100
AcDbEntity
  8
PV0001_4
  6
Continuous
 62
     7
100
AcDbLine
 10
491.363044738764
 20
526.20770263671
 30
0.0
 11
532.979690551752
 21
526.20770263671
 31
0.0
1001
DEKIMAS
1000
実線（中）
1040
0.25
1001
DIMEXPLODE
1070
     0
  0
LINE
  5
AA8
330
1F
100
AcDbEntity
  8
PV0001_4
  6
HIDDEN2
 62
     4
100
AcDbLine
 10
562.9797363281199
 20
451.0380249023399
 30
0.0
 11
597.97973632812
 21
451.0380249023399
 31
0.0
1001
DEKIMAS
1000
破線（細）
1040
0.15
1001
DIMEXPLODE
1070
     0
  0
LINE
  5
AA9
330
1F
100
AcDbEntity
  8
PV0001_4
  6
HIDDEN2
 62
     4
100
AcDbLine
 10
322.97973632812
 20
451.0380249023399
 30
0.0
 11
287.97973632812
 21
451.0380249023399
 31
0.0
1001
DEKIMAS
1000
破線（細）
1040
0.15
1001
DIMEXPLODE
1070
     0
  0
LINE
  5
AAA
330
1F
100
AcDbEntity
  8
PV0001_4
  6
HIDDEN2
 62
     4
 48
0.5
100
AcDbLine
 10
330.47973632812
 20
186.0380249023396
 30
0.0
 11
330.47973632812
 21
196.03802490234
 31
0.0
1001
DEKIMAS
1000
破線（細）
1040
0.15
1001
DIMEXPLODE
1070
     0
  0
LINE
  5
AAB
330
1F
100
AcDbEntity
  8
PV0001_4
  6
HIDDEN2
 62
     4
 48
0.5
100
AcDbLine
 10
330.47973632812
 20
196.03802490234
 30
0.0
 11
355.47973632812
 21
196.03802490234
 31
0.0
1001
DEKIMAS
1000
破線（細）
1040
0.15
1001
DIMEXPLODE
1070
     0
  0
LINE
  5
AAC
330
1F
100
AcDbEntity
  8
PV0001_4
  6
HIDDEN2
 62
     4
 48
0.5
100
AcDbLine
 10
555.47973632812
 20
196.03802490234
 30
0.0
 11
530.47973632812
 21
196.03802490234
 31
0.0
1001
DEKIMAS
1000
破線（細）
1040
0.15
1001
DIMEXPLODE
1070
     0
  0
LINE
  5
AAD
330
1F
100
AcDbEntity
  8
PV0001_4
  6
HIDDEN2
 62
     4
 48
0.5
100
AcDbLine
 10
555.47973632812
 20
186.0380249023404
 30
0.0
 11
555.47973632812
 21
196.03802490234
 31
0.0
1001
DEKIMAS
1000
破線（細）
1040
0.15
1001
DIMEXPLODE
1070
     0
  0
LINE
  5
AAE
330
1F
100
AcDbEntity
  8
PV0001_4
  6
HIDDEN2
 62
     4
 48
0.5
100
AcDbLine
 10
520.479739005714
 20
186.03802490234
 30
0.0
 11
530.4797363057609
 21
196.0380222023864
 31
0.0
1001
DEKIMAS
1000
破線（細）
1040
0.15
1001
DIMEXPLODE
1070
     0
  0
LINE
  5
AAF
330
1F
100
AcDbEntity
  8
PV0001_4
  6
HIDDEN2
 62
     4
 48
0.5
100
AcDbLine
 10
365.479733650526
 20
186.03802490234
 30
0.0
 11
355.479736350479
 21
196.0380222023864
 31
0.0
1001
DEKIMAS
1000
破線（細）
1040
0.15
1001
DIMEXPLODE
1070
     0
  0
LINE
  5
AB0
330
1F
100
AcDbEntity
  8
PV0001_4
  6
Continuous
 62
     7
100
AcDbLine
 10
547.5812911987199
 20
489.2380371093699
 30
0.0
 11
547.5812911987199
 21
224.8380241394
 31
0.0
1001
DEKIMAS
1000
実線（中）
1040
0.25
1001
DIMEXPLODE
1070
     0
  0
LINE
  5
AB1
330
1F
100
AcDbEntity
  8
PV0001_4
  6
Continuous
 62
     7
100
AcDbLine
 10
557.58128356933
 20
489.2380371093699
 30
0.0
 11
557.58128356933
 21
224.8380241394
 31
0.0
1001
DEKIMAS
1000
実線（中）
1040
0.25
1001
DIMEXPLODE
1070
     0
  0
LINE
  5
AB2
330
1F
100
AcDbEntity
  8
PV0001_4
  6
Continuous
 62
     7
 48
0.5
100
AcDbLine
 10
547.5812911987199
 20
224.8380241394
 30
0.0
 11
557.58128356933
 21
224.8380241394
 31
0.0
1001
DEKIMAS
1000
実線（中）
1040
0.25
1001
DIMEXPLODE
1070
     0
  0
LINE
  5
AB3
330
1F
100
AcDbEntity
  8
PV0001_4
  6
Continuous
 62
     7
 48
0.5
100
AcDbLine
 10
547.5812911987199
 20
489.2380371093699
 30
0.0
 11
557.58128356933
 21
489.2380371093699
 31
0.0
1001
DEKIMAS
1000
実線（中）
1040
0.25
1001
DIMEXPLODE
1070
     0
  0
LINE
  5
AB4
330
1F
100
AcDbEntity
  8
PV0001_4
  6
Continuous
 62
     7
100
AcDbLine
 10
387.97973632812
 20
452.03802490234
 30
0.0
 11
497.97973632812
 21
452.03802490234
 31
0.0
1001
DEKIMAS
1000
実線（中）
1040
0.25
1001
DIMEXPLODE
1070
     0
  0
LINE
  5
AB5
330
1F
100
AcDbEntity
  8
PV0001_4
  6
Continuous
 62
     7
100
AcDbLine
 10
387.97973632812
 20
484.0380249023399
 30
0.0
 11
497.97973632812
 21
484.0380249023399
 31
0.0
1001
DEKIMAS
1000
実線（中）
1040
0.25
1001
DIMEXPLODE
1070
     0
  0
LINE
  5
AB6
330
1F
100
AcDbEntity
  8
PV0001_4
  6
Continuous
 62
     7
100
AcDbLine
 10
497.97973632812
 20
484.0380249023399
 30
0.0
 11
497.97973632812
 21
452.03802490234
 31
0.0
1001
DEKIMAS
1000
実線（中）
1040
0.25
1001
DIMEXPLODE
1070
     0
  0
LINE
  5
AB7
330
1F
100
AcDbEntity
  8
PV0001_4
  6
Continuous
 62
     7
100
AcDbLine
 10
387.97973632812
 20
484.0380249023399
 30
0.0
 11
387.97973632812
 21
452.03802490234
 31
0.0
1001
DEKIMAS
1000
実線（中）
1040
0.25
1001
DIMEXPLODE
1070
     0
  0
LINE
  5
AB8
330
1F
100
AcDbEntity
  8
PV0001_4
  6
Continuous
 62
     7
 48
0.5
100
AcDbLine
 10
567.58129119872
 20
456.63803100585
 30
0.0
 11
587.58128356933
 21
456.63803100585
 31
0.0
1001
DEKIMAS
1000
実線（中）
1040
0.25
1001
DIMEXPLODE
1070
     0
  0
LINE
  5
AB9
330
1F
100
AcDbEntity
  8
PV0001_4
  6
Continuous
 62
     7
 48
0.5
100
AcDbLine
 10
567.58129119872
 20
462.6380310058499
 30
0.0
 11
587.58128356933
 21
462.6380310058499
 31
0.0
1001
DEKIMAS
1000
実線（中）
1040
0.25
1001
DIMEXPLODE
1070
     0
  0
LINE
  5
ABA
330
1F
100
AcDbEntity
  8
PV0001_4
  6
Continuous
 62
     7
 48
0.5
100
AcDbLine
 10
567.58129119872
 20
388.2380218505801
 30
0.0
 11
587.58128356933
 21
388.2380218505801
 31
0.0
1001
DEKIMAS
1000
実線（中）
1040
0.25
1001
DIMEXPLODE
1070
     0
  0
LINE
  5
ABB
330
1F
100
AcDbEntity
  8
PV0001_4
  6
Continuous
 62
     7
 48
0.5
100
AcDbLine
 10
567.58129119872
 20
394.2380218505801
 30
0.0
 11
587.58128356933
 21
394.2380218505801
 31
0.0
1001
DEKIMAS
1000
実線（中）
1040
0.25
1001
DIMEXPLODE
1070
     0
  0
LINE
  5
ABC
330
1F
100
AcDbEntity
  8
PV0001_4
  6
Continuous
 62
     7
 48
0.5
100
AcDbLine
 10
567.58129119872
 20
319.8380279540899
 30
0.0
 11
587.58128356933
 21
319.8380279540899
 31
0.0
1001
DEKIMAS
1000
実線（中）
1040
0.25
1001
DIMEXPLODE
1070
     0
  0
LINE
  5
ABD
330
1F
100
AcDbEntity
  8
PV0001_4
  6
Continuous
 62
     7
 48
0.5
100
AcDbLine
 10
567.58129119872
 20
325.83802795409
 30
0.0
 11
587.58128356933
 21
325.83802795409
 31
0.0
1001
DEKIMAS
1000
実線（中）
1040
0.25
1001
DIMEXPLODE
1070
     0
  0
LINE
  5
ABE
330
1F
100
AcDbEntity
  8
PV0001_4
  6
Continuous
 62
     7
 48
0.5
100
AcDbLine
 10
567.58129119872
 20
251.438026428218
 30
0.0
 11
587.58128356933
 21
251.438026428218
 31
0.0
1001
DEKIMAS
1000
実線（中）
1040
0.25
1001
DIMEXPLODE
1070
     0
  0
LINE
  5
ABF
330
1F
100
AcDbEntity
  8
PV0001_4
  6
Continuous
 62
     7
 48
0.5
100
AcDbLine
 10
567.58129119872
 20
257.438026428218
 30
0.0
 11
587.58128356933
 21
257.438026428218
 31
0.0
1001
DEKIMAS
1000
実線（中）
1040
0.25
1001
DIMEXPLODE
1070
     0
  0
LINE
  5
AC0
330
1F
100
AcDbEntity
  8
PV0001_4
  6
Continuous
 62
     7
100
AcDbLine
 10
481.062090622029
 20
561.03802490234
 30
0.0
 11
587.9797363281199
 21
561.03802490234
 31
0.0
1001
DEKIMAS
1000
実線（中）
1040
0.25
1001
DIMEXPLODE
1070
     0
  0
ARC
  5
AC1
330
1F
100
AcDbEntity
  8
PV0001_4
  6
Continuous
 62
     7
 48
0.5
100
AcDbCircle
 10
320.17197418213
 20
551.0380249023399
 30
0.0
 40
10.0
100
AcDbArc
 50
14.036232550992
 51
89.99998201391097
1001
DEKIMAS
1000
実線（中）
1040
0.25
1001
DIMEXPLODE
1070
     0
  0
ARC
  5
AC2
330
1F
100
AcDbEntity
  8
PV0001_4
  6
Continuous
 62
     7
 48
0.5
100
AcDbCircle
 10
345.787498474117
 20
531.03802490234
 30
0.0
 40
10.0
100
AcDbArc
 50
194.036211320338
 51
270.0000179860891
1001
DEKIMAS
1000
実線（中）
1040
0.25
1001
DIMEXPLODE
1070
     0
  0
ARC
  5
AC3
330
1F
100
AcDbEntity
  8
PV0001_4
  6
Continuous
 62
     7
 48
0.5
100
AcDbCircle
 10
540.171974182123
 20
531.03802490234
 30
0.0
 40
10.0
100
AcDbArc
 50
269.9999633445789
 51
345.9637700103248
1001
DEKIMAS
1000
実線（中）
1040
0.25
1001
DIMEXPLODE
1070
     0
  0
ARC
  5
AC4
330
1F
100
AcDbEntity
  8
PV0001_4
  6
Continuous
 62
     7
 48
0.5
100
AcDbCircle
 10
565.7874984741099
 20
551.0380249023399
 30
0.0
 40
10.0
100
AcDbArc
 50
89.99998201391097
 51
165.9637340381491
1001
DEKIMAS
1000
実線（中）
1040
0.25
1001
DIMEXPLODE
1070
     0
  0
ARC
  5
AC5
330
1F
100
AcDbEntity
  8
PV0001_4
  6
Continuous
 62
     7
100
AcDbCircle
 10
442.97973632812
 20
231.03802490234
 30
0.0
 40
45.0
100
AcDbArc
 50
0.0
 51
179.9999640278186
1001
DEKIMAS
1000
実線（中）
1040
0.25
1001
DIMEXPLODE
1070
     0
  0
ARC
  5
AC6
330
1F
100
AcDbEntity
  8
PV0001_4
  6
Continuous
 62
     7
 48
0.5
100
AcDbCircle
 10
587.9797363281199
 20
196.03802490234
 30
0.0
 40
10.0
100
AcDbArc
 50
270.0000179860891
 51
0.0
1001
DEKIMAS
1000
実線（中）
1040
0.25
1001
DIMEXPLODE
1070
     0
  0
ARC
  5
AC7
330
1F
100
AcDbEntity
  8
PV0001_4
  6
Continuous
 62
     7
 48
0.5
100
AcDbCircle
 10
587.9797363281199
 20
551.0380249023399
 30
0.0
 40
10.0
100
AcDbArc
 50
0.0
 51
89.99998201391097
1001
DEKIMAS
1000
実線（中）
1040
0.25
1001
DIMEXPLODE
1070
     0
  0
ARC
  5
AC8
330
1F
100
AcDbEntity
  8
PV0001_4
  6
Continuous
 62
     7
 48
0.5
100
AcDbCircle
 10
297.97973632812
 20
551.0380249023399
 30
0.0
 40
10.0
100
AcDbArc
 50
89.99998201391097
 51
179.9999640278186
1001
DEKIMAS
1000
実線（中）
1040
0.25
1001
DIMEXPLODE
1070
     0
  0
ARC
  5
AC9
330
1F
100
AcDbEntity
  8
PV0001_4
  6
Continuous
 62
     7
 48
0.5
100
AcDbCircle
 10
297.97973632812
 20
196.03802490234
 30
0.0
 40
10.0
100
AcDbArc
 50
179.9999813306631
 51
270.0000179860923
1001
DEKIMAS
1000
実線（中）
1040
0.25
1001
DIMEXPLODE
1070
     0
  0
ARC
  5
ACA
330
1F
100
AcDbEntity
  8
PV0001_4
  6
Continuous
 62
     7
 48
0.5
100
AcDbCircle
 10
358.47973632812
 20
523.03796386718
 30
0.0
 40
1.999999880790699
100
AcDbArc
 50
270.0000179860891
 51
0.0
1001
DEKIMAS
1000
実線（中）
1040
0.25
1001
DIMEXPLODE
1070
     0
  0
ARC
  5
ACB
330
1F
100
AcDbEntity
  8
PV0001_4
  6
Continuous
 62
     7
 48
0.5
100
AcDbCircle
 10
481.004077911372
 20
548.5379638671799
 30
0.0
 40
7.5618438720703
100
AcDbArc
 50
19.30509255693612
 51
82.66978201551788
1001
DEKIMAS
1000
実線（中）
1040
0.25
1001
DIMEXPLODE
1070
     0
  0
ARC
  5
ACC
330
1F
100
AcDbEntity
  8
PV0001_4
  6
Continuous
 62
     7
 48
0.5
100
AcDbCircle
 10
401.9547843933059
 20
548.5379638671799
 30
0.0
 40
7.771439552307099
100
AcDbArc
 50
105.1878570297263
 51
161.2352896983946
1001
DEKIMAS
1000
実線（中）
1040
0.25
1001
DIMEXPLODE
1070
     0
  0
ARC
  5
ACD
330
1F
100
AcDbEntity
  8
PV0001_4
  6
Continuous
 62
     7
 48
0.5
100
AcDbCircle
 10
524.9797363281199
 20
553.0379638671799
 30
0.0
 40
2.999999761581399
100
AcDbArc
 50
0.0
 51
89.99998201391097
1001
DEKIMAS
1000
実線（中）
1040
0.25
1001
DIMEXPLODE
1070
     0
  0
ARC
  5
ACE
330
1F
100
AcDbEntity
  8
PV0001_4
  6
Continuous
 62
     7
 48
0.5
100
AcDbCircle
 10
527.47973632812
 20
523.03796386718
 30
0.0
 40
1.999999880790699
100
AcDbArc
 50
179.9999640278186
 51
269.9999460417362
1001
DEKIMAS
1000
実線（中）
1040
0.25
1001
DIMEXPLODE
1070
     0
  0
ARC
  5
ACF
330
1F
100
AcDbEntity
  8
PV0001_4
  6
Continuous
 62
     7
 48
0.5
100
AcDbCircle
 10
360.97973632812
 20
553.0379638671799
 30
0.0
 40
2.999999761581399
100
AcDbArc
 50
89.99998201391097
 51
179.9999640278186
1001
DEKIMAS
1000
実線（中）
1040
0.25
1001
DIMEXPLODE
1070
     0
  0
ARC
  5
AD0
330
1F
100
AcDbEntity
  8
PV0001_4
  6
Continuous
 62
     7
 48
0.5
100
AcDbCircle
 10
357.97973632812
 20
546.03790283202
 30
0.0
 40
10.0
100
AcDbArc
 50
89.99998201391097
 51
179.9999640278186
1001
DEKIMAS
1000
実線（中）
1040
0.25
1001
DIMEXPLODE
1070
     0
  0
ARC
  5
AD1
330
1F
100
AcDbEntity
  8
PV0001_4
  6
Continuous
 62
     7
 48
0.5
100
AcDbCircle
 10
404.9553947448679
 20
548.5379638671799
 30
0.0
 40
7.5618438720703
100
AcDbArc
 50
97.33018201230485
 51
160.6948714708887
1001
DEKIMAS
1000
実線（中）
1040
0.25
1001
DIMEXPLODE
1070
     0
  0
ARC
  5
AD2
330
1F
100
AcDbEntity
  8
PV0001_4
  6
Continuous
 62
     7
 48
0.5
100
AcDbCircle
 10
527.97973632812
 20
546.03790283202
 30
0.0
 40
10.0
100
AcDbArc
 50
0.0
 51
89.99998201391097
1001
DEKIMAS
1000
実線（中）
1040
0.25
1001
DIMEXPLODE
1070
     0
  0
ARC
  5
AD3
330
1F
100
AcDbEntity
  8
PV0001_4
  6
Continuous
 62
     7
 48
0.5
100
AcDbCircle
 10
484.004688262934
 20
548.5379638671799
 30
0.0
 40
7.771439552307099
100
AcDbArc
 50
18.76467432942307
 51
74.81210699809351
1001
DEKIMAS
1000
実線（中）
1040
0.25
1001
DIMEXPLODE
1070
     0
  0
ARC
  5
AD4
330
1F
100
AcDbEntity
  8
PV0001_4
  6
HIDDEN2
 62
     4
100
AcDbCircle
 10
611.3824005126899
 20
447.6698913574099
 30
0.0
 40
48.519706726074
100
AcDbArc
 50
176.0194390625661
 51
253.9646016442697
1001
DEKIMAS
1000
破線（細）
1040
0.15
1001
DIMEXPLODE
1070
     0
  0
ARC
  5
AD5
330
1F
100
AcDbEntity
  8
PV0001_4
  6
HIDDEN2
 62
     4
100
AcDbCircle
 10
274.57707214355
 20
447.6698913574099
 30
0.0
 40
48.519706726074
100
AcDbArc
 50
286.0354033646875
 51
3.980556981767767
1001
DEKIMAS
1000
破線（細）
1040
0.15
1001
DIMEXPLODE
1070
     0
  0
ARC
  5
AD6
330
1F
100
AcDbEntity
  8
PV0001_4
  6
Continuous
 62
     7
 48
0.5
100
AcDbCircle
 10
567.58129119872
 20
459.6380310058499
 30
0.0
 40
3.0
100
AcDbArc
 50
90.00000250447845
 51
270.0000006832462
1001
DEKIMAS
1000
実線（中）
1040
0.25
1001
DIMEXPLODE
1070
     0
  0
ARC
  5
AD7
330
1F
100
AcDbEntity
  8
PV0001_4
  6
Continuous
 62
     7
 48
0.5
100
AcDbCircle
 10
587.58128356933
 20
459.6380310058499
 30
0.0
 40
3.0
100
AcDbArc
 50
269.9999974955215
 51
90.00000250447845
1001
DEKIMAS
1000
実線（中）
1040
0.25
1001
DIMEXPLODE
1070
     0
  0
ARC
  5
AD8
330
1F
100
AcDbEntity
  8
PV0001_4
  6
Continuous
 62
     7
 48
0.5
100
AcDbCircle
 10
567.58129119872
 20
391.23802185058
 30
0.0
 40
3.0
100
AcDbArc
 50
90.00000250447845
 51
270.0000006832462
1001
DEKIMAS
1000
実線（中）
1040
0.25
1001
DIMEXPLODE
1070
     0
  0
ARC
  5
AD9
330
1F
100
AcDbEntity
  8
PV0001_4
  6
Continuous
 62
     7
 48
0.5
100
AcDbCircle
 10
587.58128356933
 20
391.23802185058
 30
0.0
 40
3.0
100
AcDbArc
 50
269.9999974955215
 51
90.00000250447845
1001
DEKIMAS
1000
実線（中）
1040
0.25
1001
DIMEXPLODE
1070
     0
  0
ARC
  5
ADA
330
1F
100
AcDbEntity
  8
PV0001_4
  6
Continuous
 62
     7
 48
0.5
100
AcDbCircle
 10
567.58129119872
 20
322.83802795409
 30
0.0
 40
3.0
100
AcDbArc
 50
90.00000250447845
 51
270.0000006832462
1001
DEKIMAS
1000
実線（中）
1040
0.25
1001
DIMEXPLODE
1070
     0
  0
ARC
  5
ADB
330
1F
100
AcDbEntity
  8
PV0001_4
  6
Continuous
 62
     7
 48
0.5
100
AcDbCircle
 10
587.58128356933
 20
322.83802795409
 30
0.0
 40
3.0
100
AcDbArc
 50
269.9999974955215
 51
90.00000250447845
1001
DEKIMAS
1000
実線（中）
1040
0.25
1001
DIMEXPLODE
1070
     0
  0
ARC
  5
ADC
330
1F
100
AcDbEntity
  8
PV0001_4
  6
Continuous
 62
     7
 48
0.5
100
AcDbCircle
 10
587.58128356933
 20
254.438026428218
 30
0.0
 40
3.0
100
AcDbArc
 50
269.9999974955215
 51
90.00000250447845
1001
DEKIMAS
1000
実線（中）
1040
0.25
1001
DIMEXPLODE
1070
     0
  0
ARC
  5
ADD
330
1F
100
AcDbEntity
  8
PV0001_4
  6
Continuous
 62
     7
 48
0.5
100
AcDbCircle
 10
567.58129119872
 20
254.438026428218
 30
0.0
 40
3.0
100
AcDbArc
 50
90.00000250447845
 51
270.0000006832462
1001
DEKIMAS
1000
実線（中）
1040
0.25
1001
DIMEXPLODE
1070
     0
  0
ARC
  5
ADE
330
1F
100
AcDbEntity
  8
PV0001_4
  6
Continuous
 62
     7
100
AcDbCircle
 10
442.979730606074
 20
199.471488806152
 30
0.0
 40
363.56653609618
100
AcDbArc
 50
78.73850921407421
 51
101.2614907859258
1001
DEKIMAS
1000
実線（中）
1040
0.25
1001
DIMEXPLODE
1070
     0
  0
MTEXT
  5
ADF
330
1F
100
AcDbEntity
  8
PV0001_4
  6
Continuous
 62
     4
100
AcDbMText
 10
520.1107666492405
 20
323.41392517089
 30
0.0
 40
12.8
 41
0.0
 71
     4
 72
     5
  1
\T1.40;\W0.60;１０
  7
STD
 73
     1
 44
1.0
1001
DEKIMAS
1040
0.15
1001
ACAD
1000
MTEXTBEGIN
1070
    73
1070
     1
1070
    44
1040
1.0
1070
    74
1070
     0
1000
MTEXTEND
  0
MTEXT
  5
AE0
330
1F
100
AcDbEntity
  8
PV0001_4
  6
Continuous
 62
     4
100
AcDbMText
 10
520.4517700672095
 20
460.06103515624
 30
0.0
 40
12.8
 41
0.0
 71
     4
 72
     5
  1
\T1.40;\W0.60;２０
  7
STD
 73
     1
 44
1.0
1001
DEKIMAS
1040
0.15
1001
ACAD
1000
MTEXTBEGIN
1070
    73
1070
     1
1070
    44
1040
1.0
1070
    74
1070
     0
1000
MTEXTEND
  0
MTEXT
  5
AE1
330
1F
100
AcDbEntity
  8
PV0001_4
  6
Continuous
 62
     4
100
AcDbMText
 10
394.458741903301
 20
467.65936279296
 30
0.0
 40
19.2
 41
0.0
 71
     4
 72
     5
  1
\T1.40;\W0.46;ＭＤドラム２０
  7
STD
 73
     1
 44
1.0
1001
DEKIMAS
1040
0.15
1001
ACAD
1000
MTEXTBEGIN
1070
    73
1070
     1
1070
    44
1040
1.0
1070
    74
1070
     0
1000
MTEXTEND
  0
MTEXT
  5
AE2
330
1F
100
AcDbEntity
  8
画層1
  6
Continuous
 62
     4
100
AcDbMText
 10
232.49651377504
 20
344.0422965766856
 30
0.0
 40
10.0
 41
0.0
 71
     4
 72
     5
  1
\T1.40;\W0.60;３
  7
STD
 11
-0.0000000000000035
 21
1.0
 31
0.0
 73
     1
 44
1.0
1001
DEKIMAS
1040
0.15
1001
ACAD
1000
MTEXTBEGIN
1070
    73
1070
     1
1070
    44
1040
1.0
1070
    74
1070
     0
1000
MTEXTEND
  0
LWPOLYLINE
  5
AE3
330
1F
100
AcDbEntity
  8
画層1
  6
Continuous
 62
     4
100
AcDbPolyline
 90
        4
 70
     0
 43
0.0
 10
239.59871630682
 20
336.45899353326
 10
239.5987163068199
 20
356.45899353326
 10
222.2782082468199
 20
346.4589935332599
 10
239.59871630682
 20
336.45899353326
1001
DEKIMAS
1000
実線（中）
1040
0.25
  0
DIMENSION
  5
C66
330
1F
100
AcDbEntity
  8
TP1791_4
  6
Continuous
 62
     7
100
AcDbDimension
  2
*D11
 10
547.9797362469689
 20
646.9176940487333
 30
0.0
 11
442.9797362469665
 21
646.9176940918024
 31
0.0
 70
   160
  1
<>
 71
     5
 42
210.0
  3
ASKSTANDARD
100
AcDbAlignedDimension
 13
337.9797362862869
 23
742.7725830508842
 33
0.0
 14
547.9797362862869
 24
742.7725829647407
 34
0.0
 50
179.9999999764983
100
AcDbRotatedDimension
1001
ACAD
1000
DSTYLE
1002
{
1070
    44
1040
2.2859954834
1070
    40
1040
4.0
1070
   284
1070
     8
1070
   140
1040
3.0
1070
   271
1070
     0
1070
   173
1070
     1
1070
   343
1005
71F
1070
   344
1005
71F
1002
}
  0
DIMENSION
  5
CA9
330
1F
100
AcDbEntity
  8
TP1791_4
  6
Continuous
 62
     7
100
AcDbDimension
  2
*D12
 10
557.979736234401
 20
616.2771911149414
 30
0.0
 11
442.9797362343976
 21
616.2771911621124
 31
0.0
 70
   160
  1
<>
 71
     5
 42
229.9999999999999
  3
ASKSTANDARD
100
AcDbAlignedDimension
 13
327.9797362912014
 23
754.7529907698263
 33
0.0
 14
557.9797362912013
 24
754.7529906754787
 34
0.0
 50
179.9999999764983
100
AcDbRotatedDimension
1001
ACAD
1000
DSTYLE
1002
{
1070
    44
1040
2.2859954834
1070
    40
1040
4.0
1070
   284
1070
     8
1070
   140
1040
3.0
1070
   271
1070
     0
1070
   173
1070
     1
1070
   343
1005
71F
1070
   344
1005
71F
1002
}
  0
DIMENSION
  5
CEC
330
1F
100
AcDbEntity
  8
TP1791_4
  6
Continuous
 62
     7
100
AcDbDimension
  2
*D13
 10
657.2528839111202
 20
884.7529906734276
 30
0.0
 11
657.25288391112
 21
844.7529906347561
 31
0.0
 70
   160
  1
<>
 71
     5
 42
80.0
  3
ASKSTANDARD
100
AcDbAlignedDimension
 13
562.9797363117116
 23
804.7529906734277
 33
0.0
 14
562.9797363445283
 24
884.7529906734276
 34
0.0
 50
269.9999999764983
100
AcDbRotatedDimension
1001
ACAD
1000
DSTYLE
1002
{
1070
    44
1040
2.286003112792499
1070
    40
1040
4.0
1070
   284
1070
     8
1070
   140
1040
3.0
1070
   271
1070
     0
1070
   173
1070
     1
1070
   343
1005
71F
1070
   344
1005
71F
1002
}
  0
DIMENSION
  5
D2F
330
1F
100
AcDbEntity
  8
TP1791_4
  6
Continuous
 62
     7
100
AcDbDimension
  2
*D14
 10
692.2520141601502
 20
799.752990661809
 30
0.0
 11
692.2520141601499
 21
844.7529906203993
 31
0.0
 70
   160
  1
<>
 71
     5
 42
90.0
  3
ASKSTANDARD
100
AcDbAlignedDimension
 13
591.3036956971593
 23
889.7529906618089
 33
0.0
 14
591.3037109190306
 24
799.752990661809
 34
0.0
 50
269.9999999764983
100
AcDbRotatedDimension
1001
ACAD
1000
DSTYLE
1002
{
1070
    44
1040
2.285995483397499
1070
    40
1040
4.0
1070
   284
1070
     8
1070
   140
1040
3.0
1070
   271
1070
     0
1070
   173
1070
     1
1070
   343
1005
71F
1070
   344
1005
71F
1002
}
  0
DIMENSION
  5
D72
330
1F
100
AcDbEntity
  8
TP1791_4
  6
Continuous
 62
     7
100
AcDbDimension
  2
*D15
 10
619.4543106994479
 20
797.4667695796768
 30
0.0
 11
611.7724456500198
 21
774.8367308877872
 31
0.0
 70
   165
  1
<>
 71
     5
 42
0.7853981852531336
  3
ASKSTANDARD
100
AcDb3PointAngularDimension
 13
572.168086268516
 23
715.5646350292685
 33
0.0
 14
625.67965698241
 24
844.7529906477077
 34
0.0
 15
442.97973632812
 25
844.7529907226524
 35
0.0
1001
ACAD
1000
DSTYLE
1002
{
1070
    40
1040
4.0
1070
   284
1070
     8
1070
   140
1040
3.0
1070
   179
1070
     0
1070
   173
1070
     1
1070
   343
1005
71F
1070
   344
1005
71F
1070
    75
1070
     1
1070
    76
1070
     1
1002
}
  0
DIMENSION
  5
DCD
330
1F
100
AcDbEntity
  8
TP1791_4
  6
Continuous
 62
     7
100
AcDbDimension
  2
*D16
 10
246.979675282715
 20
794.7529907716122
 30
0.0
 11
246.9796752827148
 21
819.752990803053
 31
0.0
 70
   160
  1
<>
 71
     5
 42
50.00000002307775
  3
ASKSTANDARD
100
AcDbAlignedDimension
 13
267.36717224121
 23
844.7529907946899
 33
0.0
 14
323.6259536538097
 24
794.7529907716122
 34
0.0
 50
269.9999999764983
100
AcDbRotatedDimension
1001
ACAD
1000
DSTYLE
1002
{
1070
    44
1040
2.285999298094999
1070
    40
1040
4.0
1070
   284
1070
     8
1070
   140
1040
3.0
1070
   271
1070
     0
1070
   173
1070
     1
1070
   343
1005
71F
1070
   344
1005
71F
1002
}
  0
LINE
  5
E10
330
1F
100
AcDbEntity
  8
TP1791_4
  6
CENTER2
 62
     1
100
AcDbLine
 10
442.9797363981877
 20
1015.563842773432
 30
0.0
 11
442.9797362550281
 21
666.5699462890625
 31
0.0
1001
DEKIMAS
1000
一点鎖線（細）
1040
0.15
1001
DIMEXPLODE
1070
     0
  0
LINE
  5
E11
330
1F
100
AcDbEntity
  8
TP1791_4
  6
CENTER2
 62
     1
100
AcDbLine
 10
628.75140380858
 20
844.7529906464476
 30
0.0
 11
267.36717224121
 21
844.7529907946899
 31
0.0
1001
DEKIMAS
1000
一点鎖線（細）
1040
0.15
1001
DIMEXPLODE
1070
     0
  0
LINE
  5
E12
330
1F
100
AcDbEntity
  8
TP1791_4
  6
Continuous
 62
     7
 48
0.5
100
AcDbLine
 10
397.9797362672765
 20
696.4290161317418
 30
0.0
 11
397.9797362645379
 21
689.7529907411118
 31
0.0
1001
DEKIMAS
1000
実線（中）
1040
0.25
1001
DIMEXPLODE
1070
     0
  0
LINE
  5
E13
330
1F
100
AcDbEntity
  8
TP1791_4
  6
Continuous
 62
     7
100
AcDbLine
 10
487.9797362645379
 20
689.7529907041931
 30
0.0
 11
397.9797362645379
 21
689.7529907411118
 31
0.0
1001
DEKIMAS
1000
実線（中）
1040
0.25
1001
DIMEXPLODE
1070
     0
  0
LINE
  5
E14
330
1F
100
AcDbEntity
  8
TP1791_4
  6
Continuous
 62
     7
 48
0.5
100
AcDbLine
 10
487.9797362672765
 20
696.4290160948231
 30
0.0
 11
487.9797362645379
 21
689.7529907041931
 31
0.0
1001
DEKIMAS
1000
実線（中）
1040
0.25
1001
DIMEXPLODE
1070
     0
  0
LINE
  5
E15
330
1F
100
AcDbEntity
  8
TP1791_4
  6
CENTER2
 62
     1
100
AcDbLine
 10
564.5019759926596
 20
794.7529906728032
 30
0.0
 11
323.6259536538097
 21
794.7529907716122
 31
0.0
1001
DEKIMAS
1000
一点鎖線（細）
1040
0.15
1001
DIMEXPLODE
1070
     0
  0
LINE
  5
E16
330
1F
100
AcDbEntity
  8
TP1791_4
  6
Continuous
 62
     7
100
AcDbLine
 10
327.9797362912014
 20
754.7529907698263
 30
0.0
 11
327.9797363076097
 21
794.7529907698262
 31
0.0
1001
DEKIMAS
1000
実線（中）
1040
0.25
1001
DIMEXPLODE
1070
     0
  0
LINE
  5
E17
330
1F
100
AcDbEntity
  8
TP1791_4
  6
Continuous
 62
     7
100
AcDbLine
 10
337.9797362862869
 20
742.7725830508842
 30
0.0
 11
337.9797363076097
 21
794.7529907657242
 31
0.0
1001
DEKIMAS
1000
実線（中）
1040
0.25
1001
DIMEXPLODE
1070
     0
  0
LINE
  5
E18
330
1F
100
AcDbEntity
  8
TP1791_4
  6
Continuous
 62
     7
100
AcDbLine
 10
547.9797362862869
 20
742.7725829647407
 30
0.0
 11
547.9797363076096
 21
794.7529906795807
 31
0.0
1001
DEKIMAS
1000
実線（中）
1040
0.25
1001
DIMEXPLODE
1070
     0
  0
LINE
  5
E19
330
1F
100
AcDbEntity
  8
TP1791_4
  6
Continuous
 62
     7
100
AcDbLine
 10
557.9797362912013
 20
754.7529906754787
 30
0.0
 11
557.9797363076096
 21
794.7529906754787
 31
0.0
1001
DEKIMAS
1000
実線（中）
1040
0.25
1001
DIMEXPLODE
1070
     0
  0
LINE
  5
E1A
330
1F
100
AcDbEntity
  8
TP1791_4
  6
Continuous
 62
     7
 48
0.5
100
AcDbLine
 10
488.8976949833565
 20
723.2227484701766
 30
0.0
 11
491.3640208014548
 21
714.6720388551149
 31
0.0
1001
DEKIMAS
1000
実線（中）
1040
0.25
1001
DIMEXPLODE
1070
     0
  0
LINE
  5
E1B
330
1F
100
AcDbEntity
  8
TP1791_4
  6
Continuous
 62
     7
 48
0.5
100
AcDbLine
 10
481.9699757327311
 20
719.2241109693184
 30
0.0
 11
488.1419409828622
 21
712.8128518953666
 31
0.0
1001
DEKIMAS
1000
実線（中）
1040
0.25
1001
DIMEXPLODE
1070
     0
  0
LINE
  5
E1C
330
1F
100
AcDbEntity
  8
TP1791_4
  6
Continuous
 62
     7
 48
0.5
100
AcDbLine
 10
403.989050375945
 20
719.2237284126668
 30
0.0
 11
397.8171877035771
 21
712.8125823925984
 31
0.0
1001
DEKIMAS
1000
実線（中）
1040
0.25
1001
DIMEXPLODE
1070
     0
  0
LINE
  5
E1D
330
1F
100
AcDbEntity
  8
TP1791_4
  6
Continuous
 62
     7
 48
0.5
100
AcDbLine
 10
527.8867607281112
 20
798.7570872614041
 30
0.0
 11
536.5249367430065
 21
796.6176620035156
 31
0.0
1001
DEKIMAS
1000
実線（中）
1040
0.25
1001
DIMEXPLODE
1070
     0
  0
LINE
  5
E1E
330
1F
100
AcDbEntity
  8
TP1791_4
  6
Continuous
 62
     7
 48
0.5
100
AcDbLine
 10
488.896612974183
 20
866.2838587618491
 30
0.0
 11
491.3629584454207
 21
874.8346262316024
 31
0.0
1001
DEKIMAS
1000
実線（中）
1040
0.25
1001
DIMEXPLODE
1070
     0
  0
LINE
  5
E1F
330
1F
100
AcDbEntity
  8
TP1791_4
  6
Continuous
 62
     7
 48
0.5
100
AcDbLine
 10
481.9683514507359
 20
870.2839170190671
 30
0.0
 11
488.1401918774618
 21
876.6950420938643
 31
0.0
1001
DEKIMAS
1000
実線（中）
1040
0.25
1001
DIMEXPLODE
1070
     0
  0
LINE
  5
E20
330
1F
100
AcDbEntity
  8
TP1791_4
  6
Continuous
 62
     7
 48
0.5
100
AcDbLine
 10
397.0622743914075
 20
723.2228278335282
 30
0.0
 11
394.5959276959159
 21
714.6720607168898
 31
0.0
1001
DEKIMAS
1000
実線（中）
1040
0.25
1001
DIMEXPLODE
1070
     0
  0
LINE
  5
E21
330
1F
100
AcDbEntity
  8
TP1791_4
  6
Continuous
 62
     7
 48
0.5
100
AcDbLine
 10
403.9917653828163
 20
870.2847100394505
 30
0.0
 11
397.8198834469772
 21
876.6958798756395
 31
0.0
1001
DEKIMAS
1000
実線（中）
1040
0.25
1001
DIMEXPLODE
1070
     0
  0
LINE
  5
E22
330
1F
100
AcDbEntity
  8
TP1791_4
  6
Continuous
 62
     7
 48
0.5
100
AcDbLine
 10
397.0631666268951
 20
866.2837953598899
 30
0.0
 11
394.5968563584316
 21
874.8344459366736
 31
0.0
1001
DEKIMAS
1000
実線（中）
1040
0.25
1001
DIMEXPLODE
1070
     0
  0
LINE
  5
E23
330
1F
100
AcDbEntity
  8
TP1791_4
  6
Continuous
 62
     7
 48
0.5
100
AcDbLine
 10
527.885068917853
 20
790.7557570624407
 30
0.0
 11
536.5233648786055
 21
792.8952057897232
 31
0.0
1001
DEKIMAS
1000
実線（中）
1040
0.25
1001
DIMEXPLODE
1070
     0
  0
LINE
  5
E24
330
1F
100
AcDbEntity
  8
TP1791_4
  6
Continuous
 62
     7
 48
0.5
100
AcDbLine
 10
358.0732166687114
 20
798.7551659617587
 30
0.0
 11
349.4349211411937
 21
796.6157154852382
 31
0.0
1001
DEKIMAS
1000
実線（中）
1040
0.25
1001
DIMEXPLODE
1070
     0
  0
LINE
  5
E25
330
1F
100
AcDbEntity
  8
TP1791_4
  6
Continuous
 62
     7
 48
0.5
100
AcDbLine
 10
358.074488718707
 20
790.7557909753262
 30
0.0
 11
349.4363123015276
 21
792.8952146089457
 31
0.0
1001
DEKIMAS
1000
実線（中）
1040
0.25
1001
DIMEXPLODE
1070
     0
  0
LINE
  5
E26
330
1F
100
AcDbEntity
  8
TP1791_4
  6
HIDDEN2
 62
     4
100
AcDbLine
 10
562.9797363445283
 20
884.7529906734276
 30
0.0
 11
562.9797363117116
 21
804.7529906734277
 31
0.0
1001
DEKIMAS
1000
破線（細）
1040
0.15
1001
DIMEXPLODE
1070
     0
  0
LINE
  5
E27
330
1F
100
AcDbEntity
  8
TP1791_4
  6
HIDDEN2
 62
     4
 48
0.5
100
AcDbLine
 10
562.9797279284282
 20
884.7530068435707
 30
0.0
 11
591.3037081859592
 21
889.7530086894271
 31
0.0
1001
DEKIMAS
1000
破線（細）
1040
0.15
1001
DIMEXPLODE
1070
     0
  0
LINE
  5
E28
330
1F
100
AcDbEntity
  8
TP1791_4
  6
HIDDEN2
 62
     4
 48
0.5
100
AcDbLine
 10
562.9797372752017
 20
804.7529954886877
 30
0.0
 11
591.3037053196307
 21
799.7529957748359
 31
0.0
1001
DEKIMAS
1000
破線（細）
1040
0.15
1001
DIMEXPLODE
1070
     0
  0
LINE
  5
E29
330
1F
100
AcDbEntity
  8
TP1791_4
  6
HIDDEN2
 62
     4
 48
0.5
100
AcDbLine
 10
322.9797353482218
 20
804.7529955871373
 30
0.0
 11
294.6557672996907
 21
799.752995896523
 31
0.0
1001
DEKIMAS
1000
破線（細）
1040
0.15
1001
DIMEXPLODE
1070
     0
  0
LINE
  5
E2A
330
1F
100
AcDbEntity
  8
TP1791_4
  6
HIDDEN2
 62
     4
100
AcDbLine
 10
322.9797363445283
 20
884.7529907718772
 30
0.0
 11
322.9797363117117
 21
804.7529907718773
 31
0.0
1001
DEKIMAS
1000
破線（細）
1040
0.15
1001
DIMEXPLODE
1070
     0
  0
LINE
  5
E2B
330
1F
100
AcDbEntity
  8
TP1791_4
  6
HIDDEN2
 62
     4
 48
0.5
100
AcDbLine
 10
322.9797447606283
 20
884.7530069420203
 30
0.0
 11
294.6557645071994
 21
889.7530088111139
 31
0.0
1001
DEKIMAS
1000
破線（細）
1040
0.15
1001
DIMEXPLODE
1070
     0
  0
LINE
  5
E2C
330
1F
100
AcDbEntity
  8
TP1791_4
  6
CENTER2
 62
     1
100
AcDbLine
 10
578.2005938165414
 20
709.532126576864
 30
0.0
 11
537.4033939589398
 21
750.3293264679342
 31
0.0
1001
DEKIMAS
1000
一点鎖線（細）
1040
0.15
1001
DIMEXPLODE
1070
     0
  0
CIRCLE
  5
E2D
330
1F
100
AcDbEntity
  8
TP1791_4
  6
Continuous
 62
     7
100
AcDbCircle
 10
442.97973632812
 20
844.7529907226524
 30
0.0
 40
155.0
1001
DEKIMAS
1000
実線（中）
1040
0.25
  0
ARC
  5
E2E
330
1F
100
AcDbEntity
  8
TP1791_4
  6
Continuous
 62
     7
100
AcDbCircle
 10
442.9797363076096
 20
794.7529907226525
 30
0.0
 40
115.0
100
AcDbArc
 50
359.9999999764983
 51
179.9999640043137
1001
DEKIMAS
1000
実線（中）
1040
0.25
1001
DIMEXPLODE
1070
     0
  0
ARC
  5
E2F
330
1F
100
AcDbEntity
  8
TP1791_4
  6
Continuous
 62
     7
100
AcDbCircle
 10
442.9797363076096
 20
794.7529907226525
 30
0.0
 40
105.0
100
AcDbArc
 50
359.9999999764983
 51
179.9999640043137
1001
DEKIMAS
1000
実線（中）
1040
0.25
1001
DIMEXPLODE
1070
     0
  0
ARC
  5
E30
330
1F
100
AcDbEntity
  8
TP1791_4
  6
Continuous
 62
     7
 48
0.5
100
AcDbCircle
 10
332.979736286287
 20
742.7725830529352
 30
0.0
 40
5.0
100
AcDbArc
 50
222.8336002339327
 51
359.9999999764983
1001
DEKIMAS
1000
実線（中）
1040
0.25
1001
DIMEXPLODE
1070
     0
  0
ARC
  5
E31
330
1F
100
AcDbEntity
  8
TP1791_4
  6
Continuous
 62
     7
 48
0.5
100
AcDbCircle
 10
322.9797362912014
 20
754.7529907718772
 30
0.0
 40
5.0
100
AcDbArc
 50
216.8698752016459
 51
359.9999999764983
1001
DEKIMAS
1000
実線（中）
1040
0.25
1001
DIMEXPLODE
1070
     0
  0
ARC
  5
E32
330
1F
100
AcDbEntity
  8
TP1791_4
  6
Continuous
 62
     7
 48
0.5
100
AcDbCircle
 10
552.9797362862868
 20
742.7725829626897
 30
0.0
 40
5.0
100
AcDbArc
 50
179.9999640043137
 51
317.1663637468836
1001
DEKIMAS
1000
実線（中）
1040
0.25
1001
DIMEXPLODE
1070
     0
  0
ARC
  5
E33
330
1F
100
AcDbEntity
  8
TP1791_4
  6
Continuous
 62
     7
 48
0.5
100
AcDbCircle
 10
562.9797362912013
 20
754.7529906734276
 30
0.0
 40
5.0
100
AcDbArc
 50
179.9999640043137
 51
323.130075118791
1001
DEKIMAS
1000
実線（中）
1040
0.25
1001
DIMEXPLODE
1070
     0
  0
ARC
  5
E34
330
1F
100
AcDbEntity
  8
TP1791_4
  6
Continuous
 62
     7
100
AcDbCircle
 10
442.9797363076096
 20
794.7529907226525
 30
0.0
 40
90.0
100
AcDbArc
 50
121.7501709887216
 51
178.2499329351738
1001
DEKIMAS
1000
実線（中）
1040
0.25
1001
DIMEXPLODE
1070
     0
  0
ARC
  5
E35
330
1F
100
AcDbEntity
  8
TP1791_4
  6
Continuous
 62
     7
 48
0.5
100
AcDbCircle
 10
396.4381103641155
 20
875.3655395698691
 30
0.0
 40
1.916775703430199
100
AcDbArc
 50
43.91079437689091
 51
196.0895401037955
1001
DEKIMAS
1000
実線（中）
1040
0.25
1001
DIMEXPLODE
1070
     0
  0
ARC
  5
E36
330
1F
100
AcDbEntity
  8
TP1791_4
  6
Continuous
 62
     7
 48
0.5
100
AcDbCircle
 10
489.5213623172394
 20
875.3655395316858
 30
0.0
 40
1.916775703430199
100
AcDbArc
 50
343.9108063676252
 51
136.0895520945196
1001
DEKIMAS
1000
実線（中）
1040
0.25
1001
DIMEXPLODE
1070
     0
  0
ARC
  5
E37
330
1F
100
AcDbEntity
  8
TP1791_4
  6
Continuous
 62
     7
 48
0.5
100
AcDbCircle
 10
536.0629882607346
 20
794.7529906844691
 30
0.0
 40
1.916775703430199
100
AcDbArc
 50
283.9108183583382
 51
76.08950944373424
1001
DEKIMAS
1000
実線（中）
1040
0.25
1001
DIMEXPLODE
1070
     0
  0
ARC
  5
E38
330
1F
100
AcDbEntity
  8
TP1791_4
  6
Continuous
 62
     7
 48
0.5
100
AcDbCircle
 10
396.4381102979799
 20
714.1405639839341
 30
0.0
 40
1.916775703430199
100
AcDbArc
 50
163.9107977161921
 51
316.0895161223408
1001
DEKIMAS
1000
実線（中）
1040
0.25
1001
DIMEXPLODE
1070
     0
  0
ARC
  5
E39
330
1F
100
AcDbEntity
  8
TP1791_4
  6
Continuous
 62
     7
100
AcDbCircle
 10
442.9797363076096
 20
794.7529907226525
 30
0.0
 40
90.0
100
AcDbArc
 50
301.749851791069
 51
358.2498596243321
1001
DEKIMAS
1000
実線（中）
1040
0.25
1001
DIMEXPLODE
1070
     0
  0
ARC
  5
E3A
330
1F
100
AcDbEntity
  8
TP1791_4
  6
Continuous
 62
     7
 48
0.5
100
AcDbCircle
 10
489.5213622511039
 20
714.1405639457508
 30
0.0
 40
1.916775703430199
100
AcDbArc
 50
223.9108166886938
 51
16.08952143446175
1001
DEKIMAS
1000
実線（中）
1040
0.25
1001
DIMEXPLODE
1070
     0
  0
ARC
  5
E3B
330
1F
100
AcDbEntity
  8
TP1791_4
  6
Continuous
 62
     7
100
AcDbCircle
 10
442.9797363076096
 20
794.7529907226525
 30
0.0
 40
90.0
100
AcDbArc
 50
241.7499047629288
 51
298.2497350112722
1001
DEKIMAS
1000
実線（中）
1040
0.25
1001
DIMEXPLODE
1070
     0
  0
ARC
  5
E3C
330
1F
100
AcDbEntity
  8
TP1791_4
  6
Continuous
 62
     7
100
AcDbCircle
 10
442.9797363076096
 20
794.7529907226525
 30
0.0
 40
90.0
100
AcDbArc
 50
61.75012833793892
 51
118.2499722466671
1001
DEKIMAS
1000
実線（中）
1040
0.25
1001
DIMEXPLODE
1070
     0
  0
CIRCLE
  5
E3D
330
1F
100
AcDbEntity
  8
TP1791_4
  6
Continuous
 62
     7
100
AcDbCircle
 10
442.9797363076096
 20
794.7529907226525
 30
0.0
 40
85.0
1001
DEKIMAS
1000
実線（中）
1040
0.25
  0
CIRCLE
  5
E3E
330
1F
100
AcDbEntity
  8
TP1791_4
  6
Continuous
 62
     7
100
AcDbCircle
 10
442.9797363076096
 20
794.7529907226525
 30
0.0
 40
71.0
1001
DEKIMAS
1000
実線（中）
1040
0.25
  0
ARC
  5
E3F
330
1F
100
AcDbEntity
  8
TP1791_4
  6
Continuous
 62
     7
100
AcDbCircle
 10
442.9797363076096
 20
794.7529907226525
 30
0.0
 40
90.0
100
AcDbArc
 50
1.75014032866863
 51
58.24984763360675
1001
DEKIMAS
1000
実線（中）
1040
0.25
1001
DIMEXPLODE
1070
     0
  0
ARC
  5
E40
330
1F
100
AcDbEntity
  8
TP1791_4
  6
Continuous
 62
     7
 48
0.5
100
AcDbCircle
 10
349.8964843544846
 20
794.7529907608359
 30
0.0
 40
1.916775703430199
100
AcDbArc
 50
103.9108097069179
 51
256.0895281130657
1001
DEKIMAS
1000
実線（中）
1040
0.25
1001
DIMEXPLODE
1070
     0
  0
ARC
  5
E41
330
1F
100
AcDbEntity
  8
TP1791_4
  6
Continuous
 62
     7
100
AcDbCircle
 10
442.9797363076096
 20
794.7529907226525
 30
0.0
 40
90.0
100
AcDbArc
 50
181.7501216593334
 51
238.2497470020041
1001
DEKIMAS
1000
実線（中）
1040
0.25
1001
DIMEXPLODE
1070
     0
  0
CIRCLE
  5
E42
330
1F
100
AcDbEntity
  8
TP1791_4
  6
Continuous
 62
     7
 48
0.5
100
AcDbCircle
 10
552.5812911537607
 20
735.1514281776932
 30
0.0
 40
1.0
1001
DEKIMAS
1000
実線（中）
1040
0.25
  0
LEADER
  5
E43
330
1F
100
AcDbEntity
  8
TP1791_4
  6
Continuous
 62
     4
100
AcDbLeader
  3
ASKSTANDARD
 76
     3
 10
553.5666100588806
 20
734.9807598397989
 30
0.0
 10
611.0797595543541
 20
725.0186829851068
 30
0.0
 10
669.5961591614341
 20
725.0186829611029
 30
0.0
211
-1.0
221
0.0000000004102069
231
0.0
1001
DEKIMAS
1000
実線（細）
1040
0.15
1001
DIMEXPLODE
1070
     0
1001
ACAD
1000
DSTYLE
1002
{
1070
   173
1070
     1
1070
   341
1005
71F
1070
   176
1070
     0
1002
}
  0
MTEXT
  5
E44
330
1F
100
AcDbEntity
  8
TP1791_4
  6
Continuous
 62
     4
100
AcDbMText
 10
617.9439224718684
 20
728.218676829092
 30
0.0
 40
12.8
 41
0.0
 71
     7
 72
     5
  1
\T1.40;\W0.60;目盛位置
  7
STD
 73
     1
 44
1.0
1001
DEKIMAS
1040
0.15
1001
ACAD
1000
MTEXTBEGIN
1070
    73
1070
     1
1070
    44
1040
1.0
1070
    74
1070
     0
1000
MTEXTEND
  0
LEADER
  5
E45
330
1F
100
AcDbEntity
  8
TP1791_4
  6
Continuous
 62
     4
100
AcDbLeader
  3
ASKSTANDARD
 76
     3
 10
377.8555320803743
 20
740.1284817287968
 30
0.0
 10
279.6476000150518
 20
657.7541668704624
 30
0.0
 10
144.3312006940618
 20
657.7541669259701
 30
0.0
211
-1.0
221
0.0000000004102069
231
0.0
1001
DEKIMAS
1000
実線（細）
1040
0.15
1001
DIMEXPLODE
1070
     0
1001
ACAD
1000
DSTYLE
1002
{
1070
   173
1070
     1
1070
   341
1005
71F
1070
   176
1070
     0
1002
}
  0
MTEXT
  5
E46
330
1F
100
AcDbEntity
  8
TP1791_4
  6
Continuous
 62
     4
100
AcDbMText
 10
274.0259236866465
 20
673.7541506029795
 30
0.0
 40
12.8
 41
0.0
 71
     3
 72
     5
  1
\T1.40;\W0.60;\U+2205１４５ハンドホール
  7
STD
 73
     1
 44
1.0
1001
DEKIMAS
1040
0.15
1001
ACAD
1000
MTEXTBEGIN
1070
    73
1070
     1
1070
    44
1040
1.0
1070
    74
1070
     0
1000
MTEXTEND
  0
POINT
  5
F1D
330
1F
100
AcDbEntity
  8
F00001_1
  6
Continuous
 62
     4
100
AcDbPoint
 10
110.999999999996
 20
1048.999999999965
 30
0.0
1001
ASKOBJSC
1000
1/1
1001
ASKDWGSC
1040
4.0
  0
POINT
  5
F1E
330
1F
100
AcDbEntity
  8
F00001_1
  6
Continuous
 62
     4
100
AcDbPoint
 10
354.999999999996
 20
1048.999999999965
 30
0.0
1001
ASKOBJSC
1000
1/1
1001
ASKDWGSC
1040
4.0
  0
POINT
  5
F1F
330
1F
100
AcDbEntity
  8
F00001_1
  6
Continuous
 62
     4
100
AcDbPoint
 10
413.9999999999948
 20
1048.999999999965
 30
0.0
1001
ASKOBJSC
1000
1/1
1001
ASKDWGSC
1040
4.0
  0
POINT
  5
F20
330
1F
100
AcDbEntity
  8
F00001_1
  6
Continuous
 62
     4
100
AcDbPoint
 10
465.9999999999952
 20
1048.999999999965
 30
0.0
1001
ASKOBJSC
1000
1/1
1001
ASKDWGSC
1040
4.0
  0
POINT
  5
F21
330
1F
100
AcDbEntity
  8
F00001_1
  6
Continuous
 62
     4
100
AcDbPoint
 10
150.7999877929639
 20
1048.999999999965
 30
0.0
1001
ASKOBJSC
1000
1/1
1001
ASKDWGSC
1040
4.0
  0
POINT
  5
F22
330
1F
100
AcDbEntity
  8
F00001_1
  6
Continuous
 62
     4
100
AcDbPoint
 10
83.99999999999602
 20
1061.999999999965
 30
0.0
1001
ASKOBJSC
1000
1/1
1001
ASKDWGSC
1040
4.0
  0
LINE
  5
F23
330
1F
100
AcDbEntity
  8
F00001_1
  6
Continuous
 62
     4
100
AcDbLine
 10
4.0
 20
1191.999999999965
 30
0.0
 11
4.0
 21
1151.999999999965
 31
0.0
1001
DEKIMAS
1000
実線（細）
1040
0.15
1001
DIMEXPLODE
1070
     0
1001
ASKOBJSC
1000
1/1
1001
ASKDWGSC
1040
4.0
  0
LINE
  5
F24
330
1F
100
AcDbEntity
  8
F00001_1
  6
Continuous
 62
     4
100
AcDbLine
 10
1683.99999999996
 20
1191.999999999965
 30
0.0
 11
1683.99999999996
 21
1151.999999999965
 31
0.0
1001
DEKIMAS
1000
実線（細）
1040
0.15
1001
DIMEXPLODE
1070
     0
1001
ASKOBJSC
1000
1/1
1001
ASKDWGSC
1040
4.0
  0
LINE
  5
F25
330
1F
100
AcDbEntity
  8
F00001_1
  6
Continuous
 62
     4
100
AcDbLine
 10
4.0
 20
1191.999999999965
 30
0.0
 11
43.99999999999602
 21
1191.999999999965
 31
0.0
1001
DEKIMAS
1000
実線（細）
1040
0.15
1001
DIMEXPLODE
1070
     0
1001
ASKOBJSC
1000
1/1
1001
ASKDWGSC
1040
4.0
  0
LINE
  5
F26
330
1F
100
AcDbEntity
  8
F00001_1
  6
Continuous
 62
     4
100
AcDbLine
 10
4.0
 20
3.999999999993065
 30
0.0
 11
43.99999999999602
 21
3.999999999993065
 31
0.0
1001
DEKIMAS
1000
実線（細）
1040
0.15
1001
DIMEXPLODE
1070
     0
1001
ASKOBJSC
1000
1/1
1001
ASKDWGSC
1040
4.0
  0
LINE
  5
F27
330
1F
100
AcDbEntity
  8
F00001_1
  6
Continuous
 62
     2
100
AcDbLine
 10
1115.99999999996
 20
259.999999999965
 30
0.0
 11
1115.99999999996
 21
59.99999999999307
 31
0.0
1001
DEKIMAS
1000
実線（太）
1040
0.5
1001
DIMEXPLODE
1070
     0
1001
ASKOBJSC
1000
1/1
1001
ASKDWGSC
1040
4.0
  0
LINE
  5
F28
330
1F
100
AcDbEntity
  8
F00001_1
  6
Continuous
 62
     2
100
AcDbLine
 10
1115.99999999996
 20
259.999999999965
 30
0.0
 11
1603.99999999996
 21
259.999999999965
 31
0.0
1001
DEKIMAS
1000
実線（太）
1040
0.5
1001
DIMEXPLODE
1070
     0
1001
ASKOBJSC
1000
1/1
1001
ASKDWGSC
1040
4.0
  0
LINE
  5
F29
330
1F
100
AcDbEntity
  8
F00001_1
  6
Continuous
 62
     4
100
AcDbLine
 10
1115.99999999996
 20
209.9999999999931
 30
0.0
 11
1603.99999999996
 21
209.9999999999931
 31
0.0
1001
DEKIMAS
1000
実線（細）
1040
0.15
1001
DIMEXPLODE
1070
     0
1001
ASKOBJSC
1000
1/1
1001
ASKDWGSC
1040
4.0
  0
LINE
  5
F2A
330
1F
100
AcDbEntity
  8
F00001_1
  6
Continuous
 62
     4
100
AcDbLine
 10
1115.99999999996
 20
109.999999999993
 30
0.0
 11
1603.99999999996
 21
109.999999999993
 31
0.0
1001
DEKIMAS
1000
実線（細）
1040
0.15
1001
DIMEXPLODE
1070
     0
1001
ASKOBJSC
1000
1/1
1001
ASKDWGSC
1040
4.0
  0
LINE
  5
F2B
330
1F
100
AcDbEntity
  8
F00001_1
  6
Continuous
 62
     4
100
AcDbLine
 10
1219.99999999996
 20
259.999999999965
 30
0.0
 11
1219.99999999996
 21
109.999999999993
 31
0.0
1001
DEKIMAS
1000
実線（細）
1040
0.15
1001
DIMEXPLODE
1070
     0
1001
ASKOBJSC
1000
1/1
1001
ASKDWGSC
1040
4.0
  0
LINE
  5
F2C
330
1F
100
AcDbEntity
  8
F00001_1
  6
Continuous
 62
     4
100
AcDbLine
 10
1167.99999999996
 20
209.9999999999931
 30
0.0
 11
1167.99999999996
 21
149.999999999993
 31
0.0
1001
DEKIMAS
1000
実線（細）
1040
0.15
1001
DIMEXPLODE
1070
     0
1001
ASKOBJSC
1000
1/1
1001
ASKDWGSC
1040
4.0
  0
LINE
  5
F2D
330
1F
100
AcDbEntity
  8
F00001_1
  6
Continuous
 62
     4
100
AcDbLine
 10
1115.99999999996
 20
189.999999999993
 30
0.0
 11
1323.99999999996
 21
189.999999999993
 31
0.0
1001
DEKIMAS
1000
実線（細）
1040
0.15
1001
DIMEXPLODE
1070
     0
1001
ASKOBJSC
1000
1/1
1001
ASKDWGSC
1040
4.0
  0
LINE
  5
F2E
330
1F
100
AcDbEntity
  8
F00001_1
  6
Continuous
 62
     4
100
AcDbLine
 10
1115.99999999996
 20
149.999999999993
 30
0.0
 11
1323.99999999996
 21
149.999999999993
 31
0.0
1001
DEKIMAS
1000
実線（細）
1040
0.15
1001
DIMEXPLODE
1070
     0
1001
ASKOBJSC
1000
1/1
1001
ASKDWGSC
1040
4.0
  0
LINE
  5
F2F
330
1F
100
AcDbEntity
  8
F00001_1
  6
Continuous
 62
     4
100
AcDbLine
 10
1133.99999999996
 20
149.999999999993
 30
0.0
 11
1133.99999999996
 21
109.999999999993
 31
0.0
1001
DEKIMAS
1000
実線（細）
1040
0.15
1001
DIMEXPLODE
1070
     0
1001
ASKOBJSC
1000
1/1
1001
ASKDWGSC
1040
4.0
  0
LINE
  5
F30
330
1F
100
AcDbEntity
  8
F00001_1
  6
Continuous
 62
     4
100
AcDbLine
 10
1237.99999999996
 20
149.999999999993
 30
0.0
 11
1237.99999999996
 21
109.999999999993
 31
0.0
1001
DEKIMAS
1000
実線（細）
1040
0.15
1001
DIMEXPLODE
1070
     0
1001
ASKOBJSC
1000
1/1
1001
ASKDWGSC
1040
4.0
  0
LINE
  5
F31
330
1F
100
AcDbEntity
  8
F00001_1
  6
Continuous
 62
     4
100
AcDbLine
 10
1323.99999999996
 20
209.9999999999931
 30
0.0
 11
1323.99999999996
 21
59.99999999999307
 31
0.0
1001
DEKIMAS
1000
実線（細）
1040
0.15
1001
DIMEXPLODE
1070
     0
1001
ASKOBJSC
1000
1/1
1001
ASKDWGSC
1040
4.0
  0
LINE
  5
F32
330
1F
100
AcDbEntity
  8
F00001_1
  6
Continuous
 62
     4
100
AcDbLine
 10
1271.99999999996
 20
209.9999999999931
 30
0.0
 11
1271.99999999996
 21
149.999999999993
 31
0.0
1001
DEKIMAS
1000
実線（細）
1040
0.15
1001
DIMEXPLODE
1070
     0
1001
ASKOBJSC
1000
1/1
1001
ASKDWGSC
1040
4.0
  0
LINE
  5
F33
330
1F
100
AcDbEntity
  8
F00001_1
  6
Continuous
 62
     4
100
AcDbLine
 10
1345.99999999996
 20
209.9999999999931
 30
0.0
 11
1345.99999999996
 21
59.99999999999307
 31
0.0
1001
DEKIMAS
1000
実線（細）
1040
0.15
1001
DIMEXPLODE
1070
     0
1001
ASKOBJSC
1000
1/1
1001
ASKDWGSC
1040
4.0
  0
LINE
  5
F34
330
1F
100
AcDbEntity
  8
F00001_1
  6
Continuous
 62
     4
 48
0.5
100
AcDbLine
 10
1115.99999999996
 20
287.999999999965
 30
0.0
 11
1115.99999999996
 21
259.999999999965
 31
0.0
1001
DEKIMAS
1000
実線（細）
1040
0.15
1001
DIMEXPLODE
1070
     0
1001
ASKOBJSC
1000
1/1
1001
ASKDWGSC
1040
4.0
  0
LINE
  5
F35
330
1F
100
AcDbEntity
  8
F00001_1
  6
Continuous
 62
     4
100
AcDbLine
 10
1115.99999999996
 20
287.999999999965
 30
0.0
 11
1603.99999999996
 21
287.999999999965
 31
0.0
1001
DEKIMAS
1000
実線（細）
1040
0.15
1001
DIMEXPLODE
1070
     0
1001
ASKOBJSC
1000
1/1
1001
ASKDWGSC
1040
4.0
  0
LINE
  5
F36
330
1F
100
AcDbEntity
  8
F00001_1
  6
Continuous
 62
     2
100
AcDbLine
 10
83.99999999999602
 20
1135.999999999965
 30
0.0
 11
83.99999999999602
 21
59.99999999999307
 31
0.0
1001
DEKIMAS
1000
実線（太）
1040
0.5
1001
DIMEXPLODE
1070
     0
1001
ASKOBJSC
1000
1/1
1001
ASKDWGSC
1040
4.0
  0
LINE
  5
F37
330
1F
100
AcDbEntity
  8
F00001_1
  6
Continuous
 62
     2
100
AcDbLine
 10
1603.99999999996
 20
1135.999999999965
 30
0.0
 11
1603.99999999996
 21
59.99999999999307
 31
0.0
1001
DEKIMAS
1000
実線（太）
1040
0.5
1001
DIMEXPLODE
1070
     0
1001
ASKOBJSC
1000
1/1
1001
ASKDWGSC
1040
4.0
  0
LINE
  5
F38
330
1F
100
AcDbEntity
  8
F00001_1
  6
Continuous
 62
     2
100
AcDbLine
 10
83.99999999999602
 20
1135.999999999965
 30
0.0
 11
1603.99999999996
 21
1135.999999999965
 31
0.0
1001
DEKIMAS
1000
実線（太）
1040
0.5
1001
DIMEXPLODE
1070
     0
1001
ASKOBJSC
1000
1/1
1001
ASKDWGSC
1040
4.0
  0
LINE
  5
F39
330
1F
100
AcDbEntity
  8
F00001_1
  6
Continuous
 62
     2
100
AcDbLine
 10
83.99999999999602
 20
59.99999999999307
 30
0.0
 11
1603.99999999996
 21
59.99999999999307
 31
0.0
1001
DEKIMAS
1000
実線（太）
1040
0.5
1001
DIMEXPLODE
1070
     0
1001
ASKOBJSC
1000
1/1
1001
ASKDWGSC
1040
4.0
  0
LINE
  5
F3A
330
1F
100
AcDbEntity
  8
F00001_1
  6
Continuous
 62
     4
100
AcDbLine
 10
83.99999999999602
 20
1109.999999999965
 30
0.0
 11
439.9999999999947
 21
1109.999999999965
 31
0.0
1001
DEKIMAS
1000
実線（細）
1040
0.15
1001
DIMEXPLODE
1070
     0
1001
ASKOBJSC
1000
1/1
1001
ASKDWGSC
1040
4.0
  0
LINE
  5
F3B
330
1F
100
AcDbEntity
  8
F00001_1
  6
Continuous
 62
     4
 48
0.5
100
AcDbLine
 10
439.9999999999947
 20
1135.999999999965
 30
0.0
 11
439.9999999999947
 21
1109.999999999965
 31
0.0
1001
DEKIMAS
1000
実線（細）
1040
0.15
1001
DIMEXPLODE
1070
     0
1001
ASKOBJSC
1000
1/1
1001
ASKDWGSC
1040
4.0
  0
LINE
  5
F3C
330
1F
100
AcDbEntity
  8
F00001_1
  6
Continuous
 62
     4
 48
0.5
100
AcDbLine
 10
387.999999999996
 20
1135.999999999965
 30
0.0
 11
387.999999999996
 21
1109.999999999965
 31
0.0
1001
DEKIMAS
1000
実線（細）
1040
0.15
1001
DIMEXPLODE
1070
     0
1001
ASKOBJSC
1000
1/1
1001
ASKDWGSC
1040
4.0
  0
LINE
  5
F3D
330
1F
100
AcDbEntity
  8
F00001_1
  6
Continuous
 62
     4
 48
0.5
100
AcDbLine
 10
321.999999999996
 20
1135.999999999965
 30
0.0
 11
321.999999999996
 21
1109.999999999965
 31
0.0
1001
DEKIMAS
1000
実線（細）
1040
0.15
1001
DIMEXPLODE
1070
     0
1001
ASKOBJSC
1000
1/1
1001
ASKDWGSC
1040
4.0
  0
LINE
  5
F3E
330
1F
100
AcDbEntity
  8
F00001_1
  6
Continuous
 62
     4
 48
0.5
100
AcDbLine
 10
137.999999999996
 20
1135.999999999965
 30
0.0
 11
137.999999999996
 21
1109.999999999965
 31
0.0
1001
DEKIMAS
1000
実線（細）
1040
0.15
1001
DIMEXPLODE
1070
     0
1001
ASKOBJSC
1000
1/1
1001
ASKDWGSC
1040
4.0
  0
LINE
  5
F3F
330
1F
100
AcDbEntity
  8
F00001_1
  6
Continuous
 62
     4
100
AcDbLine
 10
1268.27213659004
 20
117.272071440337
 30
0.0
 11
1293.72798178564
 21
142.7279144901689
 31
0.0
1001
DEKIMAS
1000
実線（細）
1040
0.15
1001
DIMEXPLODE
1070
     0
1001
ASKOBJSC
1000
1/1
1001
ASKDWGSC
1040
4.0
  0
LINE
  5
F40
330
1F
100
AcDbEntity
  8
F00001_1
  6
Continuous
 62
     7
 48
0.5
100
AcDbLine
 10
1567.99999999996
 20
73.75134277343306
 30
0.0
 11
1595.99999999996
 21
73.75134277343306
 31
0.0
1001
DEKIMAS
1000
実線（中）
1040
0.25
1001
DIMEXPLODE
1070
     0
1001
ASKOBJSC
1000
1/1
1001
ASKDWGSC
1040
4.0
  0
LINE
  5
F41
330
1F
100
AcDbEntity
  8
F00001_1
  6
Continuous
 62
     7
 48
0.5
100
AcDbLine
 10
1568.00028942076
 20
73.75108848088109
 30
0.0
 11
1582.00029086092
 21
97.99979895537298
 31
0.0
1001
DEKIMAS
1000
実線（中）
1040
0.25
1001
DIMEXPLODE
1070
     0
1001
ASKOBJSC
1000
1/1
1001
ASKDWGSC
1040
4.0
  0
LINE
  5
F42
330
1F
100
AcDbEntity
  8
F00001_1
  6
Continuous
 62
     7
 48
0.5
100
AcDbLine
 10
1582.00001976752
 20
98.00007835316103
 30
0.0
 11
1596.00002120768
 21
73.75136787867302
 31
0.0
1001
DEKIMAS
1000
実線（中）
1040
0.25
1001
DIMEXPLODE
1070
     0
1001
ASKOBJSC
1000
1/1
1001
ASKDWGSC
1040
4.0
  0
LINE
  5
F43
330
1F
100
AcDbEntity
  8
F00001_1
  6
Continuous
 62
     4
100
AcDbLine
 10
4.0
 20
43.99999999999306
 30
0.0
 11
4.0
 21
3.999999999993065
 31
0.0
1001
DEKIMAS
1000
実線（細）
1040
0.15
1001
DIMEXPLODE
1070
     0
1001
ASKOBJSC
1000
1/1
1001
ASKDWGSC
1040
4.0
  0
LINE
  5
F44
330
1F
100
AcDbEntity
  8
F00001_1
  6
Continuous
 62
     4
100
AcDbLine
 10
1643.99999999996
 20
1191.999999999965
 30
0.0
 11
1683.99999999996
 21
1191.999999999965
 31
0.0
1001
DEKIMAS
1000
実線（細）
1040
0.15
1001
DIMEXPLODE
1070
     0
1001
ASKOBJSC
1000
1/1
1001
ASKDWGSC
1040
4.0
  0
LINE
  5
F45
330
1F
100
AcDbEntity
  8
F00001_1
  6
Continuous
 62
     4
100
AcDbLine
 10
1683.99999999996
 20
43.99999999999306
 30
0.0
 11
1683.99999999996
 21
3.999999999993065
 31
0.0
1001
DEKIMAS
1000
実線（細）
1040
0.15
1001
DIMEXPLODE
1070
     0
1001
ASKOBJSC
1000
1/1
1001
ASKDWGSC
1040
4.0
  0
LINE
  5
F46
330
1F
100
AcDbEntity
  8
F00001_1
  6
Continuous
 62
     4
100
AcDbLine
 10
1643.99999999996
 20
3.999999999993065
 30
0.0
 11
1683.99999999996
 21
3.999999999993065
 31
0.0
1001
DEKIMAS
1000
実線（細）
1040
0.15
1001
DIMEXPLODE
1070
     0
1001
ASKOBJSC
1000
1/1
1001
ASKDWGSC
1040
4.0
  0
LINE
  5
F47
330
1F
100
AcDbEntity
  8
F00001_1
  6
Continuous
 62
     4
 48
0.5
100
AcDbLine
 10
1163.99999999996
 20
287.999999999965
 30
0.0
 11
1163.99999999996
 21
259.999999999965
 31
0.0
1001
DEKIMAS
1000
実線（細）
1040
0.15
1001
DIMEXPLODE
1070
     0
1001
ASKOBJSC
1000
1/1
1001
ASKDWGSC
1040
4.0
  0
LINE
  5
F48
330
1F
100
AcDbEntity
  8
F00001_1
  6
Continuous
 62
     4
 48
0.5
100
AcDbLine
 10
1283.99999999996
 20
287.999999999965
 30
0.0
 11
1283.99999999996
 21
259.999999999965
 31
0.0
1001
DEKIMAS
1000
実線（細）
1040
0.15
1001
DIMEXPLODE
1070
     0
1001
ASKOBJSC
1000
1/1
1001
ASKDWGSC
1040
4.0
  0
LINE
  5
F49
330
1F
100
AcDbEntity
  8
F00001_1
  6
Continuous
 62
     4
 48
0.5
100
AcDbLine
 10
1343.99999999996
 20
287.999999999965
 30
0.0
 11
1343.99999999996
 21
259.999999999965
 31
0.0
1001
DEKIMAS
1000
実線（細）
1040
0.15
1001
DIMEXPLODE
1070
     0
1001
ASKOBJSC
1000
1/1
1001
ASKDWGSC
1040
4.0
  0
LINE
  5
F4A
330
1F
100
AcDbEntity
  8
F00001_1
  6
Continuous
 62
     4
 48
0.5
100
AcDbLine
 10
1403.99999999996
 20
287.999999999965
 30
0.0
 11
1403.99999999996
 21
259.999999999965
 31
0.0
1001
DEKIMAS
1000
実線（細）
1040
0.15
1001
DIMEXPLODE
1070
     0
1001
ASKOBJSC
1000
1/1
1001
ASKDWGSC
1040
4.0
  0
LINE
  5
F4B
330
1F
100
AcDbEntity
  8
F00001_1
  6
Continuous
 62
     4
 48
0.5
100
AcDbLine
 10
1463.99999999996
 20
287.999999999965
 30
0.0
 11
1463.99999999996
 21
259.999999999965
 31
0.0
1001
DEKIMAS
1000
実線（細）
1040
0.15
1001
DIMEXPLODE
1070
     0
1001
ASKOBJSC
1000
1/1
1001
ASKDWGSC
1040
4.0
  0
LINE
  5
F4C
330
1F
100
AcDbEntity
  8
画層1
  6
Continuous
 62
     4
 48
0.5
100
AcDbLine
 10
83.99999999999602
 20
1085.999999999965
 30
0.0
 11
97.99999999999602
 21
1085.999999999965
 31
0.0
1001
DEKIMAS
1000
実線（細）
1040
0.15
1001
DIMEXPLODE
1070
     0
1001
ASKOBJSC
1000
1/1
1001
ASKDWGSC
1040
4.0
  0
LINE
  5
F4D
330
1F
100
AcDbEntity
  8
画層1
  6
Continuous
 62
     4
 48
0.5
100
AcDbLine
 10
439.9999999999947
 20
1109.999999999965
 30
0.0
 11
439.9999999999947
 21
1085.999999999965
 31
0.0
1001
DEKIMAS
1000
実線（細）
1040
0.15
1001
DIMEXPLODE
1070
     0
1001
ASKOBJSC
1000
1/1
1001
ASKDWGSC
1040
4.0
  0
LINE
  5
F4E
330
1F
100
AcDbEntity
  8
画層1
  6
Continuous
 62
     4
 48
0.5
100
AcDbLine
 10
387.999999999996
 20
1109.999999999965
 30
0.0
 11
387.999999999996
 21
1085.999999999965
 31
0.0
1001
DEKIMAS
1000
実線（細）
1040
0.15
1001
DIMEXPLODE
1070
     0
1001
ASKOBJSC
1000
1/1
1001
ASKDWGSC
1040
4.0
  0
LINE
  5
F4F
330
1F
100
AcDbEntity
  8
画層1
  6
Continuous
 62
     4
 48
0.5
100
AcDbLine
 10
321.999999999996
 20
1109.999999999965
 30
0.0
 11
321.999999999996
 21
1085.999999999965
 31
0.0
1001
DEKIMAS
1000
実線（細）
1040
0.15
1001
DIMEXPLODE
1070
     0
1001
ASKOBJSC
1000
1/1
1001
ASKDWGSC
1040
4.0
  0
LINE
  5
F50
330
1F
100
AcDbEntity
  8
画層1
  6
Continuous
 62
     4
 48
0.5
100
AcDbLine
 10
137.999999999996
 20
1109.999999999965
 30
0.0
 11
137.999999999996
 21
1085.999999999965
 31
0.0
1001
DEKIMAS
1000
実線（細）
1040
0.15
1001
DIMEXPLODE
1070
     0
1001
ASKOBJSC
1000
1/1
1001
ASKDWGSC
1040
4.0
  0
LINE
  5
F51
330
1F
100
AcDbEntity
  8
画層1
  6
Continuous
 62
     4
100
AcDbLine
 10
83.99999999999602
 20
1085.999999999965
 30
0.0
 11
439.9999999999947
 21
1085.999999999965
 31
0.0
1001
DEKIMAS
1000
実線（細）
1040
0.15
1001
DIMEXPLODE
1070
     0
1001
ASKOBJSC
1000
1/1
1001
ASKDWGSC
1040
4.0
  0
LINE
  5
F52
330
1F
100
AcDbEntity
  8
画層1
  6
Continuous
 62
     4
 48
0.5
100
AcDbLine
 10
120.971531992116
 20
1090.225488442405
 30
0.0
 11
111.000074414
 21
1107.519269162205
 31
0.0
1001
DEKIMAS
1000
実線（細）
1040
0.15
1001
DIMEXPLODE
1070
     0
1001
ASKOBJSC
1000
1/1
1001
ASKDWGSC
1040
4.0
  0
LINE
  5
F53
330
1F
100
AcDbEntity
  8
画層1
  6
Continuous
 62
     4
 48
0.5
100
AcDbLine
 10
111.000051503828
 20
1107.519197336925
 30
0.0
 11
100.998824811072
 21
1090.225409638045
 31
0.0
1001
DEKIMAS
1000
実線（細）
1040
0.15
1001
DIMEXPLODE
1070
     0
1001
ASKOBJSC
1000
1/1
1001
ASKDWGSC
1040
4.0
  0
LINE
  5
F54
330
1F
100
AcDbEntity
  8
画層1
  6
Continuous
 62
     4
 48
0.5
100
AcDbLine
 10
100.998779296872
 20
1090.225463867165
 30
0.0
 11
120.971496582028
 21
1090.225463867165
 31
0.0
1001
DEKIMAS
1000
実線（細）
1040
0.15
1001
DIMEXPLODE
1070
     0
1001
ASKOBJSC
1000
1/1
1001
ASKDWGSC
1040
4.0
  0
LINE
  5
F55
330
1F
100
AcDbEntity
  8
F00001_1
  6
Continuous
 62
     4
100
AcDbLine
 10
1126.5549316406
 20
310.353393554645
 30
0.0
 11
1409.92675781248
 21
310.353393554645
 31
0.0
1001
DEKIMAS
1000
実線（細）
1040
0.15
1001
DIMEXPLODE
1070
     0
1001
ASKOBJSC
1000
1/1
1001
ASKDWGSC
1040
4.0
  0
LINE
  5
F56
330
1F
100
AcDbEntity
  8
画層1
  6
Continuous
 62
     4
 48
0.5
100
AcDbLine
 10
439.9999999999947
 20
1085.999999999965
 30
0.0
 11
439.9999999999947
 21
1061.999999999965
 31
0.0
1001
DEKIMAS
1000
実線（細）
1040
0.15
1001
DIMEXPLODE
1070
     0
1001
ASKOBJSC
1000
1/1
1001
ASKDWGSC
1040
4.0
  0
LINE
  5
F57
330
1F
100
AcDbEntity
  8
画層1
  6
Continuous
 62
     4
 48
0.5
100
AcDbLine
 10
387.999999999996
 20
1085.999999999965
 30
0.0
 11
387.999999999996
 21
1061.999999999965
 31
0.0
1001
DEKIMAS
1000
実線（細）
1040
0.15
1001
DIMEXPLODE
1070
     0
1001
ASKOBJSC
1000
1/1
1001
ASKDWGSC
1040
4.0
  0
LINE
  5
F58
330
1F
100
AcDbEntity
  8
画層1
  6
Continuous
 62
     4
 48
0.5
100
AcDbLine
 10
321.999999999996
 20
1085.999999999965
 30
0.0
 11
321.999999999996
 21
1061.999999999965
 31
0.0
1001
DEKIMAS
1000
実線（細）
1040
0.15
1001
DIMEXPLODE
1070
     0
1001
ASKOBJSC
1000
1/1
1001
ASKDWGSC
1040
4.0
  0
LINE
  5
F59
330
1F
100
AcDbEntity
  8
画層1
  6
Continuous
 62
     4
 48
0.5
100
AcDbLine
 10
137.999999999996
 20
1085.999999999965
 30
0.0
 11
137.999999999996
 21
1061.999999999965
 31
0.0
1001
DEKIMAS
1000
実線（細）
1040
0.15
1001
DIMEXPLODE
1070
     0
1001
ASKOBJSC
1000
1/1
1001
ASKDWGSC
1040
4.0
  0
LINE
  5
F5A
330
1F
100
AcDbEntity
  8
画層1
  6
Continuous
 62
     4
100
AcDbLine
 10
83.99999999999602
 20
1061.999999999965
 30
0.0
 11
439.9999999999947
 21
1061.999999999965
 31
0.0
1001
DEKIMAS
1000
実線（細）
1040
0.15
1001
DIMEXPLODE
1070
     0
1001
ASKOBJSC
1000
1/1
1001
ASKDWGSC
1040
4.0
  0
LINE
  5
F5B
330
1F
100
AcDbEntity
  8
画層1
  6
Continuous
 62
     4
 48
0.5
100
AcDbLine
 10
120.9715253158639
 20
1066.225472007405
 30
0.0
 11
111.000067737748
 21
1083.519252727205
 31
0.0
1001
DEKIMAS
1000
実線（細）
1040
0.15
1001
DIMEXPLODE
1070
     0
1001
ASKOBJSC
1000
1/1
1001
ASKDWGSC
1040
4.0
  0
LINE
  5
F5C
330
1F
100
AcDbEntity
  8
画層1
  6
Continuous
 62
     4
 48
0.5
100
AcDbLine
 10
111.000062887628
 20
1083.519191973365
 30
0.0
 11
100.998836194872
 21
1066.225404274485
 31
0.0
1001
DEKIMAS
1000
実線（細）
1040
0.15
1001
DIMEXPLODE
1070
     0
1001
ASKOBJSC
1000
1/1
1001
ASKDWGSC
1040
4.0
  0
LINE
  5
F5D
330
1F
100
AcDbEntity
  8
画層1
  6
Continuous
 62
     4
 48
0.5
100
AcDbLine
 10
100.998779296872
 20
1066.225463867165
 30
0.0
 11
120.971496582028
 21
1066.225463867165
 31
0.0
1001
DEKIMAS
1000
実線（細）
1040
0.15
1001
DIMEXPLODE
1070
     0
1001
ASKOBJSC
1000
1/1
1001
ASKDWGSC
1040
4.0
  0
LINE
  5
F5E
330
1F
100
AcDbEntity
  8
画層1
  6
Continuous
 62
     4
 48
0.5
100
AcDbLine
 10
439.9999999999947
 20
1061.999999999965
 30
0.0
 11
439.9999999999947
 21
1037.999999999965
 31
0.0
1001
DEKIMAS
1000
実線（細）
1040
0.15
1001
DIMEXPLODE
1070
     0
1001
ASKOBJSC
1000
1/1
1001
ASKDWGSC
1040
4.0
  0
LINE
  5
F5F
330
1F
100
AcDbEntity
  8
画層1
  6
Continuous
 62
     4
 48
0.5
100
AcDbLine
 10
387.999999999996
 20
1061.999999999965
 30
0.0
 11
387.999999999996
 21
1037.999999999965
 31
0.0
1001
DEKIMAS
1000
実線（細）
1040
0.15
1001
DIMEXPLODE
1070
     0
1001
ASKOBJSC
1000
1/1
1001
ASKDWGSC
1040
4.0
  0
LINE
  5
F60
330
1F
100
AcDbEntity
  8
画層1
  6
Continuous
 62
     4
 48
0.5
100
AcDbLine
 10
321.999999999996
 20
1061.999999999965
 30
0.0
 11
321.999999999996
 21
1037.999999999965
 31
0.0
1001
DEKIMAS
1000
実線（細）
1040
0.15
1001
DIMEXPLODE
1070
     0
1001
ASKOBJSC
1000
1/1
1001
ASKDWGSC
1040
4.0
  0
LINE
  5
F61
330
1F
100
AcDbEntity
  8
画層1
  6
Continuous
 62
     4
 48
0.5
100
AcDbLine
 10
137.999999999996
 20
1061.999999999965
 30
0.0
 11
137.999999999996
 21
1037.999999999965
 31
0.0
1001
DEKIMAS
1000
実線（細）
1040
0.15
1001
DIMEXPLODE
1070
     0
1001
ASKOBJSC
1000
1/1
1001
ASKDWGSC
1040
4.0
  0
LINE
  5
F62
330
1F
100
AcDbEntity
  8
画層1
  6
Continuous
 62
     4
100
AcDbLine
 10
83.99999999999602
 20
1037.999999999965
 30
0.0
 11
439.9999999999947
 21
1037.999999999965
 31
0.0
1001
DEKIMAS
1000
実線（細）
1040
0.15
1001
DIMEXPLODE
1070
     0
1001
ASKOBJSC
1000
1/1
1001
ASKDWGSC
1040
4.0
  0
LINE
  5
F63
330
1F
100
AcDbEntity
  8
画層1
  6
Continuous
 62
     4
 48
0.5
100
AcDbLine
 10
120.971519939648
 20
1042.225496172245
 30
0.0
 11
111.000062361532
 21
1059.519276892045
 31
0.0
1001
DEKIMAS
1000
実線（細）
1040
0.15
1001
DIMEXPLODE
1070
     0
1001
ASKOBJSC
1000
1/1
1001
ASKDWGSC
1040
4.0
  0
LINE
  5
F64
330
1F
100
AcDbEntity
  8
画層1
  6
Continuous
 62
     4
 48
0.5
100
AcDbLine
 10
111.000077342888
 20
1059.519217462845
 30
0.0
 11
100.998839191732
 21
1042.225409950485
 31
0.0
1001
DEKIMAS
1000
実線（細）
1040
0.15
1001
DIMEXPLODE
1070
     0
1001
ASKOBJSC
1000
1/1
1001
ASKDWGSC
1040
4.0
  0
LINE
  5
F65
330
1F
100
AcDbEntity
  8
画層1
  6
Continuous
 62
     4
 48
0.5
100
AcDbLine
 10
100.998779296872
 20
1042.225463867165
 30
0.0
 11
120.971496582028
 21
1042.225463867165
 31
0.0
1001
DEKIMAS
1000
実線（細）
1040
0.15
1001
DIMEXPLODE
1070
     0
1001
ASKOBJSC
1000
1/1
1001
ASKDWGSC
1040
4.0
  0
MTEXT
  5
F66
330
1F
100
AcDbEntity
  8
F00001_1
  6
Continuous
 62
     4
100
AcDbMText
 10
112.0941665220221
 20
1122.999999999965
 30
0.0
 40
10.0
 41
0.0
 71
     5
 72
     5
  1
\T1.40;\W0.60;記　号
  7
STD
 73
     1
 44
1.0
1001
DEKIMAS
1040
0.15
1001
ASKOBJSC
1000
1/1
1001
ASKDWGSC
1040
4.0
1001
ACAD
1000
MTEXTBEGIN
1070
    73
1070
     1
1070
    44
1040
1.0
1070
    74
1070
     0
1000
MTEXTEND
  0
MTEXT
  5
F67
330
1F
100
AcDbEntity
  8
F00001_1
  6
Continuous
 62
     4
100
AcDbMText
 10
231.4941665220221
 20
1122.999999999965
 30
0.0
 40
10.0
 41
0.0
 71
     5
 72
     5
  1
\T1.40;\W0.60;来　　　　　　　　　　　歴
  7
STD
 73
     1
 44
1.0
1001
DEKIMAS
1040
0.15
1001
ASKOBJSC
1000
1/1
1001
ASKDWGSC
1040
4.0
1001
ACAD
1000
MTEXTBEGIN
1070
    73
1070
     1
1070
    44
1040
1.0
1070
    74
1070
     0
1000
MTEXTEND
  0
MTEXT
  5
F68
330
1F
100
AcDbEntity
  8
F00001_1
  6
Continuous
 62
     4
100
AcDbMText
 10
355.7741665220221
 20
1122.999999999965
 30
0.0
 40
10.0
 41
0.0
 71
     5
 72
     5
  1
\T1.40;\W0.60;年　月　日
  7
STD
 73
     1
 44
1.0
1001
DEKIMAS
1040
0.15
1001
ASKOBJSC
1000
1/1
1001
ASKDWGSC
1040
4.0
1001
ACAD
1000
MTEXTBEGIN
1070
    73
1070
     1
1070
    44
1040
1.0
1070
    74
1070
     0
1000
MTEXTEND
  0
MTEXT
  5
F69
330
1F
100
AcDbEntity
  8
F00001_1
  6
Continuous
 62
     4
100
AcDbMText
 10
415.0941665220209
 20
1122.999999999965
 30
0.0
 40
10.0
 41
0.0
 71
     5
 72
     5
  1
\T1.40;\W0.60;記　入
  7
STD
 73
     1
 44
1.0
1001
DEKIMAS
1040
0.15
1001
ASKOBJSC
1000
1/1
1001
ASKDWGSC
1040
4.0
1001
ACAD
1000
MTEXTBEGIN
1070
    73
1070
     1
1070
    44
1040
1.0
1070
    74
1070
     0
1000
MTEXTEND
  0
MTEXT
  5
F6A
330
1F
100
AcDbEntity
  8
F00001_1
  6
Continuous
 62
     4
100
AcDbMText
 10
1141.312999874075
 20
273.999999999965
 30
0.0
 40
12.0
 41
0.0
 71
     5
 72
     5
  1
\T1.40;\W0.60;品　番
  7
STD
 73
     1
 44
1.0
1001
DEKIMAS
1040
0.15
1001
ASKOBJSC
1000
1/1
1001
ASKDWGSC
1040
4.0
1001
ACAD
1000
MTEXTBEGIN
1070
    73
1070
     1
1070
    44
1040
1.0
1070
    74
1070
     0
1000
MTEXTEND
  0
MTEXT
  5
F6B
330
1F
100
AcDbEntity
  8
F00001_1
  6
Continuous
 62
     4
100
AcDbMText
 10
1225.504999874075
 20
273.999999999965
 30
0.0
 40
12.0
 41
0.0
 71
     5
 72
     5
  1
\T1.40;\W0.60;名　　　　　称
  7
STD
 73
     1
 44
1.0
1001
DEKIMAS
1040
0.15
1001
ASKOBJSC
1000
1/1
1001
ASKDWGSC
1040
4.0
1001
ACAD
1000
MTEXTBEGIN
1070
    73
1070
     1
1070
    44
1040
1.0
1070
    74
1070
     0
1000
MTEXTEND
  0
MTEXT
  5
F6C
330
1F
100
AcDbEntity
  8
F00001_1
  6
Continuous
 62
     4
100
AcDbMText
 10
1375.312999874075
 20
273.999999999965
 30
0.0
 40
12.0
 41
0.0
 71
     5
 72
     5
  1
\T1.40;\W0.60;材　質
  7
STD
 73
     1
 44
1.0
1001
DEKIMAS
1040
0.15
1001
ASKOBJSC
1000
1/1
1001
ASKDWGSC
1040
4.0
1001
ACAD
1000
MTEXTBEGIN
1070
    73
1070
     1
1070
    44
1040
1.0
1070
    74
1070
     0
1000
MTEXTEND
  0
MTEXT
  5
F6D
330
1F
100
AcDbEntity
  8
F00001_1
  6
Continuous
 62
     4
100
AcDbMText
 10
1435.312999874075
 20
273.999999999965
 30
0.0
 40
12.0
 41
0.0
 71
     5
 72
     5
  1
\T1.40;\W0.60;個　数
  7
STD
 73
     1
 44
1.0
1001
DEKIMAS
1040
0.15
1001
ASKOBJSC
1000
1/1
1001
ASKDWGSC
1040
4.0
1001
ACAD
1000
MTEXTBEGIN
1070
    73
1070
     1
1070
    44
1040
1.0
1070
    74
1070
     0
1000
MTEXTEND
  0
MTEXT
  5
F6E
330
1F
100
AcDbEntity
  8
F00001_1
  6
Continuous
 62
     4
100
AcDbMText
 10
1535.532428445503
 20
273.999999999965
 30
0.0
 40
12.0
 41
0.0
 71
     5
 72
     5
  1
\T1.40;\W0.60;摘　　　　　　　要
  7
STD
 73
     1
 44
1.0
1001
DEKIMAS
1040
0.15
1001
ASKOBJSC
1000
1/1
1001
ASKDWGSC
1040
4.0
1001
ACAD
1000
MTEXTBEGIN
1070
    73
1070
     1
1070
    44
1040
1.0
1070
    74
1070
     0
1000
MTEXTEND
  0
MTEXT
  5
F6F
330
1F
100
AcDbEntity
  8
F00001_1
  6
Continuous
 62
     4
100
AcDbMText
 10
1169.878666578253
 20
234.999999999965
 30
0.0
 40
16.0
 41
0.0
 71
     5
 72
     5
  1
\T1.40;\W0.60;納　入　先
  7
STD
 73
     1
 44
1.0
1001
DEKIMAS
1040
0.15
1001
ASKOBJSC
1000
1/1
1001
ASKDWGSC
1040
4.0
1001
ACAD
1000
MTEXTBEGIN
1070
    73
1070
     1
1070
    44
1040
1.0
1070
    74
1070
     0
1000
MTEXTEND
  0
MTEXT
  5
F70
330
1F
100
AcDbEntity
  8
F00001_1
  6
Continuous
 62
     4
100
AcDbMText
 10
1222.172870357727
 20
84.99999999999307
 30
0.0
 40
16.0
 41
0.0
 71
     5
 72
     5
  1
\T1.40;\W0.46;ス　イ　コ　ー　株　式　会　社
  7
STD
 73
     1
 44
1.0
1001
DEKIMAS
1040
0.15
1001
ASKOBJSC
1000
1/1
1001
ASKDWGSC
1040
4.0
1001
ACAD
1000
MTEXTBEGIN
1070
    73
1070
     1
1070
    44
1040
1.0
1070
    74
1070
     0
1000
MTEXTEND
  0
MTEXT
  5
F71
330
1F
100
AcDbEntity
  8
F00001_1
  6
Continuous
 62
     4
100
AcDbMText
 10
1230.014166641195
 20
119.999999999993
 30
0.0
 40
10.0
 41
0.0
 71
     5
 72
     5
  1
\T1.40;\W0.60;度
  7
STD
 73
     1
 44
1.0
1001
DEKIMAS
1040
0.15
1001
ASKOBJSC
1000
1/1
1001
ASKDWGSC
1040
4.0
1001
ACAD
1000
MTEXTBEGIN
1070
    73
1070
     1
1070
    44
1040
1.0
1070
    74
1070
     0
1000
MTEXTEND
  0
MTEXT
  5
F72
330
1F
100
AcDbEntity
  8
F00001_1
  6
Continuous
 62
     4
100
AcDbMText
 10
1143.094166641195
 20
199.999999999993
 30
0.0
 40
10.0
 41
0.0
 71
     5
 72
     5
  1
\T1.40;\W0.60;設　計
  7
STD
 73
     1
 44
1.0
1001
DEKIMAS
1040
0.15
1001
ASKOBJSC
1000
1/1
1001
ASKDWGSC
1040
4.0
1001
ACAD
1000
MTEXTBEGIN
1070
    73
1070
     1
1070
    44
1040
1.0
1070
    74
1070
     0
1000
MTEXTEND
  0
MTEXT
  5
F73
330
1F
100
AcDbEntity
  8
F00001_1
  6
Continuous
 62
     4
100
AcDbMText
 10
1194.894166641195
 20
199.999999999993
 30
0.0
 40
10.0
 41
0.0
 71
     5
 72
     5
  1
\T1.40;\W0.60;製　図
  7
STD
 73
     1
 44
1.0
1001
DEKIMAS
1040
0.15
1001
ASKOBJSC
1000
1/1
1001
ASKDWGSC
1040
4.0
1001
ACAD
1000
MTEXTBEGIN
1070
    73
1070
     1
1070
    44
1040
1.0
1070
    74
1070
     0
1000
MTEXTEND
  0
MTEXT
  5
F74
330
1F
100
AcDbEntity
  8
F00001_1
  6
Continuous
 62
     4
100
AcDbMText
 10
1246.894166641195
 20
199.999999999993
 30
0.0
 40
10.0
 41
0.0
 71
     5
 72
     5
  1
\T1.40;\W0.60;検　図
  7
STD
 73
     1
 44
1.0
1001
DEKIMAS
1040
0.15
1001
ASKOBJSC
1000
1/1
1001
ASKDWGSC
1040
4.0
1001
ACAD
1000
MTEXTBEGIN
1070
    73
1070
     1
1070
    44
1040
1.0
1070
    74
1070
     0
1000
MTEXTEND
  0
MTEXT
  5
F75
330
1F
100
AcDbEntity
  8
F00001_1
  6
Continuous
 62
     4
100
AcDbMText
 10
1299.094166641195
 20
199.999999999993
 30
0.0
 40
10.0
 41
0.0
 71
     5
 72
     5
  1
\T1.40;\W0.60;承　認
  7
STD
 73
     1
 44
1.0
1001
DEKIMAS
1040
0.15
1001
ASKOBJSC
1000
1/1
1001
ASKDWGSC
1040
4.0
1001
ACAD
1000
MTEXTBEGIN
1070
    73
1070
     1
1070
    44
1040
1.0
1070
    74
1070
     0
1000
MTEXTEND
  0
MTEXT
  5
F76
330
1F
100
AcDbEntity
  8
F00001_1
  6
Continuous
 62
     4
100
AcDbMText
 10
1336.216999874075
 20
134.999999999993
 30
0.0
 40
12.0
 41
0.0
 71
     5
 72
     5
  1
\T1.40;\W0.60;称
  7
STD
 73
     1
 44
1.0
1001
DEKIMAS
1040
0.15
1001
ASKOBJSC
1000
1/1
1001
ASKDWGSC
1040
4.0
1001
ACAD
1000
MTEXTBEGIN
1070
    73
1070
     1
1070
    44
1040
1.0
1070
    74
1070
     0
1000
MTEXTEND
  0
MTEXT
  5
F77
330
1F
100
AcDbEntity
  8
F00001_1
  6
Continuous
 62
     4
100
AcDbMText
 10
1335.736999874075
 20
97.49999999999307
 30
0.0
 40
12.0
 41
0.0
 71
     5
 72
     5
  1
\T1.40;\W0.60;図
  7
STD
 73
     1
 44
1.0
1001
DEKIMAS
1040
0.15
1001
ASKOBJSC
1000
1/1
1001
ASKDWGSC
1040
4.0
1001
ACAD
1000
MTEXTBEGIN
1070
    73
1070
     1
1070
    44
1040
1.0
1070
    74
1070
     0
1000
MTEXTEND
  0
MTEXT
  5
F78
330
1F
100
AcDbEntity
  8
F00001_1
  6
Continuous
 62
     4
100
AcDbMText
 10
1336.216999874075
 20
72.49999999999307
 30
0.0
 40
12.0
 41
0.0
 71
     5
 72
     5
  1
\T1.40;\W0.60;番
  7
STD
 73
     1
 44
1.0
1001
DEKIMAS
1040
0.15
1001
ASKOBJSC
1000
1/1
1001
ASKDWGSC
1040
4.0
1001
ACAD
1000
MTEXTBEGIN
1070
    73
1070
     1
1070
    44
1040
1.0
1070
    74
1070
     0
1000
MTEXTEND
  0
MTEXT
  5
F79
330
1F
100
AcDbEntity
  8
F00001_1
  6
Continuous
 62
     4
100
AcDbMText
 10
1335.976999874075
 20
184.999999999993
 30
0.0
 40
12.0
 41
0.0
 71
     5
 72
     5
  1
\T1.40;\W0.60;名
  7
STD
 73
     1
 44
1.0
1001
DEKIMAS
1040
0.15
1001
ASKOBJSC
1000
1/1
1001
ASKDWGSC
1040
4.0
1001
ACAD
1000
MTEXTBEGIN
1070
    73
1070
     1
1070
    44
1040
1.0
1070
    74
1070
     0
1000
MTEXTEND
  0
MTEXT
  5
F7A
330
1F
100
AcDbEntity
  8
F00001_1
  6
Continuous
 62
     4
100
AcDbMText
 10
1230.014166521986
 20
139.999999999993
 30
0.0
 40
10.0
 41
0.0
 71
     5
 72
     5
  1
\T1.40;\W0.60;尺
  7
STD
 73
     1
 44
1.0
1001
DEKIMAS
1040
0.15
1001
ASKOBJSC
1000
1/1
1001
ASKDWGSC
1040
4.0
1001
ACAD
1000
MTEXTBEGIN
1070
    73
1070
     1
1070
    44
1040
1.0
1070
    74
1070
     0
1000
MTEXTEND
  0
MTEXT
  5
F7B
330
1F
100
AcDbEntity
  8
F00001_1
  6
Continuous
 62
     4
100
AcDbMText
 10
1125.491333169897
 20
129.999999999993
 30
0.0
 40
8.0
 41
0.0
 71
     5
 72
     5
  1
\T1.40;\W0.60;月
  7
STD
 73
     1
 44
1.0
1001
DEKIMAS
1040
0.15
1001
ASKOBJSC
1000
1/1
1001
ASKDWGSC
1040
4.0
1001
ACAD
1000
MTEXTBEGIN
1070
    73
1070
     1
1070
    44
1040
1.0
1070
    74
1070
     0
1000
MTEXTEND
  0
MTEXT
  5
F7C
330
1F
100
AcDbEntity
  8
F00001_1
  6
Continuous
 62
     4
100
AcDbMText
 10
1125.171333169897
 20
116.799987792965
 30
0.0
 40
8.0
 41
0.0
 71
     5
 72
     5
  1
\T1.40;\W0.60;日
  7
STD
 73
     1
 44
1.0
1001
DEKIMAS
1040
0.15
1001
ASKOBJSC
1000
1/1
1001
ASKDWGSC
1040
4.0
1001
ACAD
1000
MTEXTBEGIN
1070
    73
1070
     1
1070
    44
1040
1.0
1070
    74
1070
     0
1000
MTEXTEND
  0
MTEXT
  5
F7D
330
1F
100
AcDbEntity
  8
F00001_1
  6
Continuous
 62
     4
100
AcDbMText
 10
1125.811333169897
 20
123.3999633789011
 30
0.0
 40
8.0
 41
0.0
 71
     5
 72
     5
  1
\T1.40;\W0.60;・
  7
STD
 73
     1
 44
1.0
1001
DEKIMAS
1040
0.15
1001
ASKOBJSC
1000
1/1
1001
ASKDWGSC
1040
4.0
1001
ACAD
1000
MTEXTBEGIN
1070
    73
1070
     1
1070
    44
1040
1.0
1070
    74
1070
     0
1000
MTEXTEND
  0
MTEXT
  5
F7E
330
1F
100
AcDbEntity
  8
F00001_1
  6
Continuous
 62
     4
100
AcDbMText
 10
1125.811333169897
 20
136.6000366210891
 30
0.0
 40
8.0
 41
0.0
 71
     5
 72
     5
  1
\T1.40;\W0.60;・
  7
STD
 73
     1
 44
1.0
1001
DEKIMAS
1040
0.15
1001
ASKOBJSC
1000
1/1
1001
ASKDWGSC
1040
4.0
1001
ACAD
1000
MTEXTBEGIN
1070
    73
1070
     1
1070
    44
1040
1.0
1070
    74
1070
     0
1000
MTEXTEND
  0
MTEXT
  5
F7F
330
1F
100
AcDbEntity
  8
F00001_1
  6
Continuous
 62
     4
100
AcDbMText
 10
1125.811333169897
 20
143.1999511718689
 30
0.0
 40
8.0
 41
0.0
 71
     5
 72
     5
  1
\T1.40;\W0.60;年
  7
STD
 73
     1
 44
1.0
1001
DEKIMAS
1040
0.15
1001
ASKOBJSC
1000
1/1
1001
ASKDWGSC
1040
4.0
1001
ACAD
1000
MTEXTBEGIN
1070
    73
1070
     1
1070
    44
1040
1.0
1070
    74
1070
     0
1000
MTEXTEND
  0
MTEXT
  5
F80
330
1F
100
AcDbEntity
  8
F00001_1
  6
Continuous
 62
     4
100
AcDbMText
 10
1315.312999874075
 20
273.999999999965
 30
0.0
 40
12.0
 41
0.0
 71
     5
 72
     5
  1
\T1.40;\W0.60;サイズ
  7
STD
 73
     1
 44
1.0
1001
DEKIMAS
1040
0.15
1001
ASKOBJSC
1000
1/1
1001
ASKDWGSC
1040
4.0
1001
ACAD
1000
MTEXTBEGIN
1070
    73
1070
     1
1070
    44
1040
1.0
1070
    74
1070
     0
1000
MTEXTEND
  0
MTEXT
  5
F81
330
1F
100
AcDbEntity
  8
F00001_1
  6
Continuous
 62
     4
100
AcDbMText
 10
1365.713749885519
 20
129.999999999993
 30
0.0
 40
24.0
 41
0.0
 71
     4
 72
     5
  1
\T1.40;\W0.60;ＭＤドラム２０
  7
STD
 73
     1
 44
1.0
1001
DEKIMAS
1040
0.15
1001
ASKOBJSC
1000
1/1
1001
ASKDWGSC
1040
4.0
1001
ACAD
1000
MTEXTBEGIN
1070
    73
1070
     1
1070
    44
1040
1.0
1070
    74
1070
     0
1000
MTEXTEND
  0
MTEXT
  5
F82
330
1F
100
AcDbEntity
  8
F00001_1
  6
Continuous
 62
     4
100
AcDbMText
 10
1359.713749885519
 20
84.99999999999307
 30
0.0
 40
24.0
 41
0.0
 71
     4
 72
     5
  1
\T1.40;\W0.60;２２０５９４－０２
  7
STD
 73
     1
 44
1.0
1001
DEKIMAS
1040
0.15
1001
ASKOBJSC
1000
1/1
1001
ASKDWGSC
1040
4.0
1001
ACAD
1000
MTEXTBEGIN
1070
    73
1070
     1
1070
    44
1040
1.0
1070
    74
1070
     0
1000
MTEXTEND
  0
MTEXT
  5
F83
330
1F
100
AcDbEntity
  8
F00001_1
  6
Continuous
 62
     4
100
AcDbMText
 10
1288.259959459288
 20
123.636047363277
 30
0.0
 40
12.8
 41
0.0
 71
     4
 72
     5
  1
\T1.40;\W0.60;４
  7
STD
 73
     1
 44
1.0
1001
DEKIMAS
1040
0.15
1001
ASKOBJSC
1000
1/1
1001
ASKDWGSC
1040
4.0
1001
ACAD
1000
MTEXTBEGIN
1070
    73
1070
     1
1070
    44
1040
1.0
1070
    74
1070
     0
1000
MTEXTEND
  0
MTEXT
  5
F84
330
1F
100
AcDbEntity
  8
F00001_1
  6
Continuous
 62
     4
100
AcDbMText
 10
1269.168101549128
 20
136.3639526367129
 30
0.0
 40
12.8
 41
0.0
 71
     4
 72
     5
  1
\T1.40;\W0.60;１
  7
STD
 73
     1
 44
1.0
1001
DEKIMAS
1040
0.15
1001
ASKOBJSC
1000
1/1
1001
ASKDWGSC
1040
4.0
1001
ACAD
1000
MTEXTBEGIN
1070
    73
1070
     1
1070
    44
1040
1.0
1070
    74
1070
     0
1000
MTEXTEND
  0
MTEXT
  5
F85
330
1F
100
AcDbEntity
  8
F00001_1
  6
Continuous
 62
     4
100
AcDbMText
 10
1195.349199891241
 20
169.999999999993
 30
0.0
 40
12.8
 41
0.0
 71
     5
 72
     5
  1
\T1.40;\W0.60;川畑
  7
STD
 73
     1
 44
1.0
1001
DEKIMAS
1040
0.15
1001
ASKOBJSC
1000
1/1
1001
ASKDWGSC
1040
4.0
1001
ACAD
1000
MTEXTBEGIN
1070
    73
1070
     1
1070
    44
1040
1.0
1070
    74
1070
     0
1000
MTEXTEND
  0
MTEXT
  5
F86
330
1F
100
AcDbEntity
  8
F00001_1
  6
Continuous
 62
     4
100
AcDbMText
 10
1177.147300926016
 20
129.999999999993
 30
0.0
 40
12.8
 41
0.0
 71
     5
 72
     5
  1
\T1.40;\W0.46;Ｓ６０．２．１３
  7
STD
 73
     1
 44
1.0
1001
DEKIMAS
1040
0.15
1001
ASKOBJSC
1000
1/1
1001
ASKDWGSC
1040
4.0
1001
ACAD
1000
MTEXTBEGIN
1070
    73
1070
     1
1070
    44
1040
1.0
1070
    74
1070
     0
1000
MTEXTEND
  0
MTEXT
  5
F87
330
1F
100
AcDbEntity
  8
画層1
  6
Continuous
 62
     4
100
AcDbMText
 10
1579.260993535128
 20
84.02409041909288
 30
0.0
 40
12.8
 41
0.0
 71
     4
 72
     5
  1
\T1.40;\W0.60;３
  7
STD
 73
     1
 44
1.0
1001
DEKIMAS
1040
0.15
1001
ASKOBJSC
1000
1/1
1001
ASKDWGSC
1040
4.0
1001
ACAD
1000
MTEXTBEGIN
1070
    73
1070
     1
1070
    44
1040
1.0
1070
    74
1070
     0
1000
MTEXTEND
  0
MTEXT
  5
F88
330
1F
100
AcDbEntity
  8
画層1
  6
Continuous
 62
     4
100
AcDbMText
 10
109.2140625715216
 20
1096.999999999965
 30
0.0
 40
10.0
 41
0.0
 71
     4
 72
     5
  1
\T1.40;\W0.60;１
  7
STD
 73
     1
 44
1.0
1001
DEKIMAS
1040
0.15
1001
ASKOBJSC
1000
1/1
1001
ASKDWGSC
1040
4.0
1001
ACAD
1000
MTEXTBEGIN
1070
    73
1070
     1
1070
    44
1040
1.0
1070
    74
1070
     0
1000
MTEXTEND
  0
MTEXT
  5
F89
330
1F
100
AcDbEntity
  8
画層1
  6
Continuous
 62
     4
100
AcDbMText
 10
148.5139877796126
 20
1096.999999999965
 30
0.0
 40
12.8
 41
0.0
 71
     4
 72
     5
  1
\T1.40;\W0.60;マンホール蓋変更
  7
STD
 73
     1
 44
1.0
1001
DEKIMAS
1040
0.15
1001
ASKOBJSC
1000
1/1
1001
ASKDWGSC
1040
4.0
1001
ACAD
1000
MTEXTBEGIN
1070
    73
1070
     1
1070
    44
1040
1.0
1070
    74
1070
     0
1000
MTEXTEND
  0
MTEXT
  5
F8A
330
1F
100
AcDbEntity
  8
画層1
  6
Continuous
 62
     4
100
AcDbMText
 10
355.0914861358853
 20
1096.999999999965
 30
0.0
 40
12.8
 41
0.0
 71
     5
 72
     5
  1
\T1.09;\W0.39;Ｓ６０．２．１３
  7
STD
 73
     1
 44
1.0
1001
DEKIMAS
1040
0.15
1001
ASKOBJSC
1000
1/1
1001
ASKDWGSC
1040
4.0
1001
ACAD
1000
MTEXTBEGIN
1070
    73
1070
     1
1070
    44
1040
1.0
1070
    74
1070
     0
1000
MTEXTEND
  0
MTEXT
  5
F8B
330
1F
100
AcDbEntity
  8
画層1
  6
Continuous
 62
     4
100
AcDbMText
 10
415.349199891276
 20
1096.999999999965
 30
0.0
 40
12.8
 41
0.0
 71
     5
 72
     5
  1
\T1.40;\W0.60;川畑
  7
STD
 73
     1
 44
1.0
1001
DEKIMAS
1040
0.15
1001
ASKOBJSC
1000
1/1
1001
ASKDWGSC
1040
4.0
1001
ACAD
1000
MTEXTBEGIN
1070
    73
1070
     1
1070
    44
1040
1.0
1070
    74
1070
     0
1000
MTEXTEND
  0
MTEXT
  5
F8C
330
1F
100
AcDbEntity
  8
F00001_1
  6
Continuous
 62
     4
100
AcDbMText
 10
1135.288157701448
 20
319.4557037353251
 30
0.0
 40
12.8
 41
0.0
 71
     4
 72
     5
  1
\T1.40;\W0.60;注記　１．材質：ポリエチレン
  7
STD
 73
     1
 44
1.0
1001
DEKIMAS
1040
0.15
1001
ASKOBJSC
1000
1/1
1001
ASKDWGSC
1040
4.0
1001
ACAD
1000
MTEXTBEGIN
1070
    73
1070
     1
1070
    44
1040
1.0
1070
    74
1070
     0
1000
MTEXTEND
  0
MTEXT
  5
F8D
330
1F
100
AcDbEntity
  8
画層1
  6
Continuous
 62
     4
100
AcDbMText
 10
109.2140625715216
 20
1072.999999999965
 30
0.0
 40
10.0
 41
0.0
 71
     4
 72
     5
  1
\T1.40;\W0.60;２
  7
STD
 73
     1
 44
1.0
1001
DEKIMAS
1040
0.15
1001
ASKOBJSC
1000
1/1
1001
ASKDWGSC
1040
4.0
1001
ACAD
1000
MTEXTBEGIN
1070
    73
1070
     1
1070
    44
1040
1.0
1070
    74
1070
     0
1000
MTEXTEND
  0
MTEXT
  5
F8E
330
1F
100
AcDbEntity
  8
画層1
  6
Continuous
 62
     4
100
AcDbMText
 10
148.5139877796126
 20
1072.999999999965
 30
0.0
 40
12.8
 41
0.0
 71
     4
 72
     5
  1
\T1.40;\W0.60;ＣＡＤ化
  7
STD
 73
     1
 44
1.0
1001
DEKIMAS
1040
0.15
1001
ASKOBJSC
1000
1/1
1001
ASKDWGSC
1040
4.0
1001
ACAD
1000
MTEXTBEGIN
1070
    73
1070
     1
1070
    44
1040
1.0
1070
    74
1070
     0
1000
MTEXTEND
  0
MTEXT
  5
F8F
330
1F
100
AcDbEntity
  8
画層1
  6
Continuous
 62
     4
100
AcDbMText
 10
355.1030907683755
 20
1072.999999999965
 30
0.0
 40
12.8
 41
0.0
 71
     5
 72
     5
  1
\T1.09;\W0.39;Ｈ１５．１０．２８
  7
STD
 73
     1
 44
1.0
1001
DEKIMAS
1040
0.15
1001
ASKOBJSC
1000
1/1
1001
ASKDWGSC
1040
4.0
1001
ACAD
1000
MTEXTBEGIN
1070
    73
1070
     1
1070
    44
1040
1.0
1070
    74
1070
     0
1000
MTEXTEND
  0
MTEXT
  5
F90
330
1F
100
AcDbEntity
  8
画層1
  6
Continuous
 62
     4
100
AcDbMText
 10
415.349199891276
 20
1072.999999999965
 30
0.0
 40
12.8
 41
0.0
 71
     5
 72
     5
  1
\T1.40;\W0.60;坂木
  7
STD
 73
     1
 44
1.0
1001
DEKIMAS
1040
0.15
1001
ASKOBJSC
1000
1/1
1001
ASKDWGSC
1040
4.0
1001
ACAD
1000
MTEXTBEGIN
1070
    73
1070
     1
1070
    44
1040
1.0
1070
    74
1070
     0
1000
MTEXTEND
  0
MTEXT
  5
F91
330
1F
100
AcDbEntity
  8
F00001_1
  6
Continuous
 62
     4
100
AcDbMText
 10
1135.288157701448
 20
339.4557037353251
 30
0.0
 40
12.8
 41
0.0
 71
     4
 72
     5
  1
{\T1.4;　　　２．タンク寸法公差：\U+00B1１．５％}
  7
STD
 73
     1
 44
1.0
1001
DEKIMAS
1040
0.15
1001
ASKOBJSC
1000
1/1
1001
ASKDWGSC
1040
4.0
1001
ACAD
1000
MTEXTBEGIN
1070
    73
1070
     1
1070
    44
1040
1.0
1070
    74
1070
     0
1000
MTEXTEND
  0
MTEXT
  5
F92
330
1F
100
AcDbEntity
  8
画層1
  6
Continuous
 62
     4
100
AcDbMText
 10
109.2140625715216
 20
1048.999999999965
 30
0.0
 40
10.0
 41
0.0
 71
     4
 72
     5
  1
\T1.40;\W0.60;３
  7
STD
 73
     1
 44
1.0
1001
DEKIMAS
1040
0.15
1001
ASKOBJSC
1000
1/1
1001
ASKDWGSC
1040
4.0
1001
ACAD
1000
MTEXTBEGIN
1070
    73
1070
     1
1070
    44
1040
1.0
1070
    74
1070
     0
1000
MTEXTEND
  0
MTEXT
  5
F93
330
1F
100
AcDbEntity
  8
画層1
  6
Continuous
 62
     4
100
AcDbMText
 10
148.8055728673886
 20
1048.999999999965
 30
0.0
 40
12.8
 41
0.0
 71
     4
 72
     5
  1
\T1.40;\W0.52;ハンドホール変更により全高修正
  7
STD
 73
     1
 44
1.0
1001
DEKIMAS
1040
0.15
1001
ASKOBJSC
1000
1/1
1001
ASKDWGSC
1040
4.0
1001
ACAD
1000
MTEXTBEGIN
1070
    73
1070
     1
1070
    44
1040
1.0
1070
    74
1070
     0
1000
MTEXTEND
  0
MTEXT
  5
F94
330
1F
100
AcDbEntity
  8
画層1
  6
Continuous
 62
     4
100
AcDbMText
 10
355.0914861358853
 20
1048.999999999965
 30
0.0
 40
12.8
 41
0.0
 71
     5
 72
     5
  1
\T1.09;\W0.39;Ｈ１８．３．２９
  7
STD
 73
     1
 44
1.0
1001
DEKIMAS
1040
0.15
1001
ASKOBJSC
1000
1/1
1001
ASKDWGSC
1040
4.0
1001
ACAD
1000
MTEXTBEGIN
1070
    73
1070
     1
1070
    44
1040
1.0
1070
    74
1070
     0
1000
MTEXTEND
  0
MTEXT
  5
F95
330
1F
100
AcDbEntity
  8
画層1
  6
Continuous
 62
     4
100
AcDbMText
 10
415.349199891276
 20
1048.999999999965
 30
0.0
 40
12.8
 41
0.0
 71
     5
 72
     5
  1
\T1.40;\W0.60;矢島
  7
STD
 73
     1
 44
1.0
1001
DEKIMAS
1040
0.15
1001
ASKOBJSC
1000
1/1
1001
ASKDWGSC
1040
4.0
1001
ACAD
1000
MTEXTBEGIN
1070
    73
1070
     1
1070
    44
1040
1.0
1070
    74
1070
     0
1000
MTEXTEND
  0
MTEXT
  5
F96
330
1F
100
AcDbEntity
  8
F00001_1
  6
Continuous
 62
     4
100
AcDbMText
 10
1143.349333167227
 20
169.999999999993
 30
0.0
 40
12.8
 41
0.0
 71
     5
 72
     5
  1
\T1.40;\W0.60;川畑
  7
STD
 73
     1
 44
1.0
1001
DEKIMAS
1040
0.15
1001
ASKOBJSC
1000
1/1
1001
ASKDWGSC
1040
4.0
1001
ACAD
1000
MTEXTBEGIN
1070
    73
1070
     1
1070
    44
1040
1.0
1070
    74
1070
     0
1000
MTEXTEND
  0
DIMENSION
  5
F98
330
1F
100
AcDbEntity
  8
LH0901_4
  6
Continuous
 62
     7
100
AcDbDimension
  2
*D17
 10
950.2682305005023
 20
139.8598709193569
 30
0.0
 11
872.768230500503
 21
139.8598709034623
 31
0.0
 70
   160
  1
\U+2205<>
 71
     5
 42
154.999999999999
  3
ASKSTANDARD
100
AcDbAlignedDimension
 13
795.2682304910326
 23
186.0380248792658
 33
0.0
 14
950.2682304910317
 24
186.0380249110568
 34
0.0
 50
180.0000000117508
100
AcDbRotatedDimension
1001
ACAD
1000
DSTYLE
1002
{
1070
    44
1040
2.286000251769999
1070
    40
1040
4.0
1070
   284
1070
     8
1070
   140
1040
3.0
1070
   271
1070
     0
1070
   173
1070
     1
1070
   343
1005
71F
1070
   344
1005
71F
1002
}
  0
DIMENSION
  5
FDB
330
1F
100
AcDbEntity
  8
LH0901_4
  6
Continuous
 62
     7
100
AcDbDimension
  2
*D18
 10
985.2682305060358
 20
112.8406448523161
 30
0.0
 11
872.7682305060447
 21
112.8406448292434
 31
0.0
 70
   160
  1
\U+2205<>
 71
     5
 42
225.0000305175701
  3
ASKSTANDARD
100
AcDbAlignedDimension
 13
760.2681999734536
 23
186.0380248720872
 33
0.0
 14
985.2682304910237
 24
186.0380249182355
 34
0.0
 50
180.0000000117508
100
AcDbRotatedDimension
1001
ACAD
1000
DSTYLE
1002
{
1070
    44
1040
2.2859992980955
1070
    40
1040
4.0
1070
   284
1070
     8
1070
   140
1040
3.0
1070
   271
1070
     0
1070
   173
1070
     1
1070
   343
1005
71F
1070
   344
1005
71F
1002
}
  0
POINT
  5
101E
330
1F
100
AcDbEntity
  8
LH0901_4
  6
Continuous
 62
     4
100
AcDbPoint
 10
857.7682189168116
 20
563.0380248920848
 30
0.0
 50
90.00000001175157
  0
POINT
  5
101F
330
1F
100
AcDbEntity
  8
LH0901_4
  6
Continuous
 62
     4
100
AcDbPoint
 10
857.7682189168116
 20
563.0380248920848
 30
0.0
 50
90.00000001175157
  0
LINE
  5
1020
330
1F
100
AcDbEntity
  8
LH0901_4
  6
Continuous
 62
     7
100
AcDbLine
 10
1017.768230491023
 20
186.0380249249013
 30
0.0
 11
727.7681999734536
 21
186.0380248654213
 31
0.0
1001
DEKIMAS
1000
実線（中）
1040
0.25
1001
DIMEXPLODE
1070
     0
  0
LINE
  5
1021
330
1F
100
AcDbEntity
  8
LH0901_4
  6
Continuous
 62
     7
100
AcDbLine
 10
1027.768230488972
 20
196.0380249269524
 30
0.0
 11
1027.768230416161
 21
551.0380249269523
 31
0.0
1001
DEKIMAS
1000
実線（中）
1040
0.25
1001
DIMEXPLODE
1070
     0
  0
LINE
  5
1022
330
1F
100
AcDbEntity
  8
LH0901_4
  6
CENTER2
 62
     1
100
AcDbLine
 10
872.7681999767389
 20
170.0202617573443
 30
0.0
 11
872.768199891543
 21
585.4003295826613
 31
0.0
1001
DEKIMAS
1000
一点鎖線（細）
1040
0.15
1001
DIMEXPLODE
1070
     0
  0
LINE
  5
1023
330
1F
100
AcDbEntity
  8
LH0901_4
  6
Continuous
 62
     7
100
AcDbLine
 10
717.7681999714025
 20
196.0380248633703
 30
0.0
 11
717.7681999057694
 21
516.0380248633702
 31
0.0
1001
DEKIMAS
1000
実線（中）
1040
0.25
1001
DIMEXPLODE
1070
     0
  0
LINE
  5
1024
330
1F
100
AcDbEntity
  8
LH0901_4
  6
Continuous
 62
     7
100
AcDbLine
 10
1017.76823041411
 20
561.0380249249013
 30
0.0
 11
781.4901237246648
 21
561.0380248764398
 31
0.0
1001
DEKIMAS
1000
実線（中）
1040
0.25
1001
DIMEXPLODE
1070
     0
  0
LINE
  5
1025
330
1F
100
AcDbEntity
  8
LH0901_4
  6
HIDDEN2
 62
     4
100
AcDbLine
 10
923.864360793415
 20
521.0380249056413
 30
0.0
 11
765.7877921899039
 21
521.0380248732193
 31
0.0
1001
DEKIMAS
1000
破線（細）
1040
0.15
1001
DIMEXPLODE
1070
     0
  0
LINE
  5
1026
330
1F
100
AcDbEntity
  8
LH0901_4
  6
CENTER2
 62
     1
100
AcDbLine
 10
822.7681998922875
 20
581.7699584786562
 30
0.0
 11
822.7681999073954
 21
508.1102905099062
 31
0.0
1001
DEKIMAS
1000
一点鎖線（細）
1040
0.15
1001
DIMEXPLODE
1070
     0
  0
LINE
  5
1027
330
1F
100
AcDbEntity
  8
LH0901_4
  6
HIDDEN2
 62
     4
100
AcDbLine
 10
907.7681998973602
 20
557.0380554199099
 30
0.0
 11
776.5911504693932
 21
557.038055393005
 31
0.0
1001
DEKIMAS
1000
破線（細）
1040
0.15
1001
DIMEXPLODE
1070
     0
  0
LINE
  5
1028
330
1F
100
AcDbEntity
  8
LH0901_4
  6
HIDDEN2
 62
     4
100
AcDbLine
 10
910.2681999041287
 20
524.0379028325327
 30
0.0
 11
766.6484184099886
 21
524.0379028030758
 31
0.0
1001
DEKIMAS
1000
破線（細）
1040
0.15
1001
DIMEXPLODE
1070
     0
  0
LINE
  5
1029
330
1F
100
AcDbEntity
  8
LH0901_4
  6
Continuous
 62
     7
 48
0.5
100
AcDbLine
 10
737.7681998979755
 20
554.0380553850423
 30
0.0
 11
737.7681999031032
 21
529.0378417620023
 31
0.0
1001
DEKIMAS
1000
実線（中）
1040
0.25
1001
DIMEXPLODE
1070
     0
  0
LINE
  5
102A
330
1F
100
AcDbEntity
  8
LH0901_4
  6
Continuous
 62
     7
 48
0.5
100
AcDbLine
 10
740.2681999041288
 20
524.0379027976652
 30
0.0
 11
740.2681999043339
 21
523.0379027976652
 31
0.0
1001
DEKIMAS
1000
実線（中）
1040
0.25
1001
DIMEXPLODE
1070
     0
  0
LINE
  5
102B
330
1F
100
AcDbEntity
  8
LH0901_4
  6
Continuous
 62
     7
 48
0.5
100
AcDbLine
 10
732.7681999036837
 20
526.2077026008169
 30
0.0
 11
732.7681999039913
 21
524.7077026008168
 31
0.0
1001
DEKIMAS
1000
実線（中）
1040
0.25
1001
DIMEXPLODE
1070
     0
  0
LINE
  5
102C
330
1F
100
AcDbEntity
  8
LH0901_4
  6
HIDDEN2
 62
     4
100
AcDbLine
 10
861.7573356452913
 20
529.0379028225829
 30
0.0
 11
783.7790946784942
 21
529.0379028065894
 31
0.0
1001
DEKIMAS
1000
破線（細）
1040
0.15
1001
DIMEXPLODE
1070
     0
  0
LINE
  5
102D
330
1F
100
AcDbEntity
  8
LH0901_4
  6
Continuous
 62
     7
 48
0.5
100
AcDbLine
 10
732.7681856690113
 20
524.7075442309469
 30
0.0
 11
735.2681908544988
 21
524.0376699324896
 31
0.0
1001
DEKIMAS
1000
実線（中）
1040
0.25
1001
DIMEXPLODE
1070
     0
  0
LINE
  5
102E
330
1F
100
AcDbEntity
  8
LH0901_4
  6
HIDDEN2
 62
     4
100
AcDbLine
 10
917.7681999039913
 20
524.707702638761
 30
0.0
 11
766.8869132829013
 21
524.7077026078147
 31
0.0
1001
DEKIMAS
1000
破線（細）
1040
0.15
1001
DIMEXPLODE
1070
     0
  0
LINE
  5
102F
330
1F
100
AcDbEntity
  8
LH0901_4
  6
HIDDEN2
 62
     4
100
AcDbLine
 10
861.7573356458718
 20
526.2077026272729
 30
0.0
 11
783.7790946790747
 21
526.2077026112794
 31
0.0
1001
DEKIMAS
1000
破線（細）
1040
0.15
1001
DIMEXPLODE
1070
     0
  0
LINE
  5
1030
330
1F
100
AcDbEntity
  8
LH0901_4
  6
Continuous
 62
     7
 48
0.5
100
AcDbLine
 10
737.7679971265231
 20
529.0382754101823
 30
0.0
 11
732.7679431619635
 21
526.2080740333967
 31
0.0
1001
DEKIMAS
1000
実線（中）
1040
0.25
1001
DIMEXPLODE
1070
     0
  0
LINE
  5
1031
330
1F
100
AcDbEntity
  8
LH0901_4
  6
Continuous
 62
     7
 48
0.5
100
AcDbLine
 10
727.7681998994113
 20
547.0379943478413
 30
0.0
 11
727.7681999039913
 21
524.7077025997913
 31
0.0
1001
DEKIMAS
1000
実線（中）
1040
0.25
1001
DIMEXPLODE
1070
     0
  0
LINE
  5
1032
330
1F
100
AcDbEntity
  8
LH0901_4
  6
HIDDEN2
 62
     4
 48
0.5
100
AcDbLine
 10
907.7681998979755
 20
554.0380554199099
 30
0.0
 11
907.7681999031032
 21
529.03784179687
 31
0.0
1001
DEKIMAS
1000
破線（細）
1040
0.15
1001
DIMEXPLODE
1070
     0
  0
LINE
  5
1033
330
1F
100
AcDbEntity
  8
LH0901_4
  6
HIDDEN2
 62
     4
 48
0.5
100
AcDbLine
 10
912.7681999036836
 20
526.2077026377354
 30
0.0
 11
912.7681999039912
 21
524.7077026377354
 31
0.0
1001
DEKIMAS
1000
破線（細）
1040
0.15
1001
DIMEXPLODE
1070
     0
  0
LINE
  5
1034
330
1F
100
AcDbEntity
  8
LH0901_4
  6
HIDDEN2
 62
     4
 48
0.5
100
AcDbLine
 10
907.768330397214
 20
529.03853826456
 30
0.0
 11
912.7683046884214
 21
526.2083819883255
 31
0.0
1001
DEKIMAS
1000
破線（細）
1040
0.15
1001
DIMEXPLODE
1070
     0
  0
LINE
  5
1035
330
1F
100
AcDbEntity
  8
LH0901_4
  6
HIDDEN2
 62
     4
 48
0.5
100
AcDbLine
 10
912.7682260819204
 20
524.7075316577554
 30
0.0
 11
910.2682208967097
 21
524.0376573582726
 31
0.0
1001
DEKIMAS
1000
破線（細）
1040
0.15
1001
DIMEXPLODE
1070
     0
  0
LINE
  5
1036
330
1F
100
AcDbEntity
  8
LH0901_4
  6
HIDDEN2
 62
     4
 48
0.5
100
AcDbLine
 10
917.7681998994113
 20
547.0379943868111
 30
0.0
 11
917.7681999039913
 21
524.707702638761
 31
0.0
1001
DEKIMAS
1000
破線（細）
1040
0.15
1001
DIMEXPLODE
1070
     0
  0
LINE
  5
1037
330
1F
100
AcDbEntity
  8
LH0901_4
  6
HIDDEN2
 62
     4
 48
0.5
100
AcDbLine
 10
905.2681999041288
 20
524.0379028315072
 30
0.0
 11
905.2681999043338
 21
523.0379028315073
 31
0.0
1001
DEKIMAS
1000
破線（細）
1040
0.15
1001
DIMEXPLODE
1070
     0
  0
LINE
  5
1038
330
1F
100
AcDbEntity
  8
LH0901_4
  6
HIDDEN2
 62
     4
 48
0.5
100
AcDbLine
 10
777.6072501969604
 20
524.7077026100135
 30
0.0
 11
777.6072501913547
 21
552.0379333229034
 31
0.0
1001
DEKIMAS
1000
破線（細）
1040
0.15
1001
DIMEXPLODE
1070
     0
  0
LINE
  5
1039
330
1F
100
AcDbEntity
  8
LH0901_4
  6
HIDDEN2
 62
     4
100
AcDbLine
 10
783.7790946793822
 20
524.7077026112793
 30
0.0
 11
783.7790946727513
 21
557.0379943593294
 31
0.0
1001
DEKIMAS
1000
破線（細）
1040
0.15
1001
DIMEXPLODE
1070
     0
  0
LINE
  5
103A
330
1F
100
AcDbEntity
  8
LH0901_4
  6
HIDDEN2
 62
     4
 48
0.5
100
AcDbLine
 10
774.3848991227413
 20
524.7077026093526
 30
0.0
 11
774.3848991171358
 21
552.0379333222425
 31
0.0
1001
DEKIMAS
1000
破線（細）
1040
0.15
1001
DIMEXPLODE
1070
     0
  0
LINE
  5
103B
330
1F
100
AcDbEntity
  8
LH0901_4
  6
HIDDEN2
 62
     4
 48
0.5
100
AcDbLine
 10
774.3848991218531
 20
529.0379028046626
 30
0.0
 11
768.1838493171732
 21
529.0379028033907
 31
0.0
1001
DEKIMAS
1000
破線（細）
1040
0.15
1001
DIMEXPLODE
1070
     0
  0
LINE
  5
103C
330
1F
100
AcDbEntity
  8
LH0901_4
  6
HIDDEN2
 62
     4
 48
0.5
100
AcDbLine
 10
774.3848991224337
 20
526.2077026093526
 30
0.0
 11
767.3361625501736
 21
526.2077026079068
 31
0.0
1001
DEKIMAS
1000
破線（細）
1040
0.15
1001
DIMEXPLODE
1070
     0
  0
LINE
  5
103D
330
1F
100
AcDbEntity
  8
LH0901_4
  6
HIDDEN2
 62
     4
100
AcDbLine
 10
861.7573356461793
 20
524.7077026272729
 30
0.0
 11
861.7573356395482
 21
557.037994375323
 31
0.0
1001
DEKIMAS
1000
破線（細）
1040
0.15
1001
DIMEXPLODE
1070
     0
  0
LINE
  5
103E
330
1F
100
AcDbEntity
  8
LH0901_4
  6
HIDDEN2
 62
     4
 48
0.5
100
AcDbLine
 10
867.9291801286009
 20
524.7077026285388
 30
0.0
 11
867.929180122995
 21
552.0379333414288
 31
0.0
1001
DEKIMAS
1000
破線（細）
1040
0.15
1001
DIMEXPLODE
1070
     0
  0
LINE
  5
103F
330
1F
100
AcDbEntity
  8
LH0901_4
  6
HIDDEN2
 62
     4
 48
0.5
100
AcDbLine
 10
871.1515312028195
 20
524.7077026291997
 30
0.0
 11
871.1515311972139
 21
552.0379333420897
 31
0.0
1001
DEKIMAS
1000
破線（細）
1040
0.15
1001
DIMEXPLODE
1070
     0
  0
LINE
  5
1040
330
1F
100
AcDbEntity
  8
LH0901_4
  6
HIDDEN2
 62
     4
100
AcDbLine
 10
871.1515312019312
 20
529.0379028245097
 30
0.0
 11
907.7681999031032
 21
529.03790283202
 31
0.0
1001
DEKIMAS
1000
破線（細）
1040
0.15
1001
DIMEXPLODE
1070
     0
  0
LINE
  5
1041
330
1F
100
AcDbEntity
  8
LH0901_4
  6
HIDDEN2
 62
     4
100
AcDbLine
 10
871.1515312025117
 20
526.2077026291997
 30
0.0
 11
912.7681693861047
 21
526.2077026377354
 31
0.0
1001
DEKIMAS
1000
破線（細）
1040
0.15
1001
DIMEXPLODE
1070
     0
  0
LINE
  5
1042
330
1F
100
AcDbEntity
  8
LH0901_4
  6
Continuous
 62
     7
100
AcDbLine
 10
766.8556852289527
 20
524.6034485783082
 30
0.0
 11
776.7003369896191
 21
557.4726183316074
 31
0.0
1001
DEKIMAS
1000
実線（中）
1040
0.25
1001
DIMEXPLODE
1070
     0
  0
LINE
  5
1043
330
1F
100
AcDbEntity
  8
LH0901_4
  6
HIDDEN2
 62
     4
100
AcDbLine
 10
936.8214014567367
 20
557.2506785942189
 30
0.0
 11
928.7150656467822
 21
524.8253353261262
 31
0.0
1001
DEKIMAS
1000
破線（細）
1040
0.15
1001
DIMEXPLODE
1070
     0
  0
LINE
  5
1044
330
1F
100
AcDbEntity
  8
LH0901_4
  6
Continuous
 62
     7
100
AcDbLine
 10
762.065898879354
 20
521.0380248724559
 30
0.0
 11
722.768199904744
 21
521.0380248643958
 31
0.0
1001
DEKIMAS
1000
実線（中）
1040
0.25
1001
DIMEXPLODE
1070
     0
  0
LINE
  5
1045
330
1F
100
AcDbEntity
  8
LH0901_4
  6
Continuous
 62
     7
100
AcDbLine
 10
766.6484184099886
 20
524.0379028030758
 30
0.0
 11
735.2681999041287
 21
524.0379027966396
 31
0.0
1001
DEKIMAS
1000
実線（中）
1040
0.25
1001
DIMEXPLODE
1070
     0
  0
LINE
  5
1046
330
1F
100
AcDbEntity
  8
LH0901_4
  6
Continuous
 62
     7
100
AcDbLine
 10
766.8856925797813
 20
524.7077026078144
 30
0.0
 11
727.7681999039913
 21
524.7077025997913
 31
0.0
1001
DEKIMAS
1000
実線（中）
1040
0.25
1001
DIMEXPLODE
1070
     0
  0
LINE
  5
1047
330
1F
100
AcDbEntity
  8
LH0901_4
  6
Continuous
 62
     7
100
AcDbLine
 10
767.3361625501736
 20
526.2077026079068
 30
0.0
 11
732.7682609388436
 21
526.2077026008169
 31
0.0
1001
DEKIMAS
1000
実線（中）
1040
0.25
1001
DIMEXPLODE
1070
     0
  0
LINE
  5
1048
330
1F
100
AcDbEntity
  8
LH0901_4
  6
Continuous
 62
     7
100
AcDbLine
 10
768.1838493171732
 20
529.0379028033907
 30
0.0
 11
737.7681999031032
 21
529.0379027971523
 31
0.0
1001
DEKIMAS
1000
実線（中）
1040
0.25
1001
DIMEXPLODE
1070
     0
  0
LINE
  5
1049
330
1F
100
AcDbEntity
  8
LH0901_4
  6
Continuous
 62
     7
100
AcDbLine
 10
776.5911504693932
 20
557.038055393005
 30
0.0
 11
737.7681998973603
 21
557.0380553850423
 31
0.0
1001
DEKIMAS
1000
実線（中）
1040
0.25
1001
DIMEXPLODE
1070
     0
  0
LINE
  5
104A
330
1F
100
AcDbEntity
  8
LH0901_4
  6
Continuous
 62
     7
100
AcDbLine
 10
917.7681999283308
 20
406.038024904391
 30
0.0
 11
917.7681999201267
 21
446.038024904391
 31
0.0
1001
DEKIMAS
1000
実線（中）
1040
0.25
1001
DIMEXPLODE
1070
     0
  0
LINE
  5
104B
330
1F
100
AcDbEntity
  8
LH0901_4
  6
Continuous
 62
     7
100
AcDbLine
 10
912.7681999293564
 20
401.0380249033654
 30
0.0
 11
832.7681999293565
 21
401.0380248869572
 31
0.0
1001
DEKIMAS
1000
実線（中）
1040
0.25
1001
DIMEXPLODE
1070
     0
  0
LINE
  5
104C
330
1F
100
AcDbEntity
  8
LH0901_4
  6
Continuous
 62
     7
100
AcDbLine
 10
912.7681999191011
 20
451.0380249033654
 30
0.0
 11
832.7681999191012
 21
451.0380248869572
 31
0.0
1001
DEKIMAS
1000
実線（中）
1040
0.25
1001
DIMEXPLODE
1070
     0
  0
LINE
  5
104D
330
1F
100
AcDbEntity
  8
LH0901_4
  6
Continuous
 62
     7
100
AcDbLine
 10
913.2184445828047
 20
446.5355356688077
 30
0.0
 11
917.2266774033158
 21
406.45320694647
 31
0.0
1001
DEKIMAS
1000
実線（中）
1040
0.25
1001
DIMEXPLODE
1070
     0
  0
LINE
  5
104E
330
1F
100
AcDbEntity
  8
LH0901_4
  6
Continuous
 62
     7
100
AcDbLine
 10
827.7681999283309
 20
406.0380248859316
 30
0.0
 11
827.7681999201268
 21
446.0380248859316
 31
0.0
1001
DEKIMAS
1000
実線（中）
1040
0.25
1001
DIMEXPLODE
1070
     0
  0
LINE
  5
104F
330
1F
100
AcDbEntity
  8
LH0901_4
  6
Continuous
 62
     7
100
AcDbLine
 10
832.3179574669056
 20
446.5355400671248
 30
0.0
 11
828.3097231445296
 21
406.4531961600827
 31
0.0
1001
DEKIMAS
1000
実線（中）
1040
0.25
1001
DIMEXPLODE
1070
     0
  0
LINE
  5
1050
330
1F
100
AcDbEntity
  8
LH0901_4
  6
HIDDEN2
 62
     4
 48
0.5
100
AcDbLine
 10
985.2682304889727
 20
196.0380249182355
 30
0.0
 11
960.2682304889807
 21
196.0380249131079
 31
0.0
1001
DEKIMAS
1000
破線（細）
1040
0.15
1001
DIMEXPLODE
1070
     0
  0
LINE
  5
1051
330
1F
100
AcDbEntity
  8
LH0901_4
  6
HIDDEN2
 62
     4
 48
0.5
100
AcDbLine
 10
985.2682304910237
 20
186.0380249182355
 30
0.0
 11
985.2682304889727
 21
196.0380249182355
 31
0.0
1001
DEKIMAS
1000
破線（細）
1040
0.15
1001
DIMEXPLODE
1070
     0
  0
LINE
  5
1052
330
1F
100
AcDbEntity
  8
LH0901_4
  6
HIDDEN2
 62
     4
 48
0.5
100
AcDbLine
 10
950.2682114703416
 20
186.0380249110568
 30
0.0
 11
960.2682222553285
 21
196.0380357001449
 31
0.0
1001
DEKIMAS
1000
破線（細）
1040
0.15
1001
DIMEXPLODE
1070
     0
  0
LINE
  5
1053
330
1F
100
AcDbEntity
  8
LH0901_4
  6
HIDDEN2
 62
     4
 48
0.5
100
AcDbLine
 10
795.2682384839335
 20
186.0380248792658
 30
0.0
 11
785.2682276948447
 21
196.0380356642518
 31
0.0
1001
DEKIMAS
1000
破線（細）
1040
0.15
1001
DIMEXPLODE
1070
     0
  0
LINE
  5
1054
330
1F
100
AcDbEntity
  8
LH0901_4
  6
HIDDEN2
 62
     4
 48
0.5
100
AcDbLine
 10
760.2681999714026
 20
196.0380248720872
 30
0.0
 11
785.2681999714026
 21
196.0380248772148
 31
0.0
1001
DEKIMAS
1000
破線（細）
1040
0.15
1001
DIMEXPLODE
1070
     0
  0
LINE
  5
1055
330
1F
100
AcDbEntity
  8
LH0901_4
  6
HIDDEN2
 62
     4
 48
0.5
100
AcDbLine
 10
760.2681999734536
 20
186.0380248720872
 30
0.0
 11
760.2681999714026
 21
196.0380248720872
 31
0.0
1001
DEKIMAS
1000
破線（細）
1040
0.15
1001
DIMEXPLODE
1070
     0
  0
ARC
  5
1056
330
1F
100
AcDbEntity
  8
LH0901_4
  6
Continuous
 62
     7
 48
0.5
100
AcDbCircle
 10
1017.768230416161
 20
551.0380249249013
 30
0.0
 40
10.0
100
AcDbArc
 50
0.0000000117508519
 51
90.00000251622934
1001
DEKIMAS
1000
実線（中）
1040
0.25
1001
DIMEXPLODE
1070
     0
  0
ARC
  5
1057
330
1F
100
AcDbEntity
  8
LH0901_4
  6
Continuous
 62
     7
 48
0.5
100
AcDbCircle
 10
1017.768230488973
 20
196.0380249249014
 30
0.0
 40
10.0
100
AcDbArc
 50
269.9999975072724
 51
0.0000000117508519
1001
DEKIMAS
1000
実線（中）
1040
0.25
1001
DIMEXPLODE
1070
     0
  0
ARC
  5
1058
330
1F
100
AcDbEntity
  8
LH0901_4
  6
Continuous
 62
     7
 48
0.5
100
AcDbCircle
 10
727.7681999714026
 20
196.0380248654213
 30
0.0
 40
10.0
100
AcDbArc
 50
179.9999913603294
 51
270.0000006949971
1001
DEKIMAS
1000
実線（中）
1040
0.25
1001
DIMEXPLODE
1070
     0
  0
ARC
  5
1059
330
1F
100
AcDbEntity
  8
LH0901_4
  6
Continuous
 62
     7
 48
0.5
100
AcDbCircle
 10
722.7681999057694
 20
516.0380248643958
 30
0.0
 40
5.0
100
AcDbArc
 50
90.00000251622934
 51
180.0000050207078
1001
DEKIMAS
1000
実線（中）
1040
0.25
1001
DIMEXPLODE
1070
     0
  0
ARC
  5
105A
330
1F
100
AcDbEntity
  8
LH0901_4
  6
HIDDEN2
 62
     4
100
AcDbCircle
 10
822.7681999829055
 20
139.9546508614692
 30
0.0
 40
423.08337402343
100
AcDbArc
 50
80.33915755791948
 51
84.42671978544778
1001
DEKIMAS
1000
破線（細）
1040
0.15
1001
DIMEXPLODE
1070
     0
  0
ARC
  5
105B
330
1F
100
AcDbEntity
  8
LH0901_4
  6
Continuous
 62
     7
 48
0.5
100
AcDbCircle
 10
738.2681999043338
 20
523.0379638324149
 30
0.0
 40
1.999999880790699
100
AcDbArc
 50
270.0000179978431
 51
0.0000000117508519
1001
DEKIMAS
1000
実線（中）
1040
0.25
1001
DIMEXPLODE
1070
     0
  0
ARC
  5
105C
330
1F
100
AcDbEntity
  8
LH0901_4
  6
HIDDEN2
 62
     4
 48
0.5
100
AcDbCircle
 10
860.7925529262425
 20
549.5380554102751
 30
0.0
 40
7.5618438720703
100
AcDbArc
 50
19.30509256868835
 51
82.66978202727036
1001
DEKIMAS
1000
破線（細）
1040
0.15
1001
DIMEXPLODE
1070
     0
  0
ARC
  5
105D
330
1F
100
AcDbEntity
  8
LH0901_4
  6
HIDDEN2
 62
     4
 48
0.5
100
AcDbCircle
 10
781.7432670375706
 20
549.5380553940617
 30
0.0
 40
7.771439552307099
100
AcDbArc
 50
105.187857041477
 51
161.2352897101451
1001
DEKIMAS
1000
破線（細）
1040
0.15
1001
DIMEXPLODE
1070
     0
  0
ARC
  5
105E
330
1F
100
AcDbEntity
  8
LH0901_4
  6
HIDDEN2
 62
     4
 48
0.5
100
AcDbCircle
 10
904.7681998979756
 20
554.0380554192946
 30
0.0
 40
2.999999761581399
100
AcDbArc
 50
0.0000000117508519
 51
89.9999820256618
1001
DEKIMAS
1000
破線（細）
1040
0.15
1001
DIMEXPLODE
1070
     0
  0
ARC
  5
105F
330
1F
100
AcDbEntity
  8
LH0901_4
  6
HIDDEN2
 62
     4
 48
0.5
100
AcDbCircle
 10
907.2681999043338
 20
523.0379638670775
 30
0.0
 40
1.999999880790699
100
AcDbArc
 50
179.9999640395695
 51
269.999946053487
1001
DEKIMAS
1000
破線（細）
1040
0.15
1001
DIMEXPLODE
1070
     0
  0
ARC
  5
1060
330
1F
100
AcDbEntity
  8
LH0901_4
  6
Continuous
 62
     7
 48
0.5
100
AcDbCircle
 10
740.7681998979755
 20
554.0380553856577
 30
0.0
 40
2.999999761581399
100
AcDbArc
 50
89.9999820256618
 51
179.9999640395695
1001
DEKIMAS
1000
実線（中）
1040
0.25
1001
DIMEXPLODE
1070
     0
  0
ARC
  5
1061
330
1F
100
AcDbEntity
  8
LH0901_4
  6
Continuous
 62
     7
 48
0.5
100
AcDbCircle
 10
737.7681998994113
 20
547.0379943498924
 30
0.0
 40
10.0
100
AcDbArc
 50
89.9999820256618
 51
179.9999640395695
1001
DEKIMAS
1000
実線（中）
1040
0.25
1001
DIMEXPLODE
1070
     0
  0
ARC
  5
1062
330
1F
100
AcDbEntity
  8
LH0901_4
  6
HIDDEN2
 62
     4
 48
0.5
100
AcDbCircle
 10
784.7438773891335
 20
549.5380553946771
 30
0.0
 40
7.5618438720703
100
AcDbArc
 50
97.33018202405723
 51
160.6948714826394
1001
DEKIMAS
1000
破線（細）
1040
0.15
1001
DIMEXPLODE
1070
     0
  0
ARC
  5
1063
330
1F
100
AcDbEntity
  8
LH0901_4
  6
HIDDEN2
 62
     4
 48
0.5
100
AcDbCircle
 10
907.7681998994114
 20
547.03799438476
 30
0.0
 40
10.0
100
AcDbArc
 50
0.0000000117508519
 51
89.9999820256618
1001
DEKIMAS
1000
破線（細）
1040
0.15
1001
DIMEXPLODE
1070
     0
  0
ARC
  5
1064
330
1F
100
AcDbEntity
  8
LH0901_4
  6
HIDDEN2
 62
     4
 48
0.5
100
AcDbCircle
 10
863.7931632778046
 20
549.5380554108904
 30
0.0
 40
7.771439552307099
100
AcDbArc
 50
18.76467434117365
 51
74.81210700984462
1001
DEKIMAS
1000
破線（細）
1040
0.15
1001
DIMEXPLODE
1070
     0
  0
ARC
  5
1065
330
1F
100
AcDbEntity
  8
LH0901_4
  6
HIDDEN2
 62
     4
 48
0.5
100
AcDbCircle
 10
923.8643607923894
 20
526.0380249056413
 30
0.0
 40
5.0
100
AcDbArc
 50
269.9999975072724
 51
345.9637563616959
1001
DEKIMAS
1000
破線（細）
1040
0.15
1001
DIMEXPLODE
1070
     0
  0
ARC
  5
1066
330
1F
100
AcDbEntity
  8
LH0901_4
  6
HIDDEN2
 62
     4
 48
0.5
100
AcDbCircle
 10
941.6721000440492
 20
556.0380249092937
 30
0.0
 40
5.0
100
AcDbArc
 50
90.00000251622934
 51
165.9637613706542
1001
DEKIMAS
1000
破線（細）
1040
0.15
1001
DIMEXPLODE
1070
     0
  0
ARC
  5
1067
330
1F
100
AcDbEntity
  8
LH0901_4
  6
Continuous
 62
     7
 48
0.5
100
AcDbCircle
 10
781.4901237256904
 20
556.0380248764398
 30
0.0
 40
5.0
100
AcDbArc
 50
90.00000251622934
 51
163.3265023887133
1001
DEKIMAS
1000
実線（中）
1040
0.25
1001
DIMEXPLODE
1070
     0
  0
ARC
  5
1068
330
1F
100
AcDbEntity
  8
LH0901_4
  6
Continuous
 62
     7
 48
0.5
100
AcDbCircle
 10
762.0658988783284
 20
526.0380248724559
 30
0.0
 40
5.0
100
AcDbArc
 50
269.9999975072724
 51
343.3265059174919
1001
DEKIMAS
1000
実線（中）
1040
0.25
1001
DIMEXPLODE
1070
     0
  0
ARC
  5
1069
330
1F
100
AcDbEntity
  8
LH0901_4
  6
Continuous
 62
     7
100
AcDbCircle
 10
822.7681999829055
 20
139.9546508614692
 30
0.0
 40
423.08337402343
100
AcDbArc
 50
84.42671978544778
 51
99.66086113491485
1001
DEKIMAS
1000
実線（中）
1040
0.25
1001
DIMEXPLODE
1070
     0
  0
ARC
  5
106A
330
1F
100
AcDbEntity
  8
LH0901_4
  6
Continuous
 62
     7
 48
0.5
100
AcDbCircle
 10
912.7681999283309
 20
406.0380249033654
 30
0.0
 40
5.0
100
AcDbArc
 50
269.9999975072724
 51
0.0000000117508519
1001
DEKIMAS
1000
実線（中）
1040
0.25
1001
DIMEXPLODE
1070
     0
  0
ARC
  5
106B
330
1F
100
AcDbEntity
  8
LH0901_4
  6
Continuous
 62
     7
 48
0.5
100
AcDbCircle
 10
912.7681999201268
 20
446.0380249033654
 30
0.0
 40
5.0
100
AcDbArc
 50
0.0000000117508519
 51
90.00000251622934
1001
DEKIMAS
1000
実線（中）
1040
0.25
1001
DIMEXPLODE
1070
     0
  0
ARC
  5
106C
330
1F
100
AcDbEntity
  8
LH0901_4
  6
Continuous
 62
     7
 48
0.5
100
AcDbCircle
 10
908.2432670587976
 20
446.0380249024374
 30
0.0
 40
5.0
100
AcDbArc
 50
5.710593110749396
 51
90.00000251622934
1001
DEKIMAS
1000
実線（中）
1040
0.25
1001
DIMEXPLODE
1070
     0
  0
ARC
  5
106D
330
1F
100
AcDbEntity
  8
LH0901_4
  6
Continuous
 62
     7
 48
0.5
100
AcDbCircle
 10
837.2931632990336
 20
446.0380248878853
 30
0.0
 40
5.0
100
AcDbArc
 50
90.00000251622934
 51
174.289406799066
1001
DEKIMAS
1000
実線（中）
1040
0.25
1001
DIMEXPLODE
1070
     0
  0
ARC
  5
106E
330
1F
100
AcDbEntity
  8
LH0901_4
  6
Continuous
 62
     7
 48
0.5
100
AcDbCircle
 10
832.7681999201267
 20
446.0380248869572
 30
0.0
 40
5.0
100
AcDbArc
 50
90.00000251622934
 51
180.0000050207078
1001
DEKIMAS
1000
実線（中）
1040
0.25
1001
DIMEXPLODE
1070
     0
  0
ARC
  5
106F
330
1F
100
AcDbEntity
  8
LH0901_4
  6
Continuous
 62
     7
 48
0.5
100
AcDbCircle
 10
832.7681999283308
 20
406.0380248869572
 30
0.0
 40
5.0
100
AcDbArc
 50
179.9999913603294
 51
270.0000006949971
1001
DEKIMAS
1000
実線（中）
1040
0.25
1001
DIMEXPLODE
1070
     0
  0
DIMENSION
  5
1202
330
1F
100
AcDbEntity
  8
画層1
  6
DIMENSION
 62
     7
100
AcDbDimension
  2
*D19
 10
1061.056178251917
 20
186.0380249249013
 30
0.0
 11
1051.056178251917
 21
373.5380249249015
 31
0.0
 70
    32
  1
<>
 71
     5
 42
375.0
  3
ASKSTANDARD
100
AcDbAlignedDimension
 13
1017.768229976996
 23
561.0380249249013
 33
0.0
 14
1017.768230053909
 24
186.0380249249013
 34
0.0
 50
90.0
100
AcDbRotatedDimension
1001
ACAD
1000
DSTYLE
1002
{
1070
     3
1000
<>
1070
    78
1070
     8
1002
}
  0
ENDSEC
  0
SECTION
  2
OBJECTS
  0
DICTIONARY
  5
C
330
0
100
AcDbDictionary
281
     1
  3
ACAD_2007HEADERVARS_RT
350
124E
  3
ACAD_CIP_PREVIOUS_PRODUCT_INFO
350
1241
  3
ACAD_COLOR
350
6B
  3
ACAD_DETAILVIEWSTYLE
350
1239
  3
ACAD_GROUP
350
D
  3
ACAD_IMAGE_VARS
350
731
  3
ACAD_LAYOUT
350
1A
  3
ACAD_MATERIAL
350
6A
  3
ACAD_MLEADERSTYLE
350
402
  3
ACAD_MLINESTYLE
350
17
  3
ACAD_PLOTSETTINGS
350
19
  3
ACAD_PLOTSTYLENAME
350
E
  3
ACAD_SCALELIST
350
3E0
  3
ACAD_SECTIONVIEWSTYLE
350
1237
  3
ACAD_TABLESTYLE
350
7E
  3
ACAD_VISUALSTYLE
350
F2
  3
ACDB_RECOMPOSE_DATA
350
124C
  3
AcDbVariableDictionary
350
5E
  3
ASKSYSVAR
350
6E7
  3
DWGPROPS
350
124D
  3
SAKAE_DICT
350
114B
  0
DICTIONARY
  5
688
330
2
100
AcDbDictionary
280
     1
281
     1
  3
ACAD_LAYERFILTERS
360
11EE
  3
ACLYDICTIONARY
360
11ED
  0
DICTIONARY
  5
785
330
10
100
AcDbDictionary
280
     1
281
     1
  3
ADSK_XREC_LAYER_RECONCILED
360
7F6
  0
DICTIONARY
  5
318
330
1F
100
AcDbDictionary
280
     1
281
     1
  0
DICTIONARY
  5
127F
330
115C
100
AcDbDictionary
280
     1
281
     1
  3
ACAD_MTEXT_RT
360
1280
  0
DICTIONARY
  5
1281
330
1215
100
AcDbDictionary
280
     1
281
     1
  3
ACAD_MTEXT_RT
360
1282
  0
DICTIONARY
  5
1283
330
121E
100
AcDbDictionary
280
     1
281
     1
  3
ACAD_MTEXT_RT
360
1284
  0
DICTIONARY
  5
124E
102
{ACAD_REACTORS
330
C
102
}
330
C
100
AcDbDictionary
281
     1
  3
DIMFXL
350
124F
  3
DIMJOGANG
350
1250
  0
XRECORD
  5
1241
102
{ACAD_REACTORS
330
C
102
}
330
C
100
AcDbXrecord
280
     1
300
AMECH_PP
300
2013
300
AMECH_PP_F_S
  0
DICTIONARY
  5
6B
102
{ACAD_REACTORS
330
C
102
}
330
C
100
AcDbDictionary
281
     1
  0
DICTIONARY
  5
1239
102
{ACAD_REACTORS
330
C
102
}
330
C
100
AcDbDictionary
281
     1
  3
Metric50
350
123A
  0
DICTIONARY
  5
D
102
{ACAD_REACTORS
330
C
102
}
330
C
100
AcDbDictionary
281
     1
  0
RASTERVARIABLES
  5
731
102
{ACAD_REACTORS
330
C
102
}
330
C
100
AcDbRasterVariables
 90
        0
 70
     3
 71
     1
 72
     1
  0
DICTIONARY
  5
1A
102
{ACAD_REACTORS
330
C
102
}
330
C
100
AcDbDictionary
281
     1
  3
Model
350
22
  3
レイアウト1
350
D3
  3
レイアウト2
350
D7
  0
DICTIONARY
  5
6A
102
{ACAD_REACTORS
330
C
102
}
330
C
100
AcDbDictionary
281
     1
  3
ByBlock
350
F0
  3
ByLayer
350
EF
  3
Global
350
F1
  0
DICTIONARY
  5
402
102
{ACAD_REACTORS
330
C
102
}
330
C
100
AcDbDictionary
281
     1
  3
Standard
350
403
  0
DICTIONARY
  5
17
102
{ACAD_REACTORS
330
C
102
}
330
C
100
AcDbDictionary
281
     1
  3
Standard
350
18
  0
DICTIONARY
  5
19
102
{ACAD_REACTORS
330
C
102
}
330
C
100
AcDbDictionary
281
     1
  0
ACDBDICTIONARYWDFLT
  5
E
102
{ACAD_REACTORS
330
C
102
}
330
C
100
AcDbDictionary
281
     1
  3
Normal
350
F
100
AcDbDictionaryWithDefault
340
F
  0
DICTIONARY
  5
3E0
102
{ACAD_REACTORS
330
C
102
}
330
C
100
AcDbDictionary
281
     1
  3
A0
350
3E1
  3
A1
350
3E2
  3
A2
350
3E3
  3
A3
350
3E4
  3
A4
350
3E5
  3
A5
350
3E6
  3
A6
350
3E7
  3
A7
350
3E8
  3
A8
350
3E9
  3
A9
350
3EA
  3
B0
350
3EB
  3
B1
350
3EC
  3
B2
350
3ED
  3
B3
350
3EE
  3
B4
350
3EF
  3
B5
350
3F0
  3
B6
350
3F1
  3
B7
350
3F2
  3
B8
350
3F3
  3
B9
350
3F4
  3
C0
350
3F5
  3
C1
350
3F6
  3
C2
350
3F7
  3
C3
350
3F8
  3
C4
350
3F9
  3
C5
350
3FA
  3
C6
350
3FB
  3
C7
350
3FC
  3
C8
350
3FD
  3
C9
350
3FE
  3
D0
350
3FF
  3
D1
350
400
  3
D2
350
401
  0
DICTIONARY
  5
1237
102
{ACAD_REACTORS
330
C
102
}
330
C
100
AcDbDictionary
281
     1
  3
Metric50
350
1238
  0
DICTIONARY
  5
7E
102
{ACAD_REACTORS
330
C
102
}
330
C
100
AcDbDictionary
281
     1
  3
Standard
350
7F
  0
DICTIONARY
  5
F2
102
{ACAD_REACTORS
330
C
102
}
330
C
100
AcDbDictionary
281
     1
  3
2dWireframe
350
F8
  3
3D Hidden
350
FA
  3
3dWireframe
350
F9
  3
Basic
350
F7
  3
Brighten
350
FE
  3
ColorChange
350
102
  3
Conceptual
350
FB
  3
Dim
350
FD
  3
EdgeColorOff
350
1236
  3
Facepattern
350
101
  3
Flat
350
F3
  3
FlatWithEdges
350
F4
  3
Gouraud
350
F5
  3
GouraudWithEdges
350
F6
  3
Hidden
350
122E
  3
JitterOff
350
1234
  3
Linepattern
350
100
  3
OverhangOff
350
1235
  3
Realistic
350
FC
  3
Shaded
350
1233
  3
Shaded with edges
350
1232
  3
Shades of Gray
350
122F
  3
Sketchy
350
1230
  3
Thicken
350
FF
  3
Wireframe
350
122D
  3
X-Ray
350
1231
  0
XRECORD
  5
124C
102
{ACAD_REACTORS
330
C
102
}
330
C
100
AcDbXrecord
280
     1
 90
        1
330
7F
  0
DICTIONARY
  5
5E
102
{ACAD_REACTORS
330
C
102
}
330
C
100
AcDbDictionary
281
     1
  3
CANNOSCALE
350
678
  3
CMLEADERSTYLE
350
676
  3
CTABLESTYLE
350
84
  3
CVIEWDETAILSTYLE
350
1242
  3
CVIEWSECTIONSTYLE
350
1243
  3
DIMASSOC
350
5F
  3
HIDETEXT
350
63
  3
INDEXCTL
350
1245
  3
LIGHTINGUNITS
350
679
  3
MSLTSCALE
350
677
  3
PSOLHEIGHT
350
1249
  3
PSOLWIDTH
350
1248
  3
SOLIDHIST
350
1247
  3
SORTENTS
350
1244
  3
XCLIPFRAME
350
1246
  0
DICTIONARY
  5
6E7
102
{ACAD_REACTORS
330
C
102
}
330
C
100
AcDbDictionary
281
     1
  3
ASK_SUMMARY
350
6E8
  3
ASKCURSC
350
7D3
  0
XRECORD
  5
124D
102
{ACAD_REACTORS
330
C
102
}
330
C
100
AcDbXrecord
280
     1
  1
DWGPROPS COOKIE
  2

  3

  4

  6

  7

  8
Administrator
  9

300
=
301
=
302
=
303
=
304
=
305
=
306
=
307
=
308
=
309
=
 40
0.197988125
 41
2454497.602825139
 42
2455672.457246088
  1

 90
        0
  0
DICTIONARY
  5
114B
102
{ACAD_REACTORS
330
C
102
}
330
C
100
AcDbDictionary
281
     1
  3
XREC1
350
114C
  0
DICTIONARY
  5
11EE
102
{ACAD_REACTORS
330
688
102
}
330
688
100
AcDbDictionary
281
     1
  0
DICTIONARY
  5
11ED
102
{ACAD_REACTORS
330
688
102
}
330
688
100
AcDbDictionary
281
     1
1001
ACAD
1000
<All
  0
XRECORD
  5
7F6
102
{ACAD_REACTORS
330
785
102
}
330
785
100
AcDbXrecord
280
     1
290
     1
  0
XRECORD
  5
1280
102
{ACAD_REACTORS
330
127F
102
}
330
127F
100
AcDbXrecord
280
     1
 40
7651.0
  1
\A1;OD\U+2205310
  0
XRECORD
  5
1282
102
{ACAD_REACTORS
330
1281
102
}
330
1281
100
AcDbXrecord
280
     1
 40
5808.0
  1
\A1;\U+2205155
  0
XRECORD
  5
1284
102
{ACAD_REACTORS
330
1283
102
}
330
1283
100
AcDbXrecord
280
     1
 40
5781.0
  1
\A1;\U+2205225
  0
XRECORD
  5
124F
102
{ACAD_REACTORS
330
124E
102
}
330
124E
100
AcDbXrecord
280
     1
 40
2.0
  0
XRECORD
  5
1250
102
{ACAD_REACTORS
330
124E
102
}
330
124E
100
AcDbXrecord
280
     1
 40
1.570796326794896
  0
ACDBDETAILVIEWSTYLE
  5
123A
102
{ACAD_REACTORS
330
1239
102
}
330
1239
100
AcDbModelDocViewStyle
 70
     0
  3
Metric50
290
     0
100
AcDbDetailViewStyle
 70
     0
 71
     0
 90
        3
 71
     1
340
11
 40
5.0
340
0
 40
5.0
300

 40
0.0
280
     1
 71
     2
340
16
 90
       25
 71
     3
340
11
 40
5.0
 90
        0
 40
15.0
 90
        1
300
%<\AcVar ViewDetailId>% (%<\AcVar ViewScale \f "%sn">%)
 71
     4
340
16
 90
       25
340
16
 90
       25
280
     0
  0
LAYOUT
  5
22
102
{ACAD_XDICTIONARY
360
1251
102
}
102
{ACAD_REACTORS
330
1A
102
}
330
1A
100
AcDbPlotSettings
  1

  2
none_device
  4
ISO_A4_(210.00_x_297.00_MM)
  6

 40
7.5
 41
20.0
 42
7.5
 43
20.0
 44
210.0
 45
297.0
 46
0.0
 47
59.55357142857143
 48
0.0
 49
0.0
140
0.0
141
0.0
142
1.0
143
2.153846153846153
 70
 11956
 72
     1
 73
     0
 74
     2
  7
C:\Documents and Settings\tomiya\Application Data\Autodesk\AutoCAD Mechanical 2008\R17.1\jpn\Plot Styles\SUIKO.ctb
 75
     0
147
0.4642857142857144
148
0.0
149
0.0
100
AcDbLayout
  1
Model
 70
     1
 71
     0
 10
0.0
 20
0.0
 11
12.0
 21
9.0
 12
0.0
 22
0.0
 32
0.0
 14
0.0
 24
0.0
 34
0.0
 15
0.0
 25
0.0
 35
0.0
146
0.0
 13
0.0
 23
0.0
 33
0.0
 16
1.0
 26
0.0
 36
0.0
 17
0.0
 27
1.0
 37
0.0
 76
     0
330
1F
331
ED
1001
ACAD_PSEXT
1000
なし
1000
なし
1000
適切ではありません
1000
新しいプロッタ環境設定名を選択しない限り、レイアウトは印刷されません。
1070
     0
  0
LAYOUT
  5
D3
102
{ACAD_XDICTIONARY
360
1254
102
}
102
{ACAD_REACTORS
330
1A
102
}
330
1A
100
AcDbPlotSettings
  1

  2
C:\Documents and Settings\basas\Application Data\Autodesk\AutoCAD 2005\R16.1\enu\plotters\Default Windows System Printer.pc3
  4

  6

 40
0.0
 41
0.0
 42
0.0
 43
0.0
 44
0.0
 45
0.0
 46
0.0
 47
0.0
 48
0.0
 49
0.0
140
0.0
141
0.0
142
1.0
143
1.0
 70
   688
 72
     0
 73
     0
 74
     5
  7
C:\Documents and Settings\tomiya\Application Data\Autodesk\AutoCAD Mechanical 2008\R17.1\jpn\Plot Styles\SUIKO.ctb
 75
    16
147
1.0
148
0.0
149
0.0
100
AcDbLayout
  1
レイアウト1
 70
     1
 71
     1
 10
0.0
 20
0.0
 11
12.0
 21
9.0
 12
0.0
 22
0.0
 32
0.0
 14
0.0
 24
0.0
 34
0.0
 15
0.0
 25
0.0
 35
0.0
146
0.0
 13
0.0
 23
0.0
 33
0.0
 16
1.0
 26
0.0
 36
0.0
 17
0.0
 27
1.0
 37
0.0
 76
     0
330
D2
  0
LAYOUT
  5
D7
102
{ACAD_XDICTIONARY
360
1256
102
}
102
{ACAD_REACTORS
330
1A
102
}
330
1A
100
AcDbPlotSettings
  1

  2
C:\Documents and Settings\basas\Application Data\Autodesk\AutoCAD 2005\R16.1\enu\plotters\Default Windows System Printer.pc3
  4

  6

 40
0.0
 41
0.0
 42
0.0
 43
0.0
 44
0.0
 45
0.0
 46
0.0
 47
0.0
 48
0.0
 49
0.0
140
0.0
141
0.0
142
1.0
143
1.0
 70
   688
 72
     0
 73
     0
 74
     5
  7
C:\Documents and Settings\tomiya\Application Data\Autodesk\AutoCAD Mechanical 2008\R17.1\jpn\Plot Styles\SUIKO.ctb
 75
    16
147
1.0
148
0.0
149
0.0
100
AcDbLayout
  1
レイアウト2
 70
     1
 71
     2
 10
0.0
 20
0.0
 11
12.0
 21
9.0
 12
0.0
 22
0.0
 32
0.0
 14
0.0
 24
0.0
 34
0.0
 15
0.0
 25
0.0
 35
0.0
146
0.0
 13
0.0
 23
0.0
 33
0.0
 16
1.0
 26
0.0
 36
0.0
 17
0.0
 27
1.0
 37
0.0
 76
     0
330
D6
  0
MATERIAL
  5
F0
102
{ACAD_XDICTIONARY
360
125A
102
}
102
{ACAD_REACTORS
330
6A
102
}
330
6A
100
AcDbMaterial
  1
ByBlock
 73
     1
 78
     1
172
     1
176
     1
270
     1
274
     1
  0
MATERIAL
  5
EF
102
{ACAD_XDICTIONARY
360
1258
102
}
102
{ACAD_REACTORS
330
6A
102
}
330
6A
100
AcDbMaterial
  1
ByLayer
 73
     1
 78
     1
172
     1
176
     1
270
     1
274
     1
  0
MATERIAL
  5
F1
102
{ACAD_XDICTIONARY
360
125C
102
}
102
{ACAD_REACTORS
330
6A
102
}
330
6A
100
AcDbMaterial
  1
Global
 73
     1
 78
     1
172
     1
176
     1
270
     1
274
     1
  0
MLEADERSTYLE
  5
403
102
{ACAD_REACTORS
330
402
102
}
330
402
100
AcDbMLeaderStyle
170
     2
171
     1
172
     0
 90
        2
 40
0.0
 41
0.0
173
     1
 91
-1056964608
340
14
 92
       -2
290
     1
 42
2.0
291
     1
 43
0.36
  3
Standard
 44
4.0
300

342
11
174
     1
178
     6
175
     1
176
     0
 93
-1056964608
 45
4.0
292
     0
297
     0
 46
4.0
 94
-1056964608
 47
1.0
 49
1.0
140
1.0
293
     1
141
0.0
294
     1
177
     0
142
1.0
295
     0
296
     0
143
0.125
1001
ACAD_MLEADERVER
1070
     2
  0
MLINESTYLE
  5
18
102
{ACAD_REACTORS
330
17
102
}
330
17
100
AcDbMlineStyle
  2
STANDARD
 70
     0
  3

 62
   256
 51
90.0
 52
90.0
 71
     2
 49
0.5
 62
   256
  6
BYLAYER
 49
-0.5
 62
   256
  6
BYLAYER
  0
ACDBPLACEHOLDER
  5
F
102
{ACAD_REACTORS
330
E
102
}
330
E
  0
SCALE
  5
3E1
102
{ACAD_REACTORS
330
3E0
102
}
330
3E0
100
AcDbScale
 70
     0
300
1:1
140
1.0
141
1.0
290
     1
  0
SCALE
  5
3E2
102
{ACAD_REACTORS
330
3E0
102
}
330
3E0
100
AcDbScale
 70
     0
300
1:2
140
1.0
141
2.0
290
     0
  0
SCALE
  5
3E3
102
{ACAD_REACTORS
330
3E0
102
}
330
3E0
100
AcDbScale
 70
     0
300
1:4
140
1.0
141
4.0
290
     0
  0
SCALE
  5
3E4
102
{ACAD_REACTORS
330
3E0
102
}
330
3E0
100
AcDbScale
 70
     0
300
1:5
140
1.0
141
5.0
290
     0
  0
SCALE
  5
3E5
102
{ACAD_REACTORS
330
3E0
102
}
330
3E0
100
AcDbScale
 70
     0
300
1:8
140
1.0
141
8.0
290
     0
  0
SCALE
  5
3E6
102
{ACAD_REACTORS
330
3E0
102
}
330
3E0
100
AcDbScale
 70
     0
300
1:10
140
1.0
141
10.0
290
     0
  0
SCALE
  5
3E7
102
{ACAD_REACTORS
330
3E0
102
}
330
3E0
100
AcDbScale
 70
     0
300
1:16
140
1.0
141
16.0
290
     0
  0
SCALE
  5
3E8
102
{ACAD_REACTORS
330
3E0
102
}
330
3E0
100
AcDbScale
 70
     0
300
1:20
140
1.0
141
20.0
290
     0
  0
SCALE
  5
3E9
102
{ACAD_REACTORS
330
3E0
102
}
330
3E0
100
AcDbScale
 70
     0
300
1:30
140
1.0
141
30.0
290
     0
  0
SCALE
  5
3EA
102
{ACAD_REACTORS
330
3E0
102
}
330
3E0
100
AcDbScale
 70
     0
300
1:40
140
1.0
141
40.0
290
     0
  0
SCALE
  5
3EB
102
{ACAD_REACTORS
330
3E0
102
}
330
3E0
100
AcDbScale
 70
     0
300
1:50
140
1.0
141
50.0
290
     0
  0
SCALE
  5
3EC
102
{ACAD_REACTORS
330
3E0
102
}
330
3E0
100
AcDbScale
 70
     0
300
1:100
140
1.0
141
100.0
290
     0
  0
SCALE
  5
3ED
102
{ACAD_REACTORS
330
3E0
102
}
330
3E0
100
AcDbScale
 70
     0
300
2:1
140
2.0
141
1.0
290
     0
  0
SCALE
  5
3EE
102
{ACAD_REACTORS
330
3E0
102
}
330
3E0
100
AcDbScale
 70
     0
300
4:1
140
4.0
141
1.0
290
     0
  0
SCALE
  5
3EF
102
{ACAD_REACTORS
330
3E0
102
}
330
3E0
100
AcDbScale
 70
     0
300
8:1
140
8.0
141
1.0
290
     0
  0
SCALE
  5
3F0
102
{ACAD_REACTORS
330
3E0
102
}
330
3E0
100
AcDbScale
 70
     0
300
10:1
140
10.0
141
1.0
290
     0
  0
SCALE
  5
3F1
102
{ACAD_REACTORS
330
3E0
102
}
330
3E0
100
AcDbScale
 70
     0
300
100:1
140
100.0
141
1.0
290
     0
  0
SCALE
  5
3F2
102
{ACAD_REACTORS
330
3E0
102
}
330
3E0
100
AcDbScale
 70
     0
300
1/128" = 1'-0"
140
0.0078125
141
12.0
290
     0
  0
SCALE
  5
3F3
102
{ACAD_REACTORS
330
3E0
102
}
330
3E0
100
AcDbScale
 70
     0
300
1/64" = 1'-0"
140
0.015625
141
12.0
290
     0
  0
SCALE
  5
3F4
102
{ACAD_REACTORS
330
3E0
102
}
330
3E0
100
AcDbScale
 70
     0
300
1/32" = 1'-0"
140
0.03125
141
12.0
290
     0
  0
SCALE
  5
3F5
102
{ACAD_REACTORS
330
3E0
102
}
330
3E0
100
AcDbScale
 70
     0
300
1/16" = 1'-0"
140
0.0625
141
12.0
290
     0
  0
SCALE
  5
3F6
102
{ACAD_REACTORS
330
3E0
102
}
330
3E0
100
AcDbScale
 70
     0
300
3/32" = 1'-0"
140
0.09375
141
12.0
290
     0
  0
SCALE
  5
3F7
102
{ACAD_REACTORS
330
3E0
102
}
330
3E0
100
AcDbScale
 70
     0
300
1/8" = 1'-0"
140
0.125
141
12.0
290
     0
  0
SCALE
  5
3F8
102
{ACAD_REACTORS
330
3E0
102
}
330
3E0
100
AcDbScale
 70
     0
300
3/16" = 1'-0"
140
0.1875
141
12.0
290
     0
  0
SCALE
  5
3F9
102
{ACAD_REACTORS
330
3E0
102
}
330
3E0
100
AcDbScale
 70
     0
300
1/4" = 1'-0"
140
0.25
141
12.0
290
     0
  0
SCALE
  5
3FA
102
{ACAD_REACTORS
330
3E0
102
}
330
3E0
100
AcDbScale
 70
     0
300
3/8" = 1'-0"
140
0.375
141
12.0
290
     0
  0
SCALE
  5
3FB
102
{ACAD_REACTORS
330
3E0
102
}
330
3E0
100
AcDbScale
 70
     0
300
1/2" = 1'-0"
140
0.5
141
12.0
290
     0
  0
SCALE
  5
3FC
102
{ACAD_REACTORS
330
3E0
102
}
330
3E0
100
AcDbScale
 70
     0
300
3/4" = 1'-0"
140
0.75
141
12.0
290
     0
  0
SCALE
  5
3FD
102
{ACAD_REACTORS
330
3E0
102
}
330
3E0
100
AcDbScale
 70
     0
300
1" = 1'-0"
140
1.0
141
12.0
290
     0
  0
SCALE
  5
3FE
102
{ACAD_REACTORS
330
3E0
102
}
330
3E0
100
AcDbScale
 70
     0
300
1-1/2" = 1'-0"
140
1.5
141
12.0
290
     0
  0
SCALE
  5
3FF
102
{ACAD_REACTORS
330
3E0
102
}
330
3E0
100
AcDbScale
 70
     0
300
3" = 1'-0"
140
3.0
141
12.0
290
     0
  0
SCALE
  5
400
102
{ACAD_REACTORS
330
3E0
102
}
330
3E0
100
AcDbScale
 70
     0
300
6" = 1'-0"
140
6.0
141
12.0
290
     0
  0
SCALE
  5
401
102
{ACAD_REACTORS
330
3E0
102
}
330
3E0
100
AcDbScale
 70
     0
300
1'-0" = 1'-0"
140
12.0
141
12.0
290
     0
  0
ACDBSECTIONVIEWSTYLE
  5
1238
102
{ACAD_REACTORS
330
1237
102
}
330
1237
100
AcDbModelDocViewStyle
 70
     0
  3
Metric50
290
     0
100
AcDbSectionViewStyle
 70
     0
 71
     0
 90
      102
 71
     1
340
11
 40
5.0
340
0
340
0
 40
5.0
300
I, O, Q, S, X, Z
 40
10.0
 90
        0
 40
2.5
 90
        0
 71
     2
340
16
 90
       25
340
16
 90
       50
 40
5.0
 40
2.5
 40
5.0
 71
     3
340
11
 40
5.0
 90
        0
 40
15.0
 90
        1
300
%<\AcVar ViewSectionStartId>%-%<\AcVar ViewSectionEndId>% (%<\AcVar ViewScale \f "%sn">%)
 71
     4
300
ANSI31
 40
1.0
 90
        0
290
     0
290
     0
 90
        6
 40
0.0
 40
1.570796326794896
 40
0.2617993877991494
 40
1.308996938995747
 40
-0.2617993877991494
 40
1.832595714594046
  0
TABLESTYLE
  5
7F
102
{ACAD_XDICTIONARY
360
673
102
}
102
{ACAD_REACTORS
330
7E
102
}
330
7E
100
AcDbTableStyle
  3
Standard
 70
     0
 71
     0
 40
1.5
 41
1.5
280
     0
281
     0
  7
Standard
140
4.5
170
     2
 62
     0
 63
     7
283
     0
274
    -2
284
     1
 64
     0
275
    -2
285
     1
 65
     0
276
    -2
286
     1
 66
     0
277
    -2
287
     1
 67
     0
278
    -2
288
     1
 68
     0
279
    -2
289
     1
 69
     0
  7
Standard
140
6.0
170
     5
 62
     0
 63
     7
283
     0
274
    -2
284
     1
 64
     0
275
    -2
285
     1
 65
     0
276
    -2
286
     1
 66
     0
277
    -2
287
     1
 67
     0
278
    -2
288
     1
 68
     0
279
    -2
289
     1
 69
     0
  7
Standard
140
4.5
170
     5
 62
     0
 63
     7
283
     0
274
    -2
284
     1
 64
     0
275
    -2
285
     1
 65
     0
276
    -2
286
     1
 66
     0
277
    -2
287
     1
 67
     0
278
    -2
288
     1
 68
     0
279
    -2
289
     1
 69
     0
  0
VISUALSTYLE
  5
F8
102
{ACAD_XDICTIONARY
360
1268
102
}
102
{ACAD_REACTORS
330
F2
102
}
330
F2
100
AcDbVisualStyle
  2
2dWireframe
 70
     4
 71
     0
 72
     2
 73
     1
 90
        0
 40
-0.6
 41
-30.0
 62
     5
 63
     7
 74
     1
 91
        4
 64
     7
 65
   257
 75
     1
175
     1
 42
1.0
 92
        0
 66
   257
 43
1.0
 76
     1
 77
     6
 78
     2
 67
     7
 79
     5
170
     0
171
     0
290
     0
174
     0
 93
        1
 44
0.0
173
     0
291
     0
 45
0.0
1001
ACAD
1000
AcDbSavedByObjectVersion
1070
     0
  0
VISUALSTYLE
  5
FA
102
{ACAD_XDICTIONARY
360
126C
102
}
102
{ACAD_REACTORS
330
F2
102
}
330
F2
100
AcDbVisualStyle
  2
3D Hidden
 70
     6
 71
     1
 72
     2
 73
     2
 90
        0
 40
-0.6
 41
-30.0
 62
     5
 63
     7
 74
     2
 91
        2
 64
     7
 65
   257
 75
     2
175
     1
 42
40.0
 92
        0
 66
   257
 43
1.0
 76
     1
 77
     6
 78
     2
 67
     7
 79
     3
170
     0
171
     0
290
     0
174
     0
 93
        1
 44
0.0
173
     0
291
     0
 45
0.0
1001
ACAD
1000
AcDbSavedByObjectVersion
1070
     0
  0
VISUALSTYLE
  5
F9
102
{ACAD_XDICTIONARY
360
126A
102
}
102
{ACAD_REACTORS
330
F2
102
}
330
F2
100
AcDbVisualStyle
  2
3dWireframe
 70
     5
 71
     0
 72
     2
 73
     1
 90
        0
 40
-0.6
 41
-30.0
 62
     5
 63
     7
 74
     1
 91
        4
 64
     7
 65
   257
 75
     1
175
     1
 42
1.0
 92
        0
 66
   257
 43
1.0
 76
     1
 77
     6
 78
     2
 67
     7
 79
     5
170
     0
171
     0
290
     0
174
     0
 93
        1
 44
0.0
173
     0
291
     0
 45
0.0
1001
ACAD
1000
AcDbSavedByObjectVersion
1070
     0
  0
VISUALSTYLE
  5
F7
102
{ACAD_XDICTIONARY
360
1266
102
}
102
{ACAD_REACTORS
330
F2
102
}
330
F2
100
AcDbVisualStyle
  2
Basic
 70
     7
 71
     1
 72
     0
 73
     1
 90
        0
 40
-0.6
 41
-30.0
 62
     5
 63
     7
 74
     0
 91
        4
 64
     7
 65
   257
 75
     1
175
     1
 42
1.0
 92
        8
 66
     7
 43
1.0
 76
     1
 77
     6
 78
     2
 67
     7
 79
     5
170
     0
171
     0
290
     0
174
     0
 93
        1
 44
0.0
173
     0
291
     1
 45
0.0
1001
ACAD
1000
AcDbSavedByObjectVersion
1070
     0
  0
VISUALSTYLE
  5
FE
102
{ACAD_XDICTIONARY
360
1274
102
}
102
{ACAD_REACTORS
330
F2
102
}
330
F2
100
AcDbVisualStyle
  2
Brighten
 70
    12
 71
     2
 72
     2
 73
     1
 90
        0
 40
-0.6
 41
-30.0
 62
     5
 63
     7
 74
     1
 91
        4
 64
     7
 65
   257
 75
     1
175
     1
 42
1.0
 92
        8
 66
     7
 43
1.0
 76
     1
 77
     6
 78
     2
 67
     7
 79
     5
170
     0
171
     0
290
     0
174
     0
 93
        1
 44
50.0
173
     0
291
     1
 45
0.0
1001
ACAD
1000
AcDbSavedByObjectVersion
1070
     0
  0
VISUALSTYLE
  5
102
102
{ACAD_XDICTIONARY
360
127C
102
}
102
{ACAD_REACTORS
330
F2
102
}
330
F2
100
AcDbVisualStyle
  2
ColorChange
 70
    16
 71
     2
 72
     2
 73
     3
 90
        0
 40
-0.6
 41
-30.0
 62
     5
 63
     8
 74
     1
 91
        4
 64
     7
 65
   257
 75
     1
175
     1
 42
1.0
 92
        8
 66
     8
 43
1.0
 76
     1
 77
     6
 78
     2
 67
     7
 79
     5
170
     0
171
     0
290
     0
174
     0
 93
        1
 44
0.0
173
     0
291
     1
 45
0.0
1001
ACAD
1000
AcDbSavedByObjectVersion
1070
     0
  0
VISUALSTYLE
  5
FB
102
{ACAD_XDICTIONARY
360
126E
102
}
102
{ACAD_REACTORS
330
F2
102
}
330
F2
100
AcDbVisualStyle
  2
Conceptual
 70
     9
 71
     3
 72
     2
 73
     1
 90
        0
 40
-0.6
 41
-30.0
 62
     5
 63
     7
 74
     2
 91
        2
 64
     7
 65
   257
 75
     1
175
     1
 42
40.0
 92
        8
 66
     7
 43
1.0
 76
     1
 77
     6
 78
     2
 67
     7
 79
     3
170
     0
171
     0
290
     0
174
     0
 93
        1
 44
0.0
173
     0
291
     0
 45
0.0
1001
ACAD
1000
AcDbSavedByObjectVersion
1070
     0
  0
VISUALSTYLE
  5
FD
102
{ACAD_XDICTIONARY
360
1272
102
}
102
{ACAD_REACTORS
330
F2
102
}
330
F2
100
AcDbVisualStyle
  2
Dim
 70
    11
 71
     2
 72
     2
 73
     1
 90
        0
 40
-0.6
 41
-30.0
 62
     5
 63
     7
 74
     1
 91
        4
 64
     7
 65
   257
 75
     1
175
     1
 42
1.0
 92
        8
 66
     7
 43
1.0
 76
     1
 77
     6
 78
     2
 67
     7
 79
     5
170
     0
171
     0
290
     0
174
     0
 93
        1
 44
-50.0
173
     0
291
     1
 45
0.0
1001
ACAD
1000
AcDbSavedByObjectVersion
1070
     0
  0
VISUALSTYLE
  5
1236
102
{ACAD_XDICTIONARY
360
1297
102
}
102
{ACAD_REACTORS
330
F2
102
}
330
F2
100
AcDbVisualStyle
  2
EdgeColorOff
 70
    22
 71
     2
 72
     2
 73
     0
 90
        0
 40
-0.6
 41
-30.0
 62
     5
 63
     7
 74
     1
 91
        4
 64
     7
 65
   257
 75
     1
175
     1
 42
1.0
 92
        8
 66
     7
 43
1.0
 76
     1
 77
     6
 78
     2
 67
     7
 79
     5
170
     0
171
     0
290
     0
174
     0
 93
        1
 44
0.0
173
     0
291
     1
 45
0.0
1001
ACAD
1000
AcDbSavedByObjectVersion
1070
     0
  0
VISUALSTYLE
  5
101
102
{ACAD_XDICTIONARY
360
127A
102
}
102
{ACAD_REACTORS
330
F2
102
}
330
F2
100
AcDbVisualStyle
  2
Facepattern
 70
    15
 71
     2
 72
     2
 73
     1
 90
        0
 40
-0.6
 41
-30.0
 62
     5
 63
     7
 74
     1
 91
        4
 64
     7
 65
   257
 75
     1
175
     1
 42
1.0
 92
        8
 66
     7
 43
1.0
 76
     1
 77
     6
 78
     2
 67
     7
 79
     5
170
     0
171
     0
290
     0
174
     0
 93
        1
 44
0.0
173
     0
291
     1
 45
0.0
1001
ACAD
1000
AcDbSavedByObjectVersion
1070
     0
  0
VISUALSTYLE
  5
F3
102
{ACAD_XDICTIONARY
360
125E
102
}
102
{ACAD_REACTORS
330
F2
102
}
330
F2
100
AcDbVisualStyle
  2
Flat
 70
     0
 71
     2
 72
     1
 73
     1
 90
        2
 40
-0.6
 41
30.0
 62
     5
 63
     7
 74
     0
 91
        4
 64
     7
 65
   257
 75
     1
175
     1
 42
1.0
 92
        8
 66
     7
 43
1.0
 76
     1
 77
     6
 78
     2
 67
     7
 79
     5
170
     0
171
     0
290
     0
174
     0
 93
       13
 44
0.0
173
     0
291
     1
 45
0.0
1001
ACAD
1000
AcDbSavedByObjectVersion
1070
     0
  0
VISUALSTYLE
  5
F4
102
{ACAD_XDICTIONARY
360
1260
102
}
102
{ACAD_REACTORS
330
F2
102
}
330
F2
100
AcDbVisualStyle
  2
FlatWithEdges
 70
     1
 71
     2
 72
     1
 73
     1
 90
        2
 40
-0.6
 41
30.0
 62
     5
 63
     7
 74
     1
 91
        4
 64
     7
 65
   257
 75
     1
175
     1
 42
1.0
 92
        0
 66
   257
 43
1.0
 76
     1
 77
     6
 78
     2
 67
     7
 79
     5
170
     0
171
     0
290
     0
174
     0
 93
       13
 44
0.0
173
     0
291
     1
 45
0.0
1001
ACAD
1000
AcDbSavedByObjectVersion
1070
     0
  0
VISUALSTYLE
  5
F5
102
{ACAD_XDICTIONARY
360
1262
102
}
102
{ACAD_REACTORS
330
F2
102
}
330
F2
100
AcDbVisualStyle
  2
Gouraud
 70
     2
 71
     2
 72
     2
 73
     1
 90
        2
 40
-0.6
 41
30.0
 62
     5
 63
     7
 74
     0
 91
        4
 64
     7
 65
   257
 75
     1
175
     1
 42
1.0
 92
        0
 66
     7
 43
1.0
 76
     1
 77
     6
 78
     2
 67
     7
 79
     5
170
     0
171
     0
290
     0
174
     0
 93
       13
 44
0.0
173
     0
291
     1
 45
0.0
1001
ACAD
1000
AcDbSavedByObjectVersion
1070
     0
  0
VISUALSTYLE
  5
F6
102
{ACAD_XDICTIONARY
360
1264
102
}
102
{ACAD_REACTORS
330
F2
102
}
330
F2
100
AcDbVisualStyle
  2
GouraudWithEdges
 70
     3
 71
     2
 72
     2
 73
     1
 90
        2
 40
-0.6
 41
30.0
 62
     5
 63
     7
 74
     1
 91
        4
 64
     7
 65
   257
 75
     1
175
     1
 42
1.0
 92
        0
 66
   257
 43
1.0
 76
     1
 77
     6
 78
     2
 67
     7
 79
     5
170
     0
171
     0
290
     0
174
     0
 93
       13
 44
0.0
173
     0
291
     1
 45
0.0
1001
ACAD
1000
AcDbSavedByObjectVersion
1070
     0
  0
VISUALSTYLE
  5
122E
102
{ACAD_XDICTIONARY
360
1287
102
}
102
{ACAD_REACTORS
330
F2
102
}
330
F2
100
AcDbVisualStyle
  2
Hidden
 70
     6
 71
     1
 72
     2
 73
     2
 90
        0
 40
-0.6
 41
-30.0
 62
     5
 63
     7
 74
     2
 91
        2
 64
     7
 65
   257
 75
     2
175
     1
 42
40.0
 92
        0
 66
   257
 43
1.0
 76
     1
 77
     6
 78
     2
 67
     7
 79
     3
170
     0
171
     0
290
     0
174
     0
 93
        1
 44
0.0
173
     0
291
     0
 45
0.0
1001
ACAD
1000
AcDbSavedByObjectVersion
1070
     0
  0
VISUALSTYLE
  5
1234
102
{ACAD_XDICTIONARY
360
1293
102
}
102
{ACAD_REACTORS
330
F2
102
}
330
F2
100
AcDbVisualStyle
  2
JitterOff
 70
    20
 71
     2
 72
     2
 73
     0
 90
        0
 40
-0.6
 41
-30.0
 62
     5
 63
     7
 74
     1
 91
        4
 64
     7
 65
   257
 75
     1
175
     1
 42
1.0
 92
       10
 66
     7
 43
1.0
 76
     1
 77
     6
 78
     2
 67
     7
 79
     5
170
     0
171
     0
290
     0
174
     0
 93
        1
 44
0.0
173
     0
291
     1
 45
0.0
1001
ACAD
1000
AcDbSavedByObjectVersion
1070
     0
  0
VISUALSTYLE
  5
100
102
{ACAD_XDICTIONARY
360
1278
102
}
102
{ACAD_REACTORS
330
F2
102
}
330
F2
100
AcDbVisualStyle
  2
Linepattern
 70
    14
 71
     2
 72
     2
 73
     1
 90
        0
 40
-0.6
 41
-30.0
 62
     5
 63
     7
 74
     1
 91
        4
 64
     7
 65
   257
 75
     7
175
     7
 42
1.0
 92
        8
 66
     7
 43
1.0
 76
     1
 77
     6
 78
     2
 67
     7
 79
     5
170
     0
171
     0
290
     0
174
     0
 93
        1
 44
0.0
173
     0
291
     1
 45
0.0
1001
ACAD
1000
AcDbSavedByObjectVersion
1070
     0
  0
VISUALSTYLE
  5
1235
102
{ACAD_XDICTIONARY
360
1295
102
}
102
{ACAD_REACTORS
330
F2
102
}
330
F2
100
AcDbVisualStyle
  2
OverhangOff
 70
    21
 71
     2
 72
     2
 73
     0
 90
        0
 40
-0.6
 41
-30.0
 62
     5
 63
     7
 74
     1
 91
        4
 64
     7
 65
   257
 75
     1
175
     1
 42
1.0
 92
        9
 66
     7
 43
1.0
 76
     1
 77
     6
 78
     2
 67
     7
 79
     5
170
     0
171
     0
290
     0
174
     0
 93
        1
 44
0.0
173
     0
291
     1
 45
0.0
1001
ACAD
1000
AcDbSavedByObjectVersion
1070
     0
  0
VISUALSTYLE
  5
FC
102
{ACAD_XDICTIONARY
360
1270
102
}
102
{ACAD_REACTORS
330
F2
102
}
330
F2
100
AcDbVisualStyle
  2
Realistic
 70
     8
 71
     2
 72
     2
 73
     1
 90
        0
 40
-0.6
 41
-30.0
 62
     5
 63
     7
 74
     1
 91
        0
 64
     7
 65
   257
 75
     1
175
     1
 42
1.0
 92
        8
 66
     8
 43
1.0
 76
     1
 77
     6
 78
     2
 67
     7
 79
     5
170
     0
171
     0
290
     0
174
     0
 93
       13
 44
0.0
173
     0
291
     0
 45
0.0
1001
ACAD
1000
AcDbSavedByObjectVersion
1070
     0
  0
VISUALSTYLE
  5
1233
102
{ACAD_XDICTIONARY
360
1291
102
}
102
{ACAD_REACTORS
330
F2
102
}
330
F2
100
AcDbVisualStyle
  2
Shaded
 70
    27
 71
     2
 72
     2
 73
     1
 90
        2
 40
-0.6
 41
30.0
 62
     5
 63
     7
 74
     0
 91
        4
 64
     7
 65
   257
 75
     1
175
     1
 42
1.0
 92
        8
 66
   257
 43
1.0
 76
     1
 77
     6
 78
     2
 67
     8
 79
     3
170
     0
171
     0
290
     0
174
     0
 93
        5
 44
0.0
173
     0
291
     0
 45
0.0
1001
ACAD
1000
AcDbSavedByObjectVersion
1070
     0
  0
VISUALSTYLE
  5
1232
102
{ACAD_XDICTIONARY
360
128F
102
}
102
{ACAD_REACTORS
330
F2
102
}
330
F2
100
AcDbVisualStyle
  2
Shaded with edges
 70
    26
 71
     2
 72
     2
 73
     1
 90
        2
 40
-0.6
 41
30.0
 62
     5
 63
     7
 74
     1
 91
       10
 64
     7
 65
   257
 75
     2
175
     1
 42
1.0
 92
        8
 66
   257
 43
1.0
 76
     1
 77
     6
 78
     2
 67
     7
 79
     3
170
     0
171
     0
290
     0
174
     0
 93
        5
 44
0.0
173
     0
291
     0
 45
0.0
1001
ACAD
1000
AcDbSavedByObjectVersion
1070
     0
  0
VISUALSTYLE
  5
122F
102
{ACAD_XDICTIONARY
360
1289
102
}
102
{ACAD_REACTORS
330
F2
102
}
330
F2
100
AcDbVisualStyle
  2
Shades of Gray
 70
    23
 71
     2
 72
     2
 73
     3
 90
        0
 40
-0.6
 41
-30.0
 62
     5
 63
     7
 74
     2
 91
        2
 64
     7
 65
     7
 75
     1
175
     1
 42
40.0
 92
        8
 66
     7
 43
1.0
 76
     1
 77
     6
 78
     2
 67
     7
 79
     3
170
     0
171
     0
290
     0
174
     0
 93
        1
 44
0.0
173
     0
291
     0
 45
0.0
1001
ACAD
1000
AcDbSavedByObjectVersion
1070
     0
  0
VISUALSTYLE
  5
1230
102
{ACAD_XDICTIONARY
360
128B
102
}
102
{ACAD_REACTORS
330
F2
102
}
330
F2
100
AcDbVisualStyle
  2
Sketchy
 70
    24
 71
     1
 72
     2
 73
     2
 90
        0
 40
-0.6
 41
-30.0
 62
     5
 63
     7
 74
     2
 91
        2
 64
     7
 65
     7
 75
     1
175
     1
 42
40.0
 92
       11
 66
     7
 43
1.0
 76
     1
 77
     6
 78
     2
 67
     7
 79
     6
170
     0
171
     0
290
     0
174
     0
 93
        1
 44
0.0
173
     0
291
     0
 45
0.0
1001
ACAD
1000
AcDbSavedByObjectVersion
1070
     0
  0
VISUALSTYLE
  5
FF
102
{ACAD_XDICTIONARY
360
1276
102
}
102
{ACAD_REACTORS
330
F2
102
}
330
F2
100
AcDbVisualStyle
  2
Thicken
 70
    13
 71
     2
 72
     2
 73
     1
 90
        0
 40
-0.6
 41
-30.0
 62
     5
 63
     7
 74
     1
 91
        4
 64
     7
 65
   257
 75
     1
175
     1
 42
1.0
 92
       12
 66
     7
 43
1.0
 76
     1
 77
     6
 78
     2
 67
     7
 79
     5
170
     0
171
     0
290
     0
174
     0
 93
        1
 44
0.0
173
     0
291
     1
 45
0.0
1001
ACAD
1000
AcDbSavedByObjectVersion
1070
     0
  0
VISUALSTYLE
  5
122D
102
{ACAD_XDICTIONARY
360
1285
102
}
102
{ACAD_REACTORS
330
F2
102
}
330
F2
100
AcDbVisualStyle
  2
Wireframe
 70
     5
 71
     0
 72
     2
 73
     0
 90
        0
 40
-0.6
 41
-30.0
 62
     5
 63
     7
 74
     1
 91
        4
 64
     7
 65
   257
 75
     1
175
     1
 42
1.0
 92
        0
 66
   257
 43
1.0
 76
     1
 77
     6
 78
     2
 67
     7
 79
     3
170
     0
171
     0
290
     0
174
     0
 93
        1
 44
0.0
173
     0
291
     0
 45
0.0
1001
ACAD
1000
AcDbSavedByObjectVersion
1070
     0
  0
VISUALSTYLE
  5
1231
102
{ACAD_XDICTIONARY
360
128D
102
}
102
{ACAD_REACTORS
330
F2
102
}
330
F2
100
AcDbVisualStyle
  2
X-Ray
 70
    25
 71
     2
 72
     2
 73
     1
 90
        1
 40
0.5
 41
-30.0
 62
     5
 63
     7
 74
     1
 91
        0
 64
     7
 65
   257
 75
     1
175
     1
 42
1.0
 92
        8
 66
     7
 43
1.0
 76
     1
 77
     6
 78
     2
 67
     7
 79
     3
170
     0
171
     0
290
     0
174
     0
 93
       13
 44
0.0
173
     0
291
     0
 45
0.0
1001
ACAD
1000
AcDbSavedByObjectVersion
1070
     0
  0
DICTIONARYVAR
  5
678
102
{ACAD_REACTORS
330
5E
102
}
330
5E
100
DictionaryVariables
280
     0
  1
1:1
  0
DICTIONARYVAR
  5
676
102
{ACAD_REACTORS
330
5E
102
}
330
5E
100
DictionaryVariables
280
     0
  1
STANDARD
  0
DICTIONARYVAR
  5
84
102
{ACAD_REACTORS
330
5E
102
}
330
5E
100
DictionaryVariables
280
     0
  1
STANDARD
  0
DICTIONARYVAR
  5
1242
102
{ACAD_REACTORS
330
5E
102
}
330
5E
100
DictionaryVariables
280
     0
  1
Metric50
  0
DICTIONARYVAR
  5
1243
102
{ACAD_REACTORS
330
5E
102
}
330
5E
100
DictionaryVariables
280
     0
  1
Metric50
  0
DICTIONARYVAR
  5
5F
102
{ACAD_REACTORS
330
5E
102
}
330
5E
100
DictionaryVariables
280
     0
  1
1
  0
DICTIONARYVAR
  5
63
102
{ACAD_REACTORS
330
5E
102
}
330
5E
100
DictionaryVariables
280
     0
  1
1
  0
DICTIONARYVAR
  5
1245
102
{ACAD_REACTORS
330
5E
102
}
330
5E
100
DictionaryVariables
280
     0
  1
0
  0
DICTIONARYVAR
  5
679
102
{ACAD_REACTORS
330
5E
102
}
330
5E
100
DictionaryVariables
280
     0
  1
0
  0
DICTIONARYVAR
  5
677
102
{ACAD_REACTORS
330
5E
102
}
330
5E
100
DictionaryVariables
280
     0
  1
0
  0
DICTIONARYVAR
  5
1249
102
{ACAD_REACTORS
330
5E
102
}
330
5E
100
DictionaryVariables
280
     0
  1
80.000000
  0
DICTIONARYVAR
  5
1248
102
{ACAD_REACTORS
330
5E
102
}
330
5E
100
DictionaryVariables
280
     0
  1
5.000000
  0
DICTIONARYVAR
  5
1247
102
{ACAD_REACTORS
330
5E
102
}
330
5E
100
DictionaryVariables
280
     0
  1
1
  0
DICTIONARYVAR
  5
1244
102
{ACAD_REACTORS
330
5E
102
}
330
5E
100
DictionaryVariables
280
     0
  1
127
  0
DICTIONARYVAR
  5
1246
102
{ACAD_REACTORS
330
5E
102
}
330
5E
100
DictionaryVariables
280
     0
  1
0
  0
XRECORD
  5
6E8
102
{ACAD_REACTORS
330
6E7
102
}
330
6E7
100
AcDbXrecord
280
     1
300
ASK2000BIKOU>>A3横 1/4        <<                                                                                                                                                                                                                                                                                
  0
XRECORD
  5
7D3
102
{ACAD_REACTORS
330
6E7
102
}
330
6E7
100
AcDbXrecord
280
     1
  1
DwgScale
  0
XRECORD
  5
114C
102
{ACAD_REACTORS
330
114B
102
}
330
114B
100
AcDbXrecord
280
     1
  1

 40
0.25
 50
-6345.217325354827
 51
-2664.798413963448
 52
17833.60162916534
 53
14466.63966044788
  0
DICTIONARY
  5
1251
330
22
100
AcDbDictionary
280
     1
281
     1
  3
ACAD_XREC_ROUNDTRIP
360
1252
  0
DICTIONARY
  5
1254
330
D3
100
AcDbDictionary
280
     1
281
     1
  3
ACAD_XREC_ROUNDTRIP
360
1255
  0
DICTIONARY
  5
1256
330
D7
100
AcDbDictionary
280
     1
281
     1
  3
ACAD_XREC_ROUNDTRIP
360
1257
  0
DICTIONARY
  5
125A
330
F0
100
AcDbDictionary
280
     1
281
     1
  3
ACAD_XREC_ROUNDTRIP
360
125B
  0
DICTIONARY
  5
1258
330
EF
100
AcDbDictionary
280
     1
281
     1
  3
ACAD_XREC_ROUNDTRIP
360
1259
  0
DICTIONARY
  5
125C
330
F1
100
AcDbDictionary
280
     1
281
     1
  3
ACAD_XREC_ROUNDTRIP
360
125D
  0
DICTIONARY
  5
673
330
7F
100
AcDbDictionary
280
     1
281
     1
  3
ACAD_ROUNDTRIP_2008_TABLESTYLE_CELLSTYLEMAP
360
124B
  3
ACAD_XREC_ROUNDTRIP
360
1253
  0
DICTIONARY
  5
1268
330
F8
100
AcDbDictionary
280
     1
281
     1
  3
ACAD_XREC_ROUNDTRIP
360
1269
  0
DICTIONARY
  5
126C
330
FA
100
AcDbDictionary
280
     1
281
     1
  3
ACAD_XREC_ROUNDTRIP
360
126D
  0
DICTIONARY
  5
126A
330
F9
100
AcDbDictionary
280
     1
281
     1
  3
ACAD_XREC_ROUNDTRIP
360
126B
  0
DICTIONARY
  5
1266
330
F7
100
AcDbDictionary
280
     1
281
     1
  3
ACAD_XREC_ROUNDTRIP
360
1267
  0
DICTIONARY
  5
1274
330
FE
100
AcDbDictionary
280
     1
281
     1
  3
ACAD_XREC_ROUNDTRIP
360
1275
  0
DICTIONARY
  5
127C
330
102
100
AcDbDictionary
280
     1
281
     1
  3
ACAD_XREC_ROUNDTRIP
360
127D
  0
DICTIONARY
  5
126E
330
FB
100
AcDbDictionary
280
     1
281
     1
  3
ACAD_XREC_ROUNDTRIP
360
126F
  0
DICTIONARY
  5
1272
330
FD
100
AcDbDictionary
280
     1
281
     1
  3
ACAD_XREC_ROUNDTRIP
360
1273
  0
DICTIONARY
  5
1297
330
1236
100
AcDbDictionary
280
     1
281
     1
  3
ACAD_XREC_ROUNDTRIP
360
1298
  0
DICTIONARY
  5
127A
330
101
100
AcDbDictionary
280
     1
281
     1
  3
ACAD_XREC_ROUNDTRIP
360
127B
  0
DICTIONARY
  5
125E
330
F3
100
AcDbDictionary
280
     1
281
     1
  3
ACAD_XREC_ROUNDTRIP
360
125F
  0
DICTIONARY
  5
1260
330
F4
100
AcDbDictionary
280
     1
281
     1
  3
ACAD_XREC_ROUNDTRIP
360
1261
  0
DICTIONARY
  5
1262
330
F5
100
AcDbDictionary
280
     1
281
     1
  3
ACAD_XREC_ROUNDTRIP
360
1263
  0
DICTIONARY
  5
1264
330
F6
100
AcDbDictionary
280
     1
281
     1
  3
ACAD_XREC_ROUNDTRIP
360
1265
  0
DICTIONARY
  5
1287
330
122E
100
AcDbDictionary
280
     1
281
     1
  3
ACAD_XREC_ROUNDTRIP
360
1288
  0
DICTIONARY
  5
1293
330
1234
100
AcDbDictionary
280
     1
281
     1
  3
ACAD_XREC_ROUNDTRIP
360
1294
  0
DICTIONARY
  5
1278
330
100
100
AcDbDictionary
280
     1
281
     1
  3
ACAD_XREC_ROUNDTRIP
360
1279
  0
DICTIONARY
  5
1295
330
1235
100
AcDbDictionary
280
     1
281
     1
  3
ACAD_XREC_ROUNDTRIP
360
1296
  0
DICTIONARY
  5
1270
330
FC
100
AcDbDictionary
280
     1
281
     1
  3
ACAD_XREC_ROUNDTRIP
360
1271
  0
DICTIONARY
  5
1291
330
1233
100
AcDbDictionary
280
     1
281
     1
  3
ACAD_XREC_ROUNDTRIP
360
1292
  0
DICTIONARY
  5
128F
330
1232
100
AcDbDictionary
280
     1
281
     1
  3
ACAD_XREC_ROUNDTRIP
360
1290
  0
DICTIONARY
  5
1289
330
122F
100
AcDbDictionary
280
     1
281
     1
  3
ACAD_XREC_ROUNDTRIP
360
128A
  0
DICTIONARY
  5
128B
330
1230
100
AcDbDictionary
280
     1
281
     1
  3
ACAD_XREC_ROUNDTRIP
360
128C
  0
DICTIONARY
  5
1276
330
FF
100
AcDbDictionary
280
     1
281
     1
  3
ACAD_XREC_ROUNDTRIP
360
1277
  0
DICTIONARY
  5
1285
330
122D
100
AcDbDictionary
280
     1
281
     1
  3
ACAD_XREC_ROUNDTRIP
360
1286
  0
DICTIONARY
  5
128D
330
1231
100
AcDbDictionary
280
     1
281
     1
  3
ACAD_XREC_ROUNDTRIP
360
128E
  0
XRECORD
  5
1252
102
{ACAD_REACTORS
330
1251
102
}
330
1251
100
AcDbXrecord
280
     1
102
SHADEPLOT
 70
     0
102
SHADEPLOTRESLEVEL
 70
     2
102
SHADEPLOTCUSTOMDPI
 70
   300
  0
XRECORD
  5
1255
102
{ACAD_REACTORS
330
1254
102
}
330
1254
100
AcDbXrecord
280
     1
102
SHADEPLOT
 70
     0
102
SHADEPLOTRESLEVEL
 70
     2
102
SHADEPLOTCUSTOMDPI
 70
   300
  0
XRECORD
  5
1257
102
{ACAD_REACTORS
330
1256
102
}
330
1256
100
AcDbXrecord
280
     1
102
SHADEPLOT
 70
     0
102
SHADEPLOTRESLEVEL
 70
     2
102
SHADEPLOTCUSTOMDPI
 70
   300
  0
XRECORD
  5
125B
102
{ACAD_REACTORS
330
125A
102
}
330
125A
100
AcDbXrecord
280
     1
102
MATERIAL
148
0.0
149
0.0
149
0.0
 93
        0
 94
       63
282
     0
 72
     1
 77
     1
171
     1
175
     1
179
     1
273
     0
  0
XRECORD
  5
1259
102
{ACAD_REACTORS
330
1258
102
}
330
1258
100
AcDbXrecord
280
     1
102
MATERIAL
148
0.0
149
0.0
149
0.0
 93
        0
 94
       63
282
     0
 72
     1
 77
     1
171
     1
175
     1
179
     1
273
     0
  0
XRECORD
  5
125D
102
{ACAD_REACTORS
330
125C
102
}
330
125C
100
AcDbXrecord
280
     1
102
MATERIAL
148
0.0
149
0.0
149
0.0
 93
        0
 94
       63
282
     0
 72
     1
 77
     1
171
     1
175
     1
179
     1
273
     0
  0
CELLSTYLEMAP
  5
124B
102
{ACAD_REACTORS
330
673
102
}
330
673
100
AcDbCellStyleMap
 90
        3
300
CELLSTYLE
  1
TABLEFORMAT_BEGIN
 90
        5
170
     1
 91
        0
 92
    32768
 62
   257
 93
        1
300
CONTENTFORMAT
  1
CONTENTFORMAT_BEGIN
 90
        0
 91
        0
 92
      512
 93
        0
300

 40
0.0
140
1.0
 94
        5
 62
     0
340
11
144
6.0
309
CONTENTFORMAT_END
171
     1
301
MARGIN
  1
CELLMARGIN_BEGIN
 40
1.5
 40
1.5
 40
1.5
 40
1.5
 40
0.18
 40
0.18
309
CELLMARGIN_END
 94
        6
 95
        1
302
GRIDFORMAT
  1
GRIDFORMAT_BEGIN
 90
        0
 91
        1
 62
     0
 92
       -2
340
0
 93
        0
 40
0.045
309
GRIDFORMAT_END
 95
        2
302
GRIDFORMAT
  1
GRIDFORMAT_BEGIN
 90
        0
 91
        1
 62
     0
 92
       -2
340
0
 93
        0
 40
0.045
309
GRIDFORMAT_END
 95
        4
302
GRIDFORMAT
  1
GRIDFORMAT_BEGIN
 90
        0
 91
        1
 62
     0
 92
       -2
340
0
 93
        0
 40
0.045
309
GRIDFORMAT_END
 95
        8
302
GRIDFORMAT
  1
GRIDFORMAT_BEGIN
 90
        0
 91
        1
 62
     0
 92
       -2
340
0
 93
        0
 40
0.045
309
GRIDFORMAT_END
 95
       16
302
GRIDFORMAT
  1
GRIDFORMAT_BEGIN
 90
        0
 91
        1
 62
     0
 92
       -2
340
0
 93
        0
 40
0.045
309
GRIDFORMAT_END
 95
       32
302
GRIDFORMAT
  1
GRIDFORMAT_BEGIN
 90
        0
 91
        1
 62
     0
 92
       -2
340
0
 93
        0
 40
0.045
309
GRIDFORMAT_END
309
TABLEFORMAT_END
  1
CELLSTYLE_BEGIN
 90
        1
 91
        1
300
_TITLE
309
CELLSTYLE_END
300
CELLSTYLE
  1
TABLEFORMAT_BEGIN
 90
        5
170
     1
 91
        0
 92
        0
 62
   257
 93
        1
300
CONTENTFORMAT
  1
CONTENTFORMAT_BEGIN
 90
        0
 91
        0
 92
      512
 93
        0
300

 40
0.0
140
1.0
 94
        5
 62
     0
340
11
144
4.5
309
CONTENTFORMAT_END
171
     1
301
MARGIN
  1
CELLMARGIN_BEGIN
 40
1.5
 40
1.5
 40
1.5
 40
1.5
 40
0.18
 40
0.18
309
CELLMARGIN_END
 94
        6
 95
        1
302
GRIDFORMAT
  1
GRIDFORMAT_BEGIN
 90
        0
 91
        1
 62
     0
 92
       -2
340
0
 93
        0
 40
0.045
309
GRIDFORMAT_END
 95
        2
302
GRIDFORMAT
  1
GRIDFORMAT_BEGIN
 90
        0
 91
        1
 62
     0
 92
       -2
340
0
 93
        0
 40
0.045
309
GRIDFORMAT_END
 95
        4
302
GRIDFORMAT
  1
GRIDFORMAT_BEGIN
 90
        0
 91
        1
 62
     0
 92
       -2
340
0
 93
        0
 40
0.045
309
GRIDFORMAT_END
 95
        8
302
GRIDFORMAT
  1
GRIDFORMAT_BEGIN
 90
        0
 91
        1
 62
     0
 92
       -2
340
0
 93
        0
 40
0.045
309
GRIDFORMAT_END
 95
       16
302
GRIDFORMAT
  1
GRIDFORMAT_BEGIN
 90
        0
 91
        1
 62
     0
 92
       -2
340
0
 93
        0
 40
0.045
309
GRIDFORMAT_END
 95
       32
302
GRIDFORMAT
  1
GRIDFORMAT_BEGIN
 90
        0
 91
        1
 62
     0
 92
       -2
340
0
 93
        0
 40
0.045
309
GRIDFORMAT_END
309
TABLEFORMAT_END
  1
CELLSTYLE_BEGIN
 90
        2
 91
        1
300
_HEADER
309
CELLSTYLE_END
300
CELLSTYLE
  1
TABLEFORMAT_BEGIN
 90
        5
170
     1
 91
        0
 92
        0
 62
   257
 93
        1
300
CONTENTFORMAT
  1
CONTENTFORMAT_BEGIN
 90
        0
 91
        0
 92
      512
 93
        0
300

 40
0.0
140
1.0
 94
        2
 62
     0
340
11
144
4.5
309
CONTENTFORMAT_END
171
     1
301
MARGIN
  1
CELLMARGIN_BEGIN
 40
1.5
 40
1.5
 40
1.5
 40
1.5
 40
0.18
 40
0.18
309
CELLMARGIN_END
 94
        6
 95
        1
302
GRIDFORMAT
  1
GRIDFORMAT_BEGIN
 90
        0
 91
        1
 62
     0
 92
       -2
340
0
 93
        0
 40
0.045
309
GRIDFORMAT_END
 95
        2
302
GRIDFORMAT
  1
GRIDFORMAT_BEGIN
 90
        0
 91
        1
 62
     0
 92
       -2
340
0
 93
        0
 40
0.045
309
GRIDFORMAT_END
 95
        4
302
GRIDFORMAT
  1
GRIDFORMAT_BEGIN
 90
        0
 91
        1
 62
     0
 92
       -2
340
0
 93
        0
 40
0.045
309
GRIDFORMAT_END
 95
        8
302
GRIDFORMAT
  1
GRIDFORMAT_BEGIN
 90
        0
 91
        1
 62
     0
 92
       -2
340
0
 93
        0
 40
0.045
309
GRIDFORMAT_END
 95
       16
302
GRIDFORMAT
  1
GRIDFORMAT_BEGIN
 90
        0
 91
        1
 62
     0
 92
       -2
340
0
 93
        0
 40
0.045
309
GRIDFORMAT_END
 95
       32
302
GRIDFORMAT
  1
GRIDFORMAT_BEGIN
 90
        0
 91
        1
 62
     0
 92
       -2
340
0
 93
        0
 40
0.045
309
GRIDFORMAT_END
309
TABLEFORMAT_END
  1
CELLSTYLE_BEGIN
 90
        3
 91
        2
300
_DATA
309
CELLSTYLE_END
  0
XRECORD
  5
1253
102
{ACAD_REACTORS
330
673
102
}
330
673
100
AcDbXrecord
280
     1
102
ACAD_ROUNDTRIP_PRE2007_TABLESTYLE
 90
      512
 91
        0
  1

 92
      512
 93
        0
  2

 94
      512
 95
        0
  3

  0
XRECORD
  5
1269
102
{ACAD_REACTORS
330
1268
102
}
330
1268
100
AcDbXrecord
280
     1
102
RTVSPost2010Prop28
280
     1
102
RTVSPost2010PropOp28
 70
     1
102
RTVSPost2010Prop29
280
     1
102
RTVSPost2010PropOp29
 70
     1
102
RTVSPost2010Prop30
280
     0
102
RTVSPost2010PropOp30
 70
     1
102
RTVSPost2010Prop31
280
     0
102
RTVSPost2010PropOp31
 70
     1
102
RTVSPost2010Prop32
280
     0
102
RTVSPost2010PropOp32
 70
     1
102
RTVSPost2010Prop33
280
     0
102
RTVSPost2010PropOp33
 70
     1
102
RTVSPost2010Prop34
280
     0
102
RTVSPost2010PropOp34
 70
     1
102
RTVSPost2010Prop35
280
     0
102
RTVSPost2010PropOp35
 70
     1
102
RTVSPost2010Prop36
280
     0
102
RTVSPost2010PropOp36
 70
     1
102
RTVSPost2010Prop37
 90
       50
102
RTVSPost2010PropOp37
 70
     1
102
RTVSPost2010Prop38
140
0.0
102
RTVSPost2010PropOp38
 70
     1
102
RTVSPost2010Prop39
140
1.0
102
RTVSPost2010PropOp39
 70
     1
102
RTVSPost2010Prop40
 90
        0
102
RTVSPost2010PropOp40
 70
     1
102
RTVSPost2010Prop41ColorIndex
 90
       18
102
RTVSPost2010Prop41ColorRGB
 90
        0
102
RTVSPost2010PropOp41
 70
     1
102
RTVSPost2010Prop42
 90
       50
102
RTVSPost2010PropOp42
 70
     1
102
RTVSPost2010Prop43
 90
        3
102
RTVSPost2010PropOp43
 70
     1
102
RTVSPost2010Prop44ColorIndex
 90
        5
102
RTVSPost2010Prop44ColorRGB
 90
      255
102
RTVSPost2010PropOp44
 70
     1
102
RTVSPost2010Prop45
280
     0
102
RTVSPost2010PropOp45
 70
     1
102
RTVSPost2010Prop46
 90
       50
102
RTVSPost2010PropOp46
 70
     1
102
RTVSPost2010Prop47
 90
       50
102
RTVSPost2010PropOp47
 70
     1
102
RTVSPost2010Prop48
 90
       50
102
RTVSPost2010PropOp48
 70
     1
102
RTVSPost2010Prop49
280
     0
102
RTVSPost2010PropOp49
 70
     1
102
RTVSPost2010Prop50
 90
       50
102
RTVSPost2010PropOp50
 70
     1
102
RTVSPost2010Prop51ColorIndex
 90
      256
102
RTVSPost2010Prop51ColorRGB
 90
-16777216
102
RTVSPost2010PropOp51
 70
     0
102
RTVSPost2010Prop52
140
1.0
102
RTVSPost2010PropOp52
 70
     0
102
RTVSPost2010Prop53
 90
        2
102
RTVSPost2010PropOp53
 70
     1
102
RTVSPost2010Prop54
  1
strokes_ogs.tif
102
RTVSPost2010PropOp54
 70
     1
102
RTVSPost2010Prop55
280
     0
102
RTVSPost2010PropOp55
 70
     1
102
RTVSPost2010Prop56
140
1.0
102
RTVSPost2010PropOp56
 70
     1
102
RTVSPost2010Prop57
140
1.0
102
RTVSPost2010PropOp57
 70
     1
102
RTVSPropertyOp0
 70
     1
102
RTVSPropertyOp1
 70
     1
102
RTVSPropertyOp2
 70
     1
102
RTVSPropertyOp3
 70
     1
102
RTVSPropertyOp4
 70
     1
102
RTVSPropertyOp5
 70
     1
102
RTVSPropertyOp6
 70
     1
102
RTVSPropertyOp7
 70
     1
102
RTVSPropertyOp8
 70
     1
102
RTVSPropertyOp9
 70
     1
102
RTVSPropertyOp10
 70
     1
102
RTVSPropertyOp11
 70
     1
102
RTVSPropertyOp12
 70
     1
102
RTVSPropertyOp13
 70
     1
102
RTVSPropertyOp14
 70
     1
102
RTVSPropertyOp15
 70
     1
102
RTVSPropertyOp16
 70
     1
102
RTVSPropertyOp17
 70
     1
102
RTVSPropertyOp18
 70
     1
102
RTVSPropertyOp19
 70
     1
102
RTVSPropertyOp20
 70
     1
102
RTVSPropertyOp21
 70
     1
102
RTVSPropertyOp22
 70
     1
102
RTVSPropertyOp23
 70
     1
102
RTVSPropertyOp24
 70
     1
102
RTVSPropertyOp25
 70
     1
102
RTVSPropertyOp26
 70
     1
102
RTVSPropertyOp27
 70
     1
102
RTVSPropertyOp28
 70
     1
102
RTVSPropertyOp29
 70
     1
102
RTVSPropertyOp30
 70
     1
102
RTVSPropertyOp31
 70
     1
102
RTVSPropertyOp32
 70
     1
102
RTVSPropertyOp33
 70
     1
102
RTVSPropertyOp34
 70
     1
102
RTVSPropertyOp35
 70
     1
102
RTVSPropertyOp36
 70
     1
102
RTVSPropertyOp37
 70
     1
102
RTVSPropertyOp38
 70
     1
102
RTVSPropertyOp39
 70
     1
102
RTVSPropertyOp40
 70
     1
102
RTVSPropertyOp41
 70
     1
102
RTVSPropertyOp42
 70
     1
102
RTVSPropertyOp43
 70
     1
102
RTVSPropertyOp44
 70
     1
102
RTVSPropertyOp45
 70
     1
102
RTVSPropertyOp46
 70
     1
102
RTVSPropertyOp47
 70
     1
102
RTVSPropertyOp48
 70
     1
102
RTVSPropertyOp49
 70
     1
102
RTVSPropertyOp50
 70
     1
102
RTVSPropertyOp51
 70
     0
102
RTVSPropertyOp52
 70
     0
102
RTVSPropertyOp53
 70
     1
102
RTVSPropertyOp54
 70
     1
102
RTVSPropertyOp55
 70
     1
102
RTVSPropertyOp56
 70
     1
102
RTVSPropertyOp57
 70
     1
102
RTVSPropertyOp58
 70
     1
102
RTVSPropertyOp59
 70
     1
102
RTVSPropertyOp60
 70
     1
102
RTVSPropertyOp61
 70
     1
102
RTVSPropertyOp62
 70
     1
  0
XRECORD
  5
126D
102
{ACAD_REACTORS
330
126C
102
}
330
126C
100
AcDbXrecord
280
     1
102
RTVSPost2010Prop28
280
     0
102
RTVSPost2010PropOp28
 70
     1
102
RTVSPost2010Prop29
280
     1
102
RTVSPost2010PropOp29
 70
     1
102
RTVSPost2010Prop30
280
     1
102
RTVSPost2010PropOp30
 70
     1
102
RTVSPost2010Prop31
280
     0
102
RTVSPost2010PropOp31
 70
     1
102
RTVSPost2010Prop32
280
     0
102
RTVSPost2010PropOp32
 70
     1
102
RTVSPost2010Prop33
280
     0
102
RTVSPost2010PropOp33
 70
     1
102
RTVSPost2010Prop34
280
     0
102
RTVSPost2010PropOp34
 70
     1
102
RTVSPost2010Prop35
280
     0
102
RTVSPost2010PropOp35
 70
     1
102
RTVSPost2010Prop36
280
     0
102
RTVSPost2010PropOp36
 70
     1
102
RTVSPost2010Prop37
 90
       50
102
RTVSPost2010PropOp37
 70
     1
102
RTVSPost2010Prop38
140
0.0
102
RTVSPost2010PropOp38
 70
     1
102
RTVSPost2010Prop39
140
1.0
102
RTVSPost2010PropOp39
 70
     1
102
RTVSPost2010Prop40
 90
        0
102
RTVSPost2010PropOp40
 70
     1
102
RTVSPost2010Prop41ColorIndex
 90
       18
102
RTVSPost2010Prop41ColorRGB
 90
        0
102
RTVSPost2010PropOp41
 70
     1
102
RTVSPost2010Prop42
 90
       50
102
RTVSPost2010PropOp42
 70
     1
102
RTVSPost2010Prop43
 90
        3
102
RTVSPost2010PropOp43
 70
     1
102
RTVSPost2010Prop44ColorIndex
 90
        5
102
RTVSPost2010Prop44ColorRGB
 90
      255
102
RTVSPost2010PropOp44
 70
     1
102
RTVSPost2010Prop45
280
     0
102
RTVSPost2010PropOp45
 70
     1
102
RTVSPost2010Prop46
 90
       50
102
RTVSPost2010PropOp46
 70
     1
102
RTVSPost2010Prop47
 90
       50
102
RTVSPost2010PropOp47
 70
     1
102
RTVSPost2010Prop48
 90
       50
102
RTVSPost2010PropOp48
 70
     1
102
RTVSPost2010Prop49
280
     0
102
RTVSPost2010PropOp49
 70
     1
102
RTVSPost2010Prop50
 90
       50
102
RTVSPost2010PropOp50
 70
     1
102
RTVSPost2010Prop51ColorIndex
 90
      256
102
RTVSPost2010Prop51ColorRGB
 90
-16777216
102
RTVSPost2010PropOp51
 70
     0
102
RTVSPost2010Prop52
140
1.0
102
RTVSPost2010PropOp52
 70
     0
102
RTVSPost2010Prop53
 90
        2
102
RTVSPost2010PropOp53
 70
     1
102
RTVSPost2010Prop54
  1
strokes_ogs.tif
102
RTVSPost2010PropOp54
 70
     1
102
RTVSPost2010Prop55
280
     0
102
RTVSPost2010PropOp55
 70
     1
102
RTVSPost2010Prop56
140
1.0
102
RTVSPost2010PropOp56
 70
     1
102
RTVSPost2010Prop57
140
1.0
102
RTVSPost2010PropOp57
 70
     1
102
RTVSPropertyOp0
 70
     1
102
RTVSPropertyOp1
 70
     1
102
RTVSPropertyOp2
 70
     1
102
RTVSPropertyOp3
 70
     1
102
RTVSPropertyOp4
 70
     1
102
RTVSPropertyOp5
 70
     1
102
RTVSPropertyOp6
 70
     1
102
RTVSPropertyOp7
 70
     1
102
RTVSPropertyOp8
 70
     1
102
RTVSPropertyOp9
 70
     1
102
RTVSPropertyOp10
 70
     1
102
RTVSPropertyOp11
 70
     1
102
RTVSPropertyOp12
 70
     1
102
RTVSPropertyOp13
 70
     1
102
RTVSPropertyOp14
 70
     1
102
RTVSPropertyOp15
 70
     1
102
RTVSPropertyOp16
 70
     1
102
RTVSPropertyOp17
 70
     1
102
RTVSPropertyOp18
 70
     1
102
RTVSPropertyOp19
 70
     1
102
RTVSPropertyOp20
 70
     1
102
RTVSPropertyOp21
 70
     1
102
RTVSPropertyOp22
 70
     1
102
RTVSPropertyOp23
 70
     1
102
RTVSPropertyOp24
 70
     1
102
RTVSPropertyOp25
 70
     1
102
RTVSPropertyOp26
 70
     1
102
RTVSPropertyOp27
 70
     1
102
RTVSPropertyOp28
 70
     1
102
RTVSPropertyOp29
 70
     1
102
RTVSPropertyOp30
 70
     1
102
RTVSPropertyOp31
 70
     1
102
RTVSPropertyOp32
 70
     1
102
RTVSPropertyOp33
 70
     1
102
RTVSPropertyOp34
 70
     1
102
RTVSPropertyOp35
 70
     1
102
RTVSPropertyOp36
 70
     1
102
RTVSPropertyOp37
 70
     1
102
RTVSPropertyOp38
 70
     1
102
RTVSPropertyOp39
 70
     1
102
RTVSPropertyOp40
 70
     1
102
RTVSPropertyOp41
 70
     1
102
RTVSPropertyOp42
 70
     1
102
RTVSPropertyOp43
 70
     1
102
RTVSPropertyOp44
 70
     1
102
RTVSPropertyOp45
 70
     1
102
RTVSPropertyOp46
 70
     1
102
RTVSPropertyOp47
 70
     1
102
RTVSPropertyOp48
 70
     1
102
RTVSPropertyOp49
 70
     1
102
RTVSPropertyOp50
 70
     1
102
RTVSPropertyOp51
 70
     0
102
RTVSPropertyOp52
 70
     0
102
RTVSPropertyOp53
 70
     1
102
RTVSPropertyOp54
 70
     1
102
RTVSPropertyOp55
 70
     1
102
RTVSPropertyOp56
 70
     1
102
RTVSPropertyOp57
 70
     1
102
RTVSPropertyOp58
 70
     1
102
RTVSPropertyOp59
 70
     1
102
RTVSPropertyOp60
 70
     1
102
RTVSPropertyOp61
 70
     1
102
RTVSPropertyOp62
 70
     1
  0
XRECORD
  5
126B
102
{ACAD_REACTORS
330
126A
102
}
330
126A
100
AcDbXrecord
280
     1
102
RTVSPost2010Prop28
280
     0
102
RTVSPost2010PropOp28
 70
     1
102
RTVSPost2010Prop29
280
     1
102
RTVSPost2010PropOp29
 70
     1
102
RTVSPost2010Prop30
280
     1
102
RTVSPost2010PropOp30
 70
     1
102
RTVSPost2010Prop31
280
     0
102
RTVSPost2010PropOp31
 70
     1
102
RTVSPost2010Prop32
280
     0
102
RTVSPost2010PropOp32
 70
     1
102
RTVSPost2010Prop33
280
     0
102
RTVSPost2010PropOp33
 70
     1
102
RTVSPost2010Prop34
280
     0
102
RTVSPost2010PropOp34
 70
     1
102
RTVSPost2010Prop35
280
     0
102
RTVSPost2010PropOp35
 70
     1
102
RTVSPost2010Prop36
280
     0
102
RTVSPost2010PropOp36
 70
     1
102
RTVSPost2010Prop37
 90
       50
102
RTVSPost2010PropOp37
 70
     1
102
RTVSPost2010Prop38
140
0.0
102
RTVSPost2010PropOp38
 70
     1
102
RTVSPost2010Prop39
140
1.0
102
RTVSPost2010PropOp39
 70
     1
102
RTVSPost2010Prop40
 90
        0
102
RTVSPost2010PropOp40
 70
     1
102
RTVSPost2010Prop41ColorIndex
 90
       18
102
RTVSPost2010Prop41ColorRGB
 90
        0
102
RTVSPost2010PropOp41
 70
     1
102
RTVSPost2010Prop42
 90
       50
102
RTVSPost2010PropOp42
 70
     1
102
RTVSPost2010Prop43
 90
        3
102
RTVSPost2010PropOp43
 70
     1
102
RTVSPost2010Prop44ColorIndex
 90
        5
102
RTVSPost2010Prop44ColorRGB
 90
      255
102
RTVSPost2010PropOp44
 70
     1
102
RTVSPost2010Prop45
280
     0
102
RTVSPost2010PropOp45
 70
     1
102
RTVSPost2010Prop46
 90
       50
102
RTVSPost2010PropOp46
 70
     1
102
RTVSPost2010Prop47
 90
       50
102
RTVSPost2010PropOp47
 70
     1
102
RTVSPost2010Prop48
 90
       50
102
RTVSPost2010PropOp48
 70
     1
102
RTVSPost2010Prop49
280
     0
102
RTVSPost2010PropOp49
 70
     1
102
RTVSPost2010Prop50
 90
       50
102
RTVSPost2010PropOp50
 70
     1
102
RTVSPost2010Prop51ColorIndex
 90
      256
102
RTVSPost2010Prop51ColorRGB
 90
-16777216
102
RTVSPost2010PropOp51
 70
     0
102
RTVSPost2010Prop52
140
1.0
102
RTVSPost2010PropOp52
 70
     0
102
RTVSPost2010Prop53
 90
        2
102
RTVSPost2010PropOp53
 70
     1
102
RTVSPost2010Prop54
  1
strokes_ogs.tif
102
RTVSPost2010PropOp54
 70
     1
102
RTVSPost2010Prop55
280
     0
102
RTVSPost2010PropOp55
 70
     1
102
RTVSPost2010Prop56
140
1.0
102
RTVSPost2010PropOp56
 70
     1
102
RTVSPost2010Prop57
140
1.0
102
RTVSPost2010PropOp57
 70
     1
102
RTVSPropertyOp0
 70
     1
102
RTVSPropertyOp1
 70
     1
102
RTVSPropertyOp2
 70
     1
102
RTVSPropertyOp3
 70
     1
102
RTVSPropertyOp4
 70
     1
102
RTVSPropertyOp5
 70
     1
102
RTVSPropertyOp6
 70
     1
102
RTVSPropertyOp7
 70
     1
102
RTVSPropertyOp8
 70
     1
102
RTVSPropertyOp9
 70
     1
102
RTVSPropertyOp10
 70
     1
102
RTVSPropertyOp11
 70
     1
102
RTVSPropertyOp12
 70
     1
102
RTVSPropertyOp13
 70
     1
102
RTVSPropertyOp14
 70
     1
102
RTVSPropertyOp15
 70
     1
102
RTVSPropertyOp16
 70
     1
102
RTVSPropertyOp17
 70
     1
102
RTVSPropertyOp18
 70
     1
102
RTVSPropertyOp19
 70
     1
102
RTVSPropertyOp20
 70
     1
102
RTVSPropertyOp21
 70
     1
102
RTVSPropertyOp22
 70
     1
102
RTVSPropertyOp23
 70
     1
102
RTVSPropertyOp24
 70
     1
102
RTVSPropertyOp25
 70
     1
102
RTVSPropertyOp26
 70
     1
102
RTVSPropertyOp27
 70
     1
102
RTVSPropertyOp28
 70
     1
102
RTVSPropertyOp29
 70
     1
102
RTVSPropertyOp30
 70
     1
102
RTVSPropertyOp31
 70
     1
102
RTVSPropertyOp32
 70
     1
102
RTVSPropertyOp33
 70
     1
102
RTVSPropertyOp34
 70
     1
102
RTVSPropertyOp35
 70
     1
102
RTVSPropertyOp36
 70
     1
102
RTVSPropertyOp37
 70
     1
102
RTVSPropertyOp38
 70
     1
102
RTVSPropertyOp39
 70
     1
102
RTVSPropertyOp40
 70
     1
102
RTVSPropertyOp41
 70
     1
102
RTVSPropertyOp42
 70
     1
102
RTVSPropertyOp43
 70
     1
102
RTVSPropertyOp44
 70
     1
102
RTVSPropertyOp45
 70
     1
102
RTVSPropertyOp46
 70
     1
102
RTVSPropertyOp47
 70
     1
102
RTVSPropertyOp48
 70
     1
102
RTVSPropertyOp49
 70
     1
102
RTVSPropertyOp50
 70
     1
102
RTVSPropertyOp51
 70
     0
102
RTVSPropertyOp52
 70
     0
102
RTVSPropertyOp53
 70
     1
102
RTVSPropertyOp54
 70
     1
102
RTVSPropertyOp55
 70
     1
102
RTVSPropertyOp56
 70
     1
102
RTVSPropertyOp57
 70
     1
102
RTVSPropertyOp58
 70
     1
102
RTVSPropertyOp59
 70
     1
102
RTVSPropertyOp60
 70
     1
102
RTVSPropertyOp61
 70
     1
102
RTVSPropertyOp62
 70
     1
  0
XRECORD
  5
1267
102
{ACAD_REACTORS
330
1266
102
}
330
1266
100
AcDbXrecord
280
     1
102
RTVSPost2010Prop28
280
     0
102
RTVSPost2010PropOp28
 70
     1
102
RTVSPost2010Prop29
280
     1
102
RTVSPost2010PropOp29
 70
     1
102
RTVSPost2010Prop30
280
     1
102
RTVSPost2010PropOp30
 70
     1
102
RTVSPost2010Prop31
280
     0
102
RTVSPost2010PropOp31
 70
     1
102
RTVSPost2010Prop32
280
     0
102
RTVSPost2010PropOp32
 70
     1
102
RTVSPost2010Prop33
280
     0
102
RTVSPost2010PropOp33
 70
     1
102
RTVSPost2010Prop34
280
     0
102
RTVSPost2010PropOp34
 70
     1
102
RTVSPost2010Prop35
280
     0
102
RTVSPost2010PropOp35
 70
     1
102
RTVSPost2010Prop36
280
     0
102
RTVSPost2010PropOp36
 70
     1
102
RTVSPost2010Prop37
 90
       50
102
RTVSPost2010PropOp37
 70
     1
102
RTVSPost2010Prop38
140
0.0
102
RTVSPost2010PropOp38
 70
     1
102
RTVSPost2010Prop39
140
1.0
102
RTVSPost2010PropOp39
 70
     1
102
RTVSPost2010Prop40
 90
        0
102
RTVSPost2010PropOp40
 70
     1
102
RTVSPost2010Prop41ColorIndex
 90
       18
102
RTVSPost2010Prop41ColorRGB
 90
        0
102
RTVSPost2010PropOp41
 70
     1
102
RTVSPost2010Prop42
 90
       50
102
RTVSPost2010PropOp42
 70
     1
102
RTVSPost2010Prop43
 90
        3
102
RTVSPost2010PropOp43
 70
     1
102
RTVSPost2010Prop44ColorIndex
 90
        5
102
RTVSPost2010Prop44ColorRGB
 90
      255
102
RTVSPost2010PropOp44
 70
     1
102
RTVSPost2010Prop45
280
     0
102
RTVSPost2010PropOp45
 70
     1
102
RTVSPost2010Prop46
 90
       50
102
RTVSPost2010PropOp46
 70
     1
102
RTVSPost2010Prop47
 90
       50
102
RTVSPost2010PropOp47
 70
     1
102
RTVSPost2010Prop48
 90
       50
102
RTVSPost2010PropOp48
 70
     1
102
RTVSPost2010Prop49
280
     0
102
RTVSPost2010PropOp49
 70
     1
102
RTVSPost2010Prop50
 90
       50
102
RTVSPost2010PropOp50
 70
     1
102
RTVSPost2010Prop51ColorIndex
 90
      256
102
RTVSPost2010Prop51ColorRGB
 90
-16777216
102
RTVSPost2010PropOp51
 70
     0
102
RTVSPost2010Prop52
140
1.0
102
RTVSPost2010PropOp52
 70
     0
102
RTVSPost2010Prop53
 90
        2
102
RTVSPost2010PropOp53
 70
     1
102
RTVSPost2010Prop54
  1
strokes_ogs.tif
102
RTVSPost2010PropOp54
 70
     1
102
RTVSPost2010Prop55
280
     0
102
RTVSPost2010PropOp55
 70
     1
102
RTVSPost2010Prop56
140
1.0
102
RTVSPost2010PropOp56
 70
     1
102
RTVSPost2010Prop57
140
1.0
102
RTVSPost2010PropOp57
 70
     1
102
RTVSPropertyOp0
 70
     1
102
RTVSPropertyOp1
 70
     1
102
RTVSPropertyOp2
 70
     1
102
RTVSPropertyOp3
 70
     1
102
RTVSPropertyOp4
 70
     1
102
RTVSPropertyOp5
 70
     1
102
RTVSPropertyOp6
 70
     1
102
RTVSPropertyOp7
 70
     1
102
RTVSPropertyOp8
 70
     1
102
RTVSPropertyOp9
 70
     1
102
RTVSPropertyOp10
 70
     1
102
RTVSPropertyOp11
 70
     1
102
RTVSPropertyOp12
 70
     1
102
RTVSPropertyOp13
 70
     1
102
RTVSPropertyOp14
 70
     1
102
RTVSPropertyOp15
 70
     1
102
RTVSPropertyOp16
 70
     1
102
RTVSPropertyOp17
 70
     1
102
RTVSPropertyOp18
 70
     1
102
RTVSPropertyOp19
 70
     1
102
RTVSPropertyOp20
 70
     1
102
RTVSPropertyOp21
 70
     1
102
RTVSPropertyOp22
 70
     1
102
RTVSPropertyOp23
 70
     1
102
RTVSPropertyOp24
 70
     1
102
RTVSPropertyOp25
 70
     1
102
RTVSPropertyOp26
 70
     1
102
RTVSPropertyOp27
 70
     1
102
RTVSPropertyOp28
 70
     1
102
RTVSPropertyOp29
 70
     1
102
RTVSPropertyOp30
 70
     1
102
RTVSPropertyOp31
 70
     1
102
RTVSPropertyOp32
 70
     1
102
RTVSPropertyOp33
 70
     1
102
RTVSPropertyOp34
 70
     1
102
RTVSPropertyOp35
 70
     1
102
RTVSPropertyOp36
 70
     1
102
RTVSPropertyOp37
 70
     1
102
RTVSPropertyOp38
 70
     1
102
RTVSPropertyOp39
 70
     1
102
RTVSPropertyOp40
 70
     1
102
RTVSPropertyOp41
 70
     1
102
RTVSPropertyOp42
 70
     1
102
RTVSPropertyOp43
 70
     1
102
RTVSPropertyOp44
 70
     1
102
RTVSPropertyOp45
 70
     1
102
RTVSPropertyOp46
 70
     1
102
RTVSPropertyOp47
 70
     1
102
RTVSPropertyOp48
 70
     1
102
RTVSPropertyOp49
 70
     1
102
RTVSPropertyOp50
 70
     1
102
RTVSPropertyOp51
 70
     0
102
RTVSPropertyOp52
 70
     0
102
RTVSPropertyOp53
 70
     1
102
RTVSPropertyOp54
 70
     1
102
RTVSPropertyOp55
 70
     1
102
RTVSPropertyOp56
 70
     1
102
RTVSPropertyOp57
 70
     1
102
RTVSPropertyOp58
 70
     1
102
RTVSPropertyOp59
 70
     1
102
RTVSPropertyOp60
 70
     1
102
RTVSPropertyOp61
 70
     1
102
RTVSPropertyOp62
 70
     1
  0
XRECORD
  5
1275
102
{ACAD_REACTORS
330
1274
102
}
330
1274
100
AcDbXrecord
280
     1
102
RTVSPost2010Prop28
280
     0
102
RTVSPost2010PropOp28
 70
     1
102
RTVSPost2010Prop29
280
     1
102
RTVSPost2010PropOp29
 70
     1
102
RTVSPost2010Prop30
280
     1
102
RTVSPost2010PropOp30
 70
     1
102
RTVSPost2010Prop31
280
     0
102
RTVSPost2010PropOp31
 70
     1
102
RTVSPost2010Prop32
280
     0
102
RTVSPost2010PropOp32
 70
     1
102
RTVSPost2010Prop33
280
     0
102
RTVSPost2010PropOp33
 70
     1
102
RTVSPost2010Prop34
280
     0
102
RTVSPost2010PropOp34
 70
     1
102
RTVSPost2010Prop35
280
     0
102
RTVSPost2010PropOp35
 70
     1
102
RTVSPost2010Prop36
280
     0
102
RTVSPost2010PropOp36
 70
     1
102
RTVSPost2010Prop37
 90
       50
102
RTVSPost2010PropOp37
 70
     1
102
RTVSPost2010Prop38
140
0.0
102
RTVSPost2010PropOp38
 70
     1
102
RTVSPost2010Prop39
140
1.0
102
RTVSPost2010PropOp39
 70
     1
102
RTVSPost2010Prop40
 90
        0
102
RTVSPost2010PropOp40
 70
     1
102
RTVSPost2010Prop41ColorIndex
 90
       18
102
RTVSPost2010Prop41ColorRGB
 90
        0
102
RTVSPost2010PropOp41
 70
     1
102
RTVSPost2010Prop42
 90
       50
102
RTVSPost2010PropOp42
 70
     1
102
RTVSPost2010Prop43
 90
        3
102
RTVSPost2010PropOp43
 70
     1
102
RTVSPost2010Prop44ColorIndex
 90
        5
102
RTVSPost2010Prop44ColorRGB
 90
      255
102
RTVSPost2010PropOp44
 70
     1
102
RTVSPost2010Prop45
280
     0
102
RTVSPost2010PropOp45
 70
     1
102
RTVSPost2010Prop46
 90
       50
102
RTVSPost2010PropOp46
 70
     1
102
RTVSPost2010Prop47
 90
       50
102
RTVSPost2010PropOp47
 70
     1
102
RTVSPost2010Prop48
 90
       50
102
RTVSPost2010PropOp48
 70
     1
102
RTVSPost2010Prop49
280
     0
102
RTVSPost2010PropOp49
 70
     1
102
RTVSPost2010Prop50
 90
       50
102
RTVSPost2010PropOp50
 70
     1
102
RTVSPost2010Prop51ColorIndex
 90
      256
102
RTVSPost2010Prop51ColorRGB
 90
-16777216
102
RTVSPost2010PropOp51
 70
     0
102
RTVSPost2010Prop52
140
1.0
102
RTVSPost2010PropOp52
 70
     0
102
RTVSPost2010Prop53
 90
        2
102
RTVSPost2010PropOp53
 70
     1
102
RTVSPost2010Prop54
  1
strokes_ogs.tif
102
RTVSPost2010PropOp54
 70
     1
102
RTVSPost2010Prop55
280
     0
102
RTVSPost2010PropOp55
 70
     1
102
RTVSPost2010Prop56
140
1.0
102
RTVSPost2010PropOp56
 70
     1
102
RTVSPost2010Prop57
140
1.0
102
RTVSPost2010PropOp57
 70
     1
102
RTVSPropertyOp0
 70
     1
102
RTVSPropertyOp1
 70
     1
102
RTVSPropertyOp2
 70
     1
102
RTVSPropertyOp3
 70
     1
102
RTVSPropertyOp4
 70
     1
102
RTVSPropertyOp5
 70
     1
102
RTVSPropertyOp6
 70
     1
102
RTVSPropertyOp7
 70
     1
102
RTVSPropertyOp8
 70
     1
102
RTVSPropertyOp9
 70
     1
102
RTVSPropertyOp10
 70
     1
102
RTVSPropertyOp11
 70
     1
102
RTVSPropertyOp12
 70
     1
102
RTVSPropertyOp13
 70
     1
102
RTVSPropertyOp14
 70
     1
102
RTVSPropertyOp15
 70
     1
102
RTVSPropertyOp16
 70
     1
102
RTVSPropertyOp17
 70
     1
102
RTVSPropertyOp18
 70
     1
102
RTVSPropertyOp19
 70
     1
102
RTVSPropertyOp20
 70
     1
102
RTVSPropertyOp21
 70
     1
102
RTVSPropertyOp22
 70
     1
102
RTVSPropertyOp23
 70
     1
102
RTVSPropertyOp24
 70
     1
102
RTVSPropertyOp25
 70
     1
102
RTVSPropertyOp26
 70
     1
102
RTVSPropertyOp27
 70
     1
102
RTVSPropertyOp28
 70
     1
102
RTVSPropertyOp29
 70
     1
102
RTVSPropertyOp30
 70
     1
102
RTVSPropertyOp31
 70
     1
102
RTVSPropertyOp32
 70
     1
102
RTVSPropertyOp33
 70
     1
102
RTVSPropertyOp34
 70
     1
102
RTVSPropertyOp35
 70
     1
102
RTVSPropertyOp36
 70
     1
102
RTVSPropertyOp37
 70
     1
102
RTVSPropertyOp38
 70
     1
102
RTVSPropertyOp39
 70
     1
102
RTVSPropertyOp40
 70
     1
102
RTVSPropertyOp41
 70
     1
102
RTVSPropertyOp42
 70
     1
102
RTVSPropertyOp43
 70
     1
102
RTVSPropertyOp44
 70
     1
102
RTVSPropertyOp45
 70
     1
102
RTVSPropertyOp46
 70
     1
102
RTVSPropertyOp47
 70
     1
102
RTVSPropertyOp48
 70
     1
102
RTVSPropertyOp49
 70
     1
102
RTVSPropertyOp50
 70
     1
102
RTVSPropertyOp51
 70
     0
102
RTVSPropertyOp52
 70
     0
102
RTVSPropertyOp53
 70
     1
102
RTVSPropertyOp54
 70
     1
102
RTVSPropertyOp55
 70
     1
102
RTVSPropertyOp56
 70
     1
102
RTVSPropertyOp57
 70
     1
102
RTVSPropertyOp58
 70
     1
102
RTVSPropertyOp59
 70
     1
102
RTVSPropertyOp60
 70
     1
102
RTVSPropertyOp61
 70
     1
102
RTVSPropertyOp62
 70
     1
  0
XRECORD
  5
127D
102
{ACAD_REACTORS
330
127C
102
}
330
127C
100
AcDbXrecord
280
     1
102
RTVSPost2010Prop28
280
     0
102
RTVSPost2010PropOp28
 70
     1
102
RTVSPost2010Prop29
280
     1
102
RTVSPost2010PropOp29
 70
     1
102
RTVSPost2010Prop30
280
     1
102
RTVSPost2010PropOp30
 70
     1
102
RTVSPost2010Prop31
280
     0
102
RTVSPost2010PropOp31
 70
     1
102
RTVSPost2010Prop32
280
     0
102
RTVSPost2010PropOp32
 70
     1
102
RTVSPost2010Prop33
280
     0
102
RTVSPost2010PropOp33
 70
     1
102
RTVSPost2010Prop34
280
     0
102
RTVSPost2010PropOp34
 70
     1
102
RTVSPost2010Prop35
280
     0
102
RTVSPost2010PropOp35
 70
     1
102
RTVSPost2010Prop36
280
     0
102
RTVSPost2010PropOp36
 70
     1
102
RTVSPost2010Prop37
 90
       50
102
RTVSPost2010PropOp37
 70
     1
102
RTVSPost2010Prop38
140
0.0
102
RTVSPost2010PropOp38
 70
     1
102
RTVSPost2010Prop39
140
1.0
102
RTVSPost2010PropOp39
 70
     1
102
RTVSPost2010Prop40
 90
        0
102
RTVSPost2010PropOp40
 70
     1
102
RTVSPost2010Prop41ColorIndex
 90
       18
102
RTVSPost2010Prop41ColorRGB
 90
        0
102
RTVSPost2010PropOp41
 70
     1
102
RTVSPost2010Prop42
 90
       50
102
RTVSPost2010PropOp42
 70
     1
102
RTVSPost2010Prop43
 90
        3
102
RTVSPost2010PropOp43
 70
     1
102
RTVSPost2010Prop44ColorIndex
 90
        5
102
RTVSPost2010Prop44ColorRGB
 90
      255
102
RTVSPost2010PropOp44
 70
     1
102
RTVSPost2010Prop45
280
     0
102
RTVSPost2010PropOp45
 70
     1
102
RTVSPost2010Prop46
 90
       50
102
RTVSPost2010PropOp46
 70
     1
102
RTVSPost2010Prop47
 90
       50
102
RTVSPost2010PropOp47
 70
     1
102
RTVSPost2010Prop48
 90
       50
102
RTVSPost2010PropOp48
 70
     1
102
RTVSPost2010Prop49
280
     0
102
RTVSPost2010PropOp49
 70
     1
102
RTVSPost2010Prop50
 90
       50
102
RTVSPost2010PropOp50
 70
     1
102
RTVSPost2010Prop51ColorIndex
 90
      256
102
RTVSPost2010Prop51ColorRGB
 90
-16777216
102
RTVSPost2010PropOp51
 70
     0
102
RTVSPost2010Prop52
140
1.0
102
RTVSPost2010PropOp52
 70
     0
102
RTVSPost2010Prop53
 90
        2
102
RTVSPost2010PropOp53
 70
     1
102
RTVSPost2010Prop54
  1
strokes_ogs.tif
102
RTVSPost2010PropOp54
 70
     1
102
RTVSPost2010Prop55
280
     0
102
RTVSPost2010PropOp55
 70
     1
102
RTVSPost2010Prop56
140
1.0
102
RTVSPost2010PropOp56
 70
     1
102
RTVSPost2010Prop57
140
1.0
102
RTVSPost2010PropOp57
 70
     1
102
RTVSPropertyOp0
 70
     1
102
RTVSPropertyOp1
 70
     1
102
RTVSPropertyOp2
 70
     1
102
RTVSPropertyOp3
 70
     1
102
RTVSPropertyOp4
 70
     1
102
RTVSPropertyOp5
 70
     1
102
RTVSPropertyOp6
 70
     1
102
RTVSPropertyOp7
 70
     1
102
RTVSPropertyOp8
 70
     1
102
RTVSPropertyOp9
 70
     1
102
RTVSPropertyOp10
 70
     1
102
RTVSPropertyOp11
 70
     1
102
RTVSPropertyOp12
 70
     1
102
RTVSPropertyOp13
 70
     1
102
RTVSPropertyOp14
 70
     1
102
RTVSPropertyOp15
 70
     1
102
RTVSPropertyOp16
 70
     1
102
RTVSPropertyOp17
 70
     1
102
RTVSPropertyOp18
 70
     1
102
RTVSPropertyOp19
 70
     1
102
RTVSPropertyOp20
 70
     1
102
RTVSPropertyOp21
 70
     1
102
RTVSPropertyOp22
 70
     1
102
RTVSPropertyOp23
 70
     1
102
RTVSPropertyOp24
 70
     1
102
RTVSPropertyOp25
 70
     1
102
RTVSPropertyOp26
 70
     1
102
RTVSPropertyOp27
 70
     1
102
RTVSPropertyOp28
 70
     1
102
RTVSPropertyOp29
 70
     1
102
RTVSPropertyOp30
 70
     1
102
RTVSPropertyOp31
 70
     1
102
RTVSPropertyOp32
 70
     1
102
RTVSPropertyOp33
 70
     1
102
RTVSPropertyOp34
 70
     1
102
RTVSPropertyOp35
 70
     1
102
RTVSPropertyOp36
 70
     1
102
RTVSPropertyOp37
 70
     1
102
RTVSPropertyOp38
 70
     1
102
RTVSPropertyOp39
 70
     1
102
RTVSPropertyOp40
 70
     1
102
RTVSPropertyOp41
 70
     1
102
RTVSPropertyOp42
 70
     1
102
RTVSPropertyOp43
 70
     1
102
RTVSPropertyOp44
 70
     1
102
RTVSPropertyOp45
 70
     1
102
RTVSPropertyOp46
 70
     1
102
RTVSPropertyOp47
 70
     1
102
RTVSPropertyOp48
 70
     1
102
RTVSPropertyOp49
 70
     1
102
RTVSPropertyOp50
 70
     1
102
RTVSPropertyOp51
 70
     0
102
RTVSPropertyOp52
 70
     0
102
RTVSPropertyOp53
 70
     1
102
RTVSPropertyOp54
 70
     1
102
RTVSPropertyOp55
 70
     1
102
RTVSPropertyOp56
 70
     1
102
RTVSPropertyOp57
 70
     1
102
RTVSPropertyOp58
 70
     1
102
RTVSPropertyOp59
 70
     1
102
RTVSPropertyOp60
 70
     1
102
RTVSPropertyOp61
 70
     1
102
RTVSPropertyOp62
 70
     1
  0
XRECORD
  5
126F
102
{ACAD_REACTORS
330
126E
102
}
330
126E
100
AcDbXrecord
280
     1
102
RTVSPost2010Prop28
280
     0
102
RTVSPost2010PropOp28
 70
     1
102
RTVSPost2010Prop29
280
     1
102
RTVSPost2010PropOp29
 70
     1
102
RTVSPost2010Prop30
280
     1
102
RTVSPost2010PropOp30
 70
     1
102
RTVSPost2010Prop31
280
     0
102
RTVSPost2010PropOp31
 70
     1
102
RTVSPost2010Prop32
280
     0
102
RTVSPost2010PropOp32
 70
     1
102
RTVSPost2010Prop33
280
     0
102
RTVSPost2010PropOp33
 70
     1
102
RTVSPost2010Prop34
280
     0
102
RTVSPost2010PropOp34
 70
     1
102
RTVSPost2010Prop35
280
     0
102
RTVSPost2010PropOp35
 70
     1
102
RTVSPost2010Prop36
280
     0
102
RTVSPost2010PropOp36
 70
     1
102
RTVSPost2010Prop37
 90
       50
102
RTVSPost2010PropOp37
 70
     1
102
RTVSPost2010Prop38
140
0.0
102
RTVSPost2010PropOp38
 70
     1
102
RTVSPost2010Prop39
140
1.0
102
RTVSPost2010PropOp39
 70
     1
102
RTVSPost2010Prop40
 90
        0
102
RTVSPost2010PropOp40
 70
     1
102
RTVSPost2010Prop41ColorIndex
 90
       18
102
RTVSPost2010Prop41ColorRGB
 90
        0
102
RTVSPost2010PropOp41
 70
     1
102
RTVSPost2010Prop42
 90
       50
102
RTVSPost2010PropOp42
 70
     1
102
RTVSPost2010Prop43
 90
        3
102
RTVSPost2010PropOp43
 70
     1
102
RTVSPost2010Prop44ColorIndex
 90
        5
102
RTVSPost2010Prop44ColorRGB
 90
      255
102
RTVSPost2010PropOp44
 70
     1
102
RTVSPost2010Prop45
280
     0
102
RTVSPost2010PropOp45
 70
     1
102
RTVSPost2010Prop46
 90
       50
102
RTVSPost2010PropOp46
 70
     1
102
RTVSPost2010Prop47
 90
       50
102
RTVSPost2010PropOp47
 70
     1
102
RTVSPost2010Prop48
 90
       50
102
RTVSPost2010PropOp48
 70
     1
102
RTVSPost2010Prop49
280
     0
102
RTVSPost2010PropOp49
 70
     1
102
RTVSPost2010Prop50
 90
       50
102
RTVSPost2010PropOp50
 70
     1
102
RTVSPost2010Prop51ColorIndex
 90
      256
102
RTVSPost2010Prop51ColorRGB
 90
-16777216
102
RTVSPost2010PropOp51
 70
     0
102
RTVSPost2010Prop52
140
1.0
102
RTVSPost2010PropOp52
 70
     0
102
RTVSPost2010Prop53
 90
        2
102
RTVSPost2010PropOp53
 70
     1
102
RTVSPost2010Prop54
  1
strokes_ogs.tif
102
RTVSPost2010PropOp54
 70
     1
102
RTVSPost2010Prop55
280
     0
102
RTVSPost2010PropOp55
 70
     1
102
RTVSPost2010Prop56
140
1.0
102
RTVSPost2010PropOp56
 70
     1
102
RTVSPost2010Prop57
140
1.0
102
RTVSPost2010PropOp57
 70
     1
102
RTVSPropertyOp0
 70
     1
102
RTVSPropertyOp1
 70
     1
102
RTVSPropertyOp2
 70
     1
102
RTVSPropertyOp3
 70
     1
102
RTVSPropertyOp4
 70
     1
102
RTVSPropertyOp5
 70
     1
102
RTVSPropertyOp6
 70
     1
102
RTVSPropertyOp7
 70
     1
102
RTVSPropertyOp8
 70
     1
102
RTVSPropertyOp9
 70
     1
102
RTVSPropertyOp10
 70
     1
102
RTVSPropertyOp11
 70
     1
102
RTVSPropertyOp12
 70
     1
102
RTVSPropertyOp13
 70
     1
102
RTVSPropertyOp14
 70
     1
102
RTVSPropertyOp15
 70
     1
102
RTVSPropertyOp16
 70
     1
102
RTVSPropertyOp17
 70
     1
102
RTVSPropertyOp18
 70
     1
102
RTVSPropertyOp19
 70
     1
102
RTVSPropertyOp20
 70
     1
102
RTVSPropertyOp21
 70
     1
102
RTVSPropertyOp22
 70
     1
102
RTVSPropertyOp23
 70
     1
102
RTVSPropertyOp24
 70
     1
102
RTVSPropertyOp25
 70
     1
102
RTVSPropertyOp26
 70
     1
102
RTVSPropertyOp27
 70
     1
102
RTVSPropertyOp28
 70
     1
102
RTVSPropertyOp29
 70
     1
102
RTVSPropertyOp30
 70
     1
102
RTVSPropertyOp31
 70
     1
102
RTVSPropertyOp32
 70
     1
102
RTVSPropertyOp33
 70
     1
102
RTVSPropertyOp34
 70
     1
102
RTVSPropertyOp35
 70
     1
102
RTVSPropertyOp36
 70
     1
102
RTVSPropertyOp37
 70
     1
102
RTVSPropertyOp38
 70
     1
102
RTVSPropertyOp39
 70
     1
102
RTVSPropertyOp40
 70
     1
102
RTVSPropertyOp41
 70
     1
102
RTVSPropertyOp42
 70
     1
102
RTVSPropertyOp43
 70
     1
102
RTVSPropertyOp44
 70
     1
102
RTVSPropertyOp45
 70
     1
102
RTVSPropertyOp46
 70
     1
102
RTVSPropertyOp47
 70
     1
102
RTVSPropertyOp48
 70
     1
102
RTVSPropertyOp49
 70
     1
102
RTVSPropertyOp50
 70
     1
102
RTVSPropertyOp51
 70
     0
102
RTVSPropertyOp52
 70
     0
102
RTVSPropertyOp53
 70
     1
102
RTVSPropertyOp54
 70
     1
102
RTVSPropertyOp55
 70
     1
102
RTVSPropertyOp56
 70
     1
102
RTVSPropertyOp57
 70
     1
102
RTVSPropertyOp58
 70
     1
102
RTVSPropertyOp59
 70
     1
102
RTVSPropertyOp60
 70
     1
102
RTVSPropertyOp61
 70
     1
102
RTVSPropertyOp62
 70
     1
  0
XRECORD
  5
1273
102
{ACAD_REACTORS
330
1272
102
}
330
1272
100
AcDbXrecord
280
     1
102
RTVSPost2010Prop28
280
     0
102
RTVSPost2010PropOp28
 70
     1
102
RTVSPost2010Prop29
280
     1
102
RTVSPost2010PropOp29
 70
     1
102
RTVSPost2010Prop30
280
     1
102
RTVSPost2010PropOp30
 70
     1
102
RTVSPost2010Prop31
280
     0
102
RTVSPost2010PropOp31
 70
     1
102
RTVSPost2010Prop32
280
     0
102
RTVSPost2010PropOp32
 70
     1
102
RTVSPost2010Prop33
280
     0
102
RTVSPost2010PropOp33
 70
     1
102
RTVSPost2010Prop34
280
     0
102
RTVSPost2010PropOp34
 70
     1
102
RTVSPost2010Prop35
280
     0
102
RTVSPost2010PropOp35
 70
     1
102
RTVSPost2010Prop36
280
     0
102
RTVSPost2010PropOp36
 70
     1
102
RTVSPost2010Prop37
 90
       50
102
RTVSPost2010PropOp37
 70
     1
102
RTVSPost2010Prop38
140
0.0
102
RTVSPost2010PropOp38
 70
     1
102
RTVSPost2010Prop39
140
1.0
102
RTVSPost2010PropOp39
 70
     1
102
RTVSPost2010Prop40
 90
        0
102
RTVSPost2010PropOp40
 70
     1
102
RTVSPost2010Prop41ColorIndex
 90
       18
102
RTVSPost2010Prop41ColorRGB
 90
        0
102
RTVSPost2010PropOp41
 70
     1
102
RTVSPost2010Prop42
 90
       50
102
RTVSPost2010PropOp42
 70
     1
102
RTVSPost2010Prop43
 90
        3
102
RTVSPost2010PropOp43
 70
     1
102
RTVSPost2010Prop44ColorIndex
 90
        5
102
RTVSPost2010Prop44ColorRGB
 90
      255
102
RTVSPost2010PropOp44
 70
     1
102
RTVSPost2010Prop45
280
     0
102
RTVSPost2010PropOp45
 70
     1
102
RTVSPost2010Prop46
 90
       50
102
RTVSPost2010PropOp46
 70
     1
102
RTVSPost2010Prop47
 90
       50
102
RTVSPost2010PropOp47
 70
     1
102
RTVSPost2010Prop48
 90
       50
102
RTVSPost2010PropOp48
 70
     1
102
RTVSPost2010Prop49
280
     0
102
RTVSPost2010PropOp49
 70
     1
102
RTVSPost2010Prop50
 90
       50
102
RTVSPost2010PropOp50
 70
     1
102
RTVSPost2010Prop51ColorIndex
 90
      256
102
RTVSPost2010Prop51ColorRGB
 90
-16777216
102
RTVSPost2010PropOp51
 70
     0
102
RTVSPost2010Prop52
140
1.0
102
RTVSPost2010PropOp52
 70
     0
102
RTVSPost2010Prop53
 90
        2
102
RTVSPost2010PropOp53
 70
     1
102
RTVSPost2010Prop54
  1
strokes_ogs.tif
102
RTVSPost2010PropOp54
 70
     1
102
RTVSPost2010Prop55
280
     0
102
RTVSPost2010PropOp55
 70
     1
102
RTVSPost2010Prop56
140
1.0
102
RTVSPost2010PropOp56
 70
     1
102
RTVSPost2010Prop57
140
1.0
102
RTVSPost2010PropOp57
 70
     1
102
RTVSPropertyOp0
 70
     1
102
RTVSPropertyOp1
 70
     1
102
RTVSPropertyOp2
 70
     1
102
RTVSPropertyOp3
 70
     1
102
RTVSPropertyOp4
 70
     1
102
RTVSPropertyOp5
 70
     1
102
RTVSPropertyOp6
 70
     1
102
RTVSPropertyOp7
 70
     1
102
RTVSPropertyOp8
 70
     1
102
RTVSPropertyOp9
 70
     1
102
RTVSPropertyOp10
 70
     1
102
RTVSPropertyOp11
 70
     1
102
RTVSPropertyOp12
 70
     1
102
RTVSPropertyOp13
 70
     1
102
RTVSPropertyOp14
 70
     1
102
RTVSPropertyOp15
 70
     1
102
RTVSPropertyOp16
 70
     1
102
RTVSPropertyOp17
 70
     1
102
RTVSPropertyOp18
 70
     1
102
RTVSPropertyOp19
 70
     1
102
RTVSPropertyOp20
 70
     1
102
RTVSPropertyOp21
 70
     1
102
RTVSPropertyOp22
 70
     1
102
RTVSPropertyOp23
 70
     1
102
RTVSPropertyOp24
 70
     1
102
RTVSPropertyOp25
 70
     1
102
RTVSPropertyOp26
 70
     1
102
RTVSPropertyOp27
 70
     1
102
RTVSPropertyOp28
 70
     1
102
RTVSPropertyOp29
 70
     1
102
RTVSPropertyOp30
 70
     1
102
RTVSPropertyOp31
 70
     1
102
RTVSPropertyOp32
 70
     1
102
RTVSPropertyOp33
 70
     1
102
RTVSPropertyOp34
 70
     1
102
RTVSPropertyOp35
 70
     1
102
RTVSPropertyOp36
 70
     1
102
RTVSPropertyOp37
 70
     1
102
RTVSPropertyOp38
 70
     1
102
RTVSPropertyOp39
 70
     1
102
RTVSPropertyOp40
 70
     1
102
RTVSPropertyOp41
 70
     1
102
RTVSPropertyOp42
 70
     1
102
RTVSPropertyOp43
 70
     1
102
RTVSPropertyOp44
 70
     1
102
RTVSPropertyOp45
 70
     1
102
RTVSPropertyOp46
 70
     1
102
RTVSPropertyOp47
 70
     1
102
RTVSPropertyOp48
 70
     1
102
RTVSPropertyOp49
 70
     1
102
RTVSPropertyOp50
 70
     1
102
RTVSPropertyOp51
 70
     0
102
RTVSPropertyOp52
 70
     0
102
RTVSPropertyOp53
 70
     1
102
RTVSPropertyOp54
 70
     1
102
RTVSPropertyOp55
 70
     1
102
RTVSPropertyOp56
 70
     1
102
RTVSPropertyOp57
 70
     1
102
RTVSPropertyOp58
 70
     1
102
RTVSPropertyOp59
 70
     1
102
RTVSPropertyOp60
 70
     1
102
RTVSPropertyOp61
 70
     1
102
RTVSPropertyOp62
 70
     1
  0
XRECORD
  5
1298
102
{ACAD_REACTORS
330
1297
102
}
330
1297
100
AcDbXrecord
280
     1
102
RTVSPost2010Prop28
280
     0
102
RTVSPost2010PropOp28
 70
     0
102
RTVSPost2010Prop29
280
     1
102
RTVSPost2010PropOp29
 70
     0
102
RTVSPost2010Prop30
280
     1
102
RTVSPost2010PropOp30
 70
     0
102
RTVSPost2010Prop31
280
     0
102
RTVSPost2010PropOp31
 70
     0
102
RTVSPost2010Prop32
280
     0
102
RTVSPost2010PropOp32
 70
     0
102
RTVSPost2010Prop33
280
     0
102
RTVSPost2010PropOp33
 70
     0
102
RTVSPost2010Prop34
280
     0
102
RTVSPost2010PropOp34
 70
     0
102
RTVSPost2010Prop35
280
     0
102
RTVSPost2010PropOp35
 70
     0
102
RTVSPost2010Prop36
280
     0
102
RTVSPost2010PropOp36
 70
     0
102
RTVSPost2010Prop37
 90
       50
102
RTVSPost2010PropOp37
 70
     0
102
RTVSPost2010Prop38
140
0.0
102
RTVSPost2010PropOp38
 70
     0
102
RTVSPost2010Prop39
140
1.0
102
RTVSPost2010PropOp39
 70
     0
102
RTVSPost2010Prop40
 90
        0
102
RTVSPost2010PropOp40
 70
     0
102
RTVSPost2010Prop41ColorIndex
 90
       18
102
RTVSPost2010Prop41ColorRGB
 90
        0
102
RTVSPost2010PropOp41
 70
     0
102
RTVSPost2010Prop42
 90
       50
102
RTVSPost2010PropOp42
 70
     0
102
RTVSPost2010Prop43
 90
        3
102
RTVSPost2010PropOp43
 70
     0
102
RTVSPost2010Prop44ColorIndex
 90
        5
102
RTVSPost2010Prop44ColorRGB
 90
      255
102
RTVSPost2010PropOp44
 70
     0
102
RTVSPost2010Prop45
280
     0
102
RTVSPost2010PropOp45
 70
     0
102
RTVSPost2010Prop46
 90
       50
102
RTVSPost2010PropOp46
 70
     0
102
RTVSPost2010Prop47
 90
       50
102
RTVSPost2010PropOp47
 70
     0
102
RTVSPost2010Prop48
 90
       50
102
RTVSPost2010PropOp48
 70
     0
102
RTVSPost2010Prop49
280
     0
102
RTVSPost2010PropOp49
 70
     0
102
RTVSPost2010Prop50
 90
       50
102
RTVSPost2010PropOp50
 70
     0
102
RTVSPost2010Prop51ColorIndex
 90
      256
102
RTVSPost2010Prop51ColorRGB
 90
-16777216
102
RTVSPost2010PropOp51
 70
     0
102
RTVSPost2010Prop52
140
1.0
102
RTVSPost2010PropOp52
 70
     0
102
RTVSPost2010Prop53
 90
        2
102
RTVSPost2010PropOp53
 70
     0
102
RTVSPost2010Prop54
  1
strokes_ogs.tif
102
RTVSPost2010PropOp54
 70
     0
102
RTVSPost2010Prop55
280
     0
102
RTVSPost2010PropOp55
 70
     0
102
RTVSPost2010Prop56
140
1.0
102
RTVSPost2010PropOp56
 70
     0
102
RTVSPost2010Prop57
140
1.0
102
RTVSPost2010PropOp57
 70
     0
102
RTVSPropertyOp0
 70
     0
102
RTVSPropertyOp1
 70
     0
102
RTVSPropertyOp2
 70
     0
102
RTVSPropertyOp3
 70
     0
102
RTVSPropertyOp4
 70
     0
102
RTVSPropertyOp5
 70
     0
102
RTVSPropertyOp6
 70
     0
102
RTVSPropertyOp7
 70
     0
102
RTVSPropertyOp8
 70
     0
102
RTVSPropertyOp9
 70
     0
102
RTVSPropertyOp10
 70
     0
102
RTVSPropertyOp11
 70
     0
102
RTVSPropertyOp12
 70
     0
102
RTVSPropertyOp13
 70
     0
102
RTVSPropertyOp14
 70
     2
102
RTVSPropertyOp15
 70
     0
102
RTVSPropertyOp16
 70
     0
102
RTVSPropertyOp17
 70
     0
102
RTVSPropertyOp18
 70
     0
102
RTVSPropertyOp19
 70
     0
102
RTVSPropertyOp20
 70
     0
102
RTVSPropertyOp21
 70
     0
102
RTVSPropertyOp22
 70
     0
102
RTVSPropertyOp23
 70
     0
102
RTVSPropertyOp24
 70
     0
102
RTVSPropertyOp25
 70
     0
102
RTVSPropertyOp26
 70
     0
102
RTVSPropertyOp27
 70
     0
102
RTVSPropertyOp28
 70
     0
102
RTVSPropertyOp29
 70
     0
102
RTVSPropertyOp30
 70
     0
102
RTVSPropertyOp31
 70
     0
102
RTVSPropertyOp32
 70
     0
102
RTVSPropertyOp33
 70
     0
102
RTVSPropertyOp34
 70
     0
102
RTVSPropertyOp35
 70
     0
102
RTVSPropertyOp36
 70
     0
102
RTVSPropertyOp37
 70
     0
102
RTVSPropertyOp38
 70
     0
102
RTVSPropertyOp39
 70
     0
102
RTVSPropertyOp40
 70
     0
102
RTVSPropertyOp41
 70
     0
102
RTVSPropertyOp42
 70
     0
102
RTVSPropertyOp43
 70
     0
102
RTVSPropertyOp44
 70
     0
102
RTVSPropertyOp45
 70
     0
102
RTVSPropertyOp46
 70
     0
102
RTVSPropertyOp47
 70
     0
102
RTVSPropertyOp48
 70
     0
102
RTVSPropertyOp49
 70
     0
102
RTVSPropertyOp50
 70
     0
102
RTVSPropertyOp51
 70
     0
102
RTVSPropertyOp52
 70
     0
102
RTVSPropertyOp53
 70
     0
102
RTVSPropertyOp54
 70
     0
102
RTVSPropertyOp55
 70
     0
102
RTVSPropertyOp56
 70
     0
102
RTVSPropertyOp57
 70
     0
102
RTVSPropertyOp58
 70
     0
102
RTVSPropertyOp59
 70
     0
102
RTVSPropertyOp60
 70
     0
102
RTVSPropertyOp61
 70
     0
102
RTVSPropertyOp62
 70
     0
  0
XRECORD
  5
127B
102
{ACAD_REACTORS
330
127A
102
}
330
127A
100
AcDbXrecord
280
     1
102
RTVSPost2010Prop28
280
     0
102
RTVSPost2010PropOp28
 70
     1
102
RTVSPost2010Prop29
280
     1
102
RTVSPost2010PropOp29
 70
     1
102
RTVSPost2010Prop30
280
     1
102
RTVSPost2010PropOp30
 70
     1
102
RTVSPost2010Prop31
280
     0
102
RTVSPost2010PropOp31
 70
     1
102
RTVSPost2010Prop32
280
     0
102
RTVSPost2010PropOp32
 70
     1
102
RTVSPost2010Prop33
280
     0
102
RTVSPost2010PropOp33
 70
     1
102
RTVSPost2010Prop34
280
     0
102
RTVSPost2010PropOp34
 70
     1
102
RTVSPost2010Prop35
280
     0
102
RTVSPost2010PropOp35
 70
     1
102
RTVSPost2010Prop36
280
     0
102
RTVSPost2010PropOp36
 70
     1
102
RTVSPost2010Prop37
 90
       50
102
RTVSPost2010PropOp37
 70
     1
102
RTVSPost2010Prop38
140
0.0
102
RTVSPost2010PropOp38
 70
     1
102
RTVSPost2010Prop39
140
1.0
102
RTVSPost2010PropOp39
 70
     1
102
RTVSPost2010Prop40
 90
        0
102
RTVSPost2010PropOp40
 70
     1
102
RTVSPost2010Prop41ColorIndex
 90
       18
102
RTVSPost2010Prop41ColorRGB
 90
        0
102
RTVSPost2010PropOp41
 70
     1
102
RTVSPost2010Prop42
 90
       50
102
RTVSPost2010PropOp42
 70
     1
102
RTVSPost2010Prop43
 90
        3
102
RTVSPost2010PropOp43
 70
     1
102
RTVSPost2010Prop44ColorIndex
 90
        5
102
RTVSPost2010Prop44ColorRGB
 90
      255
102
RTVSPost2010PropOp44
 70
     1
102
RTVSPost2010Prop45
280
     0
102
RTVSPost2010PropOp45
 70
     1
102
RTVSPost2010Prop46
 90
       50
102
RTVSPost2010PropOp46
 70
     1
102
RTVSPost2010Prop47
 90
       50
102
RTVSPost2010PropOp47
 70
     1
102
RTVSPost2010Prop48
 90
       50
102
RTVSPost2010PropOp48
 70
     1
102
RTVSPost2010Prop49
280
     0
102
RTVSPost2010PropOp49
 70
     1
102
RTVSPost2010Prop50
 90
       50
102
RTVSPost2010PropOp50
 70
     1
102
RTVSPost2010Prop51ColorIndex
 90
      256
102
RTVSPost2010Prop51ColorRGB
 90
-16777216
102
RTVSPost2010PropOp51
 70
     0
102
RTVSPost2010Prop52
140
1.0
102
RTVSPost2010PropOp52
 70
     0
102
RTVSPost2010Prop53
 90
        2
102
RTVSPost2010PropOp53
 70
     1
102
RTVSPost2010Prop54
  1
strokes_ogs.tif
102
RTVSPost2010PropOp54
 70
     1
102
RTVSPost2010Prop55
280
     0
102
RTVSPost2010PropOp55
 70
     1
102
RTVSPost2010Prop56
140
1.0
102
RTVSPost2010PropOp56
 70
     1
102
RTVSPost2010Prop57
140
1.0
102
RTVSPost2010PropOp57
 70
     1
102
RTVSPropertyOp0
 70
     1
102
RTVSPropertyOp1
 70
     1
102
RTVSPropertyOp2
 70
     1
102
RTVSPropertyOp3
 70
     1
102
RTVSPropertyOp4
 70
     1
102
RTVSPropertyOp5
 70
     1
102
RTVSPropertyOp6
 70
     1
102
RTVSPropertyOp7
 70
     1
102
RTVSPropertyOp8
 70
     1
102
RTVSPropertyOp9
 70
     1
102
RTVSPropertyOp10
 70
     1
102
RTVSPropertyOp11
 70
     1
102
RTVSPropertyOp12
 70
     1
102
RTVSPropertyOp13
 70
     1
102
RTVSPropertyOp14
 70
     1
102
RTVSPropertyOp15
 70
     1
102
RTVSPropertyOp16
 70
     1
102
RTVSPropertyOp17
 70
     1
102
RTVSPropertyOp18
 70
     1
102
RTVSPropertyOp19
 70
     1
102
RTVSPropertyOp20
 70
     1
102
RTVSPropertyOp21
 70
     1
102
RTVSPropertyOp22
 70
     1
102
RTVSPropertyOp23
 70
     1
102
RTVSPropertyOp24
 70
     1
102
RTVSPropertyOp25
 70
     1
102
RTVSPropertyOp26
 70
     1
102
RTVSPropertyOp27
 70
     1
102
RTVSPropertyOp28
 70
     1
102
RTVSPropertyOp29
 70
     1
102
RTVSPropertyOp30
 70
     1
102
RTVSPropertyOp31
 70
     1
102
RTVSPropertyOp32
 70
     1
102
RTVSPropertyOp33
 70
     1
102
RTVSPropertyOp34
 70
     1
102
RTVSPropertyOp35
 70
     1
102
RTVSPropertyOp36
 70
     1
102
RTVSPropertyOp37
 70
     1
102
RTVSPropertyOp38
 70
     1
102
RTVSPropertyOp39
 70
     1
102
RTVSPropertyOp40
 70
     1
102
RTVSPropertyOp41
 70
     1
102
RTVSPropertyOp42
 70
     1
102
RTVSPropertyOp43
 70
     1
102
RTVSPropertyOp44
 70
     1
102
RTVSPropertyOp45
 70
     1
102
RTVSPropertyOp46
 70
     1
102
RTVSPropertyOp47
 70
     1
102
RTVSPropertyOp48
 70
     1
102
RTVSPropertyOp49
 70
     1
102
RTVSPropertyOp50
 70
     1
102
RTVSPropertyOp51
 70
     0
102
RTVSPropertyOp52
 70
     0
102
RTVSPropertyOp53
 70
     1
102
RTVSPropertyOp54
 70
     1
102
RTVSPropertyOp55
 70
     1
102
RTVSPropertyOp56
 70
     1
102
RTVSPropertyOp57
 70
     1
102
RTVSPropertyOp58
 70
     1
102
RTVSPropertyOp59
 70
     1
102
RTVSPropertyOp60
 70
     1
102
RTVSPropertyOp61
 70
     1
102
RTVSPropertyOp62
 70
     1
  0
XRECORD
  5
125F
102
{ACAD_REACTORS
330
125E
102
}
330
125E
100
AcDbXrecord
280
     1
102
RTVSPost2010Prop28
280
     0
102
RTVSPost2010PropOp28
 70
     1
102
RTVSPost2010Prop29
280
     1
102
RTVSPost2010PropOp29
 70
     1
102
RTVSPost2010Prop30
280
     1
102
RTVSPost2010PropOp30
 70
     1
102
RTVSPost2010Prop31
280
     0
102
RTVSPost2010PropOp31
 70
     1
102
RTVSPost2010Prop32
280
     0
102
RTVSPost2010PropOp32
 70
     1
102
RTVSPost2010Prop33
280
     0
102
RTVSPost2010PropOp33
 70
     1
102
RTVSPost2010Prop34
280
     0
102
RTVSPost2010PropOp34
 70
     1
102
RTVSPost2010Prop35
280
     0
102
RTVSPost2010PropOp35
 70
     1
102
RTVSPost2010Prop36
280
     0
102
RTVSPost2010PropOp36
 70
     1
102
RTVSPost2010Prop37
 90
       50
102
RTVSPost2010PropOp37
 70
     1
102
RTVSPost2010Prop38
140
0.0
102
RTVSPost2010PropOp38
 70
     1
102
RTVSPost2010Prop39
140
1.0
102
RTVSPost2010PropOp39
 70
     1
102
RTVSPost2010Prop40
 90
        0
102
RTVSPost2010PropOp40
 70
     1
102
RTVSPost2010Prop41ColorIndex
 90
       18
102
RTVSPost2010Prop41ColorRGB
 90
        0
102
RTVSPost2010PropOp41
 70
     1
102
RTVSPost2010Prop42
 90
       50
102
RTVSPost2010PropOp42
 70
     1
102
RTVSPost2010Prop43
 90
        3
102
RTVSPost2010PropOp43
 70
     1
102
RTVSPost2010Prop44ColorIndex
 90
        5
102
RTVSPost2010Prop44ColorRGB
 90
      255
102
RTVSPost2010PropOp44
 70
     1
102
RTVSPost2010Prop45
280
     0
102
RTVSPost2010PropOp45
 70
     1
102
RTVSPost2010Prop46
 90
       50
102
RTVSPost2010PropOp46
 70
     1
102
RTVSPost2010Prop47
 90
       50
102
RTVSPost2010PropOp47
 70
     1
102
RTVSPost2010Prop48
 90
       50
102
RTVSPost2010PropOp48
 70
     1
102
RTVSPost2010Prop49
280
     0
102
RTVSPost2010PropOp49
 70
     1
102
RTVSPost2010Prop50
 90
       50
102
RTVSPost2010PropOp50
 70
     1
102
RTVSPost2010Prop51ColorIndex
 90
      256
102
RTVSPost2010Prop51ColorRGB
 90
-16777216
102
RTVSPost2010PropOp51
 70
     0
102
RTVSPost2010Prop52
140
1.0
102
RTVSPost2010PropOp52
 70
     0
102
RTVSPost2010Prop53
 90
        2
102
RTVSPost2010PropOp53
 70
     1
102
RTVSPost2010Prop54
  1
strokes_ogs.tif
102
RTVSPost2010PropOp54
 70
     1
102
RTVSPost2010Prop55
280
     0
102
RTVSPost2010PropOp55
 70
     1
102
RTVSPost2010Prop56
140
1.0
102
RTVSPost2010PropOp56
 70
     1
102
RTVSPost2010Prop57
140
1.0
102
RTVSPost2010PropOp57
 70
     1
102
RTVSPropertyOp0
 70
     1
102
RTVSPropertyOp1
 70
     1
102
RTVSPropertyOp2
 70
     1
102
RTVSPropertyOp3
 70
     1
102
RTVSPropertyOp4
 70
     1
102
RTVSPropertyOp5
 70
     1
102
RTVSPropertyOp6
 70
     1
102
RTVSPropertyOp7
 70
     1
102
RTVSPropertyOp8
 70
     1
102
RTVSPropertyOp9
 70
     1
102
RTVSPropertyOp10
 70
     1
102
RTVSPropertyOp11
 70
     1
102
RTVSPropertyOp12
 70
     1
102
RTVSPropertyOp13
 70
     1
102
RTVSPropertyOp14
 70
     1
102
RTVSPropertyOp15
 70
     1
102
RTVSPropertyOp16
 70
     1
102
RTVSPropertyOp17
 70
     1
102
RTVSPropertyOp18
 70
     1
102
RTVSPropertyOp19
 70
     1
102
RTVSPropertyOp20
 70
     1
102
RTVSPropertyOp21
 70
     1
102
RTVSPropertyOp22
 70
     1
102
RTVSPropertyOp23
 70
     1
102
RTVSPropertyOp24
 70
     1
102
RTVSPropertyOp25
 70
     1
102
RTVSPropertyOp26
 70
     1
102
RTVSPropertyOp27
 70
     1
102
RTVSPropertyOp28
 70
     1
102
RTVSPropertyOp29
 70
     1
102
RTVSPropertyOp30
 70
     1
102
RTVSPropertyOp31
 70
     1
102
RTVSPropertyOp32
 70
     1
102
RTVSPropertyOp33
 70
     1
102
RTVSPropertyOp34
 70
     1
102
RTVSPropertyOp35
 70
     1
102
RTVSPropertyOp36
 70
     1
102
RTVSPropertyOp37
 70
     1
102
RTVSPropertyOp38
 70
     1
102
RTVSPropertyOp39
 70
     1
102
RTVSPropertyOp40
 70
     1
102
RTVSPropertyOp41
 70
     1
102
RTVSPropertyOp42
 70
     1
102
RTVSPropertyOp43
 70
     1
102
RTVSPropertyOp44
 70
     1
102
RTVSPropertyOp45
 70
     1
102
RTVSPropertyOp46
 70
     1
102
RTVSPropertyOp47
 70
     1
102
RTVSPropertyOp48
 70
     1
102
RTVSPropertyOp49
 70
     1
102
RTVSPropertyOp50
 70
     1
102
RTVSPropertyOp51
 70
     0
102
RTVSPropertyOp52
 70
     0
102
RTVSPropertyOp53
 70
     1
102
RTVSPropertyOp54
 70
     1
102
RTVSPropertyOp55
 70
     1
102
RTVSPropertyOp56
 70
     1
102
RTVSPropertyOp57
 70
     1
102
RTVSPropertyOp58
 70
     1
102
RTVSPropertyOp59
 70
     1
102
RTVSPropertyOp60
 70
     1
102
RTVSPropertyOp61
 70
     1
102
RTVSPropertyOp62
 70
     1
  0
XRECORD
  5
1261
102
{ACAD_REACTORS
330
1260
102
}
330
1260
100
AcDbXrecord
280
     1
102
RTVSPost2010Prop28
280
     0
102
RTVSPost2010PropOp28
 70
     1
102
RTVSPost2010Prop29
280
     1
102
RTVSPost2010PropOp29
 70
     1
102
RTVSPost2010Prop30
280
     1
102
RTVSPost2010PropOp30
 70
     1
102
RTVSPost2010Prop31
280
     0
102
RTVSPost2010PropOp31
 70
     1
102
RTVSPost2010Prop32
280
     0
102
RTVSPost2010PropOp32
 70
     1
102
RTVSPost2010Prop33
280
     0
102
RTVSPost2010PropOp33
 70
     1
102
RTVSPost2010Prop34
280
     0
102
RTVSPost2010PropOp34
 70
     1
102
RTVSPost2010Prop35
280
     0
102
RTVSPost2010PropOp35
 70
     1
102
RTVSPost2010Prop36
280
     0
102
RTVSPost2010PropOp36
 70
     1
102
RTVSPost2010Prop37
 90
       50
102
RTVSPost2010PropOp37
 70
     1
102
RTVSPost2010Prop38
140
0.0
102
RTVSPost2010PropOp38
 70
     1
102
RTVSPost2010Prop39
140
1.0
102
RTVSPost2010PropOp39
 70
     1
102
RTVSPost2010Prop40
 90
        0
102
RTVSPost2010PropOp40
 70
     1
102
RTVSPost2010Prop41ColorIndex
 90
       18
102
RTVSPost2010Prop41ColorRGB
 90
        0
102
RTVSPost2010PropOp41
 70
     1
102
RTVSPost2010Prop42
 90
       50
102
RTVSPost2010PropOp42
 70
     1
102
RTVSPost2010Prop43
 90
        3
102
RTVSPost2010PropOp43
 70
     1
102
RTVSPost2010Prop44ColorIndex
 90
        5
102
RTVSPost2010Prop44ColorRGB
 90
      255
102
RTVSPost2010PropOp44
 70
     1
102
RTVSPost2010Prop45
280
     0
102
RTVSPost2010PropOp45
 70
     1
102
RTVSPost2010Prop46
 90
       50
102
RTVSPost2010PropOp46
 70
     1
102
RTVSPost2010Prop47
 90
       50
102
RTVSPost2010PropOp47
 70
     1
102
RTVSPost2010Prop48
 90
       50
102
RTVSPost2010PropOp48
 70
     1
102
RTVSPost2010Prop49
280
     0
102
RTVSPost2010PropOp49
 70
     1
102
RTVSPost2010Prop50
 90
       50
102
RTVSPost2010PropOp50
 70
     1
102
RTVSPost2010Prop51ColorIndex
 90
      256
102
RTVSPost2010Prop51ColorRGB
 90
-16777216
102
RTVSPost2010PropOp51
 70
     0
102
RTVSPost2010Prop52
140
1.0
102
RTVSPost2010PropOp52
 70
     0
102
RTVSPost2010Prop53
 90
        2
102
RTVSPost2010PropOp53
 70
     1
102
RTVSPost2010Prop54
  1
strokes_ogs.tif
102
RTVSPost2010PropOp54
 70
     1
102
RTVSPost2010Prop55
280
     0
102
RTVSPost2010PropOp55
 70
     1
102
RTVSPost2010Prop56
140
1.0
102
RTVSPost2010PropOp56
 70
     1
102
RTVSPost2010Prop57
140
1.0
102
RTVSPost2010PropOp57
 70
     1
102
RTVSPropertyOp0
 70
     1
102
RTVSPropertyOp1
 70
     1
102
RTVSPropertyOp2
 70
     1
102
RTVSPropertyOp3
 70
     1
102
RTVSPropertyOp4
 70
     1
102
RTVSPropertyOp5
 70
     1
102
RTVSPropertyOp6
 70
     1
102
RTVSPropertyOp7
 70
     1
102
RTVSPropertyOp8
 70
     1
102
RTVSPropertyOp9
 70
     1
102
RTVSPropertyOp10
 70
     1
102
RTVSPropertyOp11
 70
     1
102
RTVSPropertyOp12
 70
     1
102
RTVSPropertyOp13
 70
     1
102
RTVSPropertyOp14
 70
     1
102
RTVSPropertyOp15
 70
     1
102
RTVSPropertyOp16
 70
     1
102
RTVSPropertyOp17
 70
     1
102
RTVSPropertyOp18
 70
     1
102
RTVSPropertyOp19
 70
     1
102
RTVSPropertyOp20
 70
     1
102
RTVSPropertyOp21
 70
     1
102
RTVSPropertyOp22
 70
     1
102
RTVSPropertyOp23
 70
     1
102
RTVSPropertyOp24
 70
     1
102
RTVSPropertyOp25
 70
     1
102
RTVSPropertyOp26
 70
     1
102
RTVSPropertyOp27
 70
     1
102
RTVSPropertyOp28
 70
     1
102
RTVSPropertyOp29
 70
     1
102
RTVSPropertyOp30
 70
     1
102
RTVSPropertyOp31
 70
     1
102
RTVSPropertyOp32
 70
     1
102
RTVSPropertyOp33
 70
     1
102
RTVSPropertyOp34
 70
     1
102
RTVSPropertyOp35
 70
     1
102
RTVSPropertyOp36
 70
     1
102
RTVSPropertyOp37
 70
     1
102
RTVSPropertyOp38
 70
     1
102
RTVSPropertyOp39
 70
     1
102
RTVSPropertyOp40
 70
     1
102
RTVSPropertyOp41
 70
     1
102
RTVSPropertyOp42
 70
     1
102
RTVSPropertyOp43
 70
     1
102
RTVSPropertyOp44
 70
     1
102
RTVSPropertyOp45
 70
     1
102
RTVSPropertyOp46
 70
     1
102
RTVSPropertyOp47
 70
     1
102
RTVSPropertyOp48
 70
     1
102
RTVSPropertyOp49
 70
     1
102
RTVSPropertyOp50
 70
     1
102
RTVSPropertyOp51
 70
     0
102
RTVSPropertyOp52
 70
     0
102
RTVSPropertyOp53
 70
     1
102
RTVSPropertyOp54
 70
     1
102
RTVSPropertyOp55
 70
     1
102
RTVSPropertyOp56
 70
     1
102
RTVSPropertyOp57
 70
     1
102
RTVSPropertyOp58
 70
     1
102
RTVSPropertyOp59
 70
     1
102
RTVSPropertyOp60
 70
     1
102
RTVSPropertyOp61
 70
     1
102
RTVSPropertyOp62
 70
     1
  0
XRECORD
  5
1263
102
{ACAD_REACTORS
330
1262
102
}
330
1262
100
AcDbXrecord
280
     1
102
RTVSPost2010Prop28
280
     0
102
RTVSPost2010PropOp28
 70
     1
102
RTVSPost2010Prop29
280
     1
102
RTVSPost2010PropOp29
 70
     1
102
RTVSPost2010Prop30
280
     1
102
RTVSPost2010PropOp30
 70
     1
102
RTVSPost2010Prop31
280
     0
102
RTVSPost2010PropOp31
 70
     1
102
RTVSPost2010Prop32
280
     0
102
RTVSPost2010PropOp32
 70
     1
102
RTVSPost2010Prop33
280
     0
102
RTVSPost2010PropOp33
 70
     1
102
RTVSPost2010Prop34
280
     0
102
RTVSPost2010PropOp34
 70
     1
102
RTVSPost2010Prop35
280
     0
102
RTVSPost2010PropOp35
 70
     1
102
RTVSPost2010Prop36
280
     0
102
RTVSPost2010PropOp36
 70
     1
102
RTVSPost2010Prop37
 90
       50
102
RTVSPost2010PropOp37
 70
     1
102
RTVSPost2010Prop38
140
0.0
102
RTVSPost2010PropOp38
 70
     1
102
RTVSPost2010Prop39
140
1.0
102
RTVSPost2010PropOp39
 70
     1
102
RTVSPost2010Prop40
 90
        0
102
RTVSPost2010PropOp40
 70
     1
102
RTVSPost2010Prop41ColorIndex
 90
       18
102
RTVSPost2010Prop41ColorRGB
 90
        0
102
RTVSPost2010PropOp41
 70
     1
102
RTVSPost2010Prop42
 90
       50
102
RTVSPost2010PropOp42
 70
     1
102
RTVSPost2010Prop43
 90
        3
102
RTVSPost2010PropOp43
 70
     1
102
RTVSPost2010Prop44ColorIndex
 90
        5
102
RTVSPost2010Prop44ColorRGB
 90
      255
102
RTVSPost2010PropOp44
 70
     1
102
RTVSPost2010Prop45
280
     0
102
RTVSPost2010PropOp45
 70
     1
102
RTVSPost2010Prop46
 90
       50
102
RTVSPost2010PropOp46
 70
     1
102
RTVSPost2010Prop47
 90
       50
102
RTVSPost2010PropOp47
 70
     1
102
RTVSPost2010Prop48
 90
       50
102
RTVSPost2010PropOp48
 70
     1
102
RTVSPost2010Prop49
280
     0
102
RTVSPost2010PropOp49
 70
     1
102
RTVSPost2010Prop50
 90
       50
102
RTVSPost2010PropOp50
 70
     1
102
RTVSPost2010Prop51ColorIndex
 90
      256
102
RTVSPost2010Prop51ColorRGB
 90
-16777216
102
RTVSPost2010PropOp51
 70
     0
102
RTVSPost2010Prop52
140
1.0
102
RTVSPost2010PropOp52
 70
     0
102
RTVSPost2010Prop53
 90
        2
102
RTVSPost2010PropOp53
 70
     1
102
RTVSPost2010Prop54
  1
strokes_ogs.tif
102
RTVSPost2010PropOp54
 70
     1
102
RTVSPost2010Prop55
280
     0
102
RTVSPost2010PropOp55
 70
     1
102
RTVSPost2010Prop56
140
1.0
102
RTVSPost2010PropOp56
 70
     1
102
RTVSPost2010Prop57
140
1.0
102
RTVSPost2010PropOp57
 70
     1
102
RTVSPropertyOp0
 70
     1
102
RTVSPropertyOp1
 70
     1
102
RTVSPropertyOp2
 70
     1
102
RTVSPropertyOp3
 70
     1
102
RTVSPropertyOp4
 70
     1
102
RTVSPropertyOp5
 70
     1
102
RTVSPropertyOp6
 70
     1
102
RTVSPropertyOp7
 70
     1
102
RTVSPropertyOp8
 70
     1
102
RTVSPropertyOp9
 70
     1
102
RTVSPropertyOp10
 70
     1
102
RTVSPropertyOp11
 70
     1
102
RTVSPropertyOp12
 70
     1
102
RTVSPropertyOp13
 70
     1
102
RTVSPropertyOp14
 70
     1
102
RTVSPropertyOp15
 70
     1
102
RTVSPropertyOp16
 70
     1
102
RTVSPropertyOp17
 70
     1
102
RTVSPropertyOp18
 70
     1
102
RTVSPropertyOp19
 70
     1
102
RTVSPropertyOp20
 70
     1
102
RTVSPropertyOp21
 70
     1
102
RTVSPropertyOp22
 70
     1
102
RTVSPropertyOp23
 70
     1
102
RTVSPropertyOp24
 70
     1
102
RTVSPropertyOp25
 70
     1
102
RTVSPropertyOp26
 70
     1
102
RTVSPropertyOp27
 70
     1
102
RTVSPropertyOp28
 70
     1
102
RTVSPropertyOp29
 70
     1
102
RTVSPropertyOp30
 70
     1
102
RTVSPropertyOp31
 70
     1
102
RTVSPropertyOp32
 70
     1
102
RTVSPropertyOp33
 70
     1
102
RTVSPropertyOp34
 70
     1
102
RTVSPropertyOp35
 70
     1
102
RTVSPropertyOp36
 70
     1
102
RTVSPropertyOp37
 70
     1
102
RTVSPropertyOp38
 70
     1
102
RTVSPropertyOp39
 70
     1
102
RTVSPropertyOp40
 70
     1
102
RTVSPropertyOp41
 70
     1
102
RTVSPropertyOp42
 70
     1
102
RTVSPropertyOp43
 70
     1
102
RTVSPropertyOp44
 70
     1
102
RTVSPropertyOp45
 70
     1
102
RTVSPropertyOp46
 70
     1
102
RTVSPropertyOp47
 70
     1
102
RTVSPropertyOp48
 70
     1
102
RTVSPropertyOp49
 70
     1
102
RTVSPropertyOp50
 70
     1
102
RTVSPropertyOp51
 70
     0
102
RTVSPropertyOp52
 70
     0
102
RTVSPropertyOp53
 70
     1
102
RTVSPropertyOp54
 70
     1
102
RTVSPropertyOp55
 70
     1
102
RTVSPropertyOp56
 70
     1
102
RTVSPropertyOp57
 70
     1
102
RTVSPropertyOp58
 70
     1
102
RTVSPropertyOp59
 70
     1
102
RTVSPropertyOp60
 70
     1
102
RTVSPropertyOp61
 70
     1
102
RTVSPropertyOp62
 70
     1
  0
XRECORD
  5
1265
102
{ACAD_REACTORS
330
1264
102
}
330
1264
100
AcDbXrecord
280
     1
102
RTVSPost2010Prop28
280
     0
102
RTVSPost2010PropOp28
 70
     1
102
RTVSPost2010Prop29
280
     1
102
RTVSPost2010PropOp29
 70
     1
102
RTVSPost2010Prop30
280
     1
102
RTVSPost2010PropOp30
 70
     1
102
RTVSPost2010Prop31
280
     0
102
RTVSPost2010PropOp31
 70
     1
102
RTVSPost2010Prop32
280
     0
102
RTVSPost2010PropOp32
 70
     1
102
RTVSPost2010Prop33
280
     0
102
RTVSPost2010PropOp33
 70
     1
102
RTVSPost2010Prop34
280
     0
102
RTVSPost2010PropOp34
 70
     1
102
RTVSPost2010Prop35
280
     0
102
RTVSPost2010PropOp35
 70
     1
102
RTVSPost2010Prop36
280
     0
102
RTVSPost2010PropOp36
 70
     1
102
RTVSPost2010Prop37
 90
       50
102
RTVSPost2010PropOp37
 70
     1
102
RTVSPost2010Prop38
140
0.0
102
RTVSPost2010PropOp38
 70
     1
102
RTVSPost2010Prop39
140
1.0
102
RTVSPost2010PropOp39
 70
     1
102
RTVSPost2010Prop40
 90
        0
102
RTVSPost2010PropOp40
 70
     1
102
RTVSPost2010Prop41ColorIndex
 90
       18
102
RTVSPost2010Prop41ColorRGB
 90
        0
102
RTVSPost2010PropOp41
 70
     1
102
RTVSPost2010Prop42
 90
       50
102
RTVSPost2010PropOp42
 70
     1
102
RTVSPost2010Prop43
 90
        3
102
RTVSPost2010PropOp43
 70
     1
102
RTVSPost2010Prop44ColorIndex
 90
        5
102
RTVSPost2010Prop44ColorRGB
 90
      255
102
RTVSPost2010PropOp44
 70
     1
102
RTVSPost2010Prop45
280
     0
102
RTVSPost2010PropOp45
 70
     1
102
RTVSPost2010Prop46
 90
       50
102
RTVSPost2010PropOp46
 70
     1
102
RTVSPost2010Prop47
 90
       50
102
RTVSPost2010PropOp47
 70
     1
102
RTVSPost2010Prop48
 90
       50
102
RTVSPost2010PropOp48
 70
     1
102
RTVSPost2010Prop49
280
     0
102
RTVSPost2010PropOp49
 70
     1
102
RTVSPost2010Prop50
 90
       50
102
RTVSPost2010PropOp50
 70
     1
102
RTVSPost2010Prop51ColorIndex
 90
      256
102
RTVSPost2010Prop51ColorRGB
 90
-16777216
102
RTVSPost2010PropOp51
 70
     0
102
RTVSPost2010Prop52
140
1.0
102
RTVSPost2010PropOp52
 70
     0
102
RTVSPost2010Prop53
 90
        2
102
RTVSPost2010PropOp53
 70
     1
102
RTVSPost2010Prop54
  1
strokes_ogs.tif
102
RTVSPost2010PropOp54
 70
     1
102
RTVSPost2010Prop55
280
     0
102
RTVSPost2010PropOp55
 70
     1
102
RTVSPost2010Prop56
140
1.0
102
RTVSPost2010PropOp56
 70
     1
102
RTVSPost2010Prop57
140
1.0
102
RTVSPost2010PropOp57
 70
     1
102
RTVSPropertyOp0
 70
     1
102
RTVSPropertyOp1
 70
     1
102
RTVSPropertyOp2
 70
     1
102
RTVSPropertyOp3
 70
     1
102
RTVSPropertyOp4
 70
     1
102
RTVSPropertyOp5
 70
     1
102
RTVSPropertyOp6
 70
     1
102
RTVSPropertyOp7
 70
     1
102
RTVSPropertyOp8
 70
     1
102
RTVSPropertyOp9
 70
     1
102
RTVSPropertyOp10
 70
     1
102
RTVSPropertyOp11
 70
     1
102
RTVSPropertyOp12
 70
     1
102
RTVSPropertyOp13
 70
     1
102
RTVSPropertyOp14
 70
     1
102
RTVSPropertyOp15
 70
     1
102
RTVSPropertyOp16
 70
     1
102
RTVSPropertyOp17
 70
     1
102
RTVSPropertyOp18
 70
     1
102
RTVSPropertyOp19
 70
     1
102
RTVSPropertyOp20
 70
     1
102
RTVSPropertyOp21
 70
     1
102
RTVSPropertyOp22
 70
     1
102
RTVSPropertyOp23
 70
     1
102
RTVSPropertyOp24
 70
     1
102
RTVSPropertyOp25
 70
     1
102
RTVSPropertyOp26
 70
     1
102
RTVSPropertyOp27
 70
     1
102
RTVSPropertyOp28
 70
     1
102
RTVSPropertyOp29
 70
     1
102
RTVSPropertyOp30
 70
     1
102
RTVSPropertyOp31
 70
     1
102
RTVSPropertyOp32
 70
     1
102
RTVSPropertyOp33
 70
     1
102
RTVSPropertyOp34
 70
     1
102
RTVSPropertyOp35
 70
     1
102
RTVSPropertyOp36
 70
     1
102
RTVSPropertyOp37
 70
     1
102
RTVSPropertyOp38
 70
     1
102
RTVSPropertyOp39
 70
     1
102
RTVSPropertyOp40
 70
     1
102
RTVSPropertyOp41
 70
     1
102
RTVSPropertyOp42
 70
     1
102
RTVSPropertyOp43
 70
     1
102
RTVSPropertyOp44
 70
     1
102
RTVSPropertyOp45
 70
     1
102
RTVSPropertyOp46
 70
     1
102
RTVSPropertyOp47
 70
     1
102
RTVSPropertyOp48
 70
     1
102
RTVSPropertyOp49
 70
     1
102
RTVSPropertyOp50
 70
     1
102
RTVSPropertyOp51
 70
     0
102
RTVSPropertyOp52
 70
     0
102
RTVSPropertyOp53
 70
     1
102
RTVSPropertyOp54
 70
     1
102
RTVSPropertyOp55
 70
     1
102
RTVSPropertyOp56
 70
     1
102
RTVSPropertyOp57
 70
     1
102
RTVSPropertyOp58
 70
     1
102
RTVSPropertyOp59
 70
     1
102
RTVSPropertyOp60
 70
     1
102
RTVSPropertyOp61
 70
     1
102
RTVSPropertyOp62
 70
     1
  0
XRECORD
  5
1288
102
{ACAD_REACTORS
330
1287
102
}
330
1287
100
AcDbXrecord
280
     1
102
RTVSPost2010Prop28
280
     0
102
RTVSPost2010PropOp28
 70
     1
102
RTVSPost2010Prop29
280
     1
102
RTVSPost2010PropOp29
 70
     1
102
RTVSPost2010Prop30
280
     1
102
RTVSPost2010PropOp30
 70
     1
102
RTVSPost2010Prop31
280
     0
102
RTVSPost2010PropOp31
 70
     1
102
RTVSPost2010Prop32
280
     0
102
RTVSPost2010PropOp32
 70
     1
102
RTVSPost2010Prop33
280
     0
102
RTVSPost2010PropOp33
 70
     1
102
RTVSPost2010Prop34
280
     0
102
RTVSPost2010PropOp34
 70
     1
102
RTVSPost2010Prop35
280
     0
102
RTVSPost2010PropOp35
 70
     1
102
RTVSPost2010Prop36
280
     0
102
RTVSPost2010PropOp36
 70
     1
102
RTVSPost2010Prop37
 90
       50
102
RTVSPost2010PropOp37
 70
     1
102
RTVSPost2010Prop38
140
0.0
102
RTVSPost2010PropOp38
 70
     1
102
RTVSPost2010Prop39
140
1.0
102
RTVSPost2010PropOp39
 70
     1
102
RTVSPost2010Prop40
 90
        0
102
RTVSPost2010PropOp40
 70
     1
102
RTVSPost2010Prop41ColorIndex
 90
       18
102
RTVSPost2010Prop41ColorRGB
 90
        0
102
RTVSPost2010PropOp41
 70
     1
102
RTVSPost2010Prop42
 90
       50
102
RTVSPost2010PropOp42
 70
     1
102
RTVSPost2010Prop43
 90
        3
102
RTVSPost2010PropOp43
 70
     1
102
RTVSPost2010Prop44ColorIndex
 90
        5
102
RTVSPost2010Prop44ColorRGB
 90
      255
102
RTVSPost2010PropOp44
 70
     1
102
RTVSPost2010Prop45
280
     0
102
RTVSPost2010PropOp45
 70
     1
102
RTVSPost2010Prop46
 90
       50
102
RTVSPost2010PropOp46
 70
     1
102
RTVSPost2010Prop47
 90
       50
102
RTVSPost2010PropOp47
 70
     1
102
RTVSPost2010Prop48
 90
       50
102
RTVSPost2010PropOp48
 70
     1
102
RTVSPost2010Prop49
280
     0
102
RTVSPost2010PropOp49
 70
     1
102
RTVSPost2010Prop50
 90
       50
102
RTVSPost2010PropOp50
 70
     1
102
RTVSPost2010Prop51ColorIndex
 90
      256
102
RTVSPost2010Prop51ColorRGB
 90
-16777216
102
RTVSPost2010PropOp51
 70
     0
102
RTVSPost2010Prop52
140
1.0
102
RTVSPost2010PropOp52
 70
     0
102
RTVSPost2010Prop53
 90
        2
102
RTVSPost2010PropOp53
 70
     1
102
RTVSPost2010Prop54
  1
strokes_ogs.tif
102
RTVSPost2010PropOp54
 70
     1
102
RTVSPost2010Prop55
280
     0
102
RTVSPost2010PropOp55
 70
     1
102
RTVSPost2010Prop56
140
1.0
102
RTVSPost2010PropOp56
 70
     1
102
RTVSPost2010Prop57
140
1.0
102
RTVSPost2010PropOp57
 70
     1
102
RTVSPropertyOp0
 70
     1
102
RTVSPropertyOp1
 70
     1
102
RTVSPropertyOp2
 70
     1
102
RTVSPropertyOp3
 70
     1
102
RTVSPropertyOp4
 70
     1
102
RTVSPropertyOp5
 70
     1
102
RTVSPropertyOp6
 70
     1
102
RTVSPropertyOp7
 70
     1
102
RTVSPropertyOp8
 70
     1
102
RTVSPropertyOp9
 70
     1
102
RTVSPropertyOp10
 70
     1
102
RTVSPropertyOp11
 70
     1
102
RTVSPropertyOp12
 70
     1
102
RTVSPropertyOp13
 70
     1
102
RTVSPropertyOp14
 70
     1
102
RTVSPropertyOp15
 70
     1
102
RTVSPropertyOp16
 70
     1
102
RTVSPropertyOp17
 70
     1
102
RTVSPropertyOp18
 70
     1
102
RTVSPropertyOp19
 70
     1
102
RTVSPropertyOp20
 70
     1
102
RTVSPropertyOp21
 70
     1
102
RTVSPropertyOp22
 70
     1
102
RTVSPropertyOp23
 70
     1
102
RTVSPropertyOp24
 70
     1
102
RTVSPropertyOp25
 70
     1
102
RTVSPropertyOp26
 70
     1
102
RTVSPropertyOp27
 70
     1
102
RTVSPropertyOp28
 70
     1
102
RTVSPropertyOp29
 70
     1
102
RTVSPropertyOp30
 70
     1
102
RTVSPropertyOp31
 70
     1
102
RTVSPropertyOp32
 70
     1
102
RTVSPropertyOp33
 70
     1
102
RTVSPropertyOp34
 70
     1
102
RTVSPropertyOp35
 70
     1
102
RTVSPropertyOp36
 70
     1
102
RTVSPropertyOp37
 70
     1
102
RTVSPropertyOp38
 70
     1
102
RTVSPropertyOp39
 70
     1
102
RTVSPropertyOp40
 70
     1
102
RTVSPropertyOp41
 70
     1
102
RTVSPropertyOp42
 70
     1
102
RTVSPropertyOp43
 70
     1
102
RTVSPropertyOp44
 70
     1
102
RTVSPropertyOp45
 70
     1
102
RTVSPropertyOp46
 70
     1
102
RTVSPropertyOp47
 70
     1
102
RTVSPropertyOp48
 70
     1
102
RTVSPropertyOp49
 70
     1
102
RTVSPropertyOp50
 70
     1
102
RTVSPropertyOp51
 70
     0
102
RTVSPropertyOp52
 70
     0
102
RTVSPropertyOp53
 70
     1
102
RTVSPropertyOp54
 70
     1
102
RTVSPropertyOp55
 70
     1
102
RTVSPropertyOp56
 70
     1
102
RTVSPropertyOp57
 70
     1
102
RTVSPropertyOp58
 70
     1
102
RTVSPropertyOp59
 70
     1
102
RTVSPropertyOp60
 70
     1
102
RTVSPropertyOp61
 70
     1
102
RTVSPropertyOp62
 70
     1
  0
XRECORD
  5
1294
102
{ACAD_REACTORS
330
1293
102
}
330
1293
100
AcDbXrecord
280
     1
102
RTVSPost2010Prop28
280
     0
102
RTVSPost2010PropOp28
 70
     0
102
RTVSPost2010Prop29
280
     1
102
RTVSPost2010PropOp29
 70
     0
102
RTVSPost2010Prop30
280
     1
102
RTVSPost2010PropOp30
 70
     0
102
RTVSPost2010Prop31
280
     0
102
RTVSPost2010PropOp31
 70
     0
102
RTVSPost2010Prop32
280
     0
102
RTVSPost2010PropOp32
 70
     0
102
RTVSPost2010Prop33
280
     0
102
RTVSPost2010PropOp33
 70
     0
102
RTVSPost2010Prop34
280
     0
102
RTVSPost2010PropOp34
 70
     0
102
RTVSPost2010Prop35
280
     0
102
RTVSPost2010PropOp35
 70
     0
102
RTVSPost2010Prop36
280
     0
102
RTVSPost2010PropOp36
 70
     0
102
RTVSPost2010Prop37
 90
       50
102
RTVSPost2010PropOp37
 70
     0
102
RTVSPost2010Prop38
140
0.0
102
RTVSPost2010PropOp38
 70
     0
102
RTVSPost2010Prop39
140
1.0
102
RTVSPost2010PropOp39
 70
     0
102
RTVSPost2010Prop40
 90
        0
102
RTVSPost2010PropOp40
 70
     0
102
RTVSPost2010Prop41ColorIndex
 90
       18
102
RTVSPost2010Prop41ColorRGB
 90
        0
102
RTVSPost2010PropOp41
 70
     0
102
RTVSPost2010Prop42
 90
       50
102
RTVSPost2010PropOp42
 70
     0
102
RTVSPost2010Prop43
 90
        3
102
RTVSPost2010PropOp43
 70
     0
102
RTVSPost2010Prop44ColorIndex
 90
        5
102
RTVSPost2010Prop44ColorRGB
 90
      255
102
RTVSPost2010PropOp44
 70
     0
102
RTVSPost2010Prop45
280
     0
102
RTVSPost2010PropOp45
 70
     0
102
RTVSPost2010Prop46
 90
       50
102
RTVSPost2010PropOp46
 70
     0
102
RTVSPost2010Prop47
 90
       50
102
RTVSPost2010PropOp47
 70
     0
102
RTVSPost2010Prop48
 90
       50
102
RTVSPost2010PropOp48
 70
     0
102
RTVSPost2010Prop49
280
     0
102
RTVSPost2010PropOp49
 70
     0
102
RTVSPost2010Prop50
 90
       50
102
RTVSPost2010PropOp50
 70
     0
102
RTVSPost2010Prop51ColorIndex
 90
      256
102
RTVSPost2010Prop51ColorRGB
 90
-16777216
102
RTVSPost2010PropOp51
 70
     0
102
RTVSPost2010Prop52
140
1.0
102
RTVSPost2010PropOp52
 70
     0
102
RTVSPost2010Prop53
 90
        2
102
RTVSPost2010PropOp53
 70
     0
102
RTVSPost2010Prop54
  1
strokes_ogs.tif
102
RTVSPost2010PropOp54
 70
     0
102
RTVSPost2010Prop55
280
     0
102
RTVSPost2010PropOp55
 70
     0
102
RTVSPost2010Prop56
140
1.0
102
RTVSPost2010PropOp56
 70
     0
102
RTVSPost2010Prop57
140
1.0
102
RTVSPost2010PropOp57
 70
     0
102
RTVSPropertyOp0
 70
     0
102
RTVSPropertyOp1
 70
     0
102
RTVSPropertyOp2
 70
     0
102
RTVSPropertyOp3
 70
     0
102
RTVSPropertyOp4
 70
     0
102
RTVSPropertyOp5
 70
     0
102
RTVSPropertyOp6
 70
     0
102
RTVSPropertyOp7
 70
     0
102
RTVSPropertyOp8
 70
     0
102
RTVSPropertyOp9
 70
     0
102
RTVSPropertyOp10
 70
     0
102
RTVSPropertyOp11
 70
     0
102
RTVSPropertyOp12
 70
     0
102
RTVSPropertyOp13
 70
     0
102
RTVSPropertyOp14
 70
     2
102
RTVSPropertyOp15
 70
     0
102
RTVSPropertyOp16
 70
     0
102
RTVSPropertyOp17
 70
     0
102
RTVSPropertyOp18
 70
     0
102
RTVSPropertyOp19
 70
     0
102
RTVSPropertyOp20
 70
     0
102
RTVSPropertyOp21
 70
     0
102
RTVSPropertyOp22
 70
     0
102
RTVSPropertyOp23
 70
     0
102
RTVSPropertyOp24
 70
     0
102
RTVSPropertyOp25
 70
     0
102
RTVSPropertyOp26
 70
     0
102
RTVSPropertyOp27
 70
     0
102
RTVSPropertyOp28
 70
     0
102
RTVSPropertyOp29
 70
     0
102
RTVSPropertyOp30
 70
     0
102
RTVSPropertyOp31
 70
     0
102
RTVSPropertyOp32
 70
     0
102
RTVSPropertyOp33
 70
     0
102
RTVSPropertyOp34
 70
     0
102
RTVSPropertyOp35
 70
     0
102
RTVSPropertyOp36
 70
     0
102
RTVSPropertyOp37
 70
     0
102
RTVSPropertyOp38
 70
     0
102
RTVSPropertyOp39
 70
     0
102
RTVSPropertyOp40
 70
     0
102
RTVSPropertyOp41
 70
     0
102
RTVSPropertyOp42
 70
     0
102
RTVSPropertyOp43
 70
     0
102
RTVSPropertyOp44
 70
     0
102
RTVSPropertyOp45
 70
     0
102
RTVSPropertyOp46
 70
     0
102
RTVSPropertyOp47
 70
     0
102
RTVSPropertyOp48
 70
     0
102
RTVSPropertyOp49
 70
     0
102
RTVSPropertyOp50
 70
     0
102
RTVSPropertyOp51
 70
     0
102
RTVSPropertyOp52
 70
     0
102
RTVSPropertyOp53
 70
     0
102
RTVSPropertyOp54
 70
     0
102
RTVSPropertyOp55
 70
     0
102
RTVSPropertyOp56
 70
     0
102
RTVSPropertyOp57
 70
     0
102
RTVSPropertyOp58
 70
     0
102
RTVSPropertyOp59
 70
     0
102
RTVSPropertyOp60
 70
     0
102
RTVSPropertyOp61
 70
     0
102
RTVSPropertyOp62
 70
     0
  0
XRECORD
  5
1279
102
{ACAD_REACTORS
330
1278
102
}
330
1278
100
AcDbXrecord
280
     1
102
RTVSPost2010Prop28
280
     0
102
RTVSPost2010PropOp28
 70
     1
102
RTVSPost2010Prop29
280
     1
102
RTVSPost2010PropOp29
 70
     1
102
RTVSPost2010Prop30
280
     1
102
RTVSPost2010PropOp30
 70
     1
102
RTVSPost2010Prop31
280
     0
102
RTVSPost2010PropOp31
 70
     1
102
RTVSPost2010Prop32
280
     0
102
RTVSPost2010PropOp32
 70
     1
102
RTVSPost2010Prop33
280
     0
102
RTVSPost2010PropOp33
 70
     1
102
RTVSPost2010Prop34
280
     0
102
RTVSPost2010PropOp34
 70
     1
102
RTVSPost2010Prop35
280
     0
102
RTVSPost2010PropOp35
 70
     1
102
RTVSPost2010Prop36
280
     0
102
RTVSPost2010PropOp36
 70
     1
102
RTVSPost2010Prop37
 90
       50
102
RTVSPost2010PropOp37
 70
     1
102
RTVSPost2010Prop38
140
0.0
102
RTVSPost2010PropOp38
 70
     1
102
RTVSPost2010Prop39
140
1.0
102
RTVSPost2010PropOp39
 70
     1
102
RTVSPost2010Prop40
 90
        0
102
RTVSPost2010PropOp40
 70
     1
102
RTVSPost2010Prop41ColorIndex
 90
       18
102
RTVSPost2010Prop41ColorRGB
 90
        0
102
RTVSPost2010PropOp41
 70
     1
102
RTVSPost2010Prop42
 90
       50
102
RTVSPost2010PropOp42
 70
     1
102
RTVSPost2010Prop43
 90
        3
102
RTVSPost2010PropOp43
 70
     1
102
RTVSPost2010Prop44ColorIndex
 90
        5
102
RTVSPost2010Prop44ColorRGB
 90
      255
102
RTVSPost2010PropOp44
 70
     1
102
RTVSPost2010Prop45
280
     0
102
RTVSPost2010PropOp45
 70
     1
102
RTVSPost2010Prop46
 90
       50
102
RTVSPost2010PropOp46
 70
     1
102
RTVSPost2010Prop47
 90
       50
102
RTVSPost2010PropOp47
 70
     1
102
RTVSPost2010Prop48
 90
       50
102
RTVSPost2010PropOp48
 70
     1
102
RTVSPost2010Prop49
280
     0
102
RTVSPost2010PropOp49
 70
     1
102
RTVSPost2010Prop50
 90
       50
102
RTVSPost2010PropOp50
 70
     1
102
RTVSPost2010Prop51ColorIndex
 90
      256
102
RTVSPost2010Prop51ColorRGB
 90
-16777216
102
RTVSPost2010PropOp51
 70
     0
102
RTVSPost2010Prop52
140
1.0
102
RTVSPost2010PropOp52
 70
     0
102
RTVSPost2010Prop53
 90
        2
102
RTVSPost2010PropOp53
 70
     1
102
RTVSPost2010Prop54
  1
strokes_ogs.tif
102
RTVSPost2010PropOp54
 70
     1
102
RTVSPost2010Prop55
280
     0
102
RTVSPost2010PropOp55
 70
     1
102
RTVSPost2010Prop56
140
1.0
102
RTVSPost2010PropOp56
 70
     1
102
RTVSPost2010Prop57
140
1.0
102
RTVSPost2010PropOp57
 70
     1
102
RTVSPropertyOp0
 70
     1
102
RTVSPropertyOp1
 70
     1
102
RTVSPropertyOp2
 70
     1
102
RTVSPropertyOp3
 70
     1
102
RTVSPropertyOp4
 70
     1
102
RTVSPropertyOp5
 70
     1
102
RTVSPropertyOp6
 70
     1
102
RTVSPropertyOp7
 70
     1
102
RTVSPropertyOp8
 70
     1
102
RTVSPropertyOp9
 70
     1
102
RTVSPropertyOp10
 70
     1
102
RTVSPropertyOp11
 70
     1
102
RTVSPropertyOp12
 70
     1
102
RTVSPropertyOp13
 70
     1
102
RTVSPropertyOp14
 70
     1
102
RTVSPropertyOp15
 70
     1
102
RTVSPropertyOp16
 70
     1
102
RTVSPropertyOp17
 70
     1
102
RTVSPropertyOp18
 70
     1
102
RTVSPropertyOp19
 70
     1
102
RTVSPropertyOp20
 70
     1
102
RTVSPropertyOp21
 70
     1
102
RTVSPropertyOp22
 70
     1
102
RTVSPropertyOp23
 70
     1
102
RTVSPropertyOp24
 70
     1
102
RTVSPropertyOp25
 70
     1
102
RTVSPropertyOp26
 70
     1
102
RTVSPropertyOp27
 70
     1
102
RTVSPropertyOp28
 70
     1
102
RTVSPropertyOp29
 70
     1
102
RTVSPropertyOp30
 70
     1
102
RTVSPropertyOp31
 70
     1
102
RTVSPropertyOp32
 70
     1
102
RTVSPropertyOp33
 70
     1
102
RTVSPropertyOp34
 70
     1
102
RTVSPropertyOp35
 70
     1
102
RTVSPropertyOp36
 70
     1
102
RTVSPropertyOp37
 70
     1
102
RTVSPropertyOp38
 70
     1
102
RTVSPropertyOp39
 70
     1
102
RTVSPropertyOp40
 70
     1
102
RTVSPropertyOp41
 70
     1
102
RTVSPropertyOp42
 70
     1
102
RTVSPropertyOp43
 70
     1
102
RTVSPropertyOp44
 70
     1
102
RTVSPropertyOp45
 70
     1
102
RTVSPropertyOp46
 70
     1
102
RTVSPropertyOp47
 70
     1
102
RTVSPropertyOp48
 70
     1
102
RTVSPropertyOp49
 70
     1
102
RTVSPropertyOp50
 70
     1
102
RTVSPropertyOp51
 70
     0
102
RTVSPropertyOp52
 70
     0
102
RTVSPropertyOp53
 70
     1
102
RTVSPropertyOp54
 70
     1
102
RTVSPropertyOp55
 70
     1
102
RTVSPropertyOp56
 70
     1
102
RTVSPropertyOp57
 70
     1
102
RTVSPropertyOp58
 70
     1
102
RTVSPropertyOp59
 70
     1
102
RTVSPropertyOp60
 70
     1
102
RTVSPropertyOp61
 70
     1
102
RTVSPropertyOp62
 70
     1
  0
XRECORD
  5
1296
102
{ACAD_REACTORS
330
1295
102
}
330
1295
100
AcDbXrecord
280
     1
102
RTVSPost2010Prop28
280
     0
102
RTVSPost2010PropOp28
 70
     0
102
RTVSPost2010Prop29
280
     1
102
RTVSPost2010PropOp29
 70
     0
102
RTVSPost2010Prop30
280
     1
102
RTVSPost2010PropOp30
 70
     0
102
RTVSPost2010Prop31
280
     0
102
RTVSPost2010PropOp31
 70
     0
102
RTVSPost2010Prop32
280
     0
102
RTVSPost2010PropOp32
 70
     0
102
RTVSPost2010Prop33
280
     0
102
RTVSPost2010PropOp33
 70
     0
102
RTVSPost2010Prop34
280
     0
102
RTVSPost2010PropOp34
 70
     0
102
RTVSPost2010Prop35
280
     0
102
RTVSPost2010PropOp35
 70
     0
102
RTVSPost2010Prop36
280
     0
102
RTVSPost2010PropOp36
 70
     0
102
RTVSPost2010Prop37
 90
       50
102
RTVSPost2010PropOp37
 70
     0
102
RTVSPost2010Prop38
140
0.0
102
RTVSPost2010PropOp38
 70
     0
102
RTVSPost2010Prop39
140
1.0
102
RTVSPost2010PropOp39
 70
     0
102
RTVSPost2010Prop40
 90
        0
102
RTVSPost2010PropOp40
 70
     0
102
RTVSPost2010Prop41ColorIndex
 90
       18
102
RTVSPost2010Prop41ColorRGB
 90
        0
102
RTVSPost2010PropOp41
 70
     0
102
RTVSPost2010Prop42
 90
       50
102
RTVSPost2010PropOp42
 70
     0
102
RTVSPost2010Prop43
 90
        3
102
RTVSPost2010PropOp43
 70
     0
102
RTVSPost2010Prop44ColorIndex
 90
        5
102
RTVSPost2010Prop44ColorRGB
 90
      255
102
RTVSPost2010PropOp44
 70
     0
102
RTVSPost2010Prop45
280
     0
102
RTVSPost2010PropOp45
 70
     0
102
RTVSPost2010Prop46
 90
       50
102
RTVSPost2010PropOp46
 70
     0
102
RTVSPost2010Prop47
 90
       50
102
RTVSPost2010PropOp47
 70
     0
102
RTVSPost2010Prop48
 90
       50
102
RTVSPost2010PropOp48
 70
     0
102
RTVSPost2010Prop49
280
     0
102
RTVSPost2010PropOp49
 70
     0
102
RTVSPost2010Prop50
 90
       50
102
RTVSPost2010PropOp50
 70
     0
102
RTVSPost2010Prop51ColorIndex
 90
      256
102
RTVSPost2010Prop51ColorRGB
 90
-16777216
102
RTVSPost2010PropOp51
 70
     0
102
RTVSPost2010Prop52
140
1.0
102
RTVSPost2010PropOp52
 70
     0
102
RTVSPost2010Prop53
 90
        2
102
RTVSPost2010PropOp53
 70
     0
102
RTVSPost2010Prop54
  1
strokes_ogs.tif
102
RTVSPost2010PropOp54
 70
     0
102
RTVSPost2010Prop55
280
     0
102
RTVSPost2010PropOp55
 70
     0
102
RTVSPost2010Prop56
140
1.0
102
RTVSPost2010PropOp56
 70
     0
102
RTVSPost2010Prop57
140
1.0
102
RTVSPost2010PropOp57
 70
     0
102
RTVSPropertyOp0
 70
     0
102
RTVSPropertyOp1
 70
     0
102
RTVSPropertyOp2
 70
     0
102
RTVSPropertyOp3
 70
     0
102
RTVSPropertyOp4
 70
     0
102
RTVSPropertyOp5
 70
     0
102
RTVSPropertyOp6
 70
     0
102
RTVSPropertyOp7
 70
     0
102
RTVSPropertyOp8
 70
     0
102
RTVSPropertyOp9
 70
     0
102
RTVSPropertyOp10
 70
     0
102
RTVSPropertyOp11
 70
     0
102
RTVSPropertyOp12
 70
     0
102
RTVSPropertyOp13
 70
     0
102
RTVSPropertyOp14
 70
     2
102
RTVSPropertyOp15
 70
     0
102
RTVSPropertyOp16
 70
     0
102
RTVSPropertyOp17
 70
     0
102
RTVSPropertyOp18
 70
     0
102
RTVSPropertyOp19
 70
     0
102
RTVSPropertyOp20
 70
     0
102
RTVSPropertyOp21
 70
     0
102
RTVSPropertyOp22
 70
     0
102
RTVSPropertyOp23
 70
     0
102
RTVSPropertyOp24
 70
     0
102
RTVSPropertyOp25
 70
     0
102
RTVSPropertyOp26
 70
     0
102
RTVSPropertyOp27
 70
     0
102
RTVSPropertyOp28
 70
     0
102
RTVSPropertyOp29
 70
     0
102
RTVSPropertyOp30
 70
     0
102
RTVSPropertyOp31
 70
     0
102
RTVSPropertyOp32
 70
     0
102
RTVSPropertyOp33
 70
     0
102
RTVSPropertyOp34
 70
     0
102
RTVSPropertyOp35
 70
     0
102
RTVSPropertyOp36
 70
     0
102
RTVSPropertyOp37
 70
     0
102
RTVSPropertyOp38
 70
     0
102
RTVSPropertyOp39
 70
     0
102
RTVSPropertyOp40
 70
     0
102
RTVSPropertyOp41
 70
     0
102
RTVSPropertyOp42
 70
     0
102
RTVSPropertyOp43
 70
     0
102
RTVSPropertyOp44
 70
     0
102
RTVSPropertyOp45
 70
     0
102
RTVSPropertyOp46
 70
     0
102
RTVSPropertyOp47
 70
     0
102
RTVSPropertyOp48
 70
     0
102
RTVSPropertyOp49
 70
     0
102
RTVSPropertyOp50
 70
     0
102
RTVSPropertyOp51
 70
     0
102
RTVSPropertyOp52
 70
     0
102
RTVSPropertyOp53
 70
     0
102
RTVSPropertyOp54
 70
     0
102
RTVSPropertyOp55
 70
     0
102
RTVSPropertyOp56
 70
     0
102
RTVSPropertyOp57
 70
     0
102
RTVSPropertyOp58
 70
     0
102
RTVSPropertyOp59
 70
     0
102
RTVSPropertyOp60
 70
     0
102
RTVSPropertyOp61
 70
     0
102
RTVSPropertyOp62
 70
     0
  0
XRECORD
  5
1271
102
{ACAD_REACTORS
330
1270
102
}
330
1270
100
AcDbXrecord
280
     1
102
RTVSPost2010Prop28
280
     0
102
RTVSPost2010PropOp28
 70
     1
102
RTVSPost2010Prop29
280
     1
102
RTVSPost2010PropOp29
 70
     1
102
RTVSPost2010Prop30
280
     1
102
RTVSPost2010PropOp30
 70
     1
102
RTVSPost2010Prop31
280
     0
102
RTVSPost2010PropOp31
 70
     1
102
RTVSPost2010Prop32
280
     0
102
RTVSPost2010PropOp32
 70
     1
102
RTVSPost2010Prop33
280
     0
102
RTVSPost2010PropOp33
 70
     1
102
RTVSPost2010Prop34
280
     0
102
RTVSPost2010PropOp34
 70
     1
102
RTVSPost2010Prop35
280
     0
102
RTVSPost2010PropOp35
 70
     1
102
RTVSPost2010Prop36
280
     0
102
RTVSPost2010PropOp36
 70
     1
102
RTVSPost2010Prop37
 90
       50
102
RTVSPost2010PropOp37
 70
     1
102
RTVSPost2010Prop38
140
0.0
102
RTVSPost2010PropOp38
 70
     1
102
RTVSPost2010Prop39
140
1.0
102
RTVSPost2010PropOp39
 70
     1
102
RTVSPost2010Prop40
 90
        0
102
RTVSPost2010PropOp40
 70
     1
102
RTVSPost2010Prop41ColorIndex
 90
       18
102
RTVSPost2010Prop41ColorRGB
 90
        0
102
RTVSPost2010PropOp41
 70
     1
102
RTVSPost2010Prop42
 90
       50
102
RTVSPost2010PropOp42
 70
     1
102
RTVSPost2010Prop43
 90
        3
102
RTVSPost2010PropOp43
 70
     1
102
RTVSPost2010Prop44ColorIndex
 90
        5
102
RTVSPost2010Prop44ColorRGB
 90
      255
102
RTVSPost2010PropOp44
 70
     1
102
RTVSPost2010Prop45
280
     0
102
RTVSPost2010PropOp45
 70
     1
102
RTVSPost2010Prop46
 90
       50
102
RTVSPost2010PropOp46
 70
     1
102
RTVSPost2010Prop47
 90
       50
102
RTVSPost2010PropOp47
 70
     1
102
RTVSPost2010Prop48
 90
       50
102
RTVSPost2010PropOp48
 70
     1
102
RTVSPost2010Prop49
280
     0
102
RTVSPost2010PropOp49
 70
     1
102
RTVSPost2010Prop50
 90
       50
102
RTVSPost2010PropOp50
 70
     1
102
RTVSPost2010Prop51ColorIndex
 90
      256
102
RTVSPost2010Prop51ColorRGB
 90
-16777216
102
RTVSPost2010PropOp51
 70
     0
102
RTVSPost2010Prop52
140
1.0
102
RTVSPost2010PropOp52
 70
     0
102
RTVSPost2010Prop53
 90
        2
102
RTVSPost2010PropOp53
 70
     1
102
RTVSPost2010Prop54
  1
strokes_ogs.tif
102
RTVSPost2010PropOp54
 70
     1
102
RTVSPost2010Prop55
280
     0
102
RTVSPost2010PropOp55
 70
     1
102
RTVSPost2010Prop56
140
1.0
102
RTVSPost2010PropOp56
 70
     1
102
RTVSPost2010Prop57
140
1.0
102
RTVSPost2010PropOp57
 70
     1
102
RTVSPropertyOp0
 70
     1
102
RTVSPropertyOp1
 70
     1
102
RTVSPropertyOp2
 70
     1
102
RTVSPropertyOp3
 70
     1
102
RTVSPropertyOp4
 70
     1
102
RTVSPropertyOp5
 70
     1
102
RTVSPropertyOp6
 70
     1
102
RTVSPropertyOp7
 70
     1
102
RTVSPropertyOp8
 70
     1
102
RTVSPropertyOp9
 70
     1
102
RTVSPropertyOp10
 70
     1
102
RTVSPropertyOp11
 70
     1
102
RTVSPropertyOp12
 70
     1
102
RTVSPropertyOp13
 70
     1
102
RTVSPropertyOp14
 70
     1
102
RTVSPropertyOp15
 70
     1
102
RTVSPropertyOp16
 70
     1
102
RTVSPropertyOp17
 70
     1
102
RTVSPropertyOp18
 70
     1
102
RTVSPropertyOp19
 70
     1
102
RTVSPropertyOp20
 70
     1
102
RTVSPropertyOp21
 70
     1
102
RTVSPropertyOp22
 70
     1
102
RTVSPropertyOp23
 70
     1
102
RTVSPropertyOp24
 70
     1
102
RTVSPropertyOp25
 70
     1
102
RTVSPropertyOp26
 70
     1
102
RTVSPropertyOp27
 70
     1
102
RTVSPropertyOp28
 70
     1
102
RTVSPropertyOp29
 70
     1
102
RTVSPropertyOp30
 70
     1
102
RTVSPropertyOp31
 70
     1
102
RTVSPropertyOp32
 70
     1
102
RTVSPropertyOp33
 70
     1
102
RTVSPropertyOp34
 70
     1
102
RTVSPropertyOp35
 70
     1
102
RTVSPropertyOp36
 70
     1
102
RTVSPropertyOp37
 70
     1
102
RTVSPropertyOp38
 70
     1
102
RTVSPropertyOp39
 70
     1
102
RTVSPropertyOp40
 70
     1
102
RTVSPropertyOp41
 70
     1
102
RTVSPropertyOp42
 70
     1
102
RTVSPropertyOp43
 70
     1
102
RTVSPropertyOp44
 70
     1
102
RTVSPropertyOp45
 70
     1
102
RTVSPropertyOp46
 70
     1
102
RTVSPropertyOp47
 70
     1
102
RTVSPropertyOp48
 70
     1
102
RTVSPropertyOp49
 70
     1
102
RTVSPropertyOp50
 70
     1
102
RTVSPropertyOp51
 70
     0
102
RTVSPropertyOp52
 70
     0
102
RTVSPropertyOp53
 70
     1
102
RTVSPropertyOp54
 70
     1
102
RTVSPropertyOp55
 70
     1
102
RTVSPropertyOp56
 70
     1
102
RTVSPropertyOp57
 70
     1
102
RTVSPropertyOp58
 70
     1
102
RTVSPropertyOp59
 70
     1
102
RTVSPropertyOp60
 70
     1
102
RTVSPropertyOp61
 70
     1
102
RTVSPropertyOp62
 70
     1
  0
XRECORD
  5
1292
102
{ACAD_REACTORS
330
1291
102
}
330
1291
100
AcDbXrecord
280
     1
102
RTVSPost2010Prop28
280
     0
102
RTVSPost2010PropOp28
 70
     1
102
RTVSPost2010Prop29
280
     1
102
RTVSPost2010PropOp29
 70
     1
102
RTVSPost2010Prop30
280
     1
102
RTVSPost2010PropOp30
 70
     1
102
RTVSPost2010Prop31
280
     0
102
RTVSPost2010PropOp31
 70
     1
102
RTVSPost2010Prop32
280
     0
102
RTVSPost2010PropOp32
 70
     1
102
RTVSPost2010Prop33
280
     0
102
RTVSPost2010PropOp33
 70
     1
102
RTVSPost2010Prop34
280
     0
102
RTVSPost2010PropOp34
 70
     1
102
RTVSPost2010Prop35
280
     0
102
RTVSPost2010PropOp35
 70
     1
102
RTVSPost2010Prop36
280
     0
102
RTVSPost2010PropOp36
 70
     1
102
RTVSPost2010Prop37
 90
       50
102
RTVSPost2010PropOp37
 70
     1
102
RTVSPost2010Prop38
140
0.0
102
RTVSPost2010PropOp38
 70
     1
102
RTVSPost2010Prop39
140
1.0
102
RTVSPost2010PropOp39
 70
     1
102
RTVSPost2010Prop40
 90
        0
102
RTVSPost2010PropOp40
 70
     1
102
RTVSPost2010Prop41ColorIndex
 90
       18
102
RTVSPost2010Prop41ColorRGB
 90
        0
102
RTVSPost2010PropOp41
 70
     1
102
RTVSPost2010Prop42
 90
       50
102
RTVSPost2010PropOp42
 70
     1
102
RTVSPost2010Prop43
 90
        3
102
RTVSPost2010PropOp43
 70
     1
102
RTVSPost2010Prop44ColorIndex
 90
        5
102
RTVSPost2010Prop44ColorRGB
 90
      255
102
RTVSPost2010PropOp44
 70
     1
102
RTVSPost2010Prop45
280
     0
102
RTVSPost2010PropOp45
 70
     1
102
RTVSPost2010Prop46
 90
       50
102
RTVSPost2010PropOp46
 70
     1
102
RTVSPost2010Prop47
 90
       50
102
RTVSPost2010PropOp47
 70
     1
102
RTVSPost2010Prop48
 90
       50
102
RTVSPost2010PropOp48
 70
     1
102
RTVSPost2010Prop49
280
     0
102
RTVSPost2010PropOp49
 70
     1
102
RTVSPost2010Prop50
 90
       50
102
RTVSPost2010PropOp50
 70
     1
102
RTVSPost2010Prop51ColorIndex
 90
      256
102
RTVSPost2010Prop51ColorRGB
 90
-16777216
102
RTVSPost2010PropOp51
 70
     0
102
RTVSPost2010Prop52
140
1.0
102
RTVSPost2010PropOp52
 70
     0
102
RTVSPost2010Prop53
 90
        2
102
RTVSPost2010PropOp53
 70
     1
102
RTVSPost2010Prop54
  1
strokes_ogs.tif
102
RTVSPost2010PropOp54
 70
     1
102
RTVSPost2010Prop55
280
     0
102
RTVSPost2010PropOp55
 70
     1
102
RTVSPost2010Prop56
140
1.0
102
RTVSPost2010PropOp56
 70
     1
102
RTVSPost2010Prop57
140
1.0
102
RTVSPost2010PropOp57
 70
     1
102
RTVSPropertyOp0
 70
     1
102
RTVSPropertyOp1
 70
     1
102
RTVSPropertyOp2
 70
     1
102
RTVSPropertyOp3
 70
     1
102
RTVSPropertyOp4
 70
     1
102
RTVSPropertyOp5
 70
     1
102
RTVSPropertyOp6
 70
     1
102
RTVSPropertyOp7
 70
     1
102
RTVSPropertyOp8
 70
     1
102
RTVSPropertyOp9
 70
     1
102
RTVSPropertyOp10
 70
     1
102
RTVSPropertyOp11
 70
     1
102
RTVSPropertyOp12
 70
     1
102
RTVSPropertyOp13
 70
     1
102
RTVSPropertyOp14
 70
     1
102
RTVSPropertyOp15
 70
     1
102
RTVSPropertyOp16
 70
     1
102
RTVSPropertyOp17
 70
     1
102
RTVSPropertyOp18
 70
     1
102
RTVSPropertyOp19
 70
     1
102
RTVSPropertyOp20
 70
     1
102
RTVSPropertyOp21
 70
     1
102
RTVSPropertyOp22
 70
     1
102
RTVSPropertyOp23
 70
     1
102
RTVSPropertyOp24
 70
     1
102
RTVSPropertyOp25
 70
     1
102
RTVSPropertyOp26
 70
     1
102
RTVSPropertyOp27
 70
     1
102
RTVSPropertyOp28
 70
     1
102
RTVSPropertyOp29
 70
     1
102
RTVSPropertyOp30
 70
     1
102
RTVSPropertyOp31
 70
     1
102
RTVSPropertyOp32
 70
     1
102
RTVSPropertyOp33
 70
     1
102
RTVSPropertyOp34
 70
     1
102
RTVSPropertyOp35
 70
     1
102
RTVSPropertyOp36
 70
     1
102
RTVSPropertyOp37
 70
     1
102
RTVSPropertyOp38
 70
     1
102
RTVSPropertyOp39
 70
     1
102
RTVSPropertyOp40
 70
     1
102
RTVSPropertyOp41
 70
     1
102
RTVSPropertyOp42
 70
     1
102
RTVSPropertyOp43
 70
     1
102
RTVSPropertyOp44
 70
     1
102
RTVSPropertyOp45
 70
     1
102
RTVSPropertyOp46
 70
     1
102
RTVSPropertyOp47
 70
     1
102
RTVSPropertyOp48
 70
     1
102
RTVSPropertyOp49
 70
     1
102
RTVSPropertyOp50
 70
     1
102
RTVSPropertyOp51
 70
     0
102
RTVSPropertyOp52
 70
     0
102
RTVSPropertyOp53
 70
     1
102
RTVSPropertyOp54
 70
     1
102
RTVSPropertyOp55
 70
     1
102
RTVSPropertyOp56
 70
     1
102
RTVSPropertyOp57
 70
     1
102
RTVSPropertyOp58
 70
     1
102
RTVSPropertyOp59
 70
     1
102
RTVSPropertyOp60
 70
     1
102
RTVSPropertyOp61
 70
     1
102
RTVSPropertyOp62
 70
     1
  0
XRECORD
  5
1290
102
{ACAD_REACTORS
330
128F
102
}
330
128F
100
AcDbXrecord
280
     1
102
RTVSPost2010Prop28
280
     0
102
RTVSPost2010PropOp28
 70
     1
102
RTVSPost2010Prop29
280
     1
102
RTVSPost2010PropOp29
 70
     1
102
RTVSPost2010Prop30
280
     1
102
RTVSPost2010PropOp30
 70
     1
102
RTVSPost2010Prop31
280
     0
102
RTVSPost2010PropOp31
 70
     1
102
RTVSPost2010Prop32
280
     0
102
RTVSPost2010PropOp32
 70
     1
102
RTVSPost2010Prop33
280
     0
102
RTVSPost2010PropOp33
 70
     1
102
RTVSPost2010Prop34
280
     0
102
RTVSPost2010PropOp34
 70
     1
102
RTVSPost2010Prop35
280
     0
102
RTVSPost2010PropOp35
 70
     1
102
RTVSPost2010Prop36
280
     0
102
RTVSPost2010PropOp36
 70
     1
102
RTVSPost2010Prop37
 90
       50
102
RTVSPost2010PropOp37
 70
     1
102
RTVSPost2010Prop38
140
0.0
102
RTVSPost2010PropOp38
 70
     1
102
RTVSPost2010Prop39
140
1.0
102
RTVSPost2010PropOp39
 70
     1
102
RTVSPost2010Prop40
 90
        0
102
RTVSPost2010PropOp40
 70
     1
102
RTVSPost2010Prop41ColorIndex
 90
       18
102
RTVSPost2010Prop41ColorRGB
 90
        0
102
RTVSPost2010PropOp41
 70
     1
102
RTVSPost2010Prop42
 90
       50
102
RTVSPost2010PropOp42
 70
     1
102
RTVSPost2010Prop43
 90
        3
102
RTVSPost2010PropOp43
 70
     1
102
RTVSPost2010Prop44ColorIndex
 90
        5
102
RTVSPost2010Prop44ColorRGB
 90
      255
102
RTVSPost2010PropOp44
 70
     1
102
RTVSPost2010Prop45
280
     0
102
RTVSPost2010PropOp45
 70
     1
102
RTVSPost2010Prop46
 90
       50
102
RTVSPost2010PropOp46
 70
     1
102
RTVSPost2010Prop47
 90
       50
102
RTVSPost2010PropOp47
 70
     1
102
RTVSPost2010Prop48
 90
       50
102
RTVSPost2010PropOp48
 70
     1
102
RTVSPost2010Prop49
280
     0
102
RTVSPost2010PropOp49
 70
     1
102
RTVSPost2010Prop50
 90
       50
102
RTVSPost2010PropOp50
 70
     1
102
RTVSPost2010Prop51ColorIndex
 90
      256
102
RTVSPost2010Prop51ColorRGB
 90
-16777216
102
RTVSPost2010PropOp51
 70
     0
102
RTVSPost2010Prop52
140
1.0
102
RTVSPost2010PropOp52
 70
     0
102
RTVSPost2010Prop53
 90
        2
102
RTVSPost2010PropOp53
 70
     1
102
RTVSPost2010Prop54
  1
strokes_ogs.tif
102
RTVSPost2010PropOp54
 70
     1
102
RTVSPost2010Prop55
280
     0
102
RTVSPost2010PropOp55
 70
     1
102
RTVSPost2010Prop56
140
1.0
102
RTVSPost2010PropOp56
 70
     1
102
RTVSPost2010Prop57
140
1.0
102
RTVSPost2010PropOp57
 70
     1
102
RTVSPropertyOp0
 70
     1
102
RTVSPropertyOp1
 70
     1
102
RTVSPropertyOp2
 70
     1
102
RTVSPropertyOp3
 70
     1
102
RTVSPropertyOp4
 70
     1
102
RTVSPropertyOp5
 70
     1
102
RTVSPropertyOp6
 70
     1
102
RTVSPropertyOp7
 70
     1
102
RTVSPropertyOp8
 70
     1
102
RTVSPropertyOp9
 70
     1
102
RTVSPropertyOp10
 70
     1
102
RTVSPropertyOp11
 70
     1
102
RTVSPropertyOp12
 70
     1
102
RTVSPropertyOp13
 70
     1
102
RTVSPropertyOp14
 70
     1
102
RTVSPropertyOp15
 70
     1
102
RTVSPropertyOp16
 70
     1
102
RTVSPropertyOp17
 70
     1
102
RTVSPropertyOp18
 70
     1
102
RTVSPropertyOp19
 70
     1
102
RTVSPropertyOp20
 70
     1
102
RTVSPropertyOp21
 70
     1
102
RTVSPropertyOp22
 70
     1
102
RTVSPropertyOp23
 70
     1
102
RTVSPropertyOp24
 70
     1
102
RTVSPropertyOp25
 70
     1
102
RTVSPropertyOp26
 70
     1
102
RTVSPropertyOp27
 70
     1
102
RTVSPropertyOp28
 70
     1
102
RTVSPropertyOp29
 70
     1
102
RTVSPropertyOp30
 70
     1
102
RTVSPropertyOp31
 70
     1
102
RTVSPropertyOp32
 70
     1
102
RTVSPropertyOp33
 70
     1
102
RTVSPropertyOp34
 70
     1
102
RTVSPropertyOp35
 70
     1
102
RTVSPropertyOp36
 70
     1
102
RTVSPropertyOp37
 70
     1
102
RTVSPropertyOp38
 70
     1
102
RTVSPropertyOp39
 70
     1
102
RTVSPropertyOp40
 70
     1
102
RTVSPropertyOp41
 70
     1
102
RTVSPropertyOp42
 70
     1
102
RTVSPropertyOp43
 70
     1
102
RTVSPropertyOp44
 70
     1
102
RTVSPropertyOp45
 70
     1
102
RTVSPropertyOp46
 70
     1
102
RTVSPropertyOp47
 70
     1
102
RTVSPropertyOp48
 70
     1
102
RTVSPropertyOp49
 70
     1
102
RTVSPropertyOp50
 70
     1
102
RTVSPropertyOp51
 70
     0
102
RTVSPropertyOp52
 70
     0
102
RTVSPropertyOp53
 70
     1
102
RTVSPropertyOp54
 70
     1
102
RTVSPropertyOp55
 70
     1
102
RTVSPropertyOp56
 70
     1
102
RTVSPropertyOp57
 70
     1
102
RTVSPropertyOp58
 70
     1
102
RTVSPropertyOp59
 70
     1
102
RTVSPropertyOp60
 70
     1
102
RTVSPropertyOp61
 70
     1
102
RTVSPropertyOp62
 70
     1
  0
XRECORD
  5
128A
102
{ACAD_REACTORS
330
1289
102
}
330
1289
100
AcDbXrecord
280
     1
102
RTVSPost2010Prop28
280
     0
102
RTVSPost2010PropOp28
 70
     1
102
RTVSPost2010Prop29
280
     1
102
RTVSPost2010PropOp29
 70
     1
102
RTVSPost2010Prop30
280
     1
102
RTVSPost2010PropOp30
 70
     1
102
RTVSPost2010Prop31
280
     0
102
RTVSPost2010PropOp31
 70
     1
102
RTVSPost2010Prop32
280
     0
102
RTVSPost2010PropOp32
 70
     1
102
RTVSPost2010Prop33
280
     0
102
RTVSPost2010PropOp33
 70
     1
102
RTVSPost2010Prop34
280
     0
102
RTVSPost2010PropOp34
 70
     1
102
RTVSPost2010Prop35
280
     0
102
RTVSPost2010PropOp35
 70
     1
102
RTVSPost2010Prop36
280
     0
102
RTVSPost2010PropOp36
 70
     1
102
RTVSPost2010Prop37
 90
       50
102
RTVSPost2010PropOp37
 70
     1
102
RTVSPost2010Prop38
140
0.0
102
RTVSPost2010PropOp38
 70
     1
102
RTVSPost2010Prop39
140
1.0
102
RTVSPost2010PropOp39
 70
     1
102
RTVSPost2010Prop40
 90
        0
102
RTVSPost2010PropOp40
 70
     1
102
RTVSPost2010Prop41ColorIndex
 90
       18
102
RTVSPost2010Prop41ColorRGB
 90
        0
102
RTVSPost2010PropOp41
 70
     1
102
RTVSPost2010Prop42
 90
       50
102
RTVSPost2010PropOp42
 70
     1
102
RTVSPost2010Prop43
 90
        3
102
RTVSPost2010PropOp43
 70
     1
102
RTVSPost2010Prop44ColorIndex
 90
        5
102
RTVSPost2010Prop44ColorRGB
 90
      255
102
RTVSPost2010PropOp44
 70
     1
102
RTVSPost2010Prop45
280
     0
102
RTVSPost2010PropOp45
 70
     1
102
RTVSPost2010Prop46
 90
       50
102
RTVSPost2010PropOp46
 70
     1
102
RTVSPost2010Prop47
 90
       50
102
RTVSPost2010PropOp47
 70
     1
102
RTVSPost2010Prop48
 90
       50
102
RTVSPost2010PropOp48
 70
     1
102
RTVSPost2010Prop49
280
     0
102
RTVSPost2010PropOp49
 70
     1
102
RTVSPost2010Prop50
 90
       50
102
RTVSPost2010PropOp50
 70
     1
102
RTVSPost2010Prop51ColorIndex
 90
      256
102
RTVSPost2010Prop51ColorRGB
 90
-16777216
102
RTVSPost2010PropOp51
 70
     0
102
RTVSPost2010Prop52
140
1.0
102
RTVSPost2010PropOp52
 70
     0
102
RTVSPost2010Prop53
 90
        2
102
RTVSPost2010PropOp53
 70
     1
102
RTVSPost2010Prop54
  1
strokes_ogs.tif
102
RTVSPost2010PropOp54
 70
     1
102
RTVSPost2010Prop55
280
     0
102
RTVSPost2010PropOp55
 70
     1
102
RTVSPost2010Prop56
140
1.0
102
RTVSPost2010PropOp56
 70
     1
102
RTVSPost2010Prop57
140
1.0
102
RTVSPost2010PropOp57
 70
     1
102
RTVSPropertyOp0
 70
     1
102
RTVSPropertyOp1
 70
     1
102
RTVSPropertyOp2
 70
     1
102
RTVSPropertyOp3
 70
     1
102
RTVSPropertyOp4
 70
     1
102
RTVSPropertyOp5
 70
     1
102
RTVSPropertyOp6
 70
     1
102
RTVSPropertyOp7
 70
     1
102
RTVSPropertyOp8
 70
     1
102
RTVSPropertyOp9
 70
     1
102
RTVSPropertyOp10
 70
     1
102
RTVSPropertyOp11
 70
     1
102
RTVSPropertyOp12
 70
     1
102
RTVSPropertyOp13
 70
     1
102
RTVSPropertyOp14
 70
     1
102
RTVSPropertyOp15
 70
     1
102
RTVSPropertyOp16
 70
     1
102
RTVSPropertyOp17
 70
     1
102
RTVSPropertyOp18
 70
     1
102
RTVSPropertyOp19
 70
     1
102
RTVSPropertyOp20
 70
     1
102
RTVSPropertyOp21
 70
     1
102
RTVSPropertyOp22
 70
     1
102
RTVSPropertyOp23
 70
     1
102
RTVSPropertyOp24
 70
     1
102
RTVSPropertyOp25
 70
     1
102
RTVSPropertyOp26
 70
     1
102
RTVSPropertyOp27
 70
     1
102
RTVSPropertyOp28
 70
     1
102
RTVSPropertyOp29
 70
     1
102
RTVSPropertyOp30
 70
     1
102
RTVSPropertyOp31
 70
     1
102
RTVSPropertyOp32
 70
     1
102
RTVSPropertyOp33
 70
     1
102
RTVSPropertyOp34
 70
     1
102
RTVSPropertyOp35
 70
     1
102
RTVSPropertyOp36
 70
     1
102
RTVSPropertyOp37
 70
     1
102
RTVSPropertyOp38
 70
     1
102
RTVSPropertyOp39
 70
     1
102
RTVSPropertyOp40
 70
     1
102
RTVSPropertyOp41
 70
     1
102
RTVSPropertyOp42
 70
     1
102
RTVSPropertyOp43
 70
     1
102
RTVSPropertyOp44
 70
     1
102
RTVSPropertyOp45
 70
     1
102
RTVSPropertyOp46
 70
     1
102
RTVSPropertyOp47
 70
     1
102
RTVSPropertyOp48
 70
     1
102
RTVSPropertyOp49
 70
     1
102
RTVSPropertyOp50
 70
     1
102
RTVSPropertyOp51
 70
     0
102
RTVSPropertyOp52
 70
     0
102
RTVSPropertyOp53
 70
     1
102
RTVSPropertyOp54
 70
     1
102
RTVSPropertyOp55
 70
     1
102
RTVSPropertyOp56
 70
     1
102
RTVSPropertyOp57
 70
     1
102
RTVSPropertyOp58
 70
     1
102
RTVSPropertyOp59
 70
     1
102
RTVSPropertyOp60
 70
     1
102
RTVSPropertyOp61
 70
     1
102
RTVSPropertyOp62
 70
     1
  0
XRECORD
  5
128C
102
{ACAD_REACTORS
330
128B
102
}
330
128B
100
AcDbXrecord
280
     1
102
RTVSPost2010Prop28
280
     0
102
RTVSPost2010PropOp28
 70
     1
102
RTVSPost2010Prop29
280
     1
102
RTVSPost2010PropOp29
 70
     1
102
RTVSPost2010Prop30
280
     1
102
RTVSPost2010PropOp30
 70
     1
102
RTVSPost2010Prop31
280
     0
102
RTVSPost2010PropOp31
 70
     1
102
RTVSPost2010Prop32
280
     0
102
RTVSPost2010PropOp32
 70
     1
102
RTVSPost2010Prop33
280
     0
102
RTVSPost2010PropOp33
 70
     1
102
RTVSPost2010Prop34
280
     0
102
RTVSPost2010PropOp34
 70
     1
102
RTVSPost2010Prop35
280
     0
102
RTVSPost2010PropOp35
 70
     1
102
RTVSPost2010Prop36
280
     0
102
RTVSPost2010PropOp36
 70
     1
102
RTVSPost2010Prop37
 90
       50
102
RTVSPost2010PropOp37
 70
     1
102
RTVSPost2010Prop38
140
0.0
102
RTVSPost2010PropOp38
 70
     1
102
RTVSPost2010Prop39
140
1.0
102
RTVSPost2010PropOp39
 70
     1
102
RTVSPost2010Prop40
 90
        0
102
RTVSPost2010PropOp40
 70
     1
102
RTVSPost2010Prop41ColorIndex
 90
       18
102
RTVSPost2010Prop41ColorRGB
 90
        0
102
RTVSPost2010PropOp41
 70
     1
102
RTVSPost2010Prop42
 90
       50
102
RTVSPost2010PropOp42
 70
     1
102
RTVSPost2010Prop43
 90
        3
102
RTVSPost2010PropOp43
 70
     1
102
RTVSPost2010Prop44ColorIndex
 90
        5
102
RTVSPost2010Prop44ColorRGB
 90
      255
102
RTVSPost2010PropOp44
 70
     1
102
RTVSPost2010Prop45
280
     0
102
RTVSPost2010PropOp45
 70
     1
102
RTVSPost2010Prop46
 90
       50
102
RTVSPost2010PropOp46
 70
     1
102
RTVSPost2010Prop47
 90
       50
102
RTVSPost2010PropOp47
 70
     1
102
RTVSPost2010Prop48
 90
       50
102
RTVSPost2010PropOp48
 70
     1
102
RTVSPost2010Prop49
280
     0
102
RTVSPost2010PropOp49
 70
     1
102
RTVSPost2010Prop50
 90
       50
102
RTVSPost2010PropOp50
 70
     1
102
RTVSPost2010Prop51ColorIndex
 90
      256
102
RTVSPost2010Prop51ColorRGB
 90
-16777216
102
RTVSPost2010PropOp51
 70
     0
102
RTVSPost2010Prop52
140
1.0
102
RTVSPost2010PropOp52
 70
     0
102
RTVSPost2010Prop53
 90
        2
102
RTVSPost2010PropOp53
 70
     1
102
RTVSPost2010Prop54
  1
strokes_ogs.tif
102
RTVSPost2010PropOp54
 70
     1
102
RTVSPost2010Prop55
280
     0
102
RTVSPost2010PropOp55
 70
     1
102
RTVSPost2010Prop56
140
1.0
102
RTVSPost2010PropOp56
 70
     1
102
RTVSPost2010Prop57
140
1.0
102
RTVSPost2010PropOp57
 70
     1
102
RTVSPropertyOp0
 70
     1
102
RTVSPropertyOp1
 70
     1
102
RTVSPropertyOp2
 70
     1
102
RTVSPropertyOp3
 70
     1
102
RTVSPropertyOp4
 70
     1
102
RTVSPropertyOp5
 70
     1
102
RTVSPropertyOp6
 70
     1
102
RTVSPropertyOp7
 70
     1
102
RTVSPropertyOp8
 70
     1
102
RTVSPropertyOp9
 70
     1
102
RTVSPropertyOp10
 70
     1
102
RTVSPropertyOp11
 70
     1
102
RTVSPropertyOp12
 70
     1
102
RTVSPropertyOp13
 70
     1
102
RTVSPropertyOp14
 70
     1
102
RTVSPropertyOp15
 70
     1
102
RTVSPropertyOp16
 70
     1
102
RTVSPropertyOp17
 70
     1
102
RTVSPropertyOp18
 70
     1
102
RTVSPropertyOp19
 70
     1
102
RTVSPropertyOp20
 70
     1
102
RTVSPropertyOp21
 70
     1
102
RTVSPropertyOp22
 70
     1
102
RTVSPropertyOp23
 70
     1
102
RTVSPropertyOp24
 70
     1
102
RTVSPropertyOp25
 70
     1
102
RTVSPropertyOp26
 70
     1
102
RTVSPropertyOp27
 70
     1
102
RTVSPropertyOp28
 70
     1
102
RTVSPropertyOp29
 70
     1
102
RTVSPropertyOp30
 70
     1
102
RTVSPropertyOp31
 70
     1
102
RTVSPropertyOp32
 70
     1
102
RTVSPropertyOp33
 70
     1
102
RTVSPropertyOp34
 70
     1
102
RTVSPropertyOp35
 70
     1
102
RTVSPropertyOp36
 70
     1
102
RTVSPropertyOp37
 70
     1
102
RTVSPropertyOp38
 70
     1
102
RTVSPropertyOp39
 70
     1
102
RTVSPropertyOp40
 70
     1
102
RTVSPropertyOp41
 70
     1
102
RTVSPropertyOp42
 70
     1
102
RTVSPropertyOp43
 70
     1
102
RTVSPropertyOp44
 70
     1
102
RTVSPropertyOp45
 70
     1
102
RTVSPropertyOp46
 70
     1
102
RTVSPropertyOp47
 70
     1
102
RTVSPropertyOp48
 70
     1
102
RTVSPropertyOp49
 70
     1
102
RTVSPropertyOp50
 70
     1
102
RTVSPropertyOp51
 70
     0
102
RTVSPropertyOp52
 70
     0
102
RTVSPropertyOp53
 70
     1
102
RTVSPropertyOp54
 70
     1
102
RTVSPropertyOp55
 70
     1
102
RTVSPropertyOp56
 70
     1
102
RTVSPropertyOp57
 70
     1
102
RTVSPropertyOp58
 70
     1
102
RTVSPropertyOp59
 70
     1
102
RTVSPropertyOp60
 70
     1
102
RTVSPropertyOp61
 70
     1
102
RTVSPropertyOp62
 70
     1
  0
XRECORD
  5
1277
102
{ACAD_REACTORS
330
1276
102
}
330
1276
100
AcDbXrecord
280
     1
102
RTVSPost2010Prop28
280
     0
102
RTVSPost2010PropOp28
 70
     1
102
RTVSPost2010Prop29
280
     1
102
RTVSPost2010PropOp29
 70
     1
102
RTVSPost2010Prop30
280
     1
102
RTVSPost2010PropOp30
 70
     1
102
RTVSPost2010Prop31
280
     0
102
RTVSPost2010PropOp31
 70
     1
102
RTVSPost2010Prop32
280
     0
102
RTVSPost2010PropOp32
 70
     1
102
RTVSPost2010Prop33
280
     0
102
RTVSPost2010PropOp33
 70
     1
102
RTVSPost2010Prop34
280
     0
102
RTVSPost2010PropOp34
 70
     1
102
RTVSPost2010Prop35
280
     0
102
RTVSPost2010PropOp35
 70
     1
102
RTVSPost2010Prop36
280
     0
102
RTVSPost2010PropOp36
 70
     1
102
RTVSPost2010Prop37
 90
       50
102
RTVSPost2010PropOp37
 70
     1
102
RTVSPost2010Prop38
140
0.0
102
RTVSPost2010PropOp38
 70
     1
102
RTVSPost2010Prop39
140
1.0
102
RTVSPost2010PropOp39
 70
     1
102
RTVSPost2010Prop40
 90
        0
102
RTVSPost2010PropOp40
 70
     1
102
RTVSPost2010Prop41ColorIndex
 90
       18
102
RTVSPost2010Prop41ColorRGB
 90
        0
102
RTVSPost2010PropOp41
 70
     1
102
RTVSPost2010Prop42
 90
       50
102
RTVSPost2010PropOp42
 70
     1
102
RTVSPost2010Prop43
 90
        3
102
RTVSPost2010PropOp43
 70
     1
102
RTVSPost2010Prop44ColorIndex
 90
        5
102
RTVSPost2010Prop44ColorRGB
 90
      255
102
RTVSPost2010PropOp44
 70
     1
102
RTVSPost2010Prop45
280
     0
102
RTVSPost2010PropOp45
 70
     1
102
RTVSPost2010Prop46
 90
       50
102
RTVSPost2010PropOp46
 70
     1
102
RTVSPost2010Prop47
 90
       50
102
RTVSPost2010PropOp47
 70
     1
102
RTVSPost2010Prop48
 90
       50
102
RTVSPost2010PropOp48
 70
     1
102
RTVSPost2010Prop49
280
     0
102
RTVSPost2010PropOp49
 70
     1
102
RTVSPost2010Prop50
 90
       50
102
RTVSPost2010PropOp50
 70
     1
102
RTVSPost2010Prop51ColorIndex
 90
      256
102
RTVSPost2010Prop51ColorRGB
 90
-16777216
102
RTVSPost2010PropOp51
 70
     0
102
RTVSPost2010Prop52
140
1.0
102
RTVSPost2010PropOp52
 70
     0
102
RTVSPost2010Prop53
 90
        2
102
RTVSPost2010PropOp53
 70
     1
102
RTVSPost2010Prop54
  1
strokes_ogs.tif
102
RTVSPost2010PropOp54
 70
     1
102
RTVSPost2010Prop55
280
     0
102
RTVSPost2010PropOp55
 70
     1
102
RTVSPost2010Prop56
140
1.0
102
RTVSPost2010PropOp56
 70
     1
102
RTVSPost2010Prop57
140
1.0
102
RTVSPost2010PropOp57
 70
     1
102
RTVSPropertyOp0
 70
     1
102
RTVSPropertyOp1
 70
     1
102
RTVSPropertyOp2
 70
     1
102
RTVSPropertyOp3
 70
     1
102
RTVSPropertyOp4
 70
     1
102
RTVSPropertyOp5
 70
     1
102
RTVSPropertyOp6
 70
     1
102
RTVSPropertyOp7
 70
     1
102
RTVSPropertyOp8
 70
     1
102
RTVSPropertyOp9
 70
     1
102
RTVSPropertyOp10
 70
     1
102
RTVSPropertyOp11
 70
     1
102
RTVSPropertyOp12
 70
     1
102
RTVSPropertyOp13
 70
     1
102
RTVSPropertyOp14
 70
     1
102
RTVSPropertyOp15
 70
     1
102
RTVSPropertyOp16
 70
     1
102
RTVSPropertyOp17
 70
     1
102
RTVSPropertyOp18
 70
     1
102
RTVSPropertyOp19
 70
     1
102
RTVSPropertyOp20
 70
     1
102
RTVSPropertyOp21
 70
     1
102
RTVSPropertyOp22
 70
     1
102
RTVSPropertyOp23
 70
     1
102
RTVSPropertyOp24
 70
     1
102
RTVSPropertyOp25
 70
     1
102
RTVSPropertyOp26
 70
     1
102
RTVSPropertyOp27
 70
     1
102
RTVSPropertyOp28
 70
     1
102
RTVSPropertyOp29
 70
     1
102
RTVSPropertyOp30
 70
     1
102
RTVSPropertyOp31
 70
     1
102
RTVSPropertyOp32
 70
     1
102
RTVSPropertyOp33
 70
     1
102
RTVSPropertyOp34
 70
     1
102
RTVSPropertyOp35
 70
     1
102
RTVSPropertyOp36
 70
     1
102
RTVSPropertyOp37
 70
     1
102
RTVSPropertyOp38
 70
     1
102
RTVSPropertyOp39
 70
     1
102
RTVSPropertyOp40
 70
     1
102
RTVSPropertyOp41
 70
     1
102
RTVSPropertyOp42
 70
     1
102
RTVSPropertyOp43
 70
     1
102
RTVSPropertyOp44
 70
     1
102
RTVSPropertyOp45
 70
     1
102
RTVSPropertyOp46
 70
     1
102
RTVSPropertyOp47
 70
     1
102
RTVSPropertyOp48
 70
     1
102
RTVSPropertyOp49
 70
     1
102
RTVSPropertyOp50
 70
     1
102
RTVSPropertyOp51
 70
     0
102
RTVSPropertyOp52
 70
     0
102
RTVSPropertyOp53
 70
     1
102
RTVSPropertyOp54
 70
     1
102
RTVSPropertyOp55
 70
     1
102
RTVSPropertyOp56
 70
     1
102
RTVSPropertyOp57
 70
     1
102
RTVSPropertyOp58
 70
     1
102
RTVSPropertyOp59
 70
     1
102
RTVSPropertyOp60
 70
     1
102
RTVSPropertyOp61
 70
     1
102
RTVSPropertyOp62
 70
     1
  0
XRECORD
  5
1286
102
{ACAD_REACTORS
330
1285
102
}
330
1285
100
AcDbXrecord
280
     1
102
RTVSPost2010Prop28
280
     0
102
RTVSPost2010PropOp28
 70
     1
102
RTVSPost2010Prop29
280
     1
102
RTVSPost2010PropOp29
 70
     1
102
RTVSPost2010Prop30
280
     1
102
RTVSPost2010PropOp30
 70
     1
102
RTVSPost2010Prop31
280
     0
102
RTVSPost2010PropOp31
 70
     1
102
RTVSPost2010Prop32
280
     0
102
RTVSPost2010PropOp32
 70
     1
102
RTVSPost2010Prop33
280
     0
102
RTVSPost2010PropOp33
 70
     1
102
RTVSPost2010Prop34
280
     0
102
RTVSPost2010PropOp34
 70
     1
102
RTVSPost2010Prop35
280
     0
102
RTVSPost2010PropOp35
 70
     1
102
RTVSPost2010Prop36
280
     0
102
RTVSPost2010PropOp36
 70
     1
102
RTVSPost2010Prop37
 90
       50
102
RTVSPost2010PropOp37
 70
     1
102
RTVSPost2010Prop38
140
0.0
102
RTVSPost2010PropOp38
 70
     1
102
RTVSPost2010Prop39
140
1.0
102
RTVSPost2010PropOp39
 70
     1
102
RTVSPost2010Prop40
 90
        0
102
RTVSPost2010PropOp40
 70
     1
102
RTVSPost2010Prop41ColorIndex
 90
       18
102
RTVSPost2010Prop41ColorRGB
 90
        0
102
RTVSPost2010PropOp41
 70
     1
102
RTVSPost2010Prop42
 90
       50
102
RTVSPost2010PropOp42
 70
     1
102
RTVSPost2010Prop43
 90
        3
102
RTVSPost2010PropOp43
 70
     1
102
RTVSPost2010Prop44ColorIndex
 90
        5
102
RTVSPost2010Prop44ColorRGB
 90
      255
102
RTVSPost2010PropOp44
 70
     1
102
RTVSPost2010Prop45
280
     0
102
RTVSPost2010PropOp45
 70
     1
102
RTVSPost2010Prop46
 90
       50
102
RTVSPost2010PropOp46
 70
     1
102
RTVSPost2010Prop47
 90
       50
102
RTVSPost2010PropOp47
 70
     1
102
RTVSPost2010Prop48
 90
       50
102
RTVSPost2010PropOp48
 70
     1
102
RTVSPost2010Prop49
280
     0
102
RTVSPost2010PropOp49
 70
     1
102
RTVSPost2010Prop50
 90
       50
102
RTVSPost2010PropOp50
 70
     1
102
RTVSPost2010Prop51ColorIndex
 90
      256
102
RTVSPost2010Prop51ColorRGB
 90
-16777216
102
RTVSPost2010PropOp51
 70
     0
102
RTVSPost2010Prop52
140
1.0
102
RTVSPost2010PropOp52
 70
     0
102
RTVSPost2010Prop53
 90
        2
102
RTVSPost2010PropOp53
 70
     1
102
RTVSPost2010Prop54
  1
strokes_ogs.tif
102
RTVSPost2010PropOp54
 70
     1
102
RTVSPost2010Prop55
280
     0
102
RTVSPost2010PropOp55
 70
     1
102
RTVSPost2010Prop56
140
1.0
102
RTVSPost2010PropOp56
 70
     1
102
RTVSPost2010Prop57
140
1.0
102
RTVSPost2010PropOp57
 70
     1
102
RTVSPropertyOp0
 70
     1
102
RTVSPropertyOp1
 70
     1
102
RTVSPropertyOp2
 70
     1
102
RTVSPropertyOp3
 70
     1
102
RTVSPropertyOp4
 70
     1
102
RTVSPropertyOp5
 70
     1
102
RTVSPropertyOp6
 70
     1
102
RTVSPropertyOp7
 70
     1
102
RTVSPropertyOp8
 70
     1
102
RTVSPropertyOp9
 70
     1
102
RTVSPropertyOp10
 70
     1
102
RTVSPropertyOp11
 70
     1
102
RTVSPropertyOp12
 70
     1
102
RTVSPropertyOp13
 70
     1
102
RTVSPropertyOp14
 70
     1
102
RTVSPropertyOp15
 70
     1
102
RTVSPropertyOp16
 70
     1
102
RTVSPropertyOp17
 70
     1
102
RTVSPropertyOp18
 70
     1
102
RTVSPropertyOp19
 70
     1
102
RTVSPropertyOp20
 70
     1
102
RTVSPropertyOp21
 70
     1
102
RTVSPropertyOp22
 70
     1
102
RTVSPropertyOp23
 70
     1
102
RTVSPropertyOp24
 70
     1
102
RTVSPropertyOp25
 70
     1
102
RTVSPropertyOp26
 70
     1
102
RTVSPropertyOp27
 70
     1
102
RTVSPropertyOp28
 70
     1
102
RTVSPropertyOp29
 70
     1
102
RTVSPropertyOp30
 70
     1
102
RTVSPropertyOp31
 70
     1
102
RTVSPropertyOp32
 70
     1
102
RTVSPropertyOp33
 70
     1
102
RTVSPropertyOp34
 70
     1
102
RTVSPropertyOp35
 70
     1
102
RTVSPropertyOp36
 70
     1
102
RTVSPropertyOp37
 70
     1
102
RTVSPropertyOp38
 70
     1
102
RTVSPropertyOp39
 70
     1
102
RTVSPropertyOp40
 70
     1
102
RTVSPropertyOp41
 70
     1
102
RTVSPropertyOp42
 70
     1
102
RTVSPropertyOp43
 70
     1
102
RTVSPropertyOp44
 70
     1
102
RTVSPropertyOp45
 70
     1
102
RTVSPropertyOp46
 70
     1
102
RTVSPropertyOp47
 70
     1
102
RTVSPropertyOp48
 70
     1
102
RTVSPropertyOp49
 70
     1
102
RTVSPropertyOp50
 70
     1
102
RTVSPropertyOp51
 70
     0
102
RTVSPropertyOp52
 70
     0
102
RTVSPropertyOp53
 70
     1
102
RTVSPropertyOp54
 70
     1
102
RTVSPropertyOp55
 70
     1
102
RTVSPropertyOp56
 70
     1
102
RTVSPropertyOp57
 70
     1
102
RTVSPropertyOp58
 70
     1
102
RTVSPropertyOp59
 70
     1
102
RTVSPropertyOp60
 70
     1
102
RTVSPropertyOp61
 70
     1
102
RTVSPropertyOp62
 70
     1
  0
XRECORD
  5
128E
102
{ACAD_REACTORS
330
128D
102
}
330
128D
100
AcDbXrecord
280
     1
102
RTVSPost2010Prop28
280
     0
102
RTVSPost2010PropOp28
 70
     1
102
RTVSPost2010Prop29
280
     1
102
RTVSPost2010PropOp29
 70
     1
102
RTVSPost2010Prop30
280
     1
102
RTVSPost2010PropOp30
 70
     1
102
RTVSPost2010Prop31
280
     0
102
RTVSPost2010PropOp31
 70
     1
102
RTVSPost2010Prop32
280
     0
102
RTVSPost2010PropOp32
 70
     1
102
RTVSPost2010Prop33
280
     0
102
RTVSPost2010PropOp33
 70
     1
102
RTVSPost2010Prop34
280
     0
102
RTVSPost2010PropOp34
 70
     1
102
RTVSPost2010Prop35
280
     0
102
RTVSPost2010PropOp35
 70
     1
102
RTVSPost2010Prop36
280
     0
102
RTVSPost2010PropOp36
 70
     1
102
RTVSPost2010Prop37
 90
       50
102
RTVSPost2010PropOp37
 70
     1
102
RTVSPost2010Prop38
140
0.0
102
RTVSPost2010PropOp38
 70
     1
102
RTVSPost2010Prop39
140
1.0
102
RTVSPost2010PropOp39
 70
     1
102
RTVSPost2010Prop40
 90
        0
102
RTVSPost2010PropOp40
 70
     1
102
RTVSPost2010Prop41ColorIndex
 90
       18
102
RTVSPost2010Prop41ColorRGB
 90
        0
102
RTVSPost2010PropOp41
 70
     1
102
RTVSPost2010Prop42
 90
       50
102
RTVSPost2010PropOp42
 70
     1
102
RTVSPost2010Prop43
 90
        3
102
RTVSPost2010PropOp43
 70
     1
102
RTVSPost2010Prop44ColorIndex
 90
        5
102
RTVSPost2010Prop44ColorRGB
 90
      255
102
RTVSPost2010PropOp44
 70
     1
102
RTVSPost2010Prop45
280
     0
102
RTVSPost2010PropOp45
 70
     1
102
RTVSPost2010Prop46
 90
       50
102
RTVSPost2010PropOp46
 70
     1
102
RTVSPost2010Prop47
 90
       50
102
RTVSPost2010PropOp47
 70
     1
102
RTVSPost2010Prop48
 90
       50
102
RTVSPost2010PropOp48
 70
     1
102
RTVSPost2010Prop49
280
     0
102
RTVSPost2010PropOp49
 70
     1
102
RTVSPost2010Prop50
 90
       50
102
RTVSPost2010PropOp50
 70
     1
102
RTVSPost2010Prop51ColorIndex
 90
      256
102
RTVSPost2010Prop51ColorRGB
 90
-16777216
102
RTVSPost2010PropOp51
 70
     0
102
RTVSPost2010Prop52
140
1.0
102
RTVSPost2010PropOp52
 70
     0
102
RTVSPost2010Prop53
 90
        2
102
RTVSPost2010PropOp53
 70
     1
102
RTVSPost2010Prop54
  1
strokes_ogs.tif
102
RTVSPost2010PropOp54
 70
     1
102
RTVSPost2010Prop55
280
     0
102
RTVSPost2010PropOp55
 70
     1
102
RTVSPost2010Prop56
140
1.0
102
RTVSPost2010PropOp56
 70
     1
102
RTVSPost2010Prop57
140
1.0
102
RTVSPost2010PropOp57
 70
     1
102
RTVSPropertyOp0
 70
     1
102
RTVSPropertyOp1
 70
     1
102
RTVSPropertyOp2
 70
     1
102
RTVSPropertyOp3
 70
     1
102
RTVSPropertyOp4
 70
     1
102
RTVSPropertyOp5
 70
     1
102
RTVSPropertyOp6
 70
     1
102
RTVSPropertyOp7
 70
     1
102
RTVSPropertyOp8
 70
     1
102
RTVSPropertyOp9
 70
     1
102
RTVSPropertyOp10
 70
     1
102
RTVSPropertyOp11
 70
     1
102
RTVSPropertyOp12
 70
     1
102
RTVSPropertyOp13
 70
     1
102
RTVSPropertyOp14
 70
     1
102
RTVSPropertyOp15
 70
     1
102
RTVSPropertyOp16
 70
     1
102
RTVSPropertyOp17
 70
     1
102
RTVSPropertyOp18
 70
     1
102
RTVSPropertyOp19
 70
     1
102
RTVSPropertyOp20
 70
     1
102
RTVSPropertyOp21
 70
     1
102
RTVSPropertyOp22
 70
     1
102
RTVSPropertyOp23
 70
     1
102
RTVSPropertyOp24
 70
     1
102
RTVSPropertyOp25
 70
     1
102
RTVSPropertyOp26
 70
     1
102
RTVSPropertyOp27
 70
     1
102
RTVSPropertyOp28
 70
     1
102
RTVSPropertyOp29
 70
     1
102
RTVSPropertyOp30
 70
     1
102
RTVSPropertyOp31
 70
     1
102
RTVSPropertyOp32
 70
     1
102
RTVSPropertyOp33
 70
     1
102
RTVSPropertyOp34
 70
     1
102
RTVSPropertyOp35
 70
     1
102
RTVSPropertyOp36
 70
     1
102
RTVSPropertyOp37
 70
     1
102
RTVSPropertyOp38
 70
     1
102
RTVSPropertyOp39
 70
     1
102
RTVSPropertyOp40
 70
     1
102
RTVSPropertyOp41
 70
     1
102
RTVSPropertyOp42
 70
     1
102
RTVSPropertyOp43
 70
     1
102
RTVSPropertyOp44
 70
     1
102
RTVSPropertyOp45
 70
     1
102
RTVSPropertyOp46
 70
     1
102
RTVSPropertyOp47
 70
     1
102
RTVSPropertyOp48
 70
     1
102
RTVSPropertyOp49
 70
     1
102
RTVSPropertyOp50
 70
     1
102
RTVSPropertyOp51
 70
     0
102
RTVSPropertyOp52
 70
     0
102
RTVSPropertyOp53
 70
     1
102
RTVSPropertyOp54
 70
     1
102
RTVSPropertyOp55
 70
     1
102
RTVSPropertyOp56
 70
     1
102
RTVSPropertyOp57
 70
     1
102
RTVSPropertyOp58
 70
     1
102
RTVSPropertyOp59
 70
     1
102
RTVSPropertyOp60
 70
     1
102
RTVSPropertyOp61
 70
     1
102
RTVSPropertyOp62
 70
     1
  0
ENDSEC
  0
EOF
