  0
SECTION
  2
HEADER
  9
$ACADVER
  1
AC1015
  9
$ACADMAINTVER
 70
    18
  9
$DWGCODEPAGE
  3
ANSI_932
  9
$INSBASE
 10
0.0
 20
0.0
 30
0.0
  9
$EXTMIN
 10
4.0
 20
3.999999999999545
 30
0.0
  9
$EXTMAX
 10
1683.99999999996
 20
1191.999969482415
 30
0.0
  9
$LIMMIN
 10
0.0
 20
0.0
  9
$LIMMAX
 10
1680.0
 20
1188.0
  9
$ORTHOMODE
 70
     0
  9
$REGENMODE
 70
     1
  9
$FILLMODE
 70
     1
  9
$QTEXTMODE
 70
     0
  9
$MIRRTEXT
 70
     0
  9
$LTSCALE
 40
4.0
  9
$ATTMODE
 70
     1
  9
$TEXTSIZE
 40
2.5
  9
$TRACEWID
 40
1.0
  9
$TEXTSTYLE
  7
STD
  9
$CLAYER
  8
0
  9
$CELTYPE
  6
Continuous
  9
$CECOLOR
 62
     7
  9
$CELTSCALE
 40
1.0
  9
$DISPSILH
 70
     0
  9
$DIMSCALE
 40
4.0
  9
$DIMASZ
 40
3.0
  9
$DIMEXO
 40
1.0
  9
$DIMDLI
 40
8.0
  9
$DIMRND
 40
0.0
  9
$DIMDLE
 40
0.0
  9
$DIMEXE
 40
1.0
  9
$DIMTP
 40
0.0
  9
$DIMTM
 40
0.000000001
  9
$DIMTXT
 40
3.0
  9
$DIMCEN
 40
0.0
  9
$DIMTSZ
 40
0.0
  9
$DIMTOL
 70
     0
  9
$DIMLIM
 70
     0
  9
$DIMTIH
 70
     0
  9
$DIMTOH
 70
     0
  9
$DIMSE1
 70
     0
  9
$DIMSE2
 70
     0
  9
$DIMTAD
 70
     3
  9
$DIMZIN
 70
     9
  9
$DIMBLK
  1
Open30
  9
$DIMASO
 70
     1
  9
$DIMSHO
 70
     1
  9
$DIMPOST
  1

  9
$DIMAPOST
  1

  9
$DIMALT
 70
     0
  9
$DIMALTD
 70
     2
  9
$DIMALTF
 40
0.0005
  9
$DIMLFAC
 40
1.0
  9
$DIMTOFL
 70
     1
  9
$DIMTVP
 40
0.0
  9
$DIMTIX
 70
     0
  9
$DIMSOXD
 70
     0
  9
$DIMSAH
 70
     0
  9
$DIMBLK1
  1

  9
$DIMBLK2
  1

  9
$DIMSTYLE
  2
ASKSTANDARD
  9
$DIMCLRD
 70
     4
  9
$DIMCLRE
 70
     4
  9
$DIMCLRT
 70
     4
  9
$DIMTFAC
 40
0.5
  9
$DIMGAP
 40
1.0
  9
$DIMJUST
 70
     0
  9
$DIMSD1
 70
     0
  9
$DIMSD2
 70
     0
  9
$DIMTOLJ
 70
     1
  9
$DIMTZIN
 70
     0
  9
$DIMALTZ
 70
     0
  9
$DIMALTTZ
 70
     0
  9
$DIMUPT
 70
     0
  9
$DIMDEC
 70
     2
  9
$DIMTDEC
 70
     2
  9
$DIMALTU
 70
     2
  9
$DIMALTTD
 70
     2
  9
$DIMTXSTY
  7
STD
  9
$DIMAUNIT
 70
     0
  9
$DIMADEC
 70
     2
  9
$DIMALTRND
 40
0.0
  9
$DIMAZIN
 70
     2
  9
$DIMDSEP
 70
    46
  9
$DIMATFIT
 70
     0
  9
$DIMFRAC
 70
     0
  9
$DIMLDRBLK
  1
Open30
  9
$DIMLUNIT
 70
     2
  9
$DIMLWD
 70
     9
  9
$DIMLWE
 70
     9
  9
$DIMTMOVE
 70
     0
  9
$LUNITS
 70
     2
  9
$LUPREC
 70
     4
  9
$SKETCHINC
 40
1.0
  9
$FILLETRAD
 40
0.0
  9
$AUNITS
 70
     0
  9
$AUPREC
 70
     0
  9
$MENU
  1
.
  9
$ELEVATION
 40
0.0
  9
$PELEVATION
 40
0.0
  9
$THICKNESS
 40
0.0
  9
$LIMCHECK
 70
     0
  9
$CHAMFERA
 40
0.0
  9
$CHAMFERB
 40
0.0
  9
$CHAMFERC
 40
0.0
  9
$CHAMFERD
 40
0.0
  9
$SKPOLY
 70
     0
  9
$TDCREATE
 40
2454497.602825139
  9
$TDUCREATE
 40
2454497.227825139
  9
$TDUPDATE
 40
2455692.679143519
  9
$TDUUPDATE
 40
2455692.304143519
  9
$TDINDWG
 40
0.1614334606
  9
$TDUSRTIMER
 40
0.1614334606
  9
$USRTIMER
 70
     1
  9
$ANGBASE
 50
0.0
  9
$ANGDIR
 70
     0
  9
$PDMODE
 70
     1
  9
$PDSIZE
 40
0.0
  9
$PLINEWID
 40
0.0
  9
$SPLFRAME
 70
     0
  9
$SPLINETYPE
 70
     6
  9
$SPLINESEGS
 70
     8
  9
$HANDSEED
  5
EAF
  9
$SURFTAB1
 70
     6
  9
$SURFTAB2
 70
     6
  9
$SURFTYPE
 70
     6
  9
$SURFU
 70
     6
  9
$SURFV
 70
     6
  9
$UCSBASE
  2

  9
$UCSNAME
  2

  9
$UCSORG
 10
0.0
 20
0.0
 30
0.0
  9
$UCSXDIR
 10
1.0
 20
0.0
 30
0.0
  9
$UCSYDIR
 10
0.0
 20
1.0
 30
0.0
  9
$UCSORTHOREF
  2

  9
$UCSORTHOVIEW
 70
     0
  9
$UCSORGTOP
 10
0.0
 20
0.0
 30
0.0
  9
$UCSORGBOTTOM
 10
0.0
 20
0.0
 30
0.0
  9
$UCSORGLEFT
 10
0.0
 20
0.0
 30
0.0
  9
$UCSORGRIGHT
 10
0.0
 20
0.0
 30
0.0
  9
$UCSORGFRONT
 10
0.0
 20
0.0
 30
0.0
  9
$UCSORGBACK
 10
0.0
 20
0.0
 30
0.0
  9
$PUCSBASE
  2

  9
$PUCSNAME
  2

  9
$PUCSORG
 10
0.0
 20
0.0
 30
0.0
  9
$PUCSXDIR
 10
1.0
 20
0.0
 30
0.0
  9
$PUCSYDIR
 10
0.0
 20
1.0
 30
0.0
  9
$PUCSORTHOREF
  2

  9
$PUCSORTHOVIEW
 70
     0
  9
$PUCSORGTOP
 10
0.0
 20
0.0
 30
0.0
  9
$PUCSORGBOTTOM
 10
0.0
 20
0.0
 30
0.0
  9
$PUCSORGLEFT
 10
0.0
 20
0.0
 30
0.0
  9
$PUCSORGRIGHT
 10
0.0
 20
0.0
 30
0.0
  9
$PUCSORGFRONT
 10
0.0
 20
0.0
 30
0.0
  9
$PUCSORGBACK
 10
0.0
 20
0.0
 30
0.0
  9
$USERI1
 70
     0
  9
$USERI2
 70
     0
  9
$USERI3
 70
     0
  9
$USERI4
 70
     0
  9
$USERI5
 70
     0
  9
$USERR1
 40
0.0
  9
$USERR2
 40
0.0
  9
$USERR3
 40
0.0
  9
$USERR4
 40
0.0
  9
$USERR5
 40
0.0
  9
$WORLDVIEW
 70
     1
  9
$SHADEDGE
 70
     3
  9
$SHADEDIF
 70
    70
  9
$TILEMODE
 70
     1
  9
$MAXACTVP
 70
    64
  9
$PINSBASE
 10
0.0
 20
0.0
 30
0.0
  9
$PLIMCHECK
 70
     0
  9
$PEXTMIN
 10
0.0
 20
0.0
 30
0.0
  9
$PEXTMAX
 10
0.0
 20
0.0
 30
0.0
  9
$PLIMMIN
 10
0.0
 20
0.0
  9
$PLIMMAX
 10
12.0
 20
9.0
  9
$UNITMODE
 70
     0
  9
$VISRETAIN
 70
     1
  9
$PLINEGEN
 70
     0
  9
$PSLTSCALE
 70
     1
  9
$TREEDEPTH
 70
  3020
  9
$CMLSTYLE
  2
Standard
  9
$CMLJUST
 70
     0
  9
$CMLSCALE
 40
20.0
  9
$PROXYGRAPHICS
 70
     1
  9
$MEASUREMENT
 70
     1
  9
$CELWEIGHT
370
    -1
  9
$ENDCAPS
280
     0
  9
$JOINSTYLE
280
     0
  9
$LWDISPLAY
290
     0
  9
$INSUNITS
 70
     4
  9
$HYPERLINKBASE
  1

  9
$STYLESHEET
  1

  9
$XEDIT
290
     1
  9
$CEPSNTYPE
380
     0
  9
$PSTYLEMODE
290
     1
  9
$FINGERPRINTGUID
  2
{D178A04D-76D8-4F2C-AB2D-4FB1B243C31E}
  9
$VERSIONGUID
  2
{2E5A0CB4-7BF8-4D7A-9DCF-2A35AE37BEDD}
  9
$EXTNAMES
290
     1
  9
$PSVPSCALE
 40
0.0
  9
$OLESTARTUP
290
     0
  0
ENDSEC
  0
SECTION
  2
CLASSES
  0
CLASS
  1
ACDBDICTIONARYWDFLT
  2
AcDbDictionaryWithDefault
  3
ObjectDBX Classes
 90
        0
280
     0
281
     0
  0
CLASS
  1
DICTIONARYVAR
  2
AcDbDictionaryVar
  3
ObjectDBX Classes
 90
        0
280
     0
281
     0
  0
CLASS
  1
TABLESTYLE
  2
AcDbTableStyle
  3
ObjectDBX Classes
 90
     4095
280
     0
281
     0
  0
CLASS
  1
MATERIAL
  2
AcDbMaterial
  3
ObjectDBX Classes
 90
     1153
280
     0
281
     0
  0
CLASS
  1
VISUALSTYLE
  2
AcDbVisualStyle
  3
ObjectDBX Classes
 90
     4095
280
     0
281
     0
  0
CLASS
  1
SORTENTSTABLE
  2
AcDbSortentsTable
  3
ObjectDBX Classes
 90
    32768
280
     0
281
     0
  0
CLASS
  1
SCALE
  2
AcDbScale
  3
ObjectDBX Classes
 90
     1153
280
     0
281
     0
  0
CLASS
  1
MLEADERSTYLE
  2
AcDbMLeaderStyle
  3
ACDB_MLEADERSTYLE_CLASS
 90
     4095
280
     0
281
     0
  0
CLASS
  1
CELLSTYLEMAP
  2
AcDbCellStyleMap
  3
ObjectDBX Classes
 90
     1152
280
     0
281
     0
  0
CLASS
  1
EXACXREFPANELOBJECT
  2
ExAcXREFPanelObject
  3
EXAC_ESW
 90
    33793
280
     0
281
     0
  0
CLASS
  1
NPOCOLLECTION
  2
AcDbImpNonPersistentObjectsCollection
  3
ObjectDBX Classes
 90
    33921
280
     0
281
     0
  0
CLASS
  1
RASTERVARIABLES
  2
AcDbRasterVariables
  3
ISM
 90
        0
280
     0
281
     0
  0
CLASS
  1
ACDBSECTIONVIEWSTYLE
  2
AcDbSectionViewStyle
  3
ObjectDBX Classes
 90
     1025
280
     0
281
     0
  0
CLASS
  1
ACDBDETAILVIEWSTYLE
  2
AcDbDetailViewStyle
  3
ObjectDBX Classes
 90
     1025
280
     0
281
     0
  0
CLASS
  1
ACDBPLACEHOLDER
  2
AcDbPlaceHolder
  3
ObjectDBX Classes
 90
        0
280
     0
281
     0
  0
CLASS
  1
LAYOUT
  2
AcDbLayout
  3
ObjectDBX Classes
 90
        0
280
     0
281
     0
  0
ENDSEC
  0
SECTION
  2
TABLES
  0
TABLE
  2
VPORT
  5
8
330
0
100
AcDbSymbolTable
 70
     1
  0
VPORT
  5
ED
330
8
100
AcDbSymbolTableRecord
100
AcDbViewportTableRecord
  2
*Active
 70
     0
 10
0.0
 20
0.0
 11
1.0
 21
1.0
 12
840.0
 22
594.0
 13
0.0
 23
0.0
 14
10.0
 24
10.0
 15
10.0
 25
10.0
 16
0.0
 26
0.0
 36
1.0
 17
0.0
 27
0.0
 37
0.0
 40
1188.0
 41
1.760479041916167
 42
50.0
 43
0.0
 44
0.0
 50
0.0
 51
0.0
 71
     0
 72
  1000
 73
     1
 74
     3
 75
     0
 76
     0
 77
     0
 78
     0
281
     0
 65
     1
110
0.0
120
0.0
130
0.0
111
1.0
121
0.0
131
0.0
112
0.0
122
1.0
132
0.0
 79
     0
146
0.0
1001
ACAD_NAV_VCDISPLAY
1070
     3
  0
ENDTAB
  0
TABLE
  2
LTYPE
  5
5
330
0
100
AcDbSymbolTable
 70
     6
  0
LTYPE
  5
14
330
5
100
AcDbSymbolTableRecord
100
AcDbLinetypeTableRecord
  2
ByBlock
 70
     0
  3

 72
    65
 73
     0
 40
0.0
  0
LTYPE
  5
15
330
5
100
AcDbSymbolTableRecord
100
AcDbLinetypeTableRecord
  2
ByLayer
 70
     0
  3

 72
    65
 73
     0
 40
0.0
  0
LTYPE
  5
16
330
5
100
AcDbSymbolTableRecord
100
AcDbLinetypeTableRecord
  2
Continuous
 70
     0
  3
Solid line
 72
    65
 73
     0
 40
0.0
  0
LTYPE
  5
780
330
5
100
AcDbSymbolTableRecord
100
AcDbLinetypeTableRecord
  2
CENTER2
 70
     0
  3
Center (.5x) ___ _ ___ _ ___ _ ___ _ ___ _ ___
 72
    65
 73
     4
 40
28.575
 49
19.05
 74
     0
 49
-3.174999999999999
 74
     0
 49
3.174999999999999
 74
     0
 49
-3.174999999999999
 74
     0
  0
LTYPE
  5
781
330
5
100
AcDbSymbolTableRecord
100
AcDbLinetypeTableRecord
  2
HIDDEN2
 70
     0
  3
Hidden (.5x) _ _ _ _ _ _ _ _ _ _ _ _ _ _ _ _ _
 72
    65
 73
     2
 40
4.762499999999999
 49
3.174999999999999
 74
     0
 49
-1.587499999999999
 74
     0
  0
LTYPE
  5
782
330
5
100
AcDbSymbolTableRecord
100
AcDbLinetypeTableRecord
  2
PHANTOM2
 70
     0
  3
Phantom (.5x) ___ _ _ ___ _ _ ___ _ _ ___ _ _
 72
    65
 73
     6
 40
31.75
 49
15.875
 74
     0
 49
-3.174999999999999
 74
     0
 49
3.174999999999999
 74
     0
 49
-3.174999999999999
 74
     0
 49
3.174999999999999
 74
     0
 49
-3.174999999999999
 74
     0
  0
LTYPE
  5
7A8
330
5
100
AcDbSymbolTableRecord
100
AcDbLinetypeTableRecord
  2
zigzag
 70
     0
  3
/\/-/\/-/\/-/\/-/\/-/\/
 72
    65
 73
     2
 40
11.0001
 49
0.0001
 74
     4
 75
   135
340
77F
 46
0.04
 50
0.0
 44
0.0
 45
0.0
 49
-11.0
 74
     0
  0
LTYPE
  5
7D1
330
5
100
AcDbSymbolTableRecord
100
AcDbLinetypeTableRecord
  2
DIMENSION
 70
     0
  3
_______________________________________________
 72
    65
 73
     2
 40
0.000000000000002
 49
0.000000000000001
 74
     0
 49
0.000000000000001
 74
     0
  0
ENDTAB
  0
TABLE
  2
LAYER
  5
2
102
{ACAD_XDICTIONARY
360
688
102
}
330
0
100
AcDbSymbolTable
 70
     5
  0
LAYER
  5
10
102
{ACAD_XDICTIONARY
360
785
102
}
330
2
100
AcDbSymbolTableRecord
100
AcDbLayerTableRecord
  2
0
 70
     0
 62
     7
  6
Continuous
370
    -3
390
F
  0
LAYER
  5
14A
330
2
100
AcDbSymbolTableRecord
100
AcDbLayerTableRecord
  2
Defpoints
 70
     0
 62
     7
  6
Continuous
290
     0
370
    -3
390
F
  0
LAYER
  5
821
330
2
100
AcDbSymbolTableRecord
100
AcDbLayerTableRecord
  2
PV0001_4
 70
     0
 62
     7
  6
Continuous
370
    -3
390
F
  0
LAYER
  5
D01
330
2
100
AcDbSymbolTableRecord
100
AcDbLayerTableRecord
  2
F00001_1
 70
     0
 62
     7
  6
Continuous
370
    -3
390
F
  0
LAYER
  5
E29
330
2
100
AcDbSymbolTableRecord
100
AcDbLayerTableRecord
  2
画層1
 70
     0
 62
     7
  6
Continuous
370
    -3
390
F
1001
AcAecLayerStandard
1000

1000

  0
ENDTAB
  0
TABLE
  2
STYLE
  5
3
330
0
100
AcDbSymbolTable
 70
     3
  0
STYLE
  5
11
330
3
100
AcDbSymbolTableRecord
100
AcDbTextStyleTableRecord
  2
Standard
 70
     0
 40
0.0
 41
0.8
 50
0.0
 71
     0
 42
2.5
  3
romans.shx
  4
extfont2.shx
  0
STYLE
  5
77F
330
3
100
AcDbSymbolTableRecord
100
AcDbTextStyleTableRecord
  2

 70
     1
 40
0.0
 41
1.0
 50
0.0
 71
     0
 42
2.5
  3
ltypeshp.shx
  4

  0
STYLE
  5
783
330
3
100
AcDbSymbolTableRecord
100
AcDbTextStyleTableRecord
  2
STD
 70
     0
 40
0.0
 41
0.6
 50
0.0
 71
     0
 42
2.5
  3
monotxt.shx
  4
extfont2.shx
  0
ENDTAB
  0
TABLE
  2
VIEW
  5
6
330
0
100
AcDbSymbolTable
 70
     0
  0
ENDTAB
  0
TABLE
  2
UCS
  5
7
330
0
100
AcDbSymbolTable
 70
     0
  0
ENDTAB
  0
TABLE
  2
APPID
  5
9
330
0
100
AcDbSymbolTable
 70
    22
  0
APPID
  5
12
330
9
100
AcDbSymbolTableRecord
100
AcDbRegAppTableRecord
  2
ACAD
 70
     0
  0
APPID
  5
9E
330
9
100
AcDbSymbolTableRecord
100
AcDbRegAppTableRecord
  2
ACAD_PSEXT
 70
     0
  0
APPID
  5
15A
330
9
100
AcDbSymbolTableRecord
100
AcDbRegAppTableRecord
  2
ACAD_DSTYLE_DIMTEXT_FILL
 70
     0
  0
APPID
  5
15B
330
9
100
AcDbSymbolTableRecord
100
AcDbRegAppTableRecord
  2
ACAD_DSTYLE_DIMEXT_LENGTH
 70
     0
  0
APPID
  5
15C
330
9
100
AcDbSymbolTableRecord
100
AcDbRegAppTableRecord
  2
ACAD_DSTYLE_DIMEXT_ENABLED
 70
     0
  0
APPID
  5
15D
330
9
100
AcDbSymbolTableRecord
100
AcDbRegAppTableRecord
  2
ACAD_DSTYLE_DIM_LINETYPE
 70
     0
  0
APPID
  5
15E
330
9
100
AcDbSymbolTableRecord
100
AcDbRegAppTableRecord
  2
ACAD_DSTYLE_DIM_EXT1_LINETYPE
 70
     0
  0
APPID
  5
15F
330
9
100
AcDbSymbolTableRecord
100
AcDbRegAppTableRecord
  2
ACAD_DSTYLE_DIM_EXT2_LINETYPE
 70
     0
  0
APPID
  5
160
330
9
100
AcDbSymbolTableRecord
100
AcDbRegAppTableRecord
  2
ACAD_DSTYLE_DIMJOGGED_JOGANGLE_SYMBOL
 70
     0
  0
APPID
  5
161
330
9
100
AcDbSymbolTableRecord
100
AcDbRegAppTableRecord
  2
ACAD_DSTYLE_DIMARC_LENGTH_SYMBOL
 70
     0
  0
APPID
  5
162
330
9
100
AcDbSymbolTableRecord
100
AcDbRegAppTableRecord
  2
ACAD_MLEADERVER
 70
     0
  0
APPID
  5
163
330
9
100
AcDbSymbolTableRecord
100
AcDbRegAppTableRecord
  2
AcAecLayerStandard
 70
     0
  0
APPID
  5
164
330
9
100
AcDbSymbolTableRecord
100
AcDbRegAppTableRecord
  2
ACAD_DSTYLE_DIMJAG
 70
     0
  0
APPID
  5
165
330
9
100
AcDbSymbolTableRecord
100
AcDbRegAppTableRecord
  2
ACAD_DSTYLE_DIMTALN
 70
     0
  0
APPID
  5
166
330
9
100
AcDbSymbolTableRecord
100
AcDbRegAppTableRecord
  2
DIMEXPLODE
 70
     0
  0
APPID
  5
41A
330
9
100
AcDbSymbolTableRecord
100
AcDbRegAppTableRecord
  2
AcadAnnoPO
 70
     0
  0
APPID
  5
7AC
330
9
100
AcDbSymbolTableRecord
100
AcDbRegAppTableRecord
  2
AcadAnnotative
 70
     0
  0
APPID
  5
7C9
330
9
100
AcDbSymbolTableRecord
100
AcDbRegAppTableRecord
  2
ACAD_EXEMPT_FROM_CAD_STANDARDS
 70
     0
  0
APPID
  5
7FF
330
9
100
AcDbSymbolTableRecord
100
AcDbRegAppTableRecord
  2
DEKIMAS
 70
     0
  0
APPID
  5
DD0
330
9
100
AcDbSymbolTableRecord
100
AcDbRegAppTableRecord
  2
ASKOBJSC
 70
     0
  0
APPID
  5
DD1
330
9
100
AcDbSymbolTableRecord
100
AcDbRegAppTableRecord
  2
ASKDWGSC
 70
     0
  0
APPID
  5
E5E
330
9
100
AcDbSymbolTableRecord
100
AcDbRegAppTableRecord
  2
ACAD_NAV_VCDISPLAY
 70
     0
  0
ENDTAB
  0
TABLE
  2
DIMSTYLE
  5
A
330
0
100
AcDbSymbolTable
 70
     4
100
AcDbDimStyleTable
 71
     1
340
159
  0
DIMSTYLE
105
159
102
{ACAD_REACTORS
330
822
330
865
330
8D4
330
917
330
95A
330
9C9
330
A0C
330
A4F
330
A9E
102
}
330
A
100
AcDbSymbolTableRecord
100
AcDbDimStyleTableRecord
  2
ASKSTANDARD
 70
     0
 40
4.0
 41
3.0
 42
1.0
 43
8.0
 44
1.0
 48
0.000000001
 73
     0
 74
     0
 77
     3
 78
     9
 79
     2
140
3.0
141
0.0
143
0.0005
146
0.5
147
1.0
172
     1
176
     4
177
     4
178
     4
179
     2
271
     2
272
     2
289
     0
340
783
341
71F
342
71F
371
     9
372
     9
1001
ACAD_DSTYLE_DIMJAG
1070
   388
1040
1.5
1001
ACAD_DSTYLE_DIMTALN
1070
   392
1070
     0
1001
ACAD_DSTYLE_DIMEXT_LENGTH
1070
   378
1040
2.0
1001
ACAD_DSTYLE_DIMJOGGED_JOGANGLE_SYMBOL
1070
   384
1040
1.570796326794896
  0
DIMSTYLE
105
7AA
330
A
100
AcDbSymbolTableRecord
100
AcDbDimStyleTableRecord
  2
Standard
 70
     0
340
11
  0
DIMSTYLE
105
7F8
330
A
100
AcDbSymbolTableRecord
100
AcDbDimStyleTableRecord
  2
SYMBOL
 70
     0
 40
4.0
 41
3.0
 42
1.0
 43
8.0
 44
1.0
 48
0.000000001
 73
     0
 74
     0
 77
     3
 78
     9
 79
     2
140
3.0
141
0.0
143
0.0005
146
0.5
147
1.0
172
     1
176
     4
177
     4
178
     4
179
     2
271
     2
272
     2
289
     0
340
783
341
71F
342
71F
371
     9
372
     9
1001
ACAD_DSTYLE_DIMJAG
1070
   388
1040
1.5
1001
ACAD_DSTYLE_DIMTALN
1070
   392
1070
     0
1001
ACAD_DSTYLE_DIMEXT_LENGTH
1070
   378
1040
2.0
1001
ACAD_DSTYLE_DIMJOGGED_JOGANGLE_SYMBOL
1070
   384
1040
1.570796326794896
  0
DIMSTYLE
105
D00
102
{ACAD_REACTORS
330
822
330
865
330
8D4
330
917
330
95A
330
9C9
330
A0C
330
A4F
330
A9E
102
}
330
A
100
AcDbSymbolTableRecord
100
AcDbDimStyleTableRecord
  2
ASKSTANDARDF00P25
 70
     0
 40
4.0
 41
3.0
 42
1.0
 43
8.0
 44
1.0
 48
0.000000001
 73
     0
 74
     0
 77
     3
 78
     9
 79
     2
140
3.0
141
0.0
143
0.0005
144
0.25
146
0.5
147
1.0
172
     1
176
     4
177
     4
178
     4
179
     2
271
     2
272
     2
289
     0
340
783
341
71F
342
71F
371
     9
372
     9
1001
ACAD_DSTYLE_DIMJAG
1070
   388
1040
1.5
1001
ACAD_DSTYLE_DIMTALN
1070
   392
1070
     0
1001
ACAD_DSTYLE_DIMEXT_LENGTH
1070
   378
1040
2.0
1001
ACAD_DSTYLE_DIMJOGGED_JOGANGLE_SYMBOL
1070
   384
1040
1.570796326794896
  0
ENDTAB
  0
TABLE
  2
BLOCK_RECORD
  5
1
330
0
100
AcDbSymbolTable
 70
    12
  0
BLOCK_RECORD
  5
1F
102
{ACAD_XDICTIONARY
360
318
102
}
330
1
100
AcDbSymbolTableRecord
100
AcDbBlockTableRecord
  2
*Model_Space
340
22
  0
BLOCK_RECORD
  5
D2
330
1
100
AcDbSymbolTableRecord
100
AcDbBlockTableRecord
  2
*Paper_Space
340
D3
  0
BLOCK_RECORD
  5
D6
330
1
100
AcDbSymbolTableRecord
100
AcDbBlockTableRecord
  2
*Paper_Space0
340
D7
  0
BLOCK_RECORD
  5
71F
330
1
100
AcDbSymbolTableRecord
100
AcDbBlockTableRecord
  2
_Open30
340
0
102
{BLKREFS
331
DD5
331
DD6
331
DE0
331
DE1
331
DE8
331
DE9
331
DF1
331
DF2
331
DFC
331
DFD
331
E04
331
E05
331
E0D
331
E0E
331
E15
331
E1C
331
E1D
102
}
  0
BLOCK_RECORD
  5
80C
330
1
100
AcDbSymbolTableRecord
100
AcDbBlockTableRecord
  2
D001M-45ｾｲﾋﾝｽﾞ      ｷｶｸ
340
0
  0
BLOCK_RECORD
  5
823
330
1
100
AcDbSymbolTableRecord
100
AcDbBlockTableRecord
  2
*D3
340
0
  0
BLOCK_RECORD
  5
866
330
1
100
AcDbSymbolTableRecord
100
AcDbBlockTableRecord
  2
*D4
340
0
  0
BLOCK_RECORD
  5
8D5
330
1
100
AcDbSymbolTableRecord
100
AcDbBlockTableRecord
  2
*D5
340
0
  0
BLOCK_RECORD
  5
918
330
1
100
AcDbSymbolTableRecord
100
AcDbBlockTableRecord
  2
*D6
340
0
  0
BLOCK_RECORD
  5
95B
330
1
100
AcDbSymbolTableRecord
100
AcDbBlockTableRecord
  2
*D7
340
0
  0
BLOCK_RECORD
  5
9CA
330
1
100
AcDbSymbolTableRecord
100
AcDbBlockTableRecord
  2
*D8
340
0
  0
BLOCK_RECORD
  5
A0D
330
1
100
AcDbSymbolTableRecord
100
AcDbBlockTableRecord
  2
*D9
340
0
  0
BLOCK_RECORD
  5
A50
330
1
100
AcDbSymbolTableRecord
100
AcDbBlockTableRecord
  2
*D10
340
0
  0
BLOCK_RECORD
  5
A9F
330
1
100
AcDbSymbolTableRecord
100
AcDbBlockTableRecord
  2
*D11
340
0
  0
ENDTAB
  0
ENDSEC
  0
SECTION
  2
BLOCKS
  0
BLOCK
  5
20
330
1F
100
AcDbEntity
  8
0
100
AcDbBlockBegin
  2
*Model_Space
 70
     0
 10
0.0
 20
0.0
 30
0.0
  3
*Model_Space
  1

  0
ENDBLK
  5
21
330
1F
100
AcDbEntity
  8
0
100
AcDbBlockEnd
  0
BLOCK
  5
D4
330
D2
100
AcDbEntity
 67
     1
  8
0
100
AcDbBlockBegin
  2
*Paper_Space
 70
     0
 10
0.0
 20
0.0
 30
0.0
  3
*Paper_Space
  1

  0
ENDBLK
  5
D5
330
D2
100
AcDbEntity
 67
     1
  8
0
100
AcDbBlockEnd
  0
BLOCK
  5
D8
330
D6
100
AcDbEntity
 67
     1
  8
0
100
AcDbBlockBegin
  2
*Paper_Space0
 70
     0
 10
0.0
 20
0.0
 30
0.0
  3
*Paper_Space0
  1

  0
ENDBLK
  5
D9
330
D6
100
AcDbEntity
 67
     1
  8
0
100
AcDbBlockEnd
  0
BLOCK
  5
723
330
71F
100
AcDbEntity
  8
0
100
AcDbBlockBegin
  2
_Open30
 70
     0
 10
0.0
 20
0.0
 30
0.0
  3
_Open30
  1

  0
LINE
  5
720
330
71F
100
AcDbEntity
  8
0
  6
ByBlock
 62
     0
370
    -2
100
AcDbLine
 10
-1.0
 20
0.26794919
 30
0.0
 11
0.0
 21
0.0
 31
0.0
  0
LINE
  5
721
330
71F
100
AcDbEntity
  8
0
  6
ByBlock
 62
     0
370
    -2
100
AcDbLine
 10
0.0
 20
0.0
 30
0.0
 11
-1.0
 21
-0.26794919
 31
0.0
  0
LINE
  5
722
330
71F
100
AcDbEntity
  8
0
  6
ByBlock
 62
     0
370
    -2
100
AcDbLine
 10
0.0
 20
0.0
 30
0.0
 11
-1.0
 21
0.0
 31
0.0
  0
ENDBLK
  5
724
330
71F
100
AcDbEntity
  8
0
100
AcDbBlockEnd
  0
BLOCK
  5
80D
330
80C
100
AcDbEntity
  8
0
 62
     7
100
AcDbBlockBegin
  2
D001M-45ｾｲﾋﾝｽﾞ      ｷｶｸ
 70
     0
 10
0.0
 20
0.0
 30
0.0
  3
D001M-45ｾｲﾋﾝｽﾞ      ｷｶｸ
  1

  0
POINT
  5
80F
330
80C
100
AcDbEntity
  8
0
  6
Continuous
 62
     4
100
AcDbPoint
 10
6.75
 20
-3.25
 30
0.0
  0
POINT
  5
810
330
80C
100
AcDbEntity
  8
0
  6
Continuous
 62
     4
100
AcDbPoint
 10
67.75
 20
-3.25
 30
0.0
  0
POINT
  5
811
330
80C
100
AcDbEntity
  8
0
  6
Continuous
 62
     4
100
AcDbPoint
 10
82.5
 20
-3.25
 30
0.0
  0
POINT
  5
812
330
80C
100
AcDbEntity
  8
0
  6
Continuous
 62
     4
100
AcDbPoint
 10
95.5
 20
-3.25
 30
0.0
  0
POINT
  5
813
330
80C
100
AcDbEntity
  8
0
  6
Continuous
 62
     4
100
AcDbPoint
 10
16.699996948242
 20
-3.25
 30
0.0
  0
POINT
  5
814
330
80C
100
AcDbEntity
  8
0
  6
Continuous
 62
     4
100
AcDbPoint
 10
0.0
 20
0.0
 30
0.0
  0
LINE
  5
815
330
80C
100
AcDbEntity
  8
0
  6
Continuous
 62
     4
100
AcDbLine
 10
89.0
 20
0.0
 30
0.0
 11
89.0
 21
-6.0
 31
0.0
1001
DEKIMAS
1000
実線（細）
1040
0.15
1001
DIMEXPLODE
1070
     0
  0
LINE
  5
816
330
80C
100
AcDbEntity
  8
0
  6
Continuous
 62
     4
100
AcDbLine
 10
76.0
 20
0.0
 30
0.0
 11
76.0
 21
-6.0
 31
0.0
1001
DEKIMAS
1000
実線（細）
1040
0.15
1001
DIMEXPLODE
1070
     0
  0
LINE
  5
817
330
80C
100
AcDbEntity
  8
0
  6
Continuous
 62
     4
100
AcDbLine
 10
59.5
 20
0.0
 30
0.0
 11
59.5
 21
-6.0
 31
0.0
1001
DEKIMAS
1000
実線（細）
1040
0.15
1001
DIMEXPLODE
1070
     0
  0
LINE
  5
818
330
80C
100
AcDbEntity
  8
0
  6
Continuous
 62
     4
100
AcDbLine
 10
13.5
 20
0.0
 30
0.0
 11
13.5
 21
-6.0
 31
0.0
1001
DEKIMAS
1000
実線（細）
1040
0.15
1001
DIMEXPLODE
1070
     0
  0
LINE
  5
819
330
80C
100
AcDbEntity
  8
0
  6
Continuous
 62
     4
100
AcDbLine
 10
0.0
 20
-6.0
 30
0.0
 11
89.0
 21
-6.0
 31
0.0
1001
DEKIMAS
1000
実線（細）
1040
0.15
1001
DIMEXPLODE
1070
     0
  0
LINE
  5
81A
330
80C
100
AcDbEntity
  8
0
  6
Continuous
 62
     4
100
AcDbLine
 10
9.242879984912299
 20
-4.943625956935299
 30
0.0
 11
6.7500155903839
 21
-0.6201807769801001
 31
0.0
1001
DEKIMAS
1000
実線（細）
1040
0.15
1001
DIMEXPLODE
1070
     0
  0
LINE
  5
81B
330
80C
100
AcDbEntity
  8
0
  6
Continuous
 62
     4
100
AcDbLine
 10
6.750019335722999
 20
-0.6201956342873
 30
0.0
 11
4.2497097979341
 21
-4.943647512371599
 31
0.0
1001
DEKIMAS
1000
実線（細）
1040
0.15
1001
DIMEXPLODE
1070
     0
  0
LINE
  5
81C
330
80C
100
AcDbEntity
  8
0
  6
Continuous
 62
     4
100
AcDbLine
 10
4.249694824218799
 20
-4.9436340332031
 30
0.0
 11
9.2428741455078
 21
-4.9436340332031
 31
0.0
1001
DEKIMAS
1000
実線（細）
1040
0.15
1001
DIMEXPLODE
1070
     0
  0
MTEXT
  5
81D
330
80C
100
AcDbEntity
  8
0
  6
Continuous
 62
     4
100
AcDbMText
 10
6.303515642881399
 20
-3.25
 30
0.0
 40
2.5
 41
0.0
 71
     4
 72
     5
  1
\T1.40;\W0.60;１
  7
STD
 73
     1
 44
1.0
1001
DEKIMAS
1040
0.15
1001
ACAD
1000
MTEXTBEGIN
1070
    73
1070
     1
1070
    44
1040
1.0
1070
    74
1070
     0
1000
MTEXTEND
  0
MTEXT
  5
81E
330
80C
100
AcDbEntity
  8
0
  6
Continuous
 62
     4
100
AcDbMText
 10
16.12849694490415
 20
-3.25
 30
0.0
 40
3.2
 41
0.0
 71
     4
 72
     5
  1
\T1.40;\W0.60;貴社御指示ニヨル変更
  7
STD
 73
     1
 44
1.0
1001
DEKIMAS
1040
0.15
1001
ACAD
1000
MTEXTBEGIN
1070
    73
1070
     1
1070
    44
1040
1.0
1070
    74
1070
     0
1000
MTEXTEND
  0
MTEXT
  5
81F
330
80C
100
AcDbEntity
  8
0
  6
Continuous
 62
     4
100
AcDbMText
 10
67.81737269209488
 20
-3.249999999999999
 30
0.0
 40
3.2
 41
0.0
 71
     5
 72
     5
  1
\T1.09;\W0.39;Ｈ１３．ＸＸ．ＸＸ
  7
STD
 73
     1
 44
1.0
1001
DEKIMAS
1040
0.15
1001
ACAD
1000
MTEXTBEGIN
1070
    73
1070
     1
1070
    44
1040
1.0
1070
    74
1070
     0
1000
MTEXTEND
  0
MTEXT
  5
820
330
80C
100
AcDbEntity
  8
0
  6
Continuous
 62
     4
100
AcDbMText
 10
82.77329997282029
 20
-3.249999999999999
 30
0.0
 40
3.2
 41
0.0
 71
     5
 72
     5
  1
\T1.40;\W0.60;石川
  7
STD
 73
     1
 44
1.0
1001
DEKIMAS
1040
0.15
1001
ACAD
1000
MTEXTBEGIN
1070
    73
1070
     1
1070
    44
1040
1.0
1070
    74
1070
     0
1000
MTEXTEND
  0
ENDBLK
  5
80E
330
80C
100
AcDbEntity
  8
0
 62
     7
100
AcDbBlockEnd
  0
BLOCK
  5
824
330
823
100
AcDbEntity
  8
0
 62
     7
100
AcDbBlockBegin
  2
*D3
 70
     1
 10
0.0
 20
0.0
 30
0.0
  3
*D3
  1

  0
LINE
  5
DD2
330
823
100
AcDbEntity
  8
PV0001_4
  6
Continuous
 62
     4
370
     9
100
AcDbLine
 10
506.3684844970699
 20
317.582855224608
 30
0.0
 11
326.80715942383
 21
317.5828552246081
 31
0.0
  0
LINE
  5
DD3
330
823
100
AcDbEntity
  8
PV0001_4
  6
Continuous
 62
     4
370
     9
100
AcDbLine
 10
439.6229248046799
 20
782.582855224608
 30
0.0
 11
326.8071594238301
 21
782.582855224608
 31
0.0
  0
LINE
  5
DD4
330
823
100
AcDbEntity
  8
PV0001_4
  6
Continuous
 62
     4
370
     9
100
AcDbLine
 10
335.951171875
 20
329.5828552246081
 30
0.0
 11
335.9511718750001
 21
770.582855224608
 31
0.0
  0
INSERT
  5
DD5
330
823
100
AcDbEntity
  8
PV0001_4
  6
Continuous
 62
     4
370
     9
100
AcDbBlockReference
  2
_Open30
 10
335.951171875
 20
317.5828552246081
 30
0.0
 41
12.0
 42
12.0
 43
12.0
 50
270.0
  0
INSERT
  5
DD6
330
823
100
AcDbEntity
  8
PV0001_4
  6
Continuous
 62
     4
370
     9
100
AcDbBlockReference
  2
_Open30
 10
335.9511718750001
 20
782.582855224608
 30
0.0
 41
12.0
 42
12.0
 43
12.0
 50
90.0
  0
MTEXT
  5
DD7
330
823
100
AcDbEntity
  8
PV0001_4
  6
Continuous
 62
     4
100
AcDbMText
 10
325.951171875
 20
547.835601806638
 30
0.0
 40
12.0
 41
0.0
 71
     5
 72
     1
  1
\A1;465
  7
STD
 11
0.0000000000000001
 21
1.0
 31
0.0
 73
     1
 44
1.0
1001
ACAD
1000
MTEXTBEGIN
1070
    73
1070
     1
1070
    44
1040
1.0
1070
    74
1070
     0
1000
MTEXTEND
  0
POINT
  5
DD8
330
823
100
AcDbEntity
  8
Defpoints
  6
Continuous
 62
     0
100
AcDbPoint
 10
510.3684844970699
 20
317.582855224608
 30
0.0
  0
POINT
  5
DD9
330
823
100
AcDbEntity
  8
Defpoints
  6
Continuous
 62
     0
100
AcDbPoint
 10
443.6229248046799
 20
782.582855224608
 30
0.0
  0
POINT
  5
DDA
330
823
100
AcDbEntity
  8
Defpoints
  6
Continuous
 62
     0
100
AcDbPoint
 10
335.9511718750001
 20
782.582855224608
 30
0.0
  0
ENDBLK
  5
825
330
823
100
AcDbEntity
  8
0
 62
     7
100
AcDbBlockEnd
  0
BLOCK
  5
867
330
866
100
AcDbEntity
  8
0
 62
     7
100
AcDbBlockBegin
  2
*D4
 70
     1
 10
0.0
 20
0.0
 30
0.0
  3
*D4
  1

  0
LINE
  5
DDB
330
866
100
AcDbEntity
  8
PV0001_4
  6
Continuous
 62
     4
370
     9
100
AcDbLine
 10
446.00294494629
 20
762.582855224608
 30
0.0
 11
381.6630554199201
 21
762.582855224608
 31
0.0
  0
LINE
  5
DDC
330
866
100
AcDbEntity
  8
PV0001_4
  6
Continuous
 62
     4
370
     9
100
AcDbLine
 10
390.8070678710901
 20
750.582855224608
 30
0.0
 11
390.8070678710901
 21
738.582855224608
 31
0.0
  0
LINE
  5
DDD
330
866
100
AcDbEntity
  8
PV0001_4
  6
Continuous
 62
     4
370
     9
100
AcDbLine
 10
390.8070678710901
 20
794.582855224608
 30
0.0
 11
390.8070678710901
 21
806.5828552246079
 31
0.0
  0
MTEXT
  5
DDE
330
866
100
AcDbEntity
  8
PV0001_4
  6
Continuous
 62
     4
100
AcDbMText
 10
380.80706787109
 20
798.451934814448
 30
0.0
 40
12.0
 41
0.0
 71
     5
 72
     1
  1
\A1;20
  7
STD
 11
0.0000000000000001
 21
1.0
 31
0.0
 73
     1
 44
1.0
1001
ACAD
1000
MTEXTBEGIN
1070
    73
1070
     1
1070
    44
1040
1.0
1070
    74
1070
     0
1000
MTEXTEND
  0
LINE
  5
DDF
330
866
100
AcDbEntity
  8
PV0001_4
  6
Continuous
 62
     4
370
     9
100
AcDbLine
 10
390.8070678710901
 20
762.582855224608
 30
0.0
 11
390.8070678710901
 21
782.582855224608
 31
0.0
  0
INSERT
  5
DE0
330
866
100
AcDbEntity
  8
PV0001_4
  6
Continuous
 62
     4
370
     9
100
AcDbBlockReference
  2
_Open30
 10
390.8070678710901
 20
762.582855224608
 30
0.0
 41
12.0
 42
12.0
 43
12.0
 50
90.0
  0
INSERT
  5
DE1
330
866
100
AcDbEntity
  8
PV0001_4
  6
Continuous
 62
     4
370
     9
100
AcDbBlockReference
  2
_Open30
 10
390.8070678710901
 20
782.582855224608
 30
0.0
 41
12.0
 42
12.0
 43
12.0
 50
270.0
  0
POINT
  5
DE2
330
866
100
AcDbEntity
  8
Defpoints
  6
Continuous
 62
     0
100
AcDbPoint
 10
450.0029449462899
 20
762.582855224608
 30
0.0
  0
POINT
  5
DE3
330
866
100
AcDbEntity
  8
Defpoints
  6
Continuous
 62
     0
100
AcDbPoint
 10
443.6229248046799
 20
782.582855224608
 30
0.0
  0
POINT
  5
DE4
330
866
100
AcDbEntity
  8
Defpoints
  6
Continuous
 62
     0
100
AcDbPoint
 10
390.8070678710901
 20
782.582855224608
 30
0.0
  0
ENDBLK
  5
868
330
866
100
AcDbEntity
  8
0
 62
     7
100
AcDbBlockEnd
  0
BLOCK
  5
8D6
330
8D5
100
AcDbEntity
  8
0
 62
     7
100
AcDbBlockBegin
  2
*D5
 70
     1
 10
0.0
 20
0.0
 30
0.0
  3
*D5
  1

  0
LINE
  5
DE5
330
8D5
100
AcDbEntity
  8
PV0001_4
  6
Continuous
 62
     4
370
     9
100
AcDbLine
 10
491.12292480468
 20
313.582855224608
 30
0.0
 11
491.12292480468
 21
198.967697143558
 31
0.0
  0
LINE
  5
DE6
330
8D5
100
AcDbEntity
  8
PV0001_4
  6
Continuous
 62
     4
370
     9
100
AcDbLine
 10
851.1229248046799
 20
313.582855224608
 30
0.0
 11
851.1229248046799
 21
198.967697143558
 31
0.0
  0
LINE
  5
DE7
330
8D5
100
AcDbEntity
  8
PV0001_4
  6
Continuous
 62
     4
370
     9
100
AcDbLine
 10
503.1229248046799
 20
208.111694335938
 30
0.0
 11
839.12292480468
 21
208.111694335938
 31
0.0
  0
INSERT
  5
DE8
330
8D5
100
AcDbEntity
  8
PV0001_4
  6
Continuous
 62
     4
370
     9
100
AcDbBlockReference
  2
_Open30
 10
491.12292480468
 20
208.111694335938
 30
0.0
 41
12.0
 42
12.0
 43
12.0
 50
180.0
  0
INSERT
  5
DE9
330
8D5
100
AcDbEntity
  8
PV0001_4
  6
Continuous
 62
     4
370
     9
100
AcDbBlockReference
  2
_Open30
 10
851.1229248046799
 20
208.111694335938
 30
0.0
 41
12.0
 42
12.0
 43
12.0
  0
MTEXT
  5
DEA
102
{ACAD_XDICTIONARY
360
E93
102
}
330
8D5
100
AcDbEntity
  8
PV0001_4
  6
Continuous
 62
     4
100
AcDbMText
 10
671.4170684814377
 20
218.111694335938
 30
0.0
 40
12.0
 41
0.0
 71
     5
 72
     1
  1
\A1;OD\U+2205360
  7
STD
 73
     1
 44
1.0
1001
ACAD
1000
MTEXTBEGIN
1070
    73
1070
     1
1070
    44
1040
1.0
1070
    74
1070
     0
1000
MTEXTEND
  0
POINT
  5
DEB
330
8D5
100
AcDbEntity
  8
Defpoints
  6
Continuous
 62
     0
100
AcDbPoint
 10
491.12292480468
 20
317.582855224608
 30
0.0
  0
POINT
  5
DEC
330
8D5
100
AcDbEntity
  8
Defpoints
  6
Continuous
 62
     0
100
AcDbPoint
 10
851.1229248046799
 20
317.582855224608
 30
0.0
  0
POINT
  5
DED
330
8D5
100
AcDbEntity
  8
Defpoints
  6
Continuous
 62
     0
100
AcDbPoint
 10
851.1229248046799
 20
208.111694335938
 30
0.0
  0
ENDBLK
  5
8D7
330
8D5
100
AcDbEntity
  8
0
 62
     7
100
AcDbBlockEnd
  0
BLOCK
  5
919
330
918
100
AcDbEntity
  8
0
 62
     7
100
AcDbBlockBegin
  2
*D6
 70
     1
 10
0.0
 20
0.0
 30
0.0
  3
*D6
  1

  0
LINE
  5
DEE
330
918
100
AcDbEntity
  8
PV0001_4
  6
Continuous
 62
     4
370
     9
100
AcDbLine
 10
556.1230392456
 20
328.5829029083231
 30
0.0
 11
556.1230392456
 21
250.8408813476551
 31
0.0
  0
LINE
  5
DEF
330
918
100
AcDbEntity
  8
PV0001_4
  6
Continuous
 62
     4
370
     9
100
AcDbLine
 10
786.1229248046799
 20
328.582855224608
 30
0.0
 11
786.1229248046799
 21
250.8408813476551
 31
0.0
  0
LINE
  5
DF0
330
918
100
AcDbEntity
  8
PV0001_4
  6
Continuous
 62
     4
370
     9
100
AcDbLine
 10
568.1230392456
 20
259.984878540038
 30
0.0
 11
774.12292480468
 21
259.984878540038
 31
0.0
  0
INSERT
  5
DF1
330
918
100
AcDbEntity
  8
PV0001_4
  6
Continuous
 62
     4
370
     9
100
AcDbBlockReference
  2
_Open30
 10
556.1230392456
 20
259.984878540038
 30
0.0
 41
12.0
 42
12.0
 43
12.0
 50
180.0
  0
INSERT
  5
DF2
330
918
100
AcDbEntity
  8
PV0001_4
  6
Continuous
 62
     4
370
     9
100
AcDbBlockReference
  2
_Open30
 10
786.1229248046799
 20
259.984878540038
 30
0.0
 41
12.0
 42
12.0
 43
12.0
  0
MTEXT
  5
DF3
102
{ACAD_XDICTIONARY
360
E95
102
}
330
918
100
AcDbEntity
  8
PV0001_4
  6
Continuous
 62
     4
100
AcDbMText
 10
671.1229820251389
 20
269.984878540038
 30
0.0
 40
12.0
 41
0.0
 71
     5
 72
     1
  1
\A1;\U+2205230
  7
STD
 73
     1
 44
1.0
1001
ACAD
1000
MTEXTBEGIN
1070
    73
1070
     1
1070
    44
1040
1.0
1070
    74
1070
     0
1000
MTEXTEND
  0
POINT
  5
DF4
330
918
100
AcDbEntity
  8
Defpoints
  6
Continuous
 62
     0
100
AcDbPoint
 10
556.1230392456
 20
332.5829029083231
 30
0.0
  0
POINT
  5
DF5
330
918
100
AcDbEntity
  8
Defpoints
  6
Continuous
 62
     0
100
AcDbPoint
 10
786.1229248046799
 20
332.582855224608
 30
0.0
  0
POINT
  5
DF6
330
918
100
AcDbEntity
  8
Defpoints
  6
Continuous
 62
     0
100
AcDbPoint
 10
786.1229248046799
 20
259.984878540038
 30
0.0
  0
ENDBLK
  5
91A
330
918
100
AcDbEntity
  8
0
 62
     7
100
AcDbBlockEnd
  0
BLOCK
  5
95C
330
95B
100
AcDbEntity
  8
0
 62
     7
100
AcDbBlockBegin
  2
*D7
 70
     1
 10
0.0
 20
0.0
 30
0.0
  3
*D7
  1

  0
LINE
  5
DF7
330
95B
100
AcDbEntity
  8
PV0001_4
  6
Continuous
 62
     4
370
     9
100
AcDbLine
 10
675.12292480468
 20
337.582855224608
 30
0.0
 11
737.5804595947189
 21
337.582855224608
 31
0.0
  0
LINE
  5
DF8
330
95B
100
AcDbEntity
  8
PV0001_4
  6
Continuous
 62
     4
370
     9
100
AcDbLine
 10
728.436458587639
 20
305.582855224608
 30
0.0
 11
728.436458587639
 21
293.582855224608
 31
0.0
  0
LINE
  5
DF9
330
95B
100
AcDbEntity
  8
PV0001_4
  6
Continuous
 62
     4
370
     9
100
AcDbLine
 10
728.436458587639
 20
349.582855224608
 30
0.0
 11
728.436458587639
 21
361.582855224608
 31
0.0
  0
MTEXT
  5
DFA
330
95B
100
AcDbEntity
  8
PV0001_4
  6
Continuous
 62
     4
100
AcDbMText
 10
718.4364585876389
 20
302.775100708007
 30
0.0
 40
12.0
 41
0.0
 71
     5
 72
     1
  1
\A1;20
  7
STD
 11
0.0000000000000001
 21
1.0
 31
0.0
 73
     1
 44
1.0
1001
ACAD
1000
MTEXTBEGIN
1070
    73
1070
     1
1070
    44
1040
1.0
1070
    74
1070
     0
1000
MTEXTEND
  0
LINE
  5
DFB
330
95B
100
AcDbEntity
  8
PV0001_4
  6
Continuous
 62
     4
370
     9
100
AcDbLine
 10
728.436458587639
 20
317.582855224608
 30
0.0
 11
728.436458587639
 21
337.582855224608
 31
0.0
  0
INSERT
  5
DFC
330
95B
100
AcDbEntity
  8
PV0001_4
  6
Continuous
 62
     4
370
     9
100
AcDbBlockReference
  2
_Open30
 10
728.436458587639
 20
317.582855224608
 30
0.0
 41
12.0
 42
12.0
 43
12.0
 50
90.0
  0
INSERT
  5
DFD
330
95B
100
AcDbEntity
  8
PV0001_4
  6
Continuous
 62
     4
370
     9
100
AcDbBlockReference
  2
_Open30
 10
728.436458587639
 20
337.582855224608
 30
0.0
 41
12.0
 42
12.0
 43
12.0
 50
270.0
  0
POINT
  5
DFE
330
95B
100
AcDbEntity
  8
Defpoints
  6
Continuous
 62
     0
100
AcDbPoint
 10
671.12292480468
 20
317.582855224608
 30
0.0
  0
POINT
  5
DFF
330
95B
100
AcDbEntity
  8
Defpoints
  6
Continuous
 62
     0
100
AcDbPoint
 10
671.12292480468
 20
337.582855224608
 30
0.0
  0
POINT
  5
E00
330
95B
100
AcDbEntity
  8
Defpoints
  6
Continuous
 62
     0
100
AcDbPoint
 10
728.436458587639
 20
337.582855224608
 30
0.0
  0
ENDBLK
  5
95D
330
95B
100
AcDbEntity
  8
0
 62
     7
100
AcDbBlockEnd
  0
BLOCK
  5
9CB
330
9CA
100
AcDbEntity
  8
0
 62
     7
100
AcDbBlockBegin
  2
*D8
 70
     1
 10
0.0
 20
0.0
 30
0.0
  3
*D8
  1

  0
LINE
  5
E01
330
9CA
100
AcDbEntity
  8
PV0001_4
  6
Continuous
 62
     4
370
     9
100
AcDbLine
 10
443.6229248046799
 20
786.582855224608
 30
0.0
 11
443.6229248046799
 21
882.4554138183581
 31
0.0
  0
LINE
  5
E02
330
9CA
100
AcDbEntity
  8
PV0001_4
  6
Continuous
 62
     4
370
     9
100
AcDbLine
 10
898.62292480468
 20
786.582855224608
 30
0.0
 11
898.62292480468
 21
882.4554138183581
 31
0.0
  0
LINE
  5
E03
330
9CA
100
AcDbEntity
  8
PV0001_4
  6
Continuous
 62
     4
370
     9
100
AcDbLine
 10
455.62292480468
 20
873.3114318847579
 30
0.0
 11
886.6229248046799
 21
873.3114318847579
 31
0.0
  0
INSERT
  5
E04
330
9CA
100
AcDbEntity
  8
PV0001_4
  6
Continuous
 62
     4
370
     9
100
AcDbBlockReference
  2
_Open30
 10
443.6229248046799
 20
873.3114318847579
 30
0.0
 41
12.0
 42
12.0
 43
12.0
 50
180.0
  0
INSERT
  5
E05
330
9CA
100
AcDbEntity
  8
PV0001_4
  6
Continuous
 62
     4
370
     9
100
AcDbBlockReference
  2
_Open30
 10
898.62292480468
 20
873.3114318847579
 30
0.0
 41
12.0
 42
12.0
 43
12.0
  0
MTEXT
  5
E06
102
{ACAD_XDICTIONARY
360
E97
102
}
330
9CA
100
AcDbEntity
  8
PV0001_4
  6
Continuous
 62
     4
100
AcDbMText
 10
671.12292480468
 20
883.3114318847579
 30
0.0
 40
12.0
 41
0.0
 71
     5
 72
     1
  1
\A1;\U+2205455
  7
STD
 73
     1
 44
1.0
1001
ACAD
1000
MTEXTBEGIN
1070
    73
1070
     1
1070
    44
1040
1.0
1070
    74
1070
     0
1000
MTEXTEND
  0
POINT
  5
E07
330
9CA
100
AcDbEntity
  8
Defpoints
  6
Continuous
 62
     0
100
AcDbPoint
 10
443.6229248046799
 20
782.582855224608
 30
0.0
  0
POINT
  5
E08
330
9CA
100
AcDbEntity
  8
Defpoints
  6
Continuous
 62
     0
100
AcDbPoint
 10
898.62292480468
 20
782.582855224608
 30
0.0
  0
POINT
  5
E09
330
9CA
100
AcDbEntity
  8
Defpoints
  6
Continuous
 62
     0
100
AcDbPoint
 10
898.62292480468
 20
873.3114318847579
 30
0.0
  0
ENDBLK
  5
9CC
330
9CA
100
AcDbEntity
  8
0
 62
     7
100
AcDbBlockEnd
  0
BLOCK
  5
A0E
330
A0D
100
AcDbEntity
  8
0
 62
     7
100
AcDbBlockBegin
  2
*D9
 70
     1
 10
0.0
 20
0.0
 30
0.0
  3
*D9
  1

  0
LINE
  5
E0A
330
A0D
100
AcDbEntity
  8
PV0001_4
  6
Continuous
 62
     4
370
     9
100
AcDbLine
 10
473.6229248046799
 20
776.5828552246079
 30
0.0
 11
473.6229248046799
 21
841.0915222167879
 31
0.0
  0
LINE
  5
E0B
330
A0D
100
AcDbEntity
  8
PV0001_4
  6
Continuous
 62
     4
370
     9
100
AcDbLine
 10
868.6229248046799
 20
776.5828552246079
 30
0.0
 11
868.6229248046799
 21
841.0915222167879
 31
0.0
  0
LINE
  5
E0C
330
A0D
100
AcDbEntity
  8
PV0001_4
  6
Continuous
 62
     4
370
     9
100
AcDbLine
 10
485.6229248046799
 20
831.9475402831979
 30
0.0
 11
856.62292480468
 21
831.9475402831979
 31
0.0
  0
INSERT
  5
E0D
330
A0D
100
AcDbEntity
  8
PV0001_4
  6
Continuous
 62
     4
370
     9
100
AcDbBlockReference
  2
_Open30
 10
473.6229248046799
 20
831.9475402831979
 30
0.0
 41
12.0
 42
12.0
 43
12.0
 50
180.0
  0
INSERT
  5
E0E
330
A0D
100
AcDbEntity
  8
PV0001_4
  6
Continuous
 62
     4
370
     9
100
AcDbBlockReference
  2
_Open30
 10
868.6229248046799
 20
831.9475402831979
 30
0.0
 41
12.0
 42
12.0
 43
12.0
  0
MTEXT
  5
E0F
102
{ACAD_XDICTIONARY
360
E99
102
}
330
A0D
100
AcDbEntity
  8
PV0001_4
  6
Continuous
 62
     4
100
AcDbMText
 10
671.12292480468
 20
841.9475402831979
 30
0.0
 40
12.0
 41
0.0
 71
     5
 72
     1
  1
\A1;OD\U+2205395
  7
STD
 73
     1
 44
1.0
1001
ACAD
1000
MTEXTBEGIN
1070
    73
1070
     1
1070
    44
1040
1.0
1070
    74
1070
     0
1000
MTEXTEND
  0
POINT
  5
E10
330
A0D
100
AcDbEntity
  8
Defpoints
  6
Continuous
 62
     0
100
AcDbPoint
 10
473.6229248046799
 20
772.5828552246079
 30
0.0
  0
POINT
  5
E11
330
A0D
100
AcDbEntity
  8
Defpoints
  6
Continuous
 62
     0
100
AcDbPoint
 10
868.6229248046799
 20
772.5828552246079
 30
0.0
  0
POINT
  5
E12
330
A0D
100
AcDbEntity
  8
Defpoints
  6
Continuous
 62
     0
100
AcDbPoint
 10
868.6229248046799
 20
831.9475402831979
 30
0.0
  0
ENDBLK
  5
A0F
330
A0D
100
AcDbEntity
  8
0
 62
     7
100
AcDbBlockEnd
  0
BLOCK
  5
A51
330
A50
100
AcDbEntity
  8
0
 62
     7
100
AcDbBlockBegin
  2
*D10
 70
     1
 10
0.0
 20
0.0
 30
0.0
  3
*D10
  1

  0
LINE
  5
E13
330
A50
100
AcDbEntity
  8
PV0001_4
  6
Continuous
 62
     4
370
     9
100
AcDbLine
 10
532.668048935089
 20
359.4041705709788
 30
0.0
 11
504.6506545594253
 21
331.987649777878
 31
0.0
  0
MTEXT
  5
E14
330
A50
100
AcDbEntity
  8
PV0001_4
  6
Continuous
 62
     4
100
AcDbMText
 10
515.9537180310064
 20
357.039610901858
 30
0.0
 40
12.0
 41
0.0
 71
     5
 72
     1
  1
\A1;R20
  7
STD
 11
0.7147294483587688
 21
0.6994010406403256
 31
0.0
 73
     1
 44
1.0
1001
ACAD
1000
MTEXTBEGIN
1070
    73
1070
     1
1070
    44
1040
1.0
1070
    74
1070
     0
1000
MTEXTEND
  0
INSERT
  5
E15
330
A50
100
AcDbEntity
  8
PV0001_4
  6
Continuous
 62
     4
370
     9
100
AcDbBlockReference
  2
_Open30
 10
496.0739011791201
 20
323.5948372901941
 30
0.0
 41
12.0
 42
12.0
 43
12.0
 50
224.3789691391736
  0
POINT
  5
E16
330
A50
100
AcDbEntity
  8
Defpoints
  6
Continuous
 62
     0
100
AcDbPoint
 10
496.0739011791201
 20
323.5948372901941
 30
0.0
  0
POINT
  5
E17
330
A50
100
AcDbEntity
  8
Defpoints
  6
Continuous
 62
     0
100
AcDbPoint
 10
510.3684901463
 20
337.5828581030051
 30
0.0
  0
ENDBLK
  5
A52
330
A50
100
AcDbEntity
  8
0
 62
     7
100
AcDbBlockEnd
  0
BLOCK
  5
AA0
330
A9F
100
AcDbEntity
  8
0
 62
     7
100
AcDbBlockBegin
  2
*D11
 70
     1
 10
0.0
 20
0.0
 30
0.0
  3
*D11
  1

  0
LINE
  5
E18
330
A9F
100
AcDbEntity
  8
PV0001_4
  6
Continuous
 62
     4
370
     9
100
AcDbLine
 10
849.1335032908814
 20
630.1273798711149
 30
0.0
 11
837.1423708176475
 21
630.5886195152857
 31
0.0
  0
LINE
  5
E19
330
A9F
100
AcDbEntity
  8
PV0001_4
  6
Continuous
 62
     4
370
     9
100
AcDbLine
 10
875.114305563739
 20
629.1280267222483
 30
0.0
 11
887.1054380369729
 21
628.6667870780775
 31
0.0
  0
MTEXT
  5
E1A
330
A9F
100
AcDbEntity
  8
PV0001_4
  6
Continuous
 62
     4
100
AcDbMText
 10
881.7411626347821
 20
638.8805193298992
 30
0.0
 40
12.0
 41
0.0
 71
     5
 72
     1
  1
\A1;2
  7
STD
 11
0.9992610394361609
 21
-0.0384366370142275
 31
0.0
 73
     1
 44
1.0
1001
ACAD
1000
MTEXTBEGIN
1070
    73
1070
     1
1070
    44
1040
1.0
1070
    74
1070
     0
1000
MTEXTEND
  0
LINE
  5
E1B
330
A9F
100
AcDbEntity
  8
PV0001_4
  6
Continuous
 62
     4
370
     9
100
AcDbLine
 10
861.1246357641153
 20
629.6661402269442
 30
0.0
 11
863.1231730905049
 21
629.5892663664191
 31
0.0
  0
INSERT
  5
E1C
330
A9F
100
AcDbEntity
  8
PV0001_4
  6
Continuous
 62
     4
370
     9
100
AcDbBlockReference
  2
_Open30
 10
861.1246357641153
 20
629.6661402269442
 30
0.0
 41
12.0
 42
12.0
 43
12.0
 50
357.7972002996371
  0
INSERT
  5
E1D
330
A9F
100
AcDbEntity
  8
PV0001_4
  6
Continuous
 62
     4
370
     9
100
AcDbBlockReference
  2
_Open30
 10
863.1231730905049
 20
629.5892663664191
 30
0.0
 41
12.0
 42
12.0
 43
12.0
 50
177.7972002996371
  0
POINT
  5
E1E
330
A9F
100
AcDbEntity
  8
Defpoints
  6
Continuous
 62
     0
100
AcDbPoint
 10
861.1246359995501
 20
629.666146347688
 30
0.0
  0
POINT
  5
E1F
330
A9F
100
AcDbEntity
  8
Defpoints
  6
Continuous
 62
     0
100
AcDbPoint
 10
863.1231733259399
 20
629.5892724871682
 30
0.0
  0
POINT
  5
E20
330
A9F
100
AcDbEntity
  8
Defpoints
  6
Continuous
 62
     0
100
AcDbPoint
 10
863.1231730905049
 20
629.5892663664191
 30
0.0
  0
ENDBLK
  5
AA1
330
A9F
100
AcDbEntity
  8
0
 62
     7
100
AcDbBlockEnd
  0
ENDSEC
  0
SECTION
  2
ENTITIES
  0
DIMENSION
  5
822
330
1F
100
AcDbEntity
  8
PV0001_4
  6
Continuous
 62
     7
100
AcDbDimension
  2
*D3
 10
335.9511718750001
 20
782.582855224608
 30
0.0
 11
335.951171875
 21
547.835601806638
 31
0.0
 70
   160
  1
<>
 71
     5
 42
465.0
  3
ASKSTANDARD
100
AcDbAlignedDimension
 13
510.3684844970699
 23
317.582855224608
 33
0.0
 14
443.6229248046799
 24
782.582855224608
 34
0.0
 50
90.0
100
AcDbRotatedDimension
1001
ACAD
1000
DSTYLE
1002
{
1070
    44
1040
2.286003112792499
1070
    40
1040
4.0
1070
   284
1070
     8
1070
   140
1040
3.0
1070
   271
1070
     0
1070
   173
1070
     1
1070
   343
1005
71F
1070
   344
1005
71F
1002
}
  0
DIMENSION
  5
865
330
1F
100
AcDbEntity
  8
PV0001_4
  6
Continuous
 62
     7
100
AcDbDimension
  2
*D4
 10
390.8070678710901
 20
782.582855224608
 30
0.0
 11
390.80706787109
 21
798.451934814448
 31
0.0
 70
   160
  1
<>
 71
     5
 42
20.0
  3
ASKSTANDARD
100
AcDbAlignedDimension
 13
450.0029449462899
 23
762.582855224608
 33
0.0
 14
443.6229248046799
 24
782.582855224608
 34
0.0
 50
90.0
100
AcDbRotatedDimension
1001
ACAD
1000
DSTYLE
1002
{
1070
    44
1040
2.286003112792499
1070
    40
1040
4.0
1070
   284
1070
     8
1070
   140
1040
3.0
1070
   271
1070
     0
1070
   173
1070
     1
1070
   343
1005
71F
1070
   344
1005
71F
1070
    76
1070
     1
1070
   279
1070
     1
1002
}
  0
DIMENSION
  5
8D4
330
1F
100
AcDbEntity
  8
PV0001_4
  6
Continuous
 62
     7
100
AcDbDimension
  2
*D5
 10
851.1229248046799
 20
208.111694335938
 30
0.0
 11
671.4170684814377
 21
208.111694335938
 31
0.0
 70
   160
  1
OD\U+2205<>
 71
     5
 42
360.0
  3
ASKSTANDARD
100
AcDbAlignedDimension
 13
491.12292480468
 23
317.582855224608
 33
0.0
 14
851.1229248046799
 24
317.582855224608
 34
0.0
100
AcDbRotatedDimension
1001
ACAD
1000
DSTYLE
1002
{
1070
    44
1040
2.285999298094999
1070
    40
1040
4.0
1070
   284
1070
     8
1070
   140
1040
3.0
1070
   271
1070
     0
1070
   173
1070
     1
1070
   343
1005
71F
1070
   344
1005
71F
1002
}
  0
DIMENSION
  5
917
330
1F
100
AcDbEntity
  8
PV0001_4
  6
Continuous
 62
     7
100
AcDbDimension
  2
*D6
 10
786.1229248046799
 20
259.984878540038
 30
0.0
 11
671.1229820251389
 21
259.984878540038
 31
0.0
 70
   160
  1
\U+2205<>
 71
     5
 42
229.99988555908
  3
ASKSTANDARD
100
AcDbAlignedDimension
 13
556.1230392456
 23
332.5829029083231
 33
0.0
 14
786.1229248046799
 24
332.582855224608
 34
0.0
100
AcDbRotatedDimension
1001
ACAD
1000
DSTYLE
1002
{
1070
    44
1040
2.285999298095749
1070
    40
1040
4.0
1070
   284
1070
     8
1070
   140
1040
3.0
1070
   271
1070
     0
1070
   173
1070
     1
1070
   343
1005
71F
1070
   344
1005
71F
1002
}
  0
DIMENSION
  5
95A
330
1F
100
AcDbEntity
  8
PV0001_4
  6
Continuous
 62
     7
100
AcDbDimension
  2
*D7
 10
728.436458587639
 20
337.582855224608
 30
0.0
 11
728.436458587639
 21
302.775100708007
 31
0.0
 70
   160
  1
<>
 71
     5
 42
20.0
  3
ASKSTANDARD
100
AcDbAlignedDimension
 13
671.12292480468
 23
317.582855224608
 33
0.0
 14
671.12292480468
 24
337.582855224608
 34
0.0
 50
90.0
100
AcDbRotatedDimension
1001
ACAD
1000
DSTYLE
1002
{
1070
    44
1040
2.286000251770001
1070
    40
1040
4.0
1070
   284
1070
     8
1070
   140
1040
3.0
1070
   271
1070
     0
1070
   173
1070
     1
1070
   343
1005
71F
1070
   344
1005
71F
1070
    75
1070
     1
1070
   279
1070
     1
1002
}
  0
DIMENSION
  5
9C9
330
1F
100
AcDbEntity
  8
PV0001_4
  6
Continuous
 62
     7
100
AcDbDimension
  2
*D8
 10
898.62292480468
 20
873.3114318847579
 30
0.0
 11
671.12292480468
 21
873.3114318847579
 31
0.0
 70
   160
  1
\U+2205<>
 71
     5
 42
455.0
  3
ASKSTANDARD
100
AcDbAlignedDimension
 13
443.6229248046799
 23
782.582855224608
 33
0.0
 14
898.62292480468
 24
782.582855224608
 34
0.0
100
AcDbRotatedDimension
1001
ACAD
1000
DSTYLE
1002
{
1070
    44
1040
2.2859954834
1070
    40
1040
4.0
1070
   284
1070
     8
1070
   140
1040
3.0
1070
   271
1070
     0
1070
   173
1070
     1
1070
   343
1005
71F
1070
   344
1005
71F
1002
}
  0
DIMENSION
  5
A0C
330
1F
100
AcDbEntity
  8
PV0001_4
  6
Continuous
 62
     7
100
AcDbDimension
  2
*D9
 10
868.6229248046799
 20
831.9475402831979
 30
0.0
 11
671.12292480468
 21
831.9475402831979
 31
0.0
 70
   160
  1
OD\U+2205<>
 71
     5
 42
395.0
  3
ASKSTANDARD
100
AcDbAlignedDimension
 13
473.6229248046799
 23
772.5828552246079
 33
0.0
 14
868.6229248046799
 24
772.5828552246079
 34
0.0
100
AcDbRotatedDimension
1001
ACAD
1000
DSTYLE
1002
{
1070
    44
1040
2.285995483397499
1070
    40
1040
4.0
1070
   284
1070
     8
1070
   140
1040
3.0
1070
   271
1070
     0
1070
   173
1070
     1
1070
   343
1005
71F
1070
   344
1005
71F
1002
}
  0
DIMENSION
  5
A4F
330
1F
100
AcDbEntity
  8
PV0001_4
  6
Continuous
 62
     7
100
AcDbDimension
  2
*D10
 10
510.3684901463
 20
337.5828581030051
 30
0.0
 11
522.9477284374097
 21
349.8923164182703
 31
0.0
 70
   164
  1
<>
 71
     5
 42
20.00000000000648
  3
ASKSTANDARD
100
AcDbRadialDimension
 15
496.0739011791201
 25
323.5948372901941
 35
0.0
 40
0.0
1001
ACAD
1000
DSTYLE
1002
{
1070
    40
1040
4.0
1070
   284
1070
     8
1070
   140
1040
3.0
1070
   271
1070
     0
1070
    45
1040
0.1
1070
     3
1000
R<>
1070
   173
1070
     1
1070
   343
1005
71F
1070
   344
1005
71F
1070
   279
1070
     1
1002
}
  0
DIMENSION
  5
A9E
330
1F
100
AcDbEntity
  8
PV0001_4
  6
Continuous
 62
     7
100
AcDbDimension
  2
*D11
 10
863.1231730905049
 20
629.5892663664191
 30
0.0
 11
881.3567962646398
 21
628.8879089355376
 31
0.0
 70
   160
  1
<>
 71
     5
 42
2.000015258793041
  3
ASKSTANDARD
100
AcDbAlignedDimension
 13
861.1246359995501
 23
629.666146347688
 33
0.0
 14
863.1231733259399
 24
629.589272487168
 34
0.0
 50
357.7972002996371
100
AcDbRotatedDimension
1001
ACAD
1000
DSTYLE
1002
{
1070
    40
1040
4.0
1070
   284
1070
     8
1070
   140
1040
3.0
1070
   271
1070
     0
1070
   173
1070
     1
1070
   343
1005
71F
1070
   344
1005
71F
1070
    75
1070
     1
1070
    76
1070
     1
1070
   279
1070
     1
1002
}
  0
POINT
  5
B16
330
1F
100
AcDbEntity
  8
PV0001_4
  6
Continuous
 62
     4
100
AcDbPoint
 10
671.12292480468
 20
317.582855224608
 30
0.0
  0
POINT
  5
B17
330
1F
100
AcDbEntity
  8
PV0001_4
  6
Continuous
 62
     4
100
AcDbPoint
 10
473.6229248046799
 20
772.5828552246079
 30
0.0
  0
POINT
  5
B18
330
1F
100
AcDbEntity
  8
PV0001_4
  6
Continuous
 62
     4
100
AcDbPoint
 10
491.12292480468
 20
317.582855224608
 30
0.0
  0
POINT
  5
B19
330
1F
100
AcDbEntity
  8
PV0001_4
  6
Continuous
 62
     4
100
AcDbPoint
 10
491.12292480468
 20
317.582855224608
 30
0.0
  0
POINT
  5
B1A
330
1F
100
AcDbEntity
  8
PV0001_4
  6
Continuous
 62
     4
100
AcDbPoint
 10
868.6229248046799
 20
772.5828552246079
 30
0.0
  0
POINT
  5
B1B
330
1F
100
AcDbEntity
  8
PV0001_4
  6
Continuous
 62
     4
100
AcDbPoint
 10
851.1229248046799
 20
317.582855224608
 30
0.0
  0
POINT
  5
B1C
330
1F
100
AcDbEntity
  8
PV0001_4
  6
Continuous
 62
     4
100
AcDbPoint
 10
851.1229248046799
 20
317.582855224608
 30
0.0
  0
POINT
  5
B1D
330
1F
100
AcDbEntity
  8
PV0001_4
  6
Continuous
 62
     4
100
AcDbPoint
 10
556.1229248046799
 20
347.582855224608
 30
0.0
  0
POINT
  5
B1E
330
1F
100
AcDbEntity
  8
PV0001_4
  6
Continuous
 62
     4
100
AcDbPoint
 10
671.12292480468
 20
352.582855224608
 30
0.0
  0
POINT
  5
B1F
330
1F
100
AcDbEntity
  8
PV0001_4
  6
Continuous
 62
     4
100
AcDbPoint
 10
786.1229248046799
 20
347.582855224608
 30
0.0
  0
POINT
  5
B20
330
1F
100
AcDbEntity
  8
PV0001_4
  6
Continuous
 62
     4
100
AcDbPoint
 10
786.1229248046799
 20
332.582855224608
 30
0.0
  0
POINT
  5
B21
330
1F
100
AcDbEntity
  8
PV0001_4
  6
Continuous
 62
     4
100
AcDbPoint
 10
671.12292480468
 20
337.582855224608
 30
0.0
  0
POINT
  5
B22
330
1F
100
AcDbEntity
  8
PV0001_4
  6
Continuous
 62
     4
100
AcDbPoint
 10
556.1230392456
 20
332.5829029083231
 30
0.0
  0
LINE
  5
B23
330
1F
100
AcDbEntity
  8
PV0001_4
  6
Continuous
 62
     7
100
AcDbLine
 10
510.3684844970699
 20
317.582855224608
 30
0.0
 11
831.8773651122899
 21
317.582855224608
 31
0.0
1001
DEKIMAS
1000
実線（中）
1040
0.25
1001
DIMEXPLODE
1070
     0
  0
LINE
  5
B24
330
1F
100
AcDbEntity
  8
PV0001_4
  6
CENTER2
 62
     1
100
AcDbLine
 10
671.12292480468
 20
792.0100097656179
 30
0.0
 11
671.12292480468
 21
305.627777099608
 31
0.0
1001
DEKIMAS
1000
一点鎖線（細）
1040
0.15
1001
DIMEXPLODE
1070
     0
  0
LINE
  5
B25
330
1F
100
AcDbEntity
  8
PV0001_4
  6
Continuous
 62
     7
100
AcDbLine
 10
443.6229248046799
 20
782.582855224608
 30
0.0
 11
898.62292480468
 21
782.582855224608
 31
0.0
1001
DEKIMAS
1000
実線（中）
1040
0.25
1001
DIMEXPLODE
1070
     0
  0
LINE
  5
B26
330
1F
100
AcDbEntity
  8
PV0001_4
  6
Continuous
 62
     7
100
AcDbLine
 10
450.0029449462899
 20
762.582855224608
 30
0.0
 11
805.11606064589
 21
762.582855224608
 31
0.0
1001
DEKIMAS
1000
実線（中）
1040
0.25
1001
DIMEXPLODE
1070
     0
  0
LINE
  5
B27
330
1F
100
AcDbEntity
  8
PV0001_4
  6
Continuous
 62
     7
100
AcDbLine
 10
474.0696897050599
 20
760.967164396838
 30
0.0
 11
490.38326502132
 21
336.814193523891
 31
0.0
1001
DEKIMAS
1000
実線（中）
1040
0.25
1001
DIMEXPLODE
1070
     0
  0
LINE
  5
B28
330
1F
100
AcDbEntity
  8
PV0001_4
  6
Continuous
 62
     7
 48
0.5
100
AcDbLine
 10
443.6229248046799
 20
782.582855224608
 30
0.0
 11
443.6229248046799
 21
768.3116455078079
 31
0.0
1001
DEKIMAS
1000
実線（中）
1040
0.25
1001
DIMEXPLODE
1070
     0
  0
LINE
  5
B29
330
1F
100
AcDbEntity
  8
PV0001_4
  6
HIDDEN2
 62
     4
 48
0.5
100
AcDbLine
 10
445.62292480468
 20
782.582855224608
 30
0.0
 11
445.62292480468
 21
768.3116455078079
 31
0.0
1001
DEKIMAS
1000
破線（細）
1040
0.15
1001
DIMEXPLODE
1070
     0
  0
LINE
  5
B2A
330
1F
100
AcDbEntity
  8
PV0001_4
  6
HIDDEN2
 62
     4
100
AcDbLine
 10
476.06821205441
 20
761.0440306387579
 30
0.0
 11
492.38178737067
 21
336.8910597658051
 31
0.0
1001
DEKIMAS
1000
破線（細）
1040
0.15
1001
DIMEXPLODE
1070
     0
  0
LINE
  5
B2B
330
1F
100
AcDbEntity
  8
PV0001_4
  6
HIDDEN2
 62
     4
100
AcDbLine
 10
510.3684844970699
 20
319.5828628540025
 30
0.0
 11
822.47091674803
 21
319.5828628540025
 31
0.0
1001
DEKIMAS
1000
破線（細）
1040
0.15
1001
DIMEXPLODE
1070
     0
  0
LINE
  5
B2C
330
1F
100
AcDbEntity
  8
PV0001_4
  6
Continuous
 62
     7
100
AcDbLine
 10
868.1761587314198
 20
760.9671339018079
 30
0.0
 11
851.86258458804
 21
336.814193523891
 31
0.0
1001
DEKIMAS
1000
実線（中）
1040
0.25
1001
DIMEXPLODE
1070
     0
  0
LINE
  5
B2D
330
1F
100
AcDbEntity
  8
PV0001_4
  6
Continuous
 62
     7
 48
0.5
100
AcDbLine
 10
898.62292480468
 20
782.582855224608
 30
0.0
 11
898.62292480468
 21
768.3116455078079
 31
0.0
1001
DEKIMAS
1000
実線（中）
1040
0.25
1001
DIMEXPLODE
1070
     0
  0
LINE
  5
B2E
330
1F
100
AcDbEntity
  8
PV0001_4
  6
Continuous
 62
     7
 48
0.5
100
AcDbLine
 10
896.6229248046799
 20
782.582855224608
 30
0.0
 11
896.6229248046799
 21
768.3116455078079
 31
0.0
1001
DEKIMAS
1000
実線（中）
1040
0.25
1001
DIMEXPLODE
1070
     0
  0
LINE
  5
B2F
330
1F
100
AcDbEntity
  8
PV0001_4
  6
Continuous
 62
     7
100
AcDbLine
 10
866.17762113455
 20
761.044000730168
 30
0.0
 11
849.8640469178699
 21
336.891058446308
 31
0.0
1001
DEKIMAS
1000
実線（中）
1040
0.25
1001
DIMEXPLODE
1070
     0
  0
LINE
  5
B30
330
1F
100
AcDbEntity
  8
PV0001_4
  6
Continuous
 62
     7
100
AcDbLine
 10
672.62292480468
 20
747.5828552246079
 30
0.0
 11
672.62292480468
 21
352.582855224608
 31
0.0
1001
DEKIMAS
1000
実線（中）
1040
0.25
1001
DIMEXPLODE
1070
     0
  0
LINE
  5
B31
330
1F
100
AcDbEntity
  8
PV0001_4
  6
Continuous
 62
     7
100
AcDbLine
 10
669.6229248046799
 20
747.5828552246079
 30
0.0
 11
669.6229248046799
 21
352.582855224608
 31
0.0
1001
DEKIMAS
1000
実線（中）
1040
0.25
1001
DIMEXPLODE
1070
     0
  0
LINE
  5
B32
330
1F
100
AcDbEntity
  8
PV0001_4
  6
Continuous
 62
     7
 48
0.5
100
AcDbLine
 10
669.6229248046799
 20
352.582855224608
 30
0.0
 11
672.62292480468
 21
352.582855224608
 31
0.0
1001
DEKIMAS
1000
実線（中）
1040
0.25
1001
DIMEXPLODE
1070
     0
  0
LINE
  5
B33
330
1F
100
AcDbEntity
  8
PV0001_4
  6
Continuous
 62
     7
 48
0.5
100
AcDbLine
 10
669.6229248046799
 20
747.5828552246079
 30
0.0
 11
672.62292480468
 21
747.5828552246079
 31
0.0
1001
DEKIMAS
1000
実線（中）
1040
0.25
1001
DIMEXPLODE
1070
     0
  0
LINE
  5
B34
330
1F
100
AcDbEntity
  8
PV0001_4
  6
Continuous
 62
     7
 48
0.5
100
AcDbLine
 10
675.62292480468
 20
709.082855224608
 30
0.0
 11
675.62292480468
 21
706.0828552246079
 31
0.0
1001
DEKIMAS
1000
実線（中）
1040
0.25
1001
DIMEXPLODE
1070
     0
  0
LINE
  5
B35
330
1F
100
AcDbEntity
  8
PV0001_4
  6
Continuous
 62
     7
100
AcDbLine
 10
675.62292480468
 20
706.0828552246079
 30
0.0
 11
705.62292480468
 21
706.0828552246079
 31
0.0
1001
DEKIMAS
1000
実線（中）
1040
0.25
1001
DIMEXPLODE
1070
     0
  0
LINE
  5
B36
330
1F
100
AcDbEntity
  8
PV0001_4
  6
Continuous
 62
     7
100
AcDbLine
 10
675.62292480468
 20
709.082855224608
 30
0.0
 11
705.62292480468
 21
709.082855224608
 31
0.0
1001
DEKIMAS
1000
実線（中）
1040
0.25
1001
DIMEXPLODE
1070
     0
  0
LINE
  5
B37
330
1F
100
AcDbEntity
  8
PV0001_4
  6
Continuous
 62
     7
 48
0.5
100
AcDbLine
 10
675.62292480468
 20
669.082855224608
 30
0.0
 11
675.62292480468
 21
666.082855224608
 31
0.0
1001
DEKIMAS
1000
実線（中）
1040
0.25
1001
DIMEXPLODE
1070
     0
  0
LINE
  5
B38
330
1F
100
AcDbEntity
  8
PV0001_4
  6
Continuous
 62
     7
 48
0.5
100
AcDbLine
 10
690.6229248046799
 20
669.082855224608
 30
0.0
 11
690.6229248046799
 21
666.082855224608
 31
0.0
1001
DEKIMAS
1000
実線（中）
1040
0.25
1001
DIMEXPLODE
1070
     0
  0
LINE
  5
B39
330
1F
100
AcDbEntity
  8
PV0001_4
  6
Continuous
 62
     7
 48
0.5
100
AcDbLine
 10
675.62292480468
 20
666.082855224608
 30
0.0
 11
690.6229248046799
 21
666.082855224608
 31
0.0
1001
DEKIMAS
1000
実線（中）
1040
0.25
1001
DIMEXPLODE
1070
     0
  0
LINE
  5
B3A
330
1F
100
AcDbEntity
  8
PV0001_4
  6
Continuous
 62
     7
 48
0.5
100
AcDbLine
 10
675.62292480468
 20
669.082855224608
 30
0.0
 11
690.6229248046799
 21
669.082855224608
 31
0.0
1001
DEKIMAS
1000
実線（中）
1040
0.25
1001
DIMEXPLODE
1070
     0
  0
LINE
  5
B3B
330
1F
100
AcDbEntity
  8
PV0001_4
  6
Continuous
 62
     7
 48
0.5
100
AcDbLine
 10
705.62292480468
 20
709.082855224608
 30
0.0
 11
705.62292480468
 21
706.4959716796779
 31
0.0
1001
DEKIMAS
1000
実線（中）
1040
0.25
1001
DIMEXPLODE
1070
     0
  0
LINE
  5
B3C
330
1F
100
AcDbEntity
  8
PV0001_4
  6
Continuous
 62
     7
 48
0.5
100
AcDbLine
 10
786.1229254411299
 20
332.582899315728
 30
0.0
 11
756.7975500410909
 21
333.857904250936
 31
0.0
1001
DEKIMAS
1000
実線（中）
1040
0.25
1001
DIMEXPLODE
1070
     0
  0
LINE
  5
B3D
330
1F
100
AcDbEntity
  8
PV0001_4
  6
Continuous
 62
     7
100
AcDbLine
 10
786.1229252795999
 20
332.582858488152
 30
0.0
 11
825.1939260664499
 21
318.7326157930529
 31
0.0
1001
DEKIMAS
1000
実線（中）
1040
0.25
1001
DIMEXPLODE
1070
     0
  0
LINE
  5
B3E
330
1F
100
AcDbEntity
  8
PV0001_4
  6
Continuous
 62
     7
100
AcDbLine
 10
786.79115954953
 20
334.467921606591
 30
0.0
 11
825.86216033637
 21
320.6176789114922
 31
0.0
1001
DEKIMAS
1000
実線（中）
1040
0.25
1001
DIMEXPLODE
1070
     0
  0
LINE
  5
B3F
330
1F
100
AcDbEntity
  8
PV0001_4
  6
Continuous
 62
     7
 48
0.5
100
AcDbLine
 10
786.20979911531
 20
334.581011666106
 30
0.0
 11
757.6902091223939
 21
335.820982766051
 31
0.0
1001
DEKIMAS
1000
実線（中）
1040
0.25
1001
DIMEXPLODE
1070
     0
  0
LINE
  5
B40
330
1F
100
AcDbEntity
  8
PV0001_4
  6
HIDDEN2
 62
     4
100
AcDbLine
 10
756.7975500410909
 20
333.857904250936
 30
0.0
 11
671.1229247794367
 21
337.582854692001
 31
0.0
1001
DEKIMAS
1000
破線（細）
1040
0.15
1001
DIMEXPLODE
1070
     0
  0
LINE
  5
B41
330
1F
100
AcDbEntity
  8
PV0001_4
  6
HIDDEN2
 62
     4
100
AcDbLine
 10
556.12303858399
 20
332.582902381131
 30
0.0
 11
671.122924853224
 21
337.582852783863
 31
0.0
1001
DEKIMAS
1000
破線（細）
1040
0.15
1001
DIMEXPLODE
1070
     0
  0
LINE
  5
B42
330
1F
100
AcDbEntity
  8
PV0001_4
  6
HIDDEN2
 62
     4
100
AcDbLine
 10
556.1229230551999
 20
332.582862083625
 30
0.0
 11
517.05081486281
 21
318.7322268253634
 31
0.0
1001
DEKIMAS
1000
破線（細）
1040
0.15
1001
DIMEXPLODE
1070
     0
  0
LINE
  5
B43
330
1F
100
AcDbEntity
  8
PV0001_4
  6
Continuous
 62
     7
 48
0.5
100
AcDbLine
 10
675.62292480468
 20
424.082855224608
 30
0.0
 11
675.62292480468
 21
421.082855224608
 31
0.0
1001
DEKIMAS
1000
実線（中）
1040
0.25
1001
DIMEXPLODE
1070
     0
  0
LINE
  5
B44
330
1F
100
AcDbEntity
  8
PV0001_4
  6
Continuous
 62
     7
100
AcDbLine
 10
675.62292480468
 20
421.082855224608
 30
0.0
 11
705.62292480468
 21
421.082855224608
 31
0.0
1001
DEKIMAS
1000
実線（中）
1040
0.25
1001
DIMEXPLODE
1070
     0
  0
LINE
  5
B45
330
1F
100
AcDbEntity
  8
PV0001_4
  6
Continuous
 62
     7
100
AcDbLine
 10
675.62292480468
 20
424.082855224608
 30
0.0
 11
705.62292480468
 21
424.082855224608
 31
0.0
1001
DEKIMAS
1000
実線（中）
1040
0.25
1001
DIMEXPLODE
1070
     0
  0
LINE
  5
B46
330
1F
100
AcDbEntity
  8
PV0001_4
  6
Continuous
 62
     7
 48
0.5
100
AcDbLine
 10
675.62292480468
 20
379.082855224608
 30
0.0
 11
675.62292480468
 21
376.082855224608
 31
0.0
1001
DEKIMAS
1000
実線（中）
1040
0.25
1001
DIMEXPLODE
1070
     0
  0
LINE
  5
B47
330
1F
100
AcDbEntity
  8
PV0001_4
  6
Continuous
 62
     7
 48
0.5
100
AcDbLine
 10
690.6229248046799
 20
379.082855224608
 30
0.0
 11
690.6229248046799
 21
376.082855224608
 31
0.0
1001
DEKIMAS
1000
実線（中）
1040
0.25
1001
DIMEXPLODE
1070
     0
  0
LINE
  5
B48
330
1F
100
AcDbEntity
  8
PV0001_4
  6
Continuous
 62
     7
 48
0.5
100
AcDbLine
 10
675.62292480468
 20
376.082855224608
 30
0.0
 11
690.6229248046799
 21
376.082855224608
 31
0.0
1001
DEKIMAS
1000
実線（中）
1040
0.25
1001
DIMEXPLODE
1070
     0
  0
LINE
  5
B49
330
1F
100
AcDbEntity
  8
PV0001_4
  6
Continuous
 62
     7
 48
0.5
100
AcDbLine
 10
675.62292480468
 20
379.082855224608
 30
0.0
 11
690.6229248046799
 21
379.082855224608
 31
0.0
1001
DEKIMAS
1000
実線（中）
1040
0.25
1001
DIMEXPLODE
1070
     0
  0
LINE
  5
B4A
330
1F
100
AcDbEntity
  8
PV0001_4
  6
Continuous
 62
     7
 48
0.5
100
AcDbLine
 10
705.62292480468
 20
424.082855224608
 30
0.0
 11
705.62292480468
 21
421.495971679678
 31
0.0
1001
DEKIMAS
1000
実線（中）
1040
0.25
1001
DIMEXPLODE
1070
     0
  0
LINE
  5
B4B
330
1F
100
AcDbEntity
  8
PV0001_4
  6
Continuous
 62
     7
 48
0.5
100
AcDbLine
 10
675.62292480468
 20
529.082855224608
 30
0.0
 11
675.62292480468
 21
526.082855224608
 31
0.0
1001
DEKIMAS
1000
実線（中）
1040
0.25
1001
DIMEXPLODE
1070
     0
  0
LINE
  5
B4C
330
1F
100
AcDbEntity
  8
PV0001_4
  6
Continuous
 62
     7
100
AcDbLine
 10
675.62292480468
 20
526.082855224608
 30
0.0
 11
705.62292480468
 21
526.082855224608
 31
0.0
1001
DEKIMAS
1000
実線（中）
1040
0.25
1001
DIMEXPLODE
1070
     0
  0
LINE
  5
B4D
330
1F
100
AcDbEntity
  8
PV0001_4
  6
Continuous
 62
     7
100
AcDbLine
 10
675.62292480468
 20
529.082855224608
 30
0.0
 11
705.62292480468
 21
529.082855224608
 31
0.0
1001
DEKIMAS
1000
実線（中）
1040
0.25
1001
DIMEXPLODE
1070
     0
  0
LINE
  5
B4E
330
1F
100
AcDbEntity
  8
PV0001_4
  6
Continuous
 62
     7
 48
0.5
100
AcDbLine
 10
675.62292480468
 20
474.082855224608
 30
0.0
 11
675.62292480468
 21
471.082855224608
 31
0.0
1001
DEKIMAS
1000
実線（中）
1040
0.25
1001
DIMEXPLODE
1070
     0
  0
LINE
  5
B4F
330
1F
100
AcDbEntity
  8
PV0001_4
  6
Continuous
 62
     7
 48
0.5
100
AcDbLine
 10
690.6229248046799
 20
474.082855224608
 30
0.0
 11
690.6229248046799
 21
471.082855224608
 31
0.0
1001
DEKIMAS
1000
実線（中）
1040
0.25
1001
DIMEXPLODE
1070
     0
  0
LINE
  5
B50
330
1F
100
AcDbEntity
  8
PV0001_4
  6
Continuous
 62
     7
 48
0.5
100
AcDbLine
 10
675.62292480468
 20
471.082855224608
 30
0.0
 11
690.6229248046799
 21
471.082855224608
 31
0.0
1001
DEKIMAS
1000
実線（中）
1040
0.25
1001
DIMEXPLODE
1070
     0
  0
LINE
  5
B51
330
1F
100
AcDbEntity
  8
PV0001_4
  6
Continuous
 62
     7
 48
0.5
100
AcDbLine
 10
675.62292480468
 20
474.082855224608
 30
0.0
 11
690.6229248046799
 21
474.082855224608
 31
0.0
1001
DEKIMAS
1000
実線（中）
1040
0.25
1001
DIMEXPLODE
1070
     0
  0
LINE
  5
B52
330
1F
100
AcDbEntity
  8
PV0001_4
  6
Continuous
 62
     7
 48
0.5
100
AcDbLine
 10
705.62292480468
 20
529.082855224608
 30
0.0
 11
705.62292480468
 21
526.4959716796779
 31
0.0
1001
DEKIMAS
1000
実線（中）
1040
0.25
1001
DIMEXPLODE
1070
     0
  0
LINE
  5
B53
330
1F
100
AcDbEntity
  8
PV0001_4
  6
Continuous
 62
     7
 48
0.5
100
AcDbLine
 10
675.62292480468
 20
624.082855224608
 30
0.0
 11
675.62292480468
 21
621.082855224608
 31
0.0
1001
DEKIMAS
1000
実線（中）
1040
0.25
1001
DIMEXPLODE
1070
     0
  0
LINE
  5
B54
330
1F
100
AcDbEntity
  8
PV0001_4
  6
Continuous
 62
     7
100
AcDbLine
 10
675.62292480468
 20
621.082855224608
 30
0.0
 11
705.62292480468
 21
621.082855224608
 31
0.0
1001
DEKIMAS
1000
実線（中）
1040
0.25
1001
DIMEXPLODE
1070
     0
  0
LINE
  5
B55
330
1F
100
AcDbEntity
  8
PV0001_4
  6
Continuous
 62
     7
100
AcDbLine
 10
675.62292480468
 20
624.082855224608
 30
0.0
 11
705.62292480468
 21
624.082855224608
 31
0.0
1001
DEKIMAS
1000
実線（中）
1040
0.25
1001
DIMEXPLODE
1070
     0
  0
LINE
  5
B56
330
1F
100
AcDbEntity
  8
PV0001_4
  6
Continuous
 62
     7
 48
0.5
100
AcDbLine
 10
675.62292480468
 20
579.082855224608
 30
0.0
 11
675.62292480468
 21
576.082855224608
 31
0.0
1001
DEKIMAS
1000
実線（中）
1040
0.25
1001
DIMEXPLODE
1070
     0
  0
LINE
  5
B57
330
1F
100
AcDbEntity
  8
PV0001_4
  6
Continuous
 62
     7
 48
0.5
100
AcDbLine
 10
690.6229248046799
 20
579.082855224608
 30
0.0
 11
690.6229248046799
 21
576.082855224608
 31
0.0
1001
DEKIMAS
1000
実線（中）
1040
0.25
1001
DIMEXPLODE
1070
     0
  0
LINE
  5
B58
330
1F
100
AcDbEntity
  8
PV0001_4
  6
Continuous
 62
     7
 48
0.5
100
AcDbLine
 10
675.62292480468
 20
576.082855224608
 30
0.0
 11
690.6229248046799
 21
576.082855224608
 31
0.0
1001
DEKIMAS
1000
実線（中）
1040
0.25
1001
DIMEXPLODE
1070
     0
  0
LINE
  5
B59
330
1F
100
AcDbEntity
  8
PV0001_4
  6
Continuous
 62
     7
 48
0.5
100
AcDbLine
 10
675.62292480468
 20
579.082855224608
 30
0.0
 11
690.6229248046799
 21
579.082855224608
 31
0.0
1001
DEKIMAS
1000
実線（中）
1040
0.25
1001
DIMEXPLODE
1070
     0
  0
LINE
  5
B5A
330
1F
100
AcDbEntity
  8
PV0001_4
  6
Continuous
 62
     7
 48
0.5
100
AcDbLine
 10
705.62292480468
 20
624.082855224608
 30
0.0
 11
705.62292480468
 21
621.4959716796779
 31
0.0
1001
DEKIMAS
1000
実線（中）
1040
0.25
1001
DIMEXPLODE
1070
     0
  0
LINE
  5
B5B
330
1F
100
AcDbEntity
  8
PV0001_4
  6
Continuous
 62
     7
 48
0.5
100
AcDbLine
 10
675.62292480468
 20
739.0828552246079
 30
0.0
 11
675.62292480468
 21
736.082855224608
 31
0.0
1001
DEKIMAS
1000
実線（中）
1040
0.25
1001
DIMEXPLODE
1070
     0
  0
LINE
  5
B5C
330
1F
100
AcDbEntity
  8
PV0001_4
  6
Continuous
 62
     7
 48
0.5
100
AcDbLine
 10
690.6229248046799
 20
739.0828552246079
 30
0.0
 11
690.6229248046799
 21
736.082855224608
 31
0.0
1001
DEKIMAS
1000
実線（中）
1040
0.25
1001
DIMEXPLODE
1070
     0
  0
LINE
  5
B5D
330
1F
100
AcDbEntity
  8
PV0001_4
  6
Continuous
 62
     7
 48
0.5
100
AcDbLine
 10
675.62292480468
 20
736.082855224608
 30
0.0
 11
690.6229248046799
 21
736.082855224608
 31
0.0
1001
DEKIMAS
1000
実線（中）
1040
0.25
1001
DIMEXPLODE
1070
     0
  0
LINE
  5
B5E
330
1F
100
AcDbEntity
  8
PV0001_4
  6
Continuous
 62
     7
 48
0.5
100
AcDbLine
 10
675.62292480468
 20
739.0828552246079
 30
0.0
 11
690.6229248046799
 21
739.0828552246079
 31
0.0
1001
DEKIMAS
1000
実線（中）
1040
0.25
1001
DIMEXPLODE
1070
     0
  0
ARC
  5
B5F
330
1F
100
AcDbEntity
  8
PV0001_4
  6
Continuous
 62
     7
100
AcDbCircle
 10
510.3684844970699
 20
337.582855224608
 30
0.0
 40
20.0
100
AcDbArc
 50
182.2025807342117
 51
270.0000179860923
1001
DEKIMAS
1000
実線（中）
1040
0.25
1001
DIMEXPLODE
1070
     0
  0
ARC
  5
B60
330
1F
100
AcDbEntity
  8
PV0001_4
  6
HIDDEN2
 62
     4
 48
0.5
100
AcDbCircle
 10
464.07707214355
 20
760.582855224608
 30
0.0
 40
10.0
100
AcDbArc
 50
2.202638463691534
 51
149.2295793263214
1001
DEKIMAS
1000
破線（細）
1040
0.15
1001
DIMEXPLODE
1070
     0
  0
ARC
  5
B61
330
1F
100
AcDbEntity
  8
PV0001_4
  6
Continuous
 62
     7
 48
0.5
100
AcDbCircle
 10
450.0029449462899
 20
768.9628906249979
 30
0.0
 40
6.3800206184387
100
AcDbArc
 50
179.9999813306647
 51
270.0000179860923
1001
DEKIMAS
1000
実線（中）
1040
0.25
1001
DIMEXPLODE
1070
     0
  0
ARC
  5
B62
330
1F
100
AcDbEntity
  8
PV0001_4
  6
HIDDEN2
 62
     4
 48
0.5
100
AcDbCircle
 10
450.0029449462899
 20
768.9628906249979
 30
0.0
 40
4.3800206184387
100
AcDbArc
 50
179.9999813306647
 51
329.2294889399941
1001
DEKIMAS
1000
破線（細）
1040
0.15
1001
DIMEXPLODE
1070
     0
  0
ARC
  5
B63
330
1F
100
AcDbEntity
  8
PV0001_4
  6
HIDDEN2
 62
     4
100
AcDbCircle
 10
464.07707214355
 20
760.582855224608
 30
0.0
 40
12.0
100
AcDbArc
 50
2.202638463691534
 51
149.2295793263214
1001
DEKIMAS
1000
破線（細）
1040
0.15
1001
DIMEXPLODE
1070
     0
  0
ARC
  5
B64
330
1F
100
AcDbEntity
  8
PV0001_4
  6
HIDDEN2
 62
     4
 48
0.5
100
AcDbCircle
 10
510.3684844970699
 20
337.582855224608
 30
0.0
 40
17.999992370605
100
AcDbArc
 50
182.2025807342117
 51
270.0000179860923
1001
DEKIMAS
1000
破線（細）
1040
0.15
1001
DIMEXPLODE
1070
     0
  0
ARC
  5
B65
330
1F
100
AcDbEntity
  8
PV0001_4
  6
Continuous
 62
     7
100
AcDbCircle
 10
831.8773651122899
 20
337.582855224608
 30
0.0
 40
17.999992370605
100
AcDbArc
 50
250.4811063571872
 51
357.7974005964559
1001
DEKIMAS
1000
実線（中）
1040
0.25
1001
DIMEXPLODE
1070
     0
  0
ARC
  5
B66
330
1F
100
AcDbEntity
  8
PV0001_4
  6
Continuous
 62
     7
 48
0.5
100
AcDbCircle
 10
892.24290466307
 20
768.9628906249979
 30
0.0
 40
6.3800206184387
100
AcDbArc
 50
210.7704889755701
 51
0.0
1001
DEKIMAS
1000
実線（中）
1040
0.25
1001
DIMEXPLODE
1070
     0
  0
ARC
  5
B67
330
1F
100
AcDbEntity
  8
PV0001_4
  6
Continuous
 62
     7
 48
0.5
100
AcDbCircle
 10
892.24290466307
 20
768.9628906249979
 30
0.0
 40
4.3800206184387
100
AcDbArc
 50
210.7704889755701
 51
0.0
1001
DEKIMAS
1000
実線（中）
1040
0.25
1001
DIMEXPLODE
1070
     0
  0
ARC
  5
B68
330
1F
100
AcDbEntity
  8
PV0001_4
  6
Continuous
 62
     7
100
AcDbCircle
 10
878.1687774658099
 20
760.582855224608
 30
0.0
 40
12.0
100
AcDbArc
 50
30.77038470150312
 51
177.7973236431413
1001
DEKIMAS
1000
実線（中）
1040
0.25
1001
DIMEXPLODE
1070
     0
  0
ARC
  5
B69
330
1F
100
AcDbEntity
  8
PV0001_4
  6
Continuous
 62
     7
100
AcDbCircle
 10
831.8773651122899
 20
337.582855224608
 30
0.0
 40
20.0
100
AcDbArc
 50
250.4811200175621
 51
357.7974005964559
1001
DEKIMAS
1000
実線（中）
1040
0.25
1001
DIMEXPLODE
1070
     0
  0
ARC
  5
B6A
330
1F
100
AcDbEntity
  8
PV0001_4
  6
Continuous
 62
     7
 48
0.5
100
AcDbCircle
 10
878.1687774658099
 20
760.582855224608
 30
0.0
 40
10.0
100
AcDbArc
 50
30.77038470150312
 51
177.7973236431413
1001
DEKIMAS
1000
実線（中）
1040
0.25
1001
DIMEXPLODE
1070
     0
  0
ARC
  5
B6B
330
1F
100
AcDbEntity
  8
PV0001_4
  6
HIDDEN2
 62
     4
 48
0.5
100
AcDbCircle
 10
450.0029449462899
 20
768.9628906249979
 30
0.0
 40
6.3800206184387
100
AcDbArc
 50
270.0000179860923
 51
329.229488940003
1001
DEKIMAS
1000
破線（細）
1040
0.15
1001
DIMEXPLODE
1070
     0
  0
SPLINE
  5
B6C
330
1F
100
AcDbEntity
  8
PV0001_4
  6
Continuous
 62
     4
100
AcDbSpline
210
0.0
220
0.0
230
1.0
 70
     8
 71
     3
 72
    10
 73
     6
 74
     0
 42
0.0000000001
 43
0.0000000001
 40
8.331837705209423
 40
8.331837705209423
 40
8.331837705209423
 40
8.331837705209423
 40
218.3734308796882
 40
391.1170185188327
 40
482.3689543067365
 40
482.3689543067365
 40
482.3689543067365
 40
482.3689543067365
 10
811.4617713806232
 20
782.5110653680768
 30
0.0
 10
791.2064127288896
 20
714.5009978565424
 30
0.0
 10
755.73438777911
 20
590.4030917212148
 30
0.0
 10
797.0944209222506
 20
427.5757463537543
 30
0.0
 10
761.5965416847822
 20
345.9310298299393
 30
0.0
 10
748.2969031718267
 20
317.868877596948
 30
0.0
1001
DEKIMAS
1000
実線（細）
1040
0.15
  0
MTEXT
  5
B71
330
1F
100
AcDbEntity
  8
PV0001_4
  6
Continuous
 62
     4
100
AcDbMText
 10
709.9465465545572
 20
707.2455749511679
 30
0.0
 40
16.0
 41
0.0
 71
     4
 72
     5
  1
\T1.40;\W0.60;４０
  7
STD
 73
     1
 44
1.0
1001
DEKIMAS
1040
0.15
1001
ACAD
1000
MTEXTBEGIN
1070
    73
1070
     1
1070
    44
1040
1.0
1070
    74
1070
     0
1000
MTEXTEND
  0
MTEXT
  5
B72
330
1F
100
AcDbEntity
  8
PV0001_4
  6
Continuous
 62
     4
100
AcDbMText
 10
709.9465465545572
 20
422.2455673217679
 30
0.0
 40
16.0
 41
0.0
 71
     4
 72
     5
  1
\T1.40;\W0.60;１０
  7
STD
 73
     1
 44
1.0
1001
DEKIMAS
1040
0.15
1001
ACAD
1000
MTEXTBEGIN
1070
    73
1070
     1
1070
    44
1040
1.0
1070
    74
1070
     0
1000
MTEXTEND
  0
MTEXT
  5
B73
330
1F
100
AcDbEntity
  8
PV0001_4
  6
Continuous
 62
     4
100
AcDbMText
 10
709.9465465545572
 20
527.245574951168
 30
0.0
 40
16.0
 41
0.0
 71
     4
 72
     5
  1
\T1.40;\W0.60;２０
  7
STD
 73
     1
 44
1.0
1001
DEKIMAS
1040
0.15
1001
ACAD
1000
MTEXTBEGIN
1070
    73
1070
     1
1070
    44
1040
1.0
1070
    74
1070
     0
1000
MTEXTEND
  0
MTEXT
  5
B74
330
1F
100
AcDbEntity
  8
PV0001_4
  6
Continuous
 62
     4
100
AcDbMText
 10
709.9465465545572
 20
622.245574951168
 30
0.0
 40
16.0
 41
0.0
 71
     4
 72
     5
  1
\T1.40;\W0.60;３０
  7
STD
 73
     1
 44
1.0
1001
DEKIMAS
1040
0.15
1001
ACAD
1000
MTEXTBEGIN
1070
    73
1070
     1
1070
    44
1040
1.0
1070
    74
1070
     0
1000
MTEXTEND
  0
POINT
  5
D02
330
1F
100
AcDbEntity
  8
F00001_1
  6
Continuous
 62
     4
100
AcDbPoint
 10
111.0
 20
1096.999969482415
 30
0.0
1001
ASKOBJSC
1000
1/1
1001
ASKDWGSC
1040
4.0
  0
POINT
  5
D03
330
1F
100
AcDbEntity
  8
F00001_1
  6
Continuous
 62
     4
100
AcDbPoint
 10
230.0000305176
 20
1096.999969482415
 30
0.0
1001
ASKOBJSC
1000
1/1
1001
ASKDWGSC
1040
4.0
  0
POINT
  5
D04
330
1F
100
AcDbEntity
  8
F00001_1
  6
Continuous
 62
     4
100
AcDbPoint
 10
355.000030517572
 20
1096.999969482415
 30
0.0
1001
ASKOBJSC
1000
1/1
1001
ASKDWGSC
1040
4.0
  0
POINT
  5
D05
330
1F
100
AcDbEntity
  8
F00001_1
  6
Continuous
 62
     4
100
AcDbPoint
 10
414.0000305175719
 20
1096.999969482415
 30
0.0
1001
ASKOBJSC
1000
1/1
1001
ASKDWGSC
1040
4.0
  0
POINT
  5
D06
330
1F
100
AcDbEntity
  8
F00001_1
  6
Continuous
 62
     4
100
AcDbPoint
 10
466.000030517572
 20
1096.999969482415
 30
0.0
1001
ASKOBJSC
1000
1/1
1001
ASKDWGSC
1040
4.0
  0
POINT
  5
D07
330
1F
100
AcDbEntity
  8
F00001_1
  6
Continuous
 62
     4
100
AcDbPoint
 10
1245.99999999996
 20
169.9999999999954
 30
0.0
1001
ASKOBJSC
1000
1/1
1001
ASKDWGSC
1040
4.0
  0
POINT
  5
D08
330
1F
100
AcDbEntity
  8
F00001_1
  6
Continuous
 62
     4
100
AcDbPoint
 10
1193.99999999996
 20
169.9999999999954
 30
0.0
1001
ASKOBJSC
1000
1/1
1001
ASKDWGSC
1040
4.0
  0
POINT
  5
D09
330
1F
100
AcDbEntity
  8
F00001_1
  6
Continuous
 62
     4
100
AcDbPoint
 10
1142.00003051756
 20
169.9999999999954
 30
0.0
1001
ASKOBJSC
1000
1/1
1001
ASKDWGSC
1040
4.0
  0
POINT
  5
D0A
330
1F
100
AcDbEntity
  8
F00001_1
  6
Continuous
 62
     4
100
AcDbPoint
 10
1271.45410156248
 20
136.3639526367155
 30
0.0
1001
ASKOBJSC
1000
1/1
1001
ASKDWGSC
1040
4.0
  0
POINT
  5
D0B
330
1F
100
AcDbEntity
  8
F00001_1
  6
Continuous
 62
     4
100
AcDbPoint
 10
1290.5460205078
 20
123.6360473632799
 30
0.0
1001
ASKOBJSC
1000
1/1
1001
ASKDWGSC
1040
4.0
  0
POINT
  5
D0C
330
1F
100
AcDbEntity
  8
F00001_1
  6
Continuous
 62
     4
100
AcDbPoint
 10
1177.00003051756
 20
129.9999999999987
 30
0.0
1001
ASKOBJSC
1000
1/1
1001
ASKDWGSC
1040
4.0
  0
POINT
  5
D0D
330
1F
100
AcDbEntity
  8
F00001_1
  6
Continuous
 62
     4
100
AcDbPoint
 10
1297.99999999996
 20
169.9999999999954
 30
0.0
1001
ASKOBJSC
1000
1/1
1001
ASKDWGSC
1040
4.0
  0
POINT
  5
D0E
330
1F
100
AcDbEntity
  8
F00001_1
  6
Continuous
 62
     4
100
AcDbPoint
 10
1369.99999999996
 20
129.9999999999987
 30
0.0
1001
ASKOBJSC
1000
1/1
1001
ASKDWGSC
1040
4.0
  0
POINT
  5
D0F
330
1F
100
AcDbEntity
  8
F00001_1
  6
Continuous
 62
     4
100
AcDbPoint
 10
1369.99999999996
 20
169.9999999999954
 30
0.0
1001
ASKOBJSC
1000
1/1
1001
ASKDWGSC
1040
4.0
  0
POINT
  5
D10
330
1F
100
AcDbEntity
  8
F00001_1
  6
Continuous
 62
     4
100
AcDbPoint
 10
1183.99999999996
 20
301.9999999999955
 30
0.0
1001
ASKOBJSC
1000
1/1
1001
ASKDWGSC
1040
4.0
  0
POINT
  5
D11
330
1F
100
AcDbEntity
  8
F00001_1
  6
Continuous
 62
     4
100
AcDbPoint
 10
1433.99999999996
 20
301.9999999999955
 30
0.0
1001
ASKOBJSC
1000
1/1
1001
ASKDWGSC
1040
4.0
  0
POINT
  5
D12
330
1F
100
AcDbEntity
  8
F00001_1
  6
Continuous
 62
     4
100
AcDbPoint
 10
1357.99999999996
 20
301.9999999999955
 30
0.0
1001
ASKOBJSC
1000
1/1
1001
ASKDWGSC
1040
4.0
  0
POINT
  5
D13
330
1F
100
AcDbEntity
  8
F00001_1
  6
Continuous
 62
     4
100
AcDbPoint
 10
1140.00003051756
 20
301.9999999999955
 30
0.0
1001
ASKOBJSC
1000
1/1
1001
ASKDWGSC
1040
4.0
  0
POINT
  5
D14
330
1F
100
AcDbEntity
  8
F00001_1
  6
Continuous
 62
     4
100
AcDbPoint
 10
1313.99999999996
 20
301.9999999999955
 30
0.0
1001
ASKOBJSC
1000
1/1
1001
ASKDWGSC
1040
4.0
  0
POINT
  5
D15
330
1F
100
AcDbEntity
  8
F00001_1
  6
Continuous
 62
     4
100
AcDbPoint
 10
1475.99999999996
 20
301.9999999999955
 30
0.0
1001
ASKOBJSC
1000
1/1
1001
ASKDWGSC
1040
4.0
  0
POINT
  5
D16
330
1F
100
AcDbEntity
  8
F00001_1
  6
Continuous
 62
     4
100
AcDbPoint
 10
1243.99999999996
 20
234.9999999999955
 30
0.0
1001
ASKOBJSC
1000
1/1
1001
ASKDWGSC
1040
4.0
  0
POINT
  5
D17
330
1F
100
AcDbEntity
  8
F00001_1
  6
Continuous
 62
     4
100
AcDbPoint
 10
1582.0002441406
 20
81.83416748046751
 30
0.0
1001
ASKOBJSC
1000
1/1
1001
ASKDWGSC
1040
4.0
  0
POINT
  5
D18
330
1F
100
AcDbEntity
  8
F00001_1
  6
Continuous
 62
     4
100
AcDbPoint
 10
1363.99999999996
 20
84.99999999999875
 30
0.0
1001
ASKOBJSC
1000
1/1
1001
ASKDWGSC
1040
4.0
  0
POINT
  5
D19
330
1F
100
AcDbEntity
  8
F00001_1
  6
Continuous
 62
     4
100
AcDbPoint
 10
844.0000305175679
 20
597.9999999999754
 30
0.0
1001
ASKOBJSC
1000
1/1
1001
ASKDWGSC
1040
4.0
  0
POINT
  5
D1A
330
1F
100
AcDbEntity
  8
F00001_1
  6
Continuous
 62
     4
100
AcDbPoint
 10
1687.99999999996
 20
-0.0000000000004547
 30
0.0
1001
ASKOBJSC
1000
1/1
1001
ASKDWGSC
1040
4.0
  0
POINT
  5
D1B
330
1F
100
AcDbEntity
  8
F00001_1
  6
Continuous
 62
     4
100
AcDbPoint
 10
1603.99999999996
 20
259.9999999999955
 30
0.0
1001
ASKOBJSC
1000
1/1
1001
ASKDWGSC
1040
4.0
  0
POINT
  5
D1C
330
1F
100
AcDbEntity
  8
F00001_1
  6
Continuous
 62
     4
100
AcDbPoint
 10
1602.59045410152
 20
347.7982025146435
 30
0.0
1001
ASKOBJSC
1000
1/1
1001
ASKDWGSC
1040
4.0
  0
POINT
  5
D1D
330
1F
100
AcDbEntity
  8
F00001_1
  6
Continuous
 62
     4
100
AcDbPoint
 10
111.0
 20
1096.999969482415
 30
0.0
1001
ASKOBJSC
1000
1/1
1001
ASKDWGSC
1040
4.0
  0
POINT
  5
D1E
330
1F
100
AcDbEntity
  8
F00001_1
  6
Continuous
 62
     4
100
AcDbPoint
 10
354.999999999996
 20
1096.999969482415
 30
0.0
1001
ASKOBJSC
1000
1/1
1001
ASKDWGSC
1040
4.0
  0
POINT
  5
D1F
330
1F
100
AcDbEntity
  8
F00001_1
  6
Continuous
 62
     4
100
AcDbPoint
 10
413.999999999996
 20
1096.999969482415
 30
0.0
1001
ASKOBJSC
1000
1/1
1001
ASKDWGSC
1040
4.0
  0
POINT
  5
D20
330
1F
100
AcDbEntity
  8
F00001_1
  6
Continuous
 62
     4
100
AcDbPoint
 10
465.999999999996
 20
1096.999969482415
 30
0.0
1001
ASKOBJSC
1000
1/1
1001
ASKDWGSC
1040
4.0
  0
POINT
  5
D21
330
1F
100
AcDbEntity
  8
F00001_1
  6
Continuous
 62
     4
100
AcDbPoint
 10
150.799987793
 20
1096.999969482415
 30
0.0
1001
ASKOBJSC
1000
1/1
1001
ASKDWGSC
1040
4.0
  0
POINT
  5
D22
330
1F
100
AcDbEntity
  8
F00001_1
  6
Continuous
 62
     4
100
AcDbPoint
 10
84.0
 20
1109.999969482415
 30
0.0
1001
ASKOBJSC
1000
1/1
1001
ASKDWGSC
1040
4.0
  0
LINE
  5
D23
330
1F
100
AcDbEntity
  8
F00001_1
  6
Continuous
 62
     4
100
AcDbLine
 10
4.0
 20
1191.999969482415
 30
0.0
 11
4.0
 21
1151.999969482415
 31
0.0
1001
DEKIMAS
1000
実線（細）
1040
0.15
1001
DIMEXPLODE
1070
     0
1001
ASKOBJSC
1000
1/1
1001
ASKDWGSC
1040
4.0
  0
LINE
  5
D24
330
1F
100
AcDbEntity
  8
F00001_1
  6
Continuous
 62
     4
100
AcDbLine
 10
1683.99999999996
 20
1191.999969482415
 30
0.0
 11
1683.99999999996
 21
1151.999969482415
 31
0.0
1001
DEKIMAS
1000
実線（細）
1040
0.15
1001
DIMEXPLODE
1070
     0
1001
ASKOBJSC
1000
1/1
1001
ASKDWGSC
1040
4.0
  0
LINE
  5
D25
330
1F
100
AcDbEntity
  8
F00001_1
  6
Continuous
 62
     4
100
AcDbLine
 10
4.0
 20
1191.999969482415
 30
0.0
 11
44.0
 21
1191.999969482415
 31
0.0
1001
DEKIMAS
1000
実線（細）
1040
0.15
1001
DIMEXPLODE
1070
     0
1001
ASKOBJSC
1000
1/1
1001
ASKDWGSC
1040
4.0
  0
LINE
  5
D26
330
1F
100
AcDbEntity
  8
F00001_1
  6
Continuous
 62
     4
100
AcDbLine
 10
4.0
 20
3.999999999999545
 30
0.0
 11
44.0
 21
3.999999999999545
 31
0.0
1001
DEKIMAS
1000
実線（細）
1040
0.15
1001
DIMEXPLODE
1070
     0
1001
ASKOBJSC
1000
1/1
1001
ASKDWGSC
1040
4.0
  0
LINE
  5
D27
330
1F
100
AcDbEntity
  8
F00001_1
  6
Continuous
 62
     2
100
AcDbLine
 10
1116.00003051756
 20
259.9999999999955
 30
0.0
 11
1116.00003051756
 21
59.99999999999875
 31
0.0
1001
DEKIMAS
1000
実線（太）
1040
0.5
1001
DIMEXPLODE
1070
     0
1001
ASKOBJSC
1000
1/1
1001
ASKDWGSC
1040
4.0
  0
LINE
  5
D28
330
1F
100
AcDbEntity
  8
F00001_1
  6
Continuous
 62
     2
100
AcDbLine
 10
1116.00003051756
 20
259.9999999999955
 30
0.0
 11
1603.99999999996
 21
259.9999999999955
 31
0.0
1001
DEKIMAS
1000
実線（太）
1040
0.5
1001
DIMEXPLODE
1070
     0
1001
ASKOBJSC
1000
1/1
1001
ASKDWGSC
1040
4.0
  0
LINE
  5
D29
330
1F
100
AcDbEntity
  8
F00001_1
  6
Continuous
 62
     4
100
AcDbLine
 10
1116.00003051756
 20
209.9999999999954
 30
0.0
 11
1603.99999999996
 21
209.9999999999954
 31
0.0
1001
DEKIMAS
1000
実線（細）
1040
0.15
1001
DIMEXPLODE
1070
     0
1001
ASKOBJSC
1000
1/1
1001
ASKDWGSC
1040
4.0
  0
LINE
  5
D2A
330
1F
100
AcDbEntity
  8
F00001_1
  6
Continuous
 62
     4
100
AcDbLine
 10
1116.00003051756
 20
109.9999999999987
 30
0.0
 11
1603.99999999996
 21
109.9999999999987
 31
0.0
1001
DEKIMAS
1000
実線（細）
1040
0.15
1001
DIMEXPLODE
1070
     0
1001
ASKOBJSC
1000
1/1
1001
ASKDWGSC
1040
4.0
  0
LINE
  5
D2B
330
1F
100
AcDbEntity
  8
F00001_1
  6
Continuous
 62
     4
100
AcDbLine
 10
1219.99999999996
 20
259.9999999999955
 30
0.0
 11
1219.99999999996
 21
109.9999999999987
 31
0.0
1001
DEKIMAS
1000
実線（細）
1040
0.15
1001
DIMEXPLODE
1070
     0
1001
ASKOBJSC
1000
1/1
1001
ASKDWGSC
1040
4.0
  0
LINE
  5
D2C
330
1F
100
AcDbEntity
  8
F00001_1
  6
Continuous
 62
     4
100
AcDbLine
 10
1168.00003051756
 20
209.9999999999954
 30
0.0
 11
1168.00003051756
 21
149.9999999999954
 31
0.0
1001
DEKIMAS
1000
実線（細）
1040
0.15
1001
DIMEXPLODE
1070
     0
1001
ASKOBJSC
1000
1/1
1001
ASKDWGSC
1040
4.0
  0
LINE
  5
D2D
330
1F
100
AcDbEntity
  8
F00001_1
  6
Continuous
 62
     4
100
AcDbLine
 10
1116.00003051756
 20
189.9999999999954
 30
0.0
 11
1323.99999999996
 21
189.9999999999954
 31
0.0
1001
DEKIMAS
1000
実線（細）
1040
0.15
1001
DIMEXPLODE
1070
     0
1001
ASKOBJSC
1000
1/1
1001
ASKDWGSC
1040
4.0
  0
LINE
  5
D2E
330
1F
100
AcDbEntity
  8
F00001_1
  6
Continuous
 62
     4
100
AcDbLine
 10
1116.00003051756
 20
149.9999999999954
 30
0.0
 11
1323.99999999996
 21
149.9999999999954
 31
0.0
1001
DEKIMAS
1000
実線（細）
1040
0.15
1001
DIMEXPLODE
1070
     0
1001
ASKOBJSC
1000
1/1
1001
ASKDWGSC
1040
4.0
  0
LINE
  5
D2F
330
1F
100
AcDbEntity
  8
F00001_1
  6
Continuous
 62
     4
100
AcDbLine
 10
1134.00003051756
 20
149.9999999999954
 30
0.0
 11
1134.00003051756
 21
109.9999999999987
 31
0.0
1001
DEKIMAS
1000
実線（細）
1040
0.15
1001
DIMEXPLODE
1070
     0
1001
ASKOBJSC
1000
1/1
1001
ASKDWGSC
1040
4.0
  0
LINE
  5
D30
330
1F
100
AcDbEntity
  8
F00001_1
  6
Continuous
 62
     4
100
AcDbLine
 10
1237.99999999996
 20
149.9999999999954
 30
0.0
 11
1237.99999999996
 21
109.9999999999987
 31
0.0
1001
DEKIMAS
1000
実線（細）
1040
0.15
1001
DIMEXPLODE
1070
     0
1001
ASKOBJSC
1000
1/1
1001
ASKDWGSC
1040
4.0
  0
LINE
  5
D31
330
1F
100
AcDbEntity
  8
F00001_1
  6
Continuous
 62
     4
100
AcDbLine
 10
1323.99999999996
 20
209.9999999999954
 30
0.0
 11
1323.99999999996
 21
59.99999999999875
 31
0.0
1001
DEKIMAS
1000
実線（細）
1040
0.15
1001
DIMEXPLODE
1070
     0
1001
ASKOBJSC
1000
1/1
1001
ASKDWGSC
1040
4.0
  0
LINE
  5
D32
330
1F
100
AcDbEntity
  8
F00001_1
  6
Continuous
 62
     4
100
AcDbLine
 10
1271.99999999996
 20
209.9999999999954
 30
0.0
 11
1271.99999999996
 21
149.9999999999954
 31
0.0
1001
DEKIMAS
1000
実線（細）
1040
0.15
1001
DIMEXPLODE
1070
     0
1001
ASKOBJSC
1000
1/1
1001
ASKDWGSC
1040
4.0
  0
LINE
  5
D33
330
1F
100
AcDbEntity
  8
F00001_1
  6
Continuous
 62
     4
100
AcDbLine
 10
1345.99999999996
 20
209.9999999999954
 30
0.0
 11
1345.99999999996
 21
59.99999999999875
 31
0.0
1001
DEKIMAS
1000
実線（細）
1040
0.15
1001
DIMEXPLODE
1070
     0
1001
ASKOBJSC
1000
1/1
1001
ASKDWGSC
1040
4.0
  0
LINE
  5
D34
330
1F
100
AcDbEntity
  8
F00001_1
  6
Continuous
 62
     4
 48
0.5
100
AcDbLine
 10
1116.00003051756
 20
287.9999999999954
 30
0.0
 11
1116.00003051756
 21
259.9999999999955
 31
0.0
1001
DEKIMAS
1000
実線（細）
1040
0.15
1001
DIMEXPLODE
1070
     0
1001
ASKOBJSC
1000
1/1
1001
ASKDWGSC
1040
4.0
  0
LINE
  5
D35
330
1F
100
AcDbEntity
  8
F00001_1
  6
Continuous
 62
     4
100
AcDbLine
 10
1116.00003051756
 20
287.9999999999954
 30
0.0
 11
1603.99999999996
 21
287.9999999999954
 31
0.0
1001
DEKIMAS
1000
実線（細）
1040
0.15
1001
DIMEXPLODE
1070
     0
1001
ASKOBJSC
1000
1/1
1001
ASKDWGSC
1040
4.0
  0
LINE
  5
D36
330
1F
100
AcDbEntity
  8
F00001_1
  6
Continuous
 62
     2
100
AcDbLine
 10
84.0
 20
1135.999969482415
 30
0.0
 11
84.0
 21
59.99999999999875
 31
0.0
1001
DEKIMAS
1000
実線（太）
1040
0.5
1001
DIMEXPLODE
1070
     0
1001
ASKOBJSC
1000
1/1
1001
ASKDWGSC
1040
4.0
  0
LINE
  5
D37
330
1F
100
AcDbEntity
  8
F00001_1
  6
Continuous
 62
     2
100
AcDbLine
 10
1603.99999999996
 20
1135.999969482415
 30
0.0
 11
1603.99999999996
 21
59.99999999999875
 31
0.0
1001
DEKIMAS
1000
実線（太）
1040
0.5
1001
DIMEXPLODE
1070
     0
1001
ASKOBJSC
1000
1/1
1001
ASKDWGSC
1040
4.0
  0
LINE
  5
D38
330
1F
100
AcDbEntity
  8
F00001_1
  6
Continuous
 62
     2
100
AcDbLine
 10
84.0
 20
1135.999969482415
 30
0.0
 11
1603.99999999996
 21
1135.999969482415
 31
0.0
1001
DEKIMAS
1000
実線（太）
1040
0.5
1001
DIMEXPLODE
1070
     0
1001
ASKOBJSC
1000
1/1
1001
ASKDWGSC
1040
4.0
  0
LINE
  5
D39
330
1F
100
AcDbEntity
  8
F00001_1
  6
Continuous
 62
     2
100
AcDbLine
 10
84.0
 20
59.99999999999875
 30
0.0
 11
1603.99999999996
 21
59.99999999999875
 31
0.0
1001
DEKIMAS
1000
実線（太）
1040
0.5
1001
DIMEXPLODE
1070
     0
1001
ASKOBJSC
1000
1/1
1001
ASKDWGSC
1040
4.0
  0
LINE
  5
D3A
330
1F
100
AcDbEntity
  8
F00001_1
  6
Continuous
 62
     4
100
AcDbLine
 10
84.0
 20
1109.999969482415
 30
0.0
 11
440.0000305175719
 21
1109.999969482415
 31
0.0
1001
DEKIMAS
1000
実線（細）
1040
0.15
1001
DIMEXPLODE
1070
     0
1001
ASKOBJSC
1000
1/1
1001
ASKDWGSC
1040
4.0
  0
LINE
  5
D3B
330
1F
100
AcDbEntity
  8
F00001_1
  6
Continuous
 62
     4
 48
0.5
100
AcDbLine
 10
440.0000305175719
 20
1135.999969482415
 30
0.0
 11
440.0000305175719
 21
1109.999969482415
 31
0.0
1001
DEKIMAS
1000
実線（細）
1040
0.15
1001
DIMEXPLODE
1070
     0
1001
ASKOBJSC
1000
1/1
1001
ASKDWGSC
1040
4.0
  0
LINE
  5
D3C
330
1F
100
AcDbEntity
  8
F00001_1
  6
Continuous
 62
     4
 48
0.5
100
AcDbLine
 10
388.000030517572
 20
1135.999969482415
 30
0.0
 11
388.000030517572
 21
1109.999969482415
 31
0.0
1001
DEKIMAS
1000
実線（細）
1040
0.15
1001
DIMEXPLODE
1070
     0
1001
ASKOBJSC
1000
1/1
1001
ASKDWGSC
1040
4.0
  0
LINE
  5
D3D
330
1F
100
AcDbEntity
  8
F00001_1
  6
Continuous
 62
     4
 48
0.5
100
AcDbLine
 10
322.000030517572
 20
1135.999969482415
 30
0.0
 11
322.000030517572
 21
1109.999969482415
 31
0.0
1001
DEKIMAS
1000
実線（細）
1040
0.15
1001
DIMEXPLODE
1070
     0
1001
ASKOBJSC
1000
1/1
1001
ASKDWGSC
1040
4.0
  0
LINE
  5
D3E
330
1F
100
AcDbEntity
  8
F00001_1
  6
Continuous
 62
     4
 48
0.5
100
AcDbLine
 10
138.0
 20
1135.999969482415
 30
0.0
 11
138.0
 21
1109.999969482415
 31
0.0
1001
DEKIMAS
1000
実線（細）
1040
0.15
1001
DIMEXPLODE
1070
     0
1001
ASKOBJSC
1000
1/1
1001
ASKDWGSC
1040
4.0
  0
LINE
  5
D3F
330
1F
100
AcDbEntity
  8
F00001_1
  6
Continuous
 62
     4
100
AcDbLine
 10
1268.27217620536
 20
117.2720466646819
 30
0.0
 11
1293.72802140096
 21
142.7278897145115
 31
0.0
1001
DEKIMAS
1000
実線（細）
1040
0.15
1001
DIMEXPLODE
1070
     0
1001
ASKOBJSC
1000
1/1
1001
ASKDWGSC
1040
4.0
  0
LINE
  5
D40
330
1F
100
AcDbEntity
  8
F00001_1
  6
Continuous
 62
     7
 48
0.5
100
AcDbLine
 10
1567.99999999996
 20
73.75134277343637
 30
0.0
 11
1595.99999999996
 21
73.75134277343637
 31
0.0
1001
DEKIMAS
1000
実線（中）
1040
0.25
1001
DIMEXPLODE
1070
     0
1001
ASKOBJSC
1000
1/1
1001
ASKDWGSC
1040
4.0
  0
LINE
  5
D41
330
1F
100
AcDbEntity
  8
F00001_1
  6
Continuous
 62
     7
 48
0.5
100
AcDbLine
 10
1568.00029726692
 20
73.7510834058063
 30
0.0
 11
1582.00029870708
 21
97.99979388029715
 31
0.0
1001
DEKIMAS
1000
実線（中）
1040
0.25
1001
DIMEXPLODE
1070
     0
1001
ASKOBJSC
1000
1/1
1001
ASKDWGSC
1040
4.0
  0
LINE
  5
D42
330
1F
100
AcDbEntity
  8
F00001_1
  6
Continuous
 62
     7
 48
0.5
100
AcDbLine
 10
1582.00009322676
 20
98.00005788183353
 30
0.0
 11
1596.00009466688
 21
73.75134740734267
 31
0.0
1001
DEKIMAS
1000
実線（中）
1040
0.25
1001
DIMEXPLODE
1070
     0
1001
ASKOBJSC
1000
1/1
1001
ASKDWGSC
1040
4.0
  0
LINE
  5
D43
330
1F
100
AcDbEntity
  8
F00001_1
  6
Continuous
 62
     4
100
AcDbLine
 10
4.0
 20
43.99999999999955
 30
0.0
 11
4.0
 21
3.999999999999545
 31
0.0
1001
DEKIMAS
1000
実線（細）
1040
0.15
1001
DIMEXPLODE
1070
     0
1001
ASKOBJSC
1000
1/1
1001
ASKDWGSC
1040
4.0
  0
LINE
  5
D44
330
1F
100
AcDbEntity
  8
F00001_1
  6
Continuous
 62
     4
100
AcDbLine
 10
1643.99999999996
 20
1191.999969482415
 30
0.0
 11
1683.99999999996
 21
1191.999969482415
 31
0.0
1001
DEKIMAS
1000
実線（細）
1040
0.15
1001
DIMEXPLODE
1070
     0
1001
ASKOBJSC
1000
1/1
1001
ASKDWGSC
1040
4.0
  0
LINE
  5
D45
330
1F
100
AcDbEntity
  8
F00001_1
  6
Continuous
 62
     4
100
AcDbLine
 10
1683.99999999996
 20
43.99999999999955
 30
0.0
 11
1683.99999999996
 21
3.999999999999545
 31
0.0
1001
DEKIMAS
1000
実線（細）
1040
0.15
1001
DIMEXPLODE
1070
     0
1001
ASKOBJSC
1000
1/1
1001
ASKDWGSC
1040
4.0
  0
LINE
  5
D46
330
1F
100
AcDbEntity
  8
F00001_1
  6
Continuous
 62
     4
100
AcDbLine
 10
1643.99999999996
 20
3.999999999999545
 30
0.0
 11
1683.99999999996
 21
3.999999999999545
 31
0.0
1001
DEKIMAS
1000
実線（細）
1040
0.15
1001
DIMEXPLODE
1070
     0
1001
ASKOBJSC
1000
1/1
1001
ASKDWGSC
1040
4.0
  0
LINE
  5
D47
330
1F
100
AcDbEntity
  8
F00001_1
  6
Continuous
 62
     4
 48
0.5
100
AcDbLine
 10
1164.00003051756
 20
287.9999999999954
 30
0.0
 11
1164.00003051756
 21
259.9999999999955
 31
0.0
1001
DEKIMAS
1000
実線（細）
1040
0.15
1001
DIMEXPLODE
1070
     0
1001
ASKOBJSC
1000
1/1
1001
ASKDWGSC
1040
4.0
  0
LINE
  5
D48
330
1F
100
AcDbEntity
  8
F00001_1
  6
Continuous
 62
     4
 48
0.5
100
AcDbLine
 10
1283.99999999996
 20
287.9999999999954
 30
0.0
 11
1283.99999999996
 21
259.9999999999955
 31
0.0
1001
DEKIMAS
1000
実線（細）
1040
0.15
1001
DIMEXPLODE
1070
     0
1001
ASKOBJSC
1000
1/1
1001
ASKDWGSC
1040
4.0
  0
LINE
  5
D49
330
1F
100
AcDbEntity
  8
F00001_1
  6
Continuous
 62
     4
 48
0.5
100
AcDbLine
 10
1343.99999999996
 20
287.9999999999954
 30
0.0
 11
1343.99999999996
 21
259.9999999999955
 31
0.0
1001
DEKIMAS
1000
実線（細）
1040
0.15
1001
DIMEXPLODE
1070
     0
1001
ASKOBJSC
1000
1/1
1001
ASKDWGSC
1040
4.0
  0
LINE
  5
D4A
330
1F
100
AcDbEntity
  8
F00001_1
  6
Continuous
 62
     4
 48
0.5
100
AcDbLine
 10
1403.99999999996
 20
287.9999999999954
 30
0.0
 11
1403.99999999996
 21
259.9999999999955
 31
0.0
1001
DEKIMAS
1000
実線（細）
1040
0.15
1001
DIMEXPLODE
1070
     0
1001
ASKOBJSC
1000
1/1
1001
ASKDWGSC
1040
4.0
  0
LINE
  5
D4B
330
1F
100
AcDbEntity
  8
F00001_1
  6
Continuous
 62
     4
 48
0.5
100
AcDbLine
 10
1463.99999999996
 20
287.9999999999954
 30
0.0
 11
1463.99999999996
 21
259.9999999999955
 31
0.0
1001
DEKIMAS
1000
実線（細）
1040
0.15
1001
DIMEXPLODE
1070
     0
1001
ASKOBJSC
1000
1/1
1001
ASKDWGSC
1040
4.0
  0
LINE
  5
D4C
330
1F
100
AcDbEntity
  8
F00001_1
  6
Continuous
 62
     4
100
AcDbLine
 10
1258.70416259764
 20
347.7982025146435
 30
0.0
 11
1554.29696827476
 21
347.7982025146435
 31
0.0
1001
DEKIMAS
1000
実線（細）
1040
0.15
1001
DIMEXPLODE
1070
     0
1001
ASKOBJSC
1000
1/1
1001
ASKDWGSC
1040
4.0
  0
LINE
  5
D4D
330
1F
100
AcDbEntity
  8
画層1
  6
Continuous
 62
     4
 48
0.5
100
AcDbLine
 10
439.999999999996
 20
1109.999969482415
 30
0.0
 11
439.999999999996
 21
1085.999969482415
 31
0.0
1001
DEKIMAS
1000
実線（細）
1040
0.15
1001
DIMEXPLODE
1070
     0
1001
ASKOBJSC
1000
1/1
1001
ASKDWGSC
1040
4.0
  0
LINE
  5
D4E
330
1F
100
AcDbEntity
  8
画層1
  6
Continuous
 62
     4
 48
0.5
100
AcDbLine
 10
387.999999999996
 20
1109.999969482415
 30
0.0
 11
387.999999999996
 21
1085.999969482415
 31
0.0
1001
DEKIMAS
1000
実線（細）
1040
0.15
1001
DIMEXPLODE
1070
     0
1001
ASKOBJSC
1000
1/1
1001
ASKDWGSC
1040
4.0
  0
LINE
  5
D4F
330
1F
100
AcDbEntity
  8
画層1
  6
Continuous
 62
     4
 48
0.5
100
AcDbLine
 10
321.999999999996
 20
1109.999969482415
 30
0.0
 11
321.999999999996
 21
1085.999969482415
 31
0.0
1001
DEKIMAS
1000
実線（細）
1040
0.15
1001
DIMEXPLODE
1070
     0
1001
ASKOBJSC
1000
1/1
1001
ASKDWGSC
1040
4.0
  0
LINE
  5
D50
330
1F
100
AcDbEntity
  8
画層1
  6
Continuous
 62
     4
 48
0.5
100
AcDbLine
 10
138.0
 20
1109.999969482415
 30
0.0
 11
138.0
 21
1085.999969482415
 31
0.0
1001
DEKIMAS
1000
実線（細）
1040
0.15
1001
DIMEXPLODE
1070
     0
1001
ASKOBJSC
1000
1/1
1001
ASKDWGSC
1040
4.0
  0
LINE
  5
D51
330
1F
100
AcDbEntity
  8
画層1
  6
Continuous
 62
     4
100
AcDbLine
 10
84.0
 20
1085.999969482415
 30
0.0
 11
439.999999999996
 21
1085.999969482415
 31
0.0
1001
DEKIMAS
1000
実線（細）
1040
0.15
1001
DIMEXPLODE
1070
     0
1001
ASKOBJSC
1000
1/1
1001
ASKDWGSC
1040
4.0
  0
LINE
  5
D52
330
1F
100
AcDbEntity
  8
画層1
  6
Continuous
 62
     4
 48
0.5
100
AcDbLine
 10
120.97151993968
 20
1090.225465654655
 30
0.0
 11
111.00006236156
 21
1107.519246374495
 31
0.0
1001
DEKIMAS
1000
実線（細）
1040
0.15
1001
DIMEXPLODE
1070
     0
1001
ASKOBJSC
1000
1/1
1001
ASKDWGSC
1040
4.0
  0
LINE
  5
D53
330
1F
100
AcDbEntity
  8
画層1
  6
Continuous
 62
     4
 48
0.5
100
AcDbLine
 10
111.00007734292
 20
1107.519186945255
 30
0.0
 11
100.99883919176
 21
1090.225379432895
 31
0.0
1001
DEKIMAS
1000
実線（細）
1040
0.15
1001
DIMEXPLODE
1070
     0
1001
ASKOBJSC
1000
1/1
1001
ASKDWGSC
1040
4.0
  0
LINE
  5
D54
330
1F
100
AcDbEntity
  8
画層1
  6
Continuous
 62
     4
 48
0.5
100
AcDbLine
 10
100.99877929688
 20
1090.225433349575
 30
0.0
 11
120.97149658204
 21
1090.225433349575
 31
0.0
1001
DEKIMAS
1000
実線（細）
1040
0.15
1001
DIMEXPLODE
1070
     0
1001
ASKOBJSC
1000
1/1
1001
ASKDWGSC
1040
4.0
  0
MTEXT
  5
D55
330
1F
100
AcDbEntity
  8
F00001_1
  6
Continuous
 62
     4
100
AcDbMText
 10
112.094166522026
 20
1122.999969482415
 30
0.0
 40
10.0
 41
0.0
 71
     5
 72
     5
  1
\T1.40;\W0.60;記　号
  7
STD
 73
     1
 44
1.0
1001
DEKIMAS
1040
0.15
1001
ASKOBJSC
1000
1/1
1001
ASKDWGSC
1040
4.0
1001
ACAD
1000
MTEXTBEGIN
1070
    73
1070
     1
1070
    44
1040
1.0
1070
    74
1070
     0
1000
MTEXTEND
  0
MTEXT
  5
D56
330
1F
100
AcDbEntity
  8
F00001_1
  6
Continuous
 62
     4
100
AcDbMText
 10
231.4941970396261
 20
1122.999969482415
 30
0.0
 40
10.0
 41
0.0
 71
     5
 72
     5
  1
\T1.40;\W0.60;来　　　　　　　　　　　歴
  7
STD
 73
     1
 44
1.0
1001
DEKIMAS
1040
0.15
1001
ASKOBJSC
1000
1/1
1001
ASKDWGSC
1040
4.0
1001
ACAD
1000
MTEXTBEGIN
1070
    73
1070
     1
1070
    44
1040
1.0
1070
    74
1070
     0
1000
MTEXTEND
  0
MTEXT
  5
D57
330
1F
100
AcDbEntity
  8
F00001_1
  6
Continuous
 62
     4
100
AcDbMText
 10
355.7741970395981
 20
1122.999969482415
 30
0.0
 40
10.0
 41
0.0
 71
     5
 72
     5
  1
\T1.40;\W0.60;年　月　日
  7
STD
 73
     1
 44
1.0
1001
DEKIMAS
1040
0.15
1001
ASKOBJSC
1000
1/1
1001
ASKDWGSC
1040
4.0
1001
ACAD
1000
MTEXTBEGIN
1070
    73
1070
     1
1070
    44
1040
1.0
1070
    74
1070
     0
1000
MTEXTEND
  0
MTEXT
  5
D58
330
1F
100
AcDbEntity
  8
F00001_1
  6
Continuous
 62
     4
100
AcDbMText
 10
415.094197039598
 20
1122.999969482415
 30
0.0
 40
10.0
 41
0.0
 71
     5
 72
     5
  1
\T1.40;\W0.60;記　入
  7
STD
 73
     1
 44
1.0
1001
DEKIMAS
1040
0.15
1001
ASKOBJSC
1000
1/1
1001
ASKDWGSC
1040
4.0
1001
ACAD
1000
MTEXTBEGIN
1070
    73
1070
     1
1070
    44
1040
1.0
1070
    74
1070
     0
1000
MTEXTEND
  0
MTEXT
  5
D59
330
1F
100
AcDbEntity
  8
F00001_1
  6
Continuous
 62
     4
100
AcDbMText
 10
1141.313030391675
 20
273.9999999999954
 30
0.0
 40
12.0
 41
0.0
 71
     5
 72
     5
  1
\T1.40;\W0.60;品　番
  7
STD
 73
     1
 44
1.0
1001
DEKIMAS
1040
0.15
1001
ASKOBJSC
1000
1/1
1001
ASKDWGSC
1040
4.0
1001
ACAD
1000
MTEXTBEGIN
1070
    73
1070
     1
1070
    44
1040
1.0
1070
    74
1070
     0
1000
MTEXTEND
  0
MTEXT
  5
D5A
330
1F
100
AcDbEntity
  8
F00001_1
  6
Continuous
 62
     4
100
AcDbMText
 10
1225.504999874075
 20
273.9999999999954
 30
0.0
 40
12.0
 41
0.0
 71
     5
 72
     5
  1
\T1.40;\W0.60;名　　　　　称
  7
STD
 73
     1
 44
1.0
1001
DEKIMAS
1040
0.15
1001
ASKOBJSC
1000
1/1
1001
ASKDWGSC
1040
4.0
1001
ACAD
1000
MTEXTBEGIN
1070
    73
1070
     1
1070
    44
1040
1.0
1070
    74
1070
     0
1000
MTEXTEND
  0
MTEXT
  5
D5B
330
1F
100
AcDbEntity
  8
F00001_1
  6
Continuous
 62
     4
100
AcDbMText
 10
1375.312999874075
 20
273.9999999999954
 30
0.0
 40
12.0
 41
0.0
 71
     5
 72
     5
  1
\T1.40;\W0.60;材　質
  7
STD
 73
     1
 44
1.0
1001
DEKIMAS
1040
0.15
1001
ASKOBJSC
1000
1/1
1001
ASKDWGSC
1040
4.0
1001
ACAD
1000
MTEXTBEGIN
1070
    73
1070
     1
1070
    44
1040
1.0
1070
    74
1070
     0
1000
MTEXTEND
  0
MTEXT
  5
D5C
330
1F
100
AcDbEntity
  8
F00001_1
  6
Continuous
 62
     4
100
AcDbMText
 10
1435.312999874075
 20
273.9999999999954
 30
0.0
 40
12.0
 41
0.0
 71
     5
 72
     5
  1
\T1.40;\W0.60;個　数
  7
STD
 73
     1
 44
1.0
1001
DEKIMAS
1040
0.15
1001
ASKOBJSC
1000
1/1
1001
ASKDWGSC
1040
4.0
1001
ACAD
1000
MTEXTBEGIN
1070
    73
1070
     1
1070
    44
1040
1.0
1070
    74
1070
     0
1000
MTEXTEND
  0
MTEXT
  5
D5D
330
1F
100
AcDbEntity
  8
F00001_1
  6
Continuous
 62
     4
100
AcDbMText
 10
1535.532428445504
 20
273.9999999999954
 30
0.0
 40
12.0
 41
0.0
 71
     5
 72
     5
  1
\T1.40;\W0.60;摘　　　　　　　要
  7
STD
 73
     1
 44
1.0
1001
DEKIMAS
1040
0.15
1001
ASKOBJSC
1000
1/1
1001
ASKDWGSC
1040
4.0
1001
ACAD
1000
MTEXTBEGIN
1070
    73
1070
     1
1070
    44
1040
1.0
1070
    74
1070
     0
1000
MTEXTEND
  0
MTEXT
  5
D5E
330
1F
100
AcDbEntity
  8
F00001_1
  6
Continuous
 62
     4
100
AcDbMText
 10
1169.878697095852
 20
234.9999999999955
 30
0.0
 40
16.0
 41
0.0
 71
     5
 72
     5
  1
\T1.40;\W0.60;納　入　先
  7
STD
 73
     1
 44
1.0
1001
DEKIMAS
1040
0.15
1001
ASKOBJSC
1000
1/1
1001
ASKDWGSC
1040
4.0
1001
ACAD
1000
MTEXTBEGIN
1070
    73
1070
     1
1070
    44
1040
1.0
1070
    74
1070
     0
1000
MTEXTEND
  0
MTEXT
  5
D5F
330
1F
100
AcDbEntity
  8
F00001_1
  6
Continuous
 62
     4
100
AcDbMText
 10
1222.172870357727
 20
84.99999999999875
 30
0.0
 40
16.0
 41
0.0
 71
     5
 72
     5
  1
\T1.40;\W0.46;ス　イ　コ　ー　株　式　会　社
  7
STD
 73
     1
 44
1.0
1001
DEKIMAS
1040
0.15
1001
ASKOBJSC
1000
1/1
1001
ASKDWGSC
1040
4.0
1001
ACAD
1000
MTEXTBEGIN
1070
    73
1070
     1
1070
    44
1040
1.0
1070
    74
1070
     0
1000
MTEXTEND
  0
MTEXT
  5
D60
330
1F
100
AcDbEntity
  8
F00001_1
  6
Continuous
 62
     4
100
AcDbMText
 10
1230.014166641195
 20
119.9999999999987
 30
0.0
 40
10.0
 41
0.0
 71
     5
 72
     5
  1
\T1.40;\W0.60;度
  7
STD
 73
     1
 44
1.0
1001
DEKIMAS
1040
0.15
1001
ASKOBJSC
1000
1/1
1001
ASKDWGSC
1040
4.0
1001
ACAD
1000
MTEXTBEGIN
1070
    73
1070
     1
1070
    44
1040
1.0
1070
    74
1070
     0
1000
MTEXTEND
  0
MTEXT
  5
D61
330
1F
100
AcDbEntity
  8
F00001_1
  6
Continuous
 62
     4
100
AcDbMText
 10
1143.094197158795
 20
199.9999999999954
 30
0.0
 40
10.0
 41
0.0
 71
     5
 72
     5
  1
\T1.40;\W0.60;設　計
  7
STD
 73
     1
 44
1.0
1001
DEKIMAS
1040
0.15
1001
ASKOBJSC
1000
1/1
1001
ASKDWGSC
1040
4.0
1001
ACAD
1000
MTEXTBEGIN
1070
    73
1070
     1
1070
    44
1040
1.0
1070
    74
1070
     0
1000
MTEXTEND
  0
MTEXT
  5
D62
330
1F
100
AcDbEntity
  8
F00001_1
  6
Continuous
 62
     4
100
AcDbMText
 10
1194.894166641195
 20
199.9999999999954
 30
0.0
 40
10.0
 41
0.0
 71
     5
 72
     5
  1
\T1.40;\W0.60;製　図
  7
STD
 73
     1
 44
1.0
1001
DEKIMAS
1040
0.15
1001
ASKOBJSC
1000
1/1
1001
ASKDWGSC
1040
4.0
1001
ACAD
1000
MTEXTBEGIN
1070
    73
1070
     1
1070
    44
1040
1.0
1070
    74
1070
     0
1000
MTEXTEND
  0
MTEXT
  5
D63
330
1F
100
AcDbEntity
  8
F00001_1
  6
Continuous
 62
     4
100
AcDbMText
 10
1246.894166641195
 20
199.9999999999954
 30
0.0
 40
10.0
 41
0.0
 71
     5
 72
     5
  1
\T1.40;\W0.60;検　図
  7
STD
 73
     1
 44
1.0
1001
DEKIMAS
1040
0.15
1001
ASKOBJSC
1000
1/1
1001
ASKDWGSC
1040
4.0
1001
ACAD
1000
MTEXTBEGIN
1070
    73
1070
     1
1070
    44
1040
1.0
1070
    74
1070
     0
1000
MTEXTEND
  0
MTEXT
  5
D64
330
1F
100
AcDbEntity
  8
F00001_1
  6
Continuous
 62
     4
100
AcDbMText
 10
1299.094166641195
 20
199.9999999999954
 30
0.0
 40
10.0
 41
0.0
 71
     5
 72
     5
  1
\T1.40;\W0.60;承　認
  7
STD
 73
     1
 44
1.0
1001
DEKIMAS
1040
0.15
1001
ASKOBJSC
1000
1/1
1001
ASKDWGSC
1040
4.0
1001
ACAD
1000
MTEXTBEGIN
1070
    73
1070
     1
1070
    44
1040
1.0
1070
    74
1070
     0
1000
MTEXTEND
  0
MTEXT
  5
D65
330
1F
100
AcDbEntity
  8
F00001_1
  6
Continuous
 62
     4
100
AcDbMText
 10
1336.216999874075
 20
134.9999999999954
 30
0.0
 40
12.0
 41
0.0
 71
     5
 72
     5
  1
\T1.40;\W0.60;称
  7
STD
 73
     1
 44
1.0
1001
DEKIMAS
1040
0.15
1001
ASKOBJSC
1000
1/1
1001
ASKDWGSC
1040
4.0
1001
ACAD
1000
MTEXTBEGIN
1070
    73
1070
     1
1070
    44
1040
1.0
1070
    74
1070
     0
1000
MTEXTEND
  0
MTEXT
  5
D66
330
1F
100
AcDbEntity
  8
F00001_1
  6
Continuous
 62
     4
100
AcDbMText
 10
1335.736999874075
 20
97.49999999999875
 30
0.0
 40
12.0
 41
0.0
 71
     5
 72
     5
  1
\T1.40;\W0.60;図
  7
STD
 73
     1
 44
1.0
1001
DEKIMAS
1040
0.15
1001
ASKOBJSC
1000
1/1
1001
ASKDWGSC
1040
4.0
1001
ACAD
1000
MTEXTBEGIN
1070
    73
1070
     1
1070
    44
1040
1.0
1070
    74
1070
     0
1000
MTEXTEND
  0
MTEXT
  5
D67
330
1F
100
AcDbEntity
  8
F00001_1
  6
Continuous
 62
     4
100
AcDbMText
 10
1336.216999874075
 20
72.49999999999875
 30
0.0
 40
12.0
 41
0.0
 71
     5
 72
     5
  1
\T1.40;\W0.60;番
  7
STD
 73
     1
 44
1.0
1001
DEKIMAS
1040
0.15
1001
ASKOBJSC
1000
1/1
1001
ASKDWGSC
1040
4.0
1001
ACAD
1000
MTEXTBEGIN
1070
    73
1070
     1
1070
    44
1040
1.0
1070
    74
1070
     0
1000
MTEXTEND
  0
MTEXT
  5
D68
330
1F
100
AcDbEntity
  8
F00001_1
  6
Continuous
 62
     4
100
AcDbMText
 10
1335.976999874075
 20
184.9999999999954
 30
0.0
 40
12.0
 41
0.0
 71
     5
 72
     5
  1
\T1.40;\W0.60;名
  7
STD
 73
     1
 44
1.0
1001
DEKIMAS
1040
0.15
1001
ASKOBJSC
1000
1/1
1001
ASKDWGSC
1040
4.0
1001
ACAD
1000
MTEXTBEGIN
1070
    73
1070
     1
1070
    44
1040
1.0
1070
    74
1070
     0
1000
MTEXTEND
  0
MTEXT
  5
D69
330
1F
100
AcDbEntity
  8
F00001_1
  6
Continuous
 62
     4
100
AcDbMText
 10
1230.014166521986
 20
139.9999999999954
 30
0.0
 40
10.0
 41
0.0
 71
     5
 72
     5
  1
\T1.40;\W0.60;尺
  7
STD
 73
     1
 44
1.0
1001
DEKIMAS
1040
0.15
1001
ASKOBJSC
1000
1/1
1001
ASKDWGSC
1040
4.0
1001
ACAD
1000
MTEXTBEGIN
1070
    73
1070
     1
1070
    44
1040
1.0
1070
    74
1070
     0
1000
MTEXTEND
  0
MTEXT
  5
D6A
330
1F
100
AcDbEntity
  8
F00001_1
  6
Continuous
 62
     4
100
AcDbMText
 10
1125.491363687497
 20
129.9999999999987
 30
0.0
 40
8.0
 41
0.0
 71
     5
 72
     5
  1
\T1.40;\W0.60;月
  7
STD
 73
     1
 44
1.0
1001
DEKIMAS
1040
0.15
1001
ASKOBJSC
1000
1/1
1001
ASKDWGSC
1040
4.0
1001
ACAD
1000
MTEXTBEGIN
1070
    73
1070
     1
1070
    44
1040
1.0
1070
    74
1070
     0
1000
MTEXTEND
  0
MTEXT
  5
D6B
330
1F
100
AcDbEntity
  8
F00001_1
  6
Continuous
 62
     4
100
AcDbMText
 10
1125.171363687497
 20
116.7999877929675
 30
0.0
 40
8.0
 41
0.0
 71
     5
 72
     5
  1
\T1.40;\W0.60;日
  7
STD
 73
     1
 44
1.0
1001
DEKIMAS
1040
0.15
1001
ASKOBJSC
1000
1/1
1001
ASKDWGSC
1040
4.0
1001
ACAD
1000
MTEXTBEGIN
1070
    73
1070
     1
1070
    44
1040
1.0
1070
    74
1070
     0
1000
MTEXTEND
  0
MTEXT
  5
D6C
330
1F
100
AcDbEntity
  8
F00001_1
  6
Continuous
 62
     4
100
AcDbMText
 10
1125.811363687497
 20
123.3999633789046
 30
0.0
 40
8.0
 41
0.0
 71
     5
 72
     5
  1
\T1.40;\W0.60;・
  7
STD
 73
     1
 44
1.0
1001
DEKIMAS
1040
0.15
1001
ASKOBJSC
1000
1/1
1001
ASKDWGSC
1040
4.0
1001
ACAD
1000
MTEXTBEGIN
1070
    73
1070
     1
1070
    44
1040
1.0
1070
    74
1070
     0
1000
MTEXTEND
  0
MTEXT
  5
D6D
330
1F
100
AcDbEntity
  8
F00001_1
  6
Continuous
 62
     4
100
AcDbMText
 10
1125.811363687497
 20
136.6000366210915
 30
0.0
 40
8.0
 41
0.0
 71
     5
 72
     5
  1
\T1.40;\W0.60;・
  7
STD
 73
     1
 44
1.0
1001
DEKIMAS
1040
0.15
1001
ASKOBJSC
1000
1/1
1001
ASKDWGSC
1040
4.0
1001
ACAD
1000
MTEXTBEGIN
1070
    73
1070
     1
1070
    44
1040
1.0
1070
    74
1070
     0
1000
MTEXTEND
  0
MTEXT
  5
D6E
330
1F
100
AcDbEntity
  8
F00001_1
  6
Continuous
 62
     4
100
AcDbMText
 10
1125.811363687497
 20
143.1999511718714
 30
0.0
 40
8.0
 41
0.0
 71
     5
 72
     5
  1
\T1.40;\W0.60;年
  7
STD
 73
     1
 44
1.0
1001
DEKIMAS
1040
0.15
1001
ASKOBJSC
1000
1/1
1001
ASKDWGSC
1040
4.0
1001
ACAD
1000
MTEXTBEGIN
1070
    73
1070
     1
1070
    44
1040
1.0
1070
    74
1070
     0
1000
MTEXTEND
  0
MTEXT
  5
D6F
330
1F
100
AcDbEntity
  8
F00001_1
  6
Continuous
 62
     4
100
AcDbMText
 10
1315.312999874075
 20
273.9999999999954
 30
0.0
 40
12.0
 41
0.0
 71
     5
 72
     5
  1
\T1.40;\W0.60;サイズ
  7
STD
 73
     1
 44
1.0
1001
DEKIMAS
1040
0.15
1001
ASKOBJSC
1000
1/1
1001
ASKDWGSC
1040
4.0
1001
ACAD
1000
MTEXTBEGIN
1070
    73
1070
     1
1070
    44
1040
1.0
1070
    74
1070
     0
1000
MTEXTEND
  0
MTEXT
  5
D70
330
1F
100
AcDbEntity
  8
F00001_1
  6
Continuous
 62
     4
100
AcDbMText
 10
1266.987905502291
 20
361.7982025146434
 30
0.0
 40
12.8
 41
0.0
 71
     4
 72
     5
  1
\T1.40;\W0.60;注記　１．　材質ハポリエチレントスル。
  7
STD
 73
     1
 44
1.0
1001
DEKIMAS
1040
0.15
1001
ASKOBJSC
1000
1/1
1001
ASKDWGSC
1040
4.0
1001
ACAD
1000
MTEXTBEGIN
1070
    73
1070
     1
1070
    44
1040
1.0
1070
    74
1070
     0
1000
MTEXTEND
  0
MTEXT
  5
D71
330
1F
100
AcDbEntity
  8
F00001_1
  6
Continuous
 62
     4
100
AcDbMText
 10
1360.203631877859
 20
84.99999999999875
 30
0.0
 40
24.0
 41
0.0
 71
     4
 72
     5
  1
\T1.40;\W0.53;ＡＭ０００４－Ｓ０１
  7
STD
 73
     1
 44
1.0
1001
DEKIMAS
1040
0.15
1001
ASKOBJSC
1000
1/1
1001
ASKDWGSC
1040
4.0
1001
ACAD
1000
MTEXTBEGIN
1070
    73
1070
     1
1070
    44
1040
1.0
1070
    74
1070
     0
1000
MTEXTEND
  0
MTEXT
  5
D72
330
1F
100
AcDbEntity
  8
F00001_1
  6
Continuous
 62
     4
100
AcDbMText
 10
1428.694968076959
 20
172.2717248520315
 30
0.0
 40
24.0
 41
0.0
 71
     4
 72
     5
  1
\T1.40;\W0.60;Ｍ－４５
  7
STD
 73
     1
 44
1.0
1001
DEKIMAS
1040
0.15
1001
ASKOBJSC
1000
1/1
1001
ASKDWGSC
1040
4.0
1001
ACAD
1000
MTEXTBEGIN
1070
    73
1070
     1
1070
    44
1040
1.0
1070
    74
1070
     0
1000
MTEXTEND
  0
MTEXT
  5
D73
330
1F
100
AcDbEntity
  8
F00001_1
  6
Continuous
 62
     4
100
AcDbMText
 10
1442.241689541959
 20
131.6315604570251
 30
0.0
 40
24.0
 41
0.0
 71
     4
 72
     5
  1
\T1.40;\W0.60;製品図
  7
STD
 73
     1
 44
1.0
1001
DEKIMAS
1040
0.15
1001
ASKOBJSC
1000
1/1
1001
ASKDWGSC
1040
4.0
1001
ACAD
1000
MTEXTBEGIN
1070
    73
1070
     1
1070
    44
1040
1.0
1070
    74
1070
     0
1000
MTEXTEND
  0
MTEXT
  5
D74
330
1F
100
AcDbEntity
  8
F00001_1
  6
Continuous
 62
     4
100
AcDbMText
 10
1288.260020494448
 20
123.6360473632799
 30
0.0
 40
12.8
 41
0.0
 71
     4
 72
     5
  1
\T1.40;\W0.60;４
  7
STD
 73
     1
 44
1.0
1001
DEKIMAS
1040
0.15
1001
ASKOBJSC
1000
1/1
1001
ASKDWGSC
1040
4.0
1001
ACAD
1000
MTEXTBEGIN
1070
    73
1070
     1
1070
    44
1040
1.0
1070
    74
1070
     0
1000
MTEXTEND
  0
MTEXT
  5
D75
330
1F
100
AcDbEntity
  8
F00001_1
  6
Continuous
 62
     4
100
AcDbMText
 10
1269.168101549128
 20
136.3639526367155
 30
0.0
 40
12.8
 41
0.0
 71
     4
 72
     5
  1
\T1.40;\W0.60;１
  7
STD
 73
     1
 44
1.0
1001
DEKIMAS
1040
0.15
1001
ASKOBJSC
1000
1/1
1001
ASKDWGSC
1040
4.0
1001
ACAD
1000
MTEXTBEGIN
1070
    73
1070
     1
1070
    44
1040
1.0
1070
    74
1070
     0
1000
MTEXTEND
  0
MTEXT
  5
D76
330
1F
100
AcDbEntity
  8
F00001_1
  6
Continuous
 62
     4
100
AcDbMText
 10
1176.754798110283
 20
129.9999999999987
 30
0.0
 40
12.8
 41
0.0
 71
     5
 72
     5
  1
\T1.40;\W0.46;Ｈ４．１２．　１
  7
STD
 73
     1
 44
1.0
1001
DEKIMAS
1040
0.15
1001
ASKOBJSC
1000
1/1
1001
ASKDWGSC
1040
4.0
1001
ACAD
1000
MTEXTBEGIN
1070
    73
1070
     1
1070
    44
1040
1.0
1070
    74
1070
     0
1000
MTEXTEND
  0
MTEXT
  5
D77
330
1F
100
AcDbEntity
  8
F00001_1
  6
Continuous
 62
     4
100
AcDbMText
 10
1195.349199891241
 20
169.9999999999954
 30
0.0
 40
12.8
 41
0.0
 71
     5
 72
     5
  1
\T1.40;\W0.60;荒木
  7
STD
 73
     1
 44
1.0
1001
DEKIMAS
1040
0.15
1001
ASKOBJSC
1000
1/1
1001
ASKDWGSC
1040
4.0
1001
ACAD
1000
MTEXTBEGIN
1070
    73
1070
     1
1070
    44
1040
1.0
1070
    74
1070
     0
1000
MTEXTEND
  0
MTEXT
  5
D78
330
1F
100
AcDbEntity
  8
画層1
  6
Continuous
 62
     4
100
AcDbMText
 10
1579.544112161968
 20
85.00155674275868
 30
0.0
 40
12.8
 41
0.0
 71
     4
 72
     5
  1
\T1.40;\W0.60;１
  7
STD
 73
     1
 44
1.0
1001
DEKIMAS
1040
0.15
1001
ASKOBJSC
1000
1/1
1001
ASKDWGSC
1040
4.0
1001
ACAD
1000
MTEXTBEGIN
1070
    73
1070
     1
1070
    44
1040
1.0
1070
    74
1070
     0
1000
MTEXTEND
  0
MTEXT
  5
D79
330
1F
100
AcDbEntity
  8
F00001_1
  6
Continuous
 62
     4
100
AcDbMText
 10
1266.987905502291
 20
385.7982025146434
 30
0.0
 40
12.8
 41
0.0
 71
     4
 72
     5
  1
\T1.40;\W0.60;　　　２．　タンク寸法公差：\U+00B1１．５％。
  7
STD
 73
     1
 44
1.0
1001
DEKIMAS
1040
0.15
1001
ASKOBJSC
1000
1/1
1001
ASKDWGSC
1040
4.0
1001
ACAD
1000
MTEXTBEGIN
1070
    73
1070
     1
1070
    44
1040
1.0
1070
    74
1070
     0
1000
MTEXTEND
  0
MTEXT
  5
D7A
330
1F
100
AcDbEntity
  8
画層1
  6
Continuous
 62
     4
100
AcDbMText
 10
109.2140625715255
 20
1096.999969482415
 30
0.0
 40
10.0
 41
0.0
 71
     4
 72
     5
  1
\T1.40;\W0.60;１
  7
STD
 73
     1
 44
1.0
1001
DEKIMAS
1040
0.15
1001
ASKOBJSC
1000
1/1
1001
ASKDWGSC
1040
4.0
1001
ACAD
1000
MTEXTBEGIN
1070
    73
1070
     1
1070
    44
1040
1.0
1070
    74
1070
     0
1000
MTEXTEND
  0
MTEXT
  5
D7B
330
1F
100
AcDbEntity
  8
画層1
  6
Continuous
 62
     4
100
AcDbMText
 10
148.5139877796485
 20
1096.999969482415
 30
0.0
 40
12.8
 41
0.0
 71
     4
 72
     5
  1
\T1.40;\W0.60;ＣＡＤ化
  7
STD
 73
     1
 44
1.0
1001
DEKIMAS
1040
0.15
1001
ASKOBJSC
1000
1/1
1001
ASKDWGSC
1040
4.0
1001
ACAD
1000
MTEXTBEGIN
1070
    73
1070
     1
1070
    44
1040
1.0
1070
    74
1070
     0
1000
MTEXTEND
  0
MTEXT
  5
D7C
330
1F
100
AcDbEntity
  8
画層1
  6
Continuous
 62
     4
100
AcDbMText
 10
355.1030907683755
 20
1096.999969482415
 30
0.0
 40
12.8
 41
0.0
 71
     5
 72
     5
  1
\T1.09;\W0.39;Ｈ１３．１１．３０
  7
STD
 73
     1
 44
1.0
1001
DEKIMAS
1040
0.15
1001
ASKOBJSC
1000
1/1
1001
ASKDWGSC
1040
4.0
1001
ACAD
1000
MTEXTBEGIN
1070
    73
1070
     1
1070
    44
1040
1.0
1070
    74
1070
     0
1000
MTEXTEND
  0
MTEXT
  5
D7D
330
1F
100
AcDbEntity
  8
画層1
  6
Continuous
 62
     4
100
AcDbMText
 10
415.0931998912771
 20
1096.999969482415
 30
0.0
 40
12.8
 41
0.0
 71
     5
 72
     5
  1
\T1.40;\W0.60;山崎
  7
STD
 73
     1
 44
1.0
1001
DEKIMAS
1040
0.15
1001
ASKOBJSC
1000
1/1
1001
ASKDWGSC
1040
4.0
1001
ACAD
1000
MTEXTBEGIN
1070
    73
1070
     1
1070
    44
1040
1.0
1070
    74
1070
     0
1000
MTEXTEND
  0
MTEXT
  5
D7E
330
1F
100
AcDbEntity
  8
F00001_1
  6
Continuous
 62
     4
100
AcDbMText
 10
1143.349260926401
 20
169.9999999999954
 30
0.0
 40
12.8
 41
0.0
 71
     5
 72
     5
  1
\T1.40;\W0.60;荒木
  7
STD
 73
     1
 44
1.0
1001
DEKIMAS
1040
0.15
1001
ASKOBJSC
1000
1/1
1001
ASKDWGSC
1040
4.0
1001
ACAD
1000
MTEXTBEGIN
1070
    73
1070
     1
1070
    44
1040
1.0
1070
    74
1070
     0
1000
MTEXTEND
  0
ENDSEC
  0
SECTION
  2
OBJECTS
  0
DICTIONARY
  5
C
330
0
100
AcDbDictionary
281
     1
  3
ACAD_2007HEADERVARS_RT
350
E62
  3
ACAD_CIP_PREVIOUS_PRODUCT_INFO
350
E55
  3
ACAD_COLOR
350
6B
  3
ACAD_DETAILVIEWSTYLE
350
E4D
  3
ACAD_GROUP
350
D
  3
ACAD_IMAGE_VARS
350
731
  3
ACAD_LAYOUT
350
1A
  3
ACAD_MATERIAL
350
6A
  3
ACAD_MLEADERSTYLE
350
402
  3
ACAD_MLINESTYLE
350
17
  3
ACAD_PLOTSETTINGS
350
19
  3
ACAD_PLOTSTYLENAME
350
E
  3
ACAD_SCALELIST
350
3E0
  3
ACAD_SECTIONVIEWSTYLE
350
E4B
  3
ACAD_TABLESTYLE
350
7E
  3
ACAD_VISUALSTYLE
350
F2
  3
ACDB_RECOMPOSE_DATA
350
E60
  3
AcDbVariableDictionary
350
5E
  3
ASKSYSVAR
350
6E7
  3
DWGPROPS
350
E61
  3
SAKAE_DICT
350
DCE
  0
DICTIONARY
  5
688
330
2
100
AcDbDictionary
280
     1
281
     1
  3
ACAD_LAYERFILTERS
360
E2D
  3
ACLYDICTIONARY
360
E2C
  0
DICTIONARY
  5
785
330
10
100
AcDbDictionary
280
     1
281
     1
  3
ADSK_XREC_LAYER_RECONCILED
360
7F6
  0
DICTIONARY
  5
318
330
1F
100
AcDbDictionary
280
     1
281
     1
  0
DICTIONARY
  5
E93
330
DEA
100
AcDbDictionary
280
     1
281
     1
  3
ACAD_MTEXT_RT
360
E94
  0
DICTIONARY
  5
E95
330
DF3
100
AcDbDictionary
280
     1
281
     1
  3
ACAD_MTEXT_RT
360
E96
  0
DICTIONARY
  5
E97
330
E06
100
AcDbDictionary
280
     1
281
     1
  3
ACAD_MTEXT_RT
360
E98
  0
DICTIONARY
  5
E99
330
E0F
100
AcDbDictionary
280
     1
281
     1
  3
ACAD_MTEXT_RT
360
E9A
  0
DICTIONARY
  5
E62
102
{ACAD_REACTORS
330
C
102
}
330
C
100
AcDbDictionary
281
     1
  3
DIMFXL
350
E63
  3
DIMJOGANG
350
E64
  0
XRECORD
  5
E55
102
{ACAD_REACTORS
330
C
102
}
330
C
100
AcDbXrecord
280
     1
300
AMECH_PP
300
2013
300
AMECH_PP_F_S
  0
DICTIONARY
  5
6B
102
{ACAD_REACTORS
330
C
102
}
330
C
100
AcDbDictionary
281
     1
  0
DICTIONARY
  5
E4D
102
{ACAD_REACTORS
330
C
102
}
330
C
100
AcDbDictionary
281
     1
  3
Metric50
350
E4E
  0
DICTIONARY
  5
D
102
{ACAD_REACTORS
330
C
102
}
330
C
100
AcDbDictionary
281
     1
  0
RASTERVARIABLES
  5
731
102
{ACAD_REACTORS
330
C
102
}
330
C
100
AcDbRasterVariables
 90
        0
 70
     3
 71
     1
 72
     1
  0
DICTIONARY
  5
1A
102
{ACAD_REACTORS
330
C
102
}
330
C
100
AcDbDictionary
281
     1
  3
Model
350
22
  3
レイアウト1
350
D3
  3
レイアウト2
350
D7
  0
DICTIONARY
  5
6A
102
{ACAD_REACTORS
330
C
102
}
330
C
100
AcDbDictionary
281
     1
  3
ByBlock
350
F0
  3
ByLayer
350
EF
  3
Global
350
F1
  0
DICTIONARY
  5
402
102
{ACAD_REACTORS
330
C
102
}
330
C
100
AcDbDictionary
281
     1
  3
Standard
350
403
  0
DICTIONARY
  5
17
102
{ACAD_REACTORS
330
C
102
}
330
C
100
AcDbDictionary
281
     1
  3
Standard
350
18
  0
DICTIONARY
  5
19
102
{ACAD_REACTORS
330
C
102
}
330
C
100
AcDbDictionary
281
     1
  0
ACDBDICTIONARYWDFLT
  5
E
102
{ACAD_REACTORS
330
C
102
}
330
C
100
AcDbDictionary
281
     1
  3
Normal
350
F
100
AcDbDictionaryWithDefault
340
F
  0
DICTIONARY
  5
3E0
102
{ACAD_REACTORS
330
C
102
}
330
C
100
AcDbDictionary
281
     1
  3
A0
350
3E1
  3
A1
350
3E2
  3
A2
350
3E3
  3
A3
350
3E4
  3
A4
350
3E5
  3
A5
350
3E6
  3
A6
350
3E7
  3
A7
350
3E8
  3
A8
350
3E9
  3
A9
350
3EA
  3
B0
350
3EB
  3
B1
350
3EC
  3
B2
350
3ED
  3
B3
350
3EE
  3
B4
350
3EF
  3
B5
350
3F0
  3
B6
350
3F1
  3
B7
350
3F2
  3
B8
350
3F3
  3
B9
350
3F4
  3
C0
350
3F5
  3
C1
350
3F6
  3
C2
350
3F7
  3
C3
350
3F8
  3
C4
350
3F9
  3
C5
350
3FA
  3
C6
350
3FB
  3
C7
350
3FC
  3
C8
350
3FD
  3
C9
350
3FE
  3
D0
350
3FF
  3
D1
350
400
  3
D2
350
401
  0
DICTIONARY
  5
E4B
102
{ACAD_REACTORS
330
C
102
}
330
C
100
AcDbDictionary
281
     1
  3
Metric50
350
E4C
  0
DICTIONARY
  5
7E
102
{ACAD_REACTORS
330
C
102
}
330
C
100
AcDbDictionary
281
     1
  3
Standard
350
7F
  0
DICTIONARY
  5
F2
102
{ACAD_REACTORS
330
C
102
}
330
C
100
AcDbDictionary
281
     1
  3
2dWireframe
350
F8
  3
3D Hidden
350
FA
  3
3dWireframe
350
F9
  3
Basic
350
F7
  3
Brighten
350
FE
  3
ColorChange
350
102
  3
Conceptual
350
FB
  3
Dim
350
FD
  3
EdgeColorOff
350
E4A
  3
Facepattern
350
101
  3
Flat
350
F3
  3
FlatWithEdges
350
F4
  3
Gouraud
350
F5
  3
GouraudWithEdges
350
F6
  3
Hidden
350
E42
  3
JitterOff
350
E48
  3
Linepattern
350
100
  3
OverhangOff
350
E49
  3
Realistic
350
FC
  3
Shaded
350
E47
  3
Shaded with edges
350
E46
  3
Shades of Gray
350
E43
  3
Sketchy
350
E44
  3
Thicken
350
FF
  3
Wireframe
350
E41
  3
X-Ray
350
E45
  0
XRECORD
  5
E60
102
{ACAD_REACTORS
330
C
102
}
330
C
100
AcDbXrecord
280
     1
 90
        1
330
7F
  0
DICTIONARY
  5
5E
102
{ACAD_REACTORS
330
C
102
}
330
C
100
AcDbDictionary
281
     1
  3
CANNOSCALE
350
678
  3
CMLEADERSTYLE
350
676
  3
CTABLESTYLE
350
84
  3
CVIEWDETAILSTYLE
350
E56
  3
CVIEWSECTIONSTYLE
350
E57
  3
DIMASSOC
350
5F
  3
HIDETEXT
350
63
  3
INDEXCTL
350
E59
  3
LIGHTINGUNITS
350
679
  3
MSLTSCALE
350
677
  3
PSOLHEIGHT
350
E5D
  3
PSOLWIDTH
350
E5C
  3
SOLIDHIST
350
E5B
  3
SORTENTS
350
E58
  3
XCLIPFRAME
350
E5A
  0
DICTIONARY
  5
6E7
102
{ACAD_REACTORS
330
C
102
}
330
C
100
AcDbDictionary
281
     1
  3
ASK_SUMMARY
350
6E8
  3
ASKCURSC
350
7D3
  0
XRECORD
  5
E61
102
{ACAD_REACTORS
330
C
102
}
330
C
100
AcDbXrecord
280
     1
  1
DWGPROPS COOKIE
  2

  3

  4

  6

  7

  8
Administrator
  9

300
=
301
=
302
=
303
=
304
=
305
=
306
=
307
=
308
=
309
=
 40
0.1614301851851852
 41
2454497.602825139
 42
2455692.679143519
  1

 90
        0
  0
DICTIONARY
  5
DCE
102
{ACAD_REACTORS
330
C
102
}
330
C
100
AcDbDictionary
281
     1
  3
XREC1
350
DCF
  0
DICTIONARY
  5
E2D
102
{ACAD_REACTORS
330
688
102
}
330
688
100
AcDbDictionary
281
     1
  0
DICTIONARY
  5
E2C
102
{ACAD_REACTORS
330
688
102
}
330
688
100
AcDbDictionary
281
     1
1001
ACAD
1000
<All
  0
XRECORD
  5
7F6
102
{ACAD_REACTORS
330
785
102
}
330
785
100
AcDbXrecord
280
     1
290
     1
  0
XRECORD
  5
E94
102
{ACAD_REACTORS
330
E93
102
}
330
E93
100
AcDbXrecord
280
     1
 40
7726.0
  1
\A1;OD\U+2205360
  0
XRECORD
  5
E96
102
{ACAD_REACTORS
330
E95
102
}
330
E95
100
AcDbXrecord
280
     1
 40
5724.0
  1
\A1;\U+2205230
  0
XRECORD
  5
E98
102
{ACAD_REACTORS
330
E97
102
}
330
E97
100
AcDbXrecord
280
     1
 40
5844.0
  1
\A1;\U+2205455
  0
XRECORD
  5
E9A
102
{ACAD_REACTORS
330
E99
102
}
330
E99
100
AcDbXrecord
280
     1
 40
7851.0
  1
\A1;OD\U+2205395
  0
XRECORD
  5
E63
102
{ACAD_REACTORS
330
E62
102
}
330
E62
100
AcDbXrecord
280
     1
 40
2.0
  0
XRECORD
  5
E64
102
{ACAD_REACTORS
330
E62
102
}
330
E62
100
AcDbXrecord
280
     1
 40
1.570796326794896
  0
ACDBDETAILVIEWSTYLE
  5
E4E
102
{ACAD_REACTORS
330
E4D
102
}
330
E4D
100
AcDbModelDocViewStyle
 70
     0
  3
Metric50
290
     0
100
AcDbDetailViewStyle
 70
     0
 71
     0
 90
        3
 71
     1
340
11
 40
5.0
340
0
 40
5.0
300

 40
0.0
280
     1
 71
     2
340
16
 90
       25
 71
     3
340
11
 40
5.0
 90
        0
 40
15.0
 90
        1
300
%<\AcVar ViewDetailId>% (%<\AcVar ViewScale \f "%sn">%)
 71
     4
340
16
 90
       25
340
16
 90
       25
280
     0
  0
LAYOUT
  5
22
102
{ACAD_XDICTIONARY
360
E65
102
}
102
{ACAD_REACTORS
330
1A
102
}
330
1A
100
AcDbPlotSettings
  1

  2
none_device
  4
ISO_A4_(210.00_x_297.00_MM)
  6

 40
7.5
 41
20.0
 42
7.5
 43
20.0
 44
210.0
 45
297.0
 46
0.0
 47
59.55357142857143
 48
0.0
 49
0.0
140
0.0
141
0.0
142
1.0
143
2.153846153846153
 70
 11956
 72
     1
 73
     0
 74
     2
  7
C:\Documents and Settings\tomiya\Application Data\Autodesk\AutoCAD Mechanical 2008\R17.1\jpn\Plot Styles\SUIKO.ctb
 75
     0
147
0.4642857142857144
148
0.0
149
0.0
100
AcDbLayout
  1
Model
 70
     1
 71
     0
 10
0.0
 20
0.0
 11
12.0
 21
9.0
 12
0.0
 22
0.0
 32
0.0
 14
0.0
 24
0.0
 34
0.0
 15
0.0
 25
0.0
 35
0.0
146
0.0
 13
0.0
 23
0.0
 33
0.0
 16
1.0
 26
0.0
 36
0.0
 17
0.0
 27
1.0
 37
0.0
 76
     0
330
1F
331
ED
1001
ACAD_PSEXT
1000
なし
1000
なし
1000
適切ではありません
1000
新しいプロッタ環境設定名を選択しない限り、レイアウトは印刷されません。
1070
     0
  0
LAYOUT
  5
D3
102
{ACAD_XDICTIONARY
360
E68
102
}
102
{ACAD_REACTORS
330
1A
102
}
330
1A
100
AcDbPlotSettings
  1

  2
C:\Documents and Settings\basas\Application Data\Autodesk\AutoCAD 2005\R16.1\enu\plotters\Default Windows System Printer.pc3
  4

  6

 40
0.0
 41
0.0
 42
0.0
 43
0.0
 44
0.0
 45
0.0
 46
0.0
 47
0.0
 48
0.0
 49
0.0
140
0.0
141
0.0
142
1.0
143
1.0
 70
   688
 72
     0
 73
     0
 74
     5
  7
C:\Documents and Settings\tomiya\Application Data\Autodesk\AutoCAD Mechanical 2008\R17.1\jpn\Plot Styles\SUIKO.ctb
 75
    16
147
1.0
148
0.0
149
0.0
100
AcDbLayout
  1
レイアウト1
 70
     1
 71
     1
 10
0.0
 20
0.0
 11
12.0
 21
9.0
 12
0.0
 22
0.0
 32
0.0
 14
0.0
 24
0.0
 34
0.0
 15
0.0
 25
0.0
 35
0.0
146
0.0
 13
0.0
 23
0.0
 33
0.0
 16
1.0
 26
0.0
 36
0.0
 17
0.0
 27
1.0
 37
0.0
 76
     0
330
D2
  0
LAYOUT
  5
D7
102
{ACAD_XDICTIONARY
360
E6A
102
}
102
{ACAD_REACTORS
330
1A
102
}
330
1A
100
AcDbPlotSettings
  1

  2
C:\Documents and Settings\basas\Application Data\Autodesk\AutoCAD 2005\R16.1\enu\plotters\Default Windows System Printer.pc3
  4

  6

 40
0.0
 41
0.0
 42
0.0
 43
0.0
 44
0.0
 45
0.0
 46
0.0
 47
0.0
 48
0.0
 49
0.0
140
0.0
141
0.0
142
1.0
143
1.0
 70
   688
 72
     0
 73
     0
 74
     5
  7
C:\Documents and Settings\tomiya\Application Data\Autodesk\AutoCAD Mechanical 2008\R17.1\jpn\Plot Styles\SUIKO.ctb
 75
    16
147
1.0
148
0.0
149
0.0
100
AcDbLayout
  1
レイアウト2
 70
     1
 71
     2
 10
0.0
 20
0.0
 11
12.0
 21
9.0
 12
0.0
 22
0.0
 32
0.0
 14
0.0
 24
0.0
 34
0.0
 15
0.0
 25
0.0
 35
0.0
146
0.0
 13
0.0
 23
0.0
 33
0.0
 16
1.0
 26
0.0
 36
0.0
 17
0.0
 27
1.0
 37
0.0
 76
     0
330
D6
  0
MATERIAL
  5
F0
102
{ACAD_XDICTIONARY
360
E6E
102
}
102
{ACAD_REACTORS
330
6A
102
}
330
6A
100
AcDbMaterial
  1
ByBlock
 73
     1
 78
     1
172
     1
176
     1
270
     1
274
     1
  0
MATERIAL
  5
EF
102
{ACAD_XDICTIONARY
360
E6C
102
}
102
{ACAD_REACTORS
330
6A
102
}
330
6A
100
AcDbMaterial
  1
ByLayer
 73
     1
 78
     1
172
     1
176
     1
270
     1
274
     1
  0
MATERIAL
  5
F1
102
{ACAD_XDICTIONARY
360
E70
102
}
102
{ACAD_REACTORS
330
6A
102
}
330
6A
100
AcDbMaterial
  1
Global
 73
     1
 78
     1
172
     1
176
     1
270
     1
274
     1
  0
MLEADERSTYLE
  5
403
102
{ACAD_REACTORS
330
402
102
}
330
402
100
AcDbMLeaderStyle
170
     2
171
     1
172
     0
 90
        2
 40
0.0
 41
0.0
173
     1
 91
-1056964608
340
14
 92
       -2
290
     1
 42
2.0
291
     1
 43
0.36
  3
Standard
 44
4.0
300

342
11
174
     1
178
     6
175
     1
176
     0
 93
-1056964608
 45
4.0
292
     0
297
     0
 46
4.0
 94
-1056964608
 47
1.0
 49
1.0
140
1.0
293
     1
141
0.0
294
     1
177
     0
142
1.0
295
     0
296
     0
143
0.125
1001
ACAD_MLEADERVER
1070
     2
  0
MLINESTYLE
  5
18
102
{ACAD_REACTORS
330
17
102
}
330
17
100
AcDbMlineStyle
  2
STANDARD
 70
     0
  3

 62
   256
 51
90.0
 52
90.0
 71
     2
 49
0.5
 62
   256
  6
BYLAYER
 49
-0.5
 62
   256
  6
BYLAYER
  0
ACDBPLACEHOLDER
  5
F
102
{ACAD_REACTORS
330
E
102
}
330
E
  0
SCALE
  5
3E1
102
{ACAD_REACTORS
330
3E0
102
}
330
3E0
100
AcDbScale
 70
     0
300
1:1
140
1.0
141
1.0
290
     1
  0
SCALE
  5
3E2
102
{ACAD_REACTORS
330
3E0
102
}
330
3E0
100
AcDbScale
 70
     0
300
1:2
140
1.0
141
2.0
290
     0
  0
SCALE
  5
3E3
102
{ACAD_REACTORS
330
3E0
102
}
330
3E0
100
AcDbScale
 70
     0
300
1:4
140
1.0
141
4.0
290
     0
  0
SCALE
  5
3E4
102
{ACAD_REACTORS
330
3E0
102
}
330
3E0
100
AcDbScale
 70
     0
300
1:5
140
1.0
141
5.0
290
     0
  0
SCALE
  5
3E5
102
{ACAD_REACTORS
330
3E0
102
}
330
3E0
100
AcDbScale
 70
     0
300
1:8
140
1.0
141
8.0
290
     0
  0
SCALE
  5
3E6
102
{ACAD_REACTORS
330
3E0
102
}
330
3E0
100
AcDbScale
 70
     0
300
1:10
140
1.0
141
10.0
290
     0
  0
SCALE
  5
3E7
102
{ACAD_REACTORS
330
3E0
102
}
330
3E0
100
AcDbScale
 70
     0
300
1:16
140
1.0
141
16.0
290
     0
  0
SCALE
  5
3E8
102
{ACAD_REACTORS
330
3E0
102
}
330
3E0
100
AcDbScale
 70
     0
300
1:20
140
1.0
141
20.0
290
     0
  0
SCALE
  5
3E9
102
{ACAD_REACTORS
330
3E0
102
}
330
3E0
100
AcDbScale
 70
     0
300
1:30
140
1.0
141
30.0
290
     0
  0
SCALE
  5
3EA
102
{ACAD_REACTORS
330
3E0
102
}
330
3E0
100
AcDbScale
 70
     0
300
1:40
140
1.0
141
40.0
290
     0
  0
SCALE
  5
3EB
102
{ACAD_REACTORS
330
3E0
102
}
330
3E0
100
AcDbScale
 70
     0
300
1:50
140
1.0
141
50.0
290
     0
  0
SCALE
  5
3EC
102
{ACAD_REACTORS
330
3E0
102
}
330
3E0
100
AcDbScale
 70
     0
300
1:100
140
1.0
141
100.0
290
     0
  0
SCALE
  5
3ED
102
{ACAD_REACTORS
330
3E0
102
}
330
3E0
100
AcDbScale
 70
     0
300
2:1
140
2.0
141
1.0
290
     0
  0
SCALE
  5
3EE
102
{ACAD_REACTORS
330
3E0
102
}
330
3E0
100
AcDbScale
 70
     0
300
4:1
140
4.0
141
1.0
290
     0
  0
SCALE
  5
3EF
102
{ACAD_REACTORS
330
3E0
102
}
330
3E0
100
AcDbScale
 70
     0
300
8:1
140
8.0
141
1.0
290
     0
  0
SCALE
  5
3F0
102
{ACAD_REACTORS
330
3E0
102
}
330
3E0
100
AcDbScale
 70
     0
300
10:1
140
10.0
141
1.0
290
     0
  0
SCALE
  5
3F1
102
{ACAD_REACTORS
330
3E0
102
}
330
3E0
100
AcDbScale
 70
     0
300
100:1
140
100.0
141
1.0
290
     0
  0
SCALE
  5
3F2
102
{ACAD_REACTORS
330
3E0
102
}
330
3E0
100
AcDbScale
 70
     0
300
1/128" = 1'-0"
140
0.0078125
141
12.0
290
     0
  0
SCALE
  5
3F3
102
{ACAD_REACTORS
330
3E0
102
}
330
3E0
100
AcDbScale
 70
     0
300
1/64" = 1'-0"
140
0.015625
141
12.0
290
     0
  0
SCALE
  5
3F4
102
{ACAD_REACTORS
330
3E0
102
}
330
3E0
100
AcDbScale
 70
     0
300
1/32" = 1'-0"
140
0.03125
141
12.0
290
     0
  0
SCALE
  5
3F5
102
{ACAD_REACTORS
330
3E0
102
}
330
3E0
100
AcDbScale
 70
     0
300
1/16" = 1'-0"
140
0.0625
141
12.0
290
     0
  0
SCALE
  5
3F6
102
{ACAD_REACTORS
330
3E0
102
}
330
3E0
100
AcDbScale
 70
     0
300
3/32" = 1'-0"
140
0.09375
141
12.0
290
     0
  0
SCALE
  5
3F7
102
{ACAD_REACTORS
330
3E0
102
}
330
3E0
100
AcDbScale
 70
     0
300
1/8" = 1'-0"
140
0.125
141
12.0
290
     0
  0
SCALE
  5
3F8
102
{ACAD_REACTORS
330
3E0
102
}
330
3E0
100
AcDbScale
 70
     0
300
3/16" = 1'-0"
140
0.1875
141
12.0
290
     0
  0
SCALE
  5
3F9
102
{ACAD_REACTORS
330
3E0
102
}
330
3E0
100
AcDbScale
 70
     0
300
1/4" = 1'-0"
140
0.25
141
12.0
290
     0
  0
SCALE
  5
3FA
102
{ACAD_REACTORS
330
3E0
102
}
330
3E0
100
AcDbScale
 70
     0
300
3/8" = 1'-0"
140
0.375
141
12.0
290
     0
  0
SCALE
  5
3FB
102
{ACAD_REACTORS
330
3E0
102
}
330
3E0
100
AcDbScale
 70
     0
300
1/2" = 1'-0"
140
0.5
141
12.0
290
     0
  0
SCALE
  5
3FC
102
{ACAD_REACTORS
330
3E0
102
}
330
3E0
100
AcDbScale
 70
     0
300
3/4" = 1'-0"
140
0.75
141
12.0
290
     0
  0
SCALE
  5
3FD
102
{ACAD_REACTORS
330
3E0
102
}
330
3E0
100
AcDbScale
 70
     0
300
1" = 1'-0"
140
1.0
141
12.0
290
     0
  0
SCALE
  5
3FE
102
{ACAD_REACTORS
330
3E0
102
}
330
3E0
100
AcDbScale
 70
     0
300
1-1/2" = 1'-0"
140
1.5
141
12.0
290
     0
  0
SCALE
  5
3FF
102
{ACAD_REACTORS
330
3E0
102
}
330
3E0
100
AcDbScale
 70
     0
300
3" = 1'-0"
140
3.0
141
12.0
290
     0
  0
SCALE
  5
400
102
{ACAD_REACTORS
330
3E0
102
}
330
3E0
100
AcDbScale
 70
     0
300
6" = 1'-0"
140
6.0
141
12.0
290
     0
  0
SCALE
  5
401
102
{ACAD_REACTORS
330
3E0
102
}
330
3E0
100
AcDbScale
 70
     0
300
1'-0" = 1'-0"
140
12.0
141
12.0
290
     0
  0
ACDBSECTIONVIEWSTYLE
  5
E4C
102
{ACAD_REACTORS
330
E4B
102
}
330
E4B
100
AcDbModelDocViewStyle
 70
     0
  3
Metric50
290
     0
100
AcDbSectionViewStyle
 70
     0
 71
     0
 90
      102
 71
     1
340
11
 40
5.0
340
0
340
0
 40
5.0
300
I, O, Q, S, X, Z
 40
10.0
 90
        0
 40
2.5
 90
        0
 71
     2
340
16
 90
       25
340
16
 90
       50
 40
5.0
 40
2.5
 40
5.0
 71
     3
340
11
 40
5.0
 90
        0
 40
15.0
 90
        1
300
%<\AcVar ViewSectionStartId>%-%<\AcVar ViewSectionEndId>% (%<\AcVar ViewScale \f "%sn">%)
 71
     4
300
ANSI31
 40
1.0
 90
        0
290
     0
290
     0
 90
        6
 40
0.0
 40
1.570796326794896
 40
0.2617993877991494
 40
1.308996938995747
 40
-0.2617993877991494
 40
1.832595714594046
  0
TABLESTYLE
  5
7F
102
{ACAD_XDICTIONARY
360
673
102
}
102
{ACAD_REACTORS
330
7E
102
}
330
7E
100
AcDbTableStyle
  3
Standard
 70
     0
 71
     0
 40
1.5
 41
1.5
280
     0
281
     0
  7
Standard
140
4.5
170
     2
 62
     0
 63
     7
283
     0
274
    -2
284
     1
 64
     0
275
    -2
285
     1
 65
     0
276
    -2
286
     1
 66
     0
277
    -2
287
     1
 67
     0
278
    -2
288
     1
 68
     0
279
    -2
289
     1
 69
     0
  7
Standard
140
6.0
170
     5
 62
     0
 63
     7
283
     0
274
    -2
284
     1
 64
     0
275
    -2
285
     1
 65
     0
276
    -2
286
     1
 66
     0
277
    -2
287
     1
 67
     0
278
    -2
288
     1
 68
     0
279
    -2
289
     1
 69
     0
  7
Standard
140
4.5
170
     5
 62
     0
 63
     7
283
     0
274
    -2
284
     1
 64
     0
275
    -2
285
     1
 65
     0
276
    -2
286
     1
 66
     0
277
    -2
287
     1
 67
     0
278
    -2
288
     1
 68
     0
279
    -2
289
     1
 69
     0
  0
VISUALSTYLE
  5
F8
102
{ACAD_XDICTIONARY
360
E7C
102
}
102
{ACAD_REACTORS
330
F2
102
}
330
F2
100
AcDbVisualStyle
  2
2dWireframe
 70
     4
 71
     0
 72
     2
 73
     1
 90
        0
 40
-0.6
 41
-30.0
 62
     5
 63
     7
 74
     1
 91
        4
 64
     7
 65
   257
 75
     1
175
     1
 42
1.0
 92
        0
 66
   257
 43
1.0
 76
     1
 77
     6
 78
     2
 67
     7
 79
     5
170
     0
171
     0
290
     0
174
     0
 93
        1
 44
0.0
173
     0
291
     0
 45
0.0
1001
ACAD
1000
AcDbSavedByObjectVersion
1070
     0
  0
VISUALSTYLE
  5
FA
102
{ACAD_XDICTIONARY
360
E80
102
}
102
{ACAD_REACTORS
330
F2
102
}
330
F2
100
AcDbVisualStyle
  2
3D Hidden
 70
     6
 71
     1
 72
     2
 73
     2
 90
        0
 40
-0.6
 41
-30.0
 62
     5
 63
     7
 74
     2
 91
        2
 64
     7
 65
   257
 75
     2
175
     1
 42
40.0
 92
        0
 66
   257
 43
1.0
 76
     1
 77
     6
 78
     2
 67
     7
 79
     3
170
     0
171
     0
290
     0
174
     0
 93
        1
 44
0.0
173
     0
291
     0
 45
0.0
1001
ACAD
1000
AcDbSavedByObjectVersion
1070
     0
  0
VISUALSTYLE
  5
F9
102
{ACAD_XDICTIONARY
360
E7E
102
}
102
{ACAD_REACTORS
330
F2
102
}
330
F2
100
AcDbVisualStyle
  2
3dWireframe
 70
     5
 71
     0
 72
     2
 73
     1
 90
        0
 40
-0.6
 41
-30.0
 62
     5
 63
     7
 74
     1
 91
        4
 64
     7
 65
   257
 75
     1
175
     1
 42
1.0
 92
        0
 66
   257
 43
1.0
 76
     1
 77
     6
 78
     2
 67
     7
 79
     5
170
     0
171
     0
290
     0
174
     0
 93
        1
 44
0.0
173
     0
291
     0
 45
0.0
1001
ACAD
1000
AcDbSavedByObjectVersion
1070
     0
  0
VISUALSTYLE
  5
F7
102
{ACAD_XDICTIONARY
360
E7A
102
}
102
{ACAD_REACTORS
330
F2
102
}
330
F2
100
AcDbVisualStyle
  2
Basic
 70
     7
 71
     1
 72
     0
 73
     1
 90
        0
 40
-0.6
 41
-30.0
 62
     5
 63
     7
 74
     0
 91
        4
 64
     7
 65
   257
 75
     1
175
     1
 42
1.0
 92
        8
 66
     7
 43
1.0
 76
     1
 77
     6
 78
     2
 67
     7
 79
     5
170
     0
171
     0
290
     0
174
     0
 93
        1
 44
0.0
173
     0
291
     1
 45
0.0
1001
ACAD
1000
AcDbSavedByObjectVersion
1070
     0
  0
VISUALSTYLE
  5
FE
102
{ACAD_XDICTIONARY
360
E88
102
}
102
{ACAD_REACTORS
330
F2
102
}
330
F2
100
AcDbVisualStyle
  2
Brighten
 70
    12
 71
     2
 72
     2
 73
     1
 90
        0
 40
-0.6
 41
-30.0
 62
     5
 63
     7
 74
     1
 91
        4
 64
     7
 65
   257
 75
     1
175
     1
 42
1.0
 92
        8
 66
     7
 43
1.0
 76
     1
 77
     6
 78
     2
 67
     7
 79
     5
170
     0
171
     0
290
     0
174
     0
 93
        1
 44
50.0
173
     0
291
     1
 45
0.0
1001
ACAD
1000
AcDbSavedByObjectVersion
1070
     0
  0
VISUALSTYLE
  5
102
102
{ACAD_XDICTIONARY
360
E90
102
}
102
{ACAD_REACTORS
330
F2
102
}
330
F2
100
AcDbVisualStyle
  2
ColorChange
 70
    16
 71
     2
 72
     2
 73
     3
 90
        0
 40
-0.6
 41
-30.0
 62
     5
 63
     8
 74
     1
 91
        4
 64
     7
 65
   257
 75
     1
175
     1
 42
1.0
 92
        8
 66
     8
 43
1.0
 76
     1
 77
     6
 78
     2
 67
     7
 79
     5
170
     0
171
     0
290
     0
174
     0
 93
        1
 44
0.0
173
     0
291
     1
 45
0.0
1001
ACAD
1000
AcDbSavedByObjectVersion
1070
     0
  0
VISUALSTYLE
  5
FB
102
{ACAD_XDICTIONARY
360
E82
102
}
102
{ACAD_REACTORS
330
F2
102
}
330
F2
100
AcDbVisualStyle
  2
Conceptual
 70
     9
 71
     3
 72
     2
 73
     1
 90
        0
 40
-0.6
 41
-30.0
 62
     5
 63
     7
 74
     2
 91
        2
 64
     7
 65
   257
 75
     1
175
     1
 42
40.0
 92
        8
 66
     7
 43
1.0
 76
     1
 77
     6
 78
     2
 67
     7
 79
     3
170
     0
171
     0
290
     0
174
     0
 93
        1
 44
0.0
173
     0
291
     0
 45
0.0
1001
ACAD
1000
AcDbSavedByObjectVersion
1070
     0
  0
VISUALSTYLE
  5
FD
102
{ACAD_XDICTIONARY
360
E86
102
}
102
{ACAD_REACTORS
330
F2
102
}
330
F2
100
AcDbVisualStyle
  2
Dim
 70
    11
 71
     2
 72
     2
 73
     1
 90
        0
 40
-0.6
 41
-30.0
 62
     5
 63
     7
 74
     1
 91
        4
 64
     7
 65
   257
 75
     1
175
     1
 42
1.0
 92
        8
 66
     7
 43
1.0
 76
     1
 77
     6
 78
     2
 67
     7
 79
     5
170
     0
171
     0
290
     0
174
     0
 93
        1
 44
-50.0
173
     0
291
     1
 45
0.0
1001
ACAD
1000
AcDbSavedByObjectVersion
1070
     0
  0
VISUALSTYLE
  5
E4A
102
{ACAD_XDICTIONARY
360
EAD
102
}
102
{ACAD_REACTORS
330
F2
102
}
330
F2
100
AcDbVisualStyle
  2
EdgeColorOff
 70
    22
 71
     2
 72
     2
 73
     0
 90
        0
 40
-0.6
 41
-30.0
 62
     5
 63
     7
 74
     1
 91
        4
 64
     7
 65
   257
 75
     1
175
     1
 42
1.0
 92
        8
 66
     7
 43
1.0
 76
     1
 77
     6
 78
     2
 67
     7
 79
     5
170
     0
171
     0
290
     0
174
     0
 93
        1
 44
0.0
173
     0
291
     1
 45
0.0
1001
ACAD
1000
AcDbSavedByObjectVersion
1070
     0
  0
VISUALSTYLE
  5
101
102
{ACAD_XDICTIONARY
360
E8E
102
}
102
{ACAD_REACTORS
330
F2
102
}
330
F2
100
AcDbVisualStyle
  2
Facepattern
 70
    15
 71
     2
 72
     2
 73
     1
 90
        0
 40
-0.6
 41
-30.0
 62
     5
 63
     7
 74
     1
 91
        4
 64
     7
 65
   257
 75
     1
175
     1
 42
1.0
 92
        8
 66
     7
 43
1.0
 76
     1
 77
     6
 78
     2
 67
     7
 79
     5
170
     0
171
     0
290
     0
174
     0
 93
        1
 44
0.0
173
     0
291
     1
 45
0.0
1001
ACAD
1000
AcDbSavedByObjectVersion
1070
     0
  0
VISUALSTYLE
  5
F3
102
{ACAD_XDICTIONARY
360
E72
102
}
102
{ACAD_REACTORS
330
F2
102
}
330
F2
100
AcDbVisualStyle
  2
Flat
 70
     0
 71
     2
 72
     1
 73
     1
 90
        2
 40
-0.6
 41
30.0
 62
     5
 63
     7
 74
     0
 91
        4
 64
     7
 65
   257
 75
     1
175
     1
 42
1.0
 92
        8
 66
     7
 43
1.0
 76
     1
 77
     6
 78
     2
 67
     7
 79
     5
170
     0
171
     0
290
     0
174
     0
 93
       13
 44
0.0
173
     0
291
     1
 45
0.0
1001
ACAD
1000
AcDbSavedByObjectVersion
1070
     0
  0
VISUALSTYLE
  5
F4
102
{ACAD_XDICTIONARY
360
E74
102
}
102
{ACAD_REACTORS
330
F2
102
}
330
F2
100
AcDbVisualStyle
  2
FlatWithEdges
 70
     1
 71
     2
 72
     1
 73
     1
 90
        2
 40
-0.6
 41
30.0
 62
     5
 63
     7
 74
     1
 91
        4
 64
     7
 65
   257
 75
     1
175
     1
 42
1.0
 92
        0
 66
   257
 43
1.0
 76
     1
 77
     6
 78
     2
 67
     7
 79
     5
170
     0
171
     0
290
     0
174
     0
 93
       13
 44
0.0
173
     0
291
     1
 45
0.0
1001
ACAD
1000
AcDbSavedByObjectVersion
1070
     0
  0
VISUALSTYLE
  5
F5
102
{ACAD_XDICTIONARY
360
E76
102
}
102
{ACAD_REACTORS
330
F2
102
}
330
F2
100
AcDbVisualStyle
  2
Gouraud
 70
     2
 71
     2
 72
     2
 73
     1
 90
        2
 40
-0.6
 41
30.0
 62
     5
 63
     7
 74
     0
 91
        4
 64
     7
 65
   257
 75
     1
175
     1
 42
1.0
 92
        0
 66
     7
 43
1.0
 76
     1
 77
     6
 78
     2
 67
     7
 79
     5
170
     0
171
     0
290
     0
174
     0
 93
       13
 44
0.0
173
     0
291
     1
 45
0.0
1001
ACAD
1000
AcDbSavedByObjectVersion
1070
     0
  0
VISUALSTYLE
  5
F6
102
{ACAD_XDICTIONARY
360
E78
102
}
102
{ACAD_REACTORS
330
F2
102
}
330
F2
100
AcDbVisualStyle
  2
GouraudWithEdges
 70
     3
 71
     2
 72
     2
 73
     1
 90
        2
 40
-0.6
 41
30.0
 62
     5
 63
     7
 74
     1
 91
        4
 64
     7
 65
   257
 75
     1
175
     1
 42
1.0
 92
        0
 66
   257
 43
1.0
 76
     1
 77
     6
 78
     2
 67
     7
 79
     5
170
     0
171
     0
290
     0
174
     0
 93
       13
 44
0.0
173
     0
291
     1
 45
0.0
1001
ACAD
1000
AcDbSavedByObjectVersion
1070
     0
  0
VISUALSTYLE
  5
E42
102
{ACAD_XDICTIONARY
360
E9D
102
}
102
{ACAD_REACTORS
330
F2
102
}
330
F2
100
AcDbVisualStyle
  2
Hidden
 70
     6
 71
     1
 72
     2
 73
     2
 90
        0
 40
-0.6
 41
-30.0
 62
     5
 63
     7
 74
     2
 91
        2
 64
     7
 65
   257
 75
     2
175
     1
 42
40.0
 92
        0
 66
   257
 43
1.0
 76
     1
 77
     6
 78
     2
 67
     7
 79
     3
170
     0
171
     0
290
     0
174
     0
 93
        1
 44
0.0
173
     0
291
     0
 45
0.0
1001
ACAD
1000
AcDbSavedByObjectVersion
1070
     0
  0
VISUALSTYLE
  5
E48
102
{ACAD_XDICTIONARY
360
EA9
102
}
102
{ACAD_REACTORS
330
F2
102
}
330
F2
100
AcDbVisualStyle
  2
JitterOff
 70
    20
 71
     2
 72
     2
 73
     0
 90
        0
 40
-0.6
 41
-30.0
 62
     5
 63
     7
 74
     1
 91
        4
 64
     7
 65
   257
 75
     1
175
     1
 42
1.0
 92
       10
 66
     7
 43
1.0
 76
     1
 77
     6
 78
     2
 67
     7
 79
     5
170
     0
171
     0
290
     0
174
     0
 93
        1
 44
0.0
173
     0
291
     1
 45
0.0
1001
ACAD
1000
AcDbSavedByObjectVersion
1070
     0
  0
VISUALSTYLE
  5
100
102
{ACAD_XDICTIONARY
360
E8C
102
}
102
{ACAD_REACTORS
330
F2
102
}
330
F2
100
AcDbVisualStyle
  2
Linepattern
 70
    14
 71
     2
 72
     2
 73
     1
 90
        0
 40
-0.6
 41
-30.0
 62
     5
 63
     7
 74
     1
 91
        4
 64
     7
 65
   257
 75
     7
175
     7
 42
1.0
 92
        8
 66
     7
 43
1.0
 76
     1
 77
     6
 78
     2
 67
     7
 79
     5
170
     0
171
     0
290
     0
174
     0
 93
        1
 44
0.0
173
     0
291
     1
 45
0.0
1001
ACAD
1000
AcDbSavedByObjectVersion
1070
     0
  0
VISUALSTYLE
  5
E49
102
{ACAD_XDICTIONARY
360
EAB
102
}
102
{ACAD_REACTORS
330
F2
102
}
330
F2
100
AcDbVisualStyle
  2
OverhangOff
 70
    21
 71
     2
 72
     2
 73
     0
 90
        0
 40
-0.6
 41
-30.0
 62
     5
 63
     7
 74
     1
 91
        4
 64
     7
 65
   257
 75
     1
175
     1
 42
1.0
 92
        9
 66
     7
 43
1.0
 76
     1
 77
     6
 78
     2
 67
     7
 79
     5
170
     0
171
     0
290
     0
174
     0
 93
        1
 44
0.0
173
     0
291
     1
 45
0.0
1001
ACAD
1000
AcDbSavedByObjectVersion
1070
     0
  0
VISUALSTYLE
  5
FC
102
{ACAD_XDICTIONARY
360
E84
102
}
102
{ACAD_REACTORS
330
F2
102
}
330
F2
100
AcDbVisualStyle
  2
Realistic
 70
     8
 71
     2
 72
     2
 73
     1
 90
        0
 40
-0.6
 41
-30.0
 62
     5
 63
     7
 74
     1
 91
        0
 64
     7
 65
   257
 75
     1
175
     1
 42
1.0
 92
        8
 66
     8
 43
1.0
 76
     1
 77
     6
 78
     2
 67
     7
 79
     5
170
     0
171
     0
290
     0
174
     0
 93
       13
 44
0.0
173
     0
291
     0
 45
0.0
1001
ACAD
1000
AcDbSavedByObjectVersion
1070
     0
  0
VISUALSTYLE
  5
E47
102
{ACAD_XDICTIONARY
360
EA7
102
}
102
{ACAD_REACTORS
330
F2
102
}
330
F2
100
AcDbVisualStyle
  2
Shaded
 70
    27
 71
     2
 72
     2
 73
     1
 90
        2
 40
-0.6
 41
30.0
 62
     5
 63
     7
 74
     0
 91
        4
 64
     7
 65
   257
 75
     1
175
     1
 42
1.0
 92
        8
 66
   257
 43
1.0
 76
     1
 77
     6
 78
     2
 67
     8
 79
     3
170
     0
171
     0
290
     0
174
     0
 93
        5
 44
0.0
173
     0
291
     0
 45
0.0
1001
ACAD
1000
AcDbSavedByObjectVersion
1070
     0
  0
VISUALSTYLE
  5
E46
102
{ACAD_XDICTIONARY
360
EA5
102
}
102
{ACAD_REACTORS
330
F2
102
}
330
F2
100
AcDbVisualStyle
  2
Shaded with edges
 70
    26
 71
     2
 72
     2
 73
     1
 90
        2
 40
-0.6
 41
30.0
 62
     5
 63
     7
 74
     1
 91
       10
 64
     7
 65
   257
 75
     2
175
     1
 42
1.0
 92
        8
 66
   257
 43
1.0
 76
     1
 77
     6
 78
     2
 67
     7
 79
     3
170
     0
171
     0
290
     0
174
     0
 93
        5
 44
0.0
173
     0
291
     0
 45
0.0
1001
ACAD
1000
AcDbSavedByObjectVersion
1070
     0
  0
VISUALSTYLE
  5
E43
102
{ACAD_XDICTIONARY
360
E9F
102
}
102
{ACAD_REACTORS
330
F2
102
}
330
F2
100
AcDbVisualStyle
  2
Shades of Gray
 70
    23
 71
     2
 72
     2
 73
     3
 90
        0
 40
-0.6
 41
-30.0
 62
     5
 63
     7
 74
     2
 91
        2
 64
     7
 65
     7
 75
     1
175
     1
 42
40.0
 92
        8
 66
     7
 43
1.0
 76
     1
 77
     6
 78
     2
 67
     7
 79
     3
170
     0
171
     0
290
     0
174
     0
 93
        1
 44
0.0
173
     0
291
     0
 45
0.0
1001
ACAD
1000
AcDbSavedByObjectVersion
1070
     0
  0
VISUALSTYLE
  5
E44
102
{ACAD_XDICTIONARY
360
EA1
102
}
102
{ACAD_REACTORS
330
F2
102
}
330
F2
100
AcDbVisualStyle
  2
Sketchy
 70
    24
 71
     1
 72
     2
 73
     2
 90
        0
 40
-0.6
 41
-30.0
 62
     5
 63
     7
 74
     2
 91
        2
 64
     7
 65
     7
 75
     1
175
     1
 42
40.0
 92
       11
 66
     7
 43
1.0
 76
     1
 77
     6
 78
     2
 67
     7
 79
     6
170
     0
171
     0
290
     0
174
     0
 93
        1
 44
0.0
173
     0
291
     0
 45
0.0
1001
ACAD
1000
AcDbSavedByObjectVersion
1070
     0
  0
VISUALSTYLE
  5
FF
102
{ACAD_XDICTIONARY
360
E8A
102
}
102
{ACAD_REACTORS
330
F2
102
}
330
F2
100
AcDbVisualStyle
  2
Thicken
 70
    13
 71
     2
 72
     2
 73
     1
 90
        0
 40
-0.6
 41
-30.0
 62
     5
 63
     7
 74
     1
 91
        4
 64
     7
 65
   257
 75
     1
175
     1
 42
1.0
 92
       12
 66
     7
 43
1.0
 76
     1
 77
     6
 78
     2
 67
     7
 79
     5
170
     0
171
     0
290
     0
174
     0
 93
        1
 44
0.0
173
     0
291
     1
 45
0.0
1001
ACAD
1000
AcDbSavedByObjectVersion
1070
     0
  0
VISUALSTYLE
  5
E41
102
{ACAD_XDICTIONARY
360
E9B
102
}
102
{ACAD_REACTORS
330
F2
102
}
330
F2
100
AcDbVisualStyle
  2
Wireframe
 70
     5
 71
     0
 72
     2
 73
     0
 90
        0
 40
-0.6
 41
-30.0
 62
     5
 63
     7
 74
     1
 91
        4
 64
     7
 65
   257
 75
     1
175
     1
 42
1.0
 92
        0
 66
   257
 43
1.0
 76
     1
 77
     6
 78
     2
 67
     7
 79
     3
170
     0
171
     0
290
     0
174
     0
 93
        1
 44
0.0
173
     0
291
     0
 45
0.0
1001
ACAD
1000
AcDbSavedByObjectVersion
1070
     0
  0
VISUALSTYLE
  5
E45
102
{ACAD_XDICTIONARY
360
EA3
102
}
102
{ACAD_REACTORS
330
F2
102
}
330
F2
100
AcDbVisualStyle
  2
X-Ray
 70
    25
 71
     2
 72
     2
 73
     1
 90
        1
 40
0.5
 41
-30.0
 62
     5
 63
     7
 74
     1
 91
        0
 64
     7
 65
   257
 75
     1
175
     1
 42
1.0
 92
        8
 66
     7
 43
1.0
 76
     1
 77
     6
 78
     2
 67
     7
 79
     3
170
     0
171
     0
290
     0
174
     0
 93
       13
 44
0.0
173
     0
291
     0
 45
0.0
1001
ACAD
1000
AcDbSavedByObjectVersion
1070
     0
  0
DICTIONARYVAR
  5
678
102
{ACAD_REACTORS
330
5E
102
}
330
5E
100
DictionaryVariables
280
     0
  1
1:1
  0
DICTIONARYVAR
  5
676
102
{ACAD_REACTORS
330
5E
102
}
330
5E
100
DictionaryVariables
280
     0
  1
STANDARD
  0
DICTIONARYVAR
  5
84
102
{ACAD_REACTORS
330
5E
102
}
330
5E
100
DictionaryVariables
280
     0
  1
STANDARD
  0
DICTIONARYVAR
  5
E56
102
{ACAD_REACTORS
330
5E
102
}
330
5E
100
DictionaryVariables
280
     0
  1
Metric50
  0
DICTIONARYVAR
  5
E57
102
{ACAD_REACTORS
330
5E
102
}
330
5E
100
DictionaryVariables
280
     0
  1
Metric50
  0
DICTIONARYVAR
  5
5F
102
{ACAD_REACTORS
330
5E
102
}
330
5E
100
DictionaryVariables
280
     0
  1
1
  0
DICTIONARYVAR
  5
63
102
{ACAD_REACTORS
330
5E
102
}
330
5E
100
DictionaryVariables
280
     0
  1
1
  0
DICTIONARYVAR
  5
E59
102
{ACAD_REACTORS
330
5E
102
}
330
5E
100
DictionaryVariables
280
     0
  1
0
  0
DICTIONARYVAR
  5
679
102
{ACAD_REACTORS
330
5E
102
}
330
5E
100
DictionaryVariables
280
     0
  1
0
  0
DICTIONARYVAR
  5
677
102
{ACAD_REACTORS
330
5E
102
}
330
5E
100
DictionaryVariables
280
     0
  1
0
  0
DICTIONARYVAR
  5
E5D
102
{ACAD_REACTORS
330
5E
102
}
330
5E
100
DictionaryVariables
280
     0
  1
80.000000
  0
DICTIONARYVAR
  5
E5C
102
{ACAD_REACTORS
330
5E
102
}
330
5E
100
DictionaryVariables
280
     0
  1
5.000000
  0
DICTIONARYVAR
  5
E5B
102
{ACAD_REACTORS
330
5E
102
}
330
5E
100
DictionaryVariables
280
     0
  1
1
  0
DICTIONARYVAR
  5
E58
102
{ACAD_REACTORS
330
5E
102
}
330
5E
100
DictionaryVariables
280
     0
  1
127
  0
DICTIONARYVAR
  5
E5A
102
{ACAD_REACTORS
330
5E
102
}
330
5E
100
DictionaryVariables
280
     0
  1
0
  0
XRECORD
  5
6E8
102
{ACAD_REACTORS
330
6E7
102
}
330
6E7
100
AcDbXrecord
280
     1
300
ASK2000BIKOU>>A3横 1/4        <<                                                                                                                                                                                                                                                                                
  0
XRECORD
  5
7D3
102
{ACAD_REACTORS
330
6E7
102
}
330
6E7
100
AcDbXrecord
280
     1
  1
DwgScale
  0
XRECORD
  5
DCF
102
{ACAD_REACTORS
330
DCE
102
}
330
DCE
100
AcDbXrecord
280
     1
  1

 40
0.25
 50
-9613.127781445967
 51
-4549.039312521071
 52
14565.6911730742
 53
12582.39876189009
  0
DICTIONARY
  5
E65
330
22
100
AcDbDictionary
280
     1
281
     1
  3
ACAD_XREC_ROUNDTRIP
360
E66
  0
DICTIONARY
  5
E68
330
D3
100
AcDbDictionary
280
     1
281
     1
  3
ACAD_XREC_ROUNDTRIP
360
E69
  0
DICTIONARY
  5
E6A
330
D7
100
AcDbDictionary
280
     1
281
     1
  3
ACAD_XREC_ROUNDTRIP
360
E6B
  0
DICTIONARY
  5
E6E
330
F0
100
AcDbDictionary
280
     1
281
     1
  3
ACAD_XREC_ROUNDTRIP
360
E6F
  0
DICTIONARY
  5
E6C
330
EF
100
AcDbDictionary
280
     1
281
     1
  3
ACAD_XREC_ROUNDTRIP
360
E6D
  0
DICTIONARY
  5
E70
330
F1
100
AcDbDictionary
280
     1
281
     1
  3
ACAD_XREC_ROUNDTRIP
360
E71
  0
DICTIONARY
  5
673
330
7F
100
AcDbDictionary
280
     1
281
     1
  3
ACAD_ROUNDTRIP_2008_TABLESTYLE_CELLSTYLEMAP
360
E5F
  3
ACAD_XREC_ROUNDTRIP
360
E67
  0
DICTIONARY
  5
E7C
330
F8
100
AcDbDictionary
280
     1
281
     1
  3
ACAD_XREC_ROUNDTRIP
360
E7D
  0
DICTIONARY
  5
E80
330
FA
100
AcDbDictionary
280
     1
281
     1
  3
ACAD_XREC_ROUNDTRIP
360
E81
  0
DICTIONARY
  5
E7E
330
F9
100
AcDbDictionary
280
     1
281
     1
  3
ACAD_XREC_ROUNDTRIP
360
E7F
  0
DICTIONARY
  5
E7A
330
F7
100
AcDbDictionary
280
     1
281
     1
  3
ACAD_XREC_ROUNDTRIP
360
E7B
  0
DICTIONARY
  5
E88
330
FE
100
AcDbDictionary
280
     1
281
     1
  3
ACAD_XREC_ROUNDTRIP
360
E89
  0
DICTIONARY
  5
E90
330
102
100
AcDbDictionary
280
     1
281
     1
  3
ACAD_XREC_ROUNDTRIP
360
E91
  0
DICTIONARY
  5
E82
330
FB
100
AcDbDictionary
280
     1
281
     1
  3
ACAD_XREC_ROUNDTRIP
360
E83
  0
DICTIONARY
  5
E86
330
FD
100
AcDbDictionary
280
     1
281
     1
  3
ACAD_XREC_ROUNDTRIP
360
E87
  0
DICTIONARY
  5
EAD
330
E4A
100
AcDbDictionary
280
     1
281
     1
  3
ACAD_XREC_ROUNDTRIP
360
EAE
  0
DICTIONARY
  5
E8E
330
101
100
AcDbDictionary
280
     1
281
     1
  3
ACAD_XREC_ROUNDTRIP
360
E8F
  0
DICTIONARY
  5
E72
330
F3
100
AcDbDictionary
280
     1
281
     1
  3
ACAD_XREC_ROUNDTRIP
360
E73
  0
DICTIONARY
  5
E74
330
F4
100
AcDbDictionary
280
     1
281
     1
  3
ACAD_XREC_ROUNDTRIP
360
E75
  0
DICTIONARY
  5
E76
330
F5
100
AcDbDictionary
280
     1
281
     1
  3
ACAD_XREC_ROUNDTRIP
360
E77
  0
DICTIONARY
  5
E78
330
F6
100
AcDbDictionary
280
     1
281
     1
  3
ACAD_XREC_ROUNDTRIP
360
E79
  0
DICTIONARY
  5
E9D
330
E42
100
AcDbDictionary
280
     1
281
     1
  3
ACAD_XREC_ROUNDTRIP
360
E9E
  0
DICTIONARY
  5
EA9
330
E48
100
AcDbDictionary
280
     1
281
     1
  3
ACAD_XREC_ROUNDTRIP
360
EAA
  0
DICTIONARY
  5
E8C
330
100
100
AcDbDictionary
280
     1
281
     1
  3
ACAD_XREC_ROUNDTRIP
360
E8D
  0
DICTIONARY
  5
EAB
330
E49
100
AcDbDictionary
280
     1
281
     1
  3
ACAD_XREC_ROUNDTRIP
360
EAC
  0
DICTIONARY
  5
E84
330
FC
100
AcDbDictionary
280
     1
281
     1
  3
ACAD_XREC_ROUNDTRIP
360
E85
  0
DICTIONARY
  5
EA7
330
E47
100
AcDbDictionary
280
     1
281
     1
  3
ACAD_XREC_ROUNDTRIP
360
EA8
  0
DICTIONARY
  5
EA5
330
E46
100
AcDbDictionary
280
     1
281
     1
  3
ACAD_XREC_ROUNDTRIP
360
EA6
  0
DICTIONARY
  5
E9F
330
E43
100
AcDbDictionary
280
     1
281
     1
  3
ACAD_XREC_ROUNDTRIP
360
EA0
  0
DICTIONARY
  5
EA1
330
E44
100
AcDbDictionary
280
     1
281
     1
  3
ACAD_XREC_ROUNDTRIP
360
EA2
  0
DICTIONARY
  5
E8A
330
FF
100
AcDbDictionary
280
     1
281
     1
  3
ACAD_XREC_ROUNDTRIP
360
E8B
  0
DICTIONARY
  5
E9B
330
E41
100
AcDbDictionary
280
     1
281
     1
  3
ACAD_XREC_ROUNDTRIP
360
E9C
  0
DICTIONARY
  5
EA3
330
E45
100
AcDbDictionary
280
     1
281
     1
  3
ACAD_XREC_ROUNDTRIP
360
EA4
  0
XRECORD
  5
E66
102
{ACAD_REACTORS
330
E65
102
}
330
E65
100
AcDbXrecord
280
     1
102
SHADEPLOT
 70
     0
102
SHADEPLOTRESLEVEL
 70
     2
102
SHADEPLOTCUSTOMDPI
 70
   300
  0
XRECORD
  5
E69
102
{ACAD_REACTORS
330
E68
102
}
330
E68
100
AcDbXrecord
280
     1
102
SHADEPLOT
 70
     0
102
SHADEPLOTRESLEVEL
 70
     2
102
SHADEPLOTCUSTOMDPI
 70
   300
  0
XRECORD
  5
E6B
102
{ACAD_REACTORS
330
E6A
102
}
330
E6A
100
AcDbXrecord
280
     1
102
SHADEPLOT
 70
     0
102
SHADEPLOTRESLEVEL
 70
     2
102
SHADEPLOTCUSTOMDPI
 70
   300
  0
XRECORD
  5
E6F
102
{ACAD_REACTORS
330
E6E
102
}
330
E6E
100
AcDbXrecord
280
     1
102
MATERIAL
148
0.0
149
0.0
149
0.0
 93
        0
 94
       63
282
     0
 72
     1
 77
     1
171
     1
175
     1
179
     1
273
     0
  0
XRECORD
  5
E6D
102
{ACAD_REACTORS
330
E6C
102
}
330
E6C
100
AcDbXrecord
280
     1
102
MATERIAL
148
0.0
149
0.0
149
0.0
 93
        0
 94
       63
282
     0
 72
     1
 77
     1
171
     1
175
     1
179
     1
273
     0
  0
XRECORD
  5
E71
102
{ACAD_REACTORS
330
E70
102
}
330
E70
100
AcDbXrecord
280
     1
102
MATERIAL
148
0.0
149
0.0
149
0.0
 93
        0
 94
       63
282
     0
 72
     1
 77
     1
171
     1
175
     1
179
     1
273
     0
  0
CELLSTYLEMAP
  5
E5F
102
{ACAD_REACTORS
330
673
102
}
330
673
100
AcDbCellStyleMap
 90
        3
300
CELLSTYLE
  1
TABLEFORMAT_BEGIN
 90
        5
170
     1
 91
        0
 92
    32768
 62
   257
 93
        1
300
CONTENTFORMAT
  1
CONTENTFORMAT_BEGIN
 90
        0
 91
        0
 92
      512
 93
        0
300

 40
0.0
140
1.0
 94
        5
 62
     0
340
11
144
6.0
309
CONTENTFORMAT_END
171
     1
301
MARGIN
  1
CELLMARGIN_BEGIN
 40
1.5
 40
1.5
 40
1.5
 40
1.5
 40
0.18
 40
0.18
309
CELLMARGIN_END
 94
        6
 95
        1
302
GRIDFORMAT
  1
GRIDFORMAT_BEGIN
 90
        0
 91
        1
 62
     0
 92
       -2
340
0
 93
        0
 40
0.045
309
GRIDFORMAT_END
 95
        2
302
GRIDFORMAT
  1
GRIDFORMAT_BEGIN
 90
        0
 91
        1
 62
     0
 92
       -2
340
0
 93
        0
 40
0.045
309
GRIDFORMAT_END
 95
        4
302
GRIDFORMAT
  1
GRIDFORMAT_BEGIN
 90
        0
 91
        1
 62
     0
 92
       -2
340
0
 93
        0
 40
0.045
309
GRIDFORMAT_END
 95
        8
302
GRIDFORMAT
  1
GRIDFORMAT_BEGIN
 90
        0
 91
        1
 62
     0
 92
       -2
340
0
 93
        0
 40
0.045
309
GRIDFORMAT_END
 95
       16
302
GRIDFORMAT
  1
GRIDFORMAT_BEGIN
 90
        0
 91
        1
 62
     0
 92
       -2
340
0
 93
        0
 40
0.045
309
GRIDFORMAT_END
 95
       32
302
GRIDFORMAT
  1
GRIDFORMAT_BEGIN
 90
        0
 91
        1
 62
     0
 92
       -2
340
0
 93
        0
 40
0.045
309
GRIDFORMAT_END
309
TABLEFORMAT_END
  1
CELLSTYLE_BEGIN
 90
        1
 91
        1
300
_TITLE
309
CELLSTYLE_END
300
CELLSTYLE
  1
TABLEFORMAT_BEGIN
 90
        5
170
     1
 91
        0
 92
        0
 62
   257
 93
        1
300
CONTENTFORMAT
  1
CONTENTFORMAT_BEGIN
 90
        0
 91
        0
 92
      512
 93
        0
300

 40
0.0
140
1.0
 94
        5
 62
     0
340
11
144
4.5
309
CONTENTFORMAT_END
171
     1
301
MARGIN
  1
CELLMARGIN_BEGIN
 40
1.5
 40
1.5
 40
1.5
 40
1.5
 40
0.18
 40
0.18
309
CELLMARGIN_END
 94
        6
 95
        1
302
GRIDFORMAT
  1
GRIDFORMAT_BEGIN
 90
        0
 91
        1
 62
     0
 92
       -2
340
0
 93
        0
 40
0.045
309
GRIDFORMAT_END
 95
        2
302
GRIDFORMAT
  1
GRIDFORMAT_BEGIN
 90
        0
 91
        1
 62
     0
 92
       -2
340
0
 93
        0
 40
0.045
309
GRIDFORMAT_END
 95
        4
302
GRIDFORMAT
  1
GRIDFORMAT_BEGIN
 90
        0
 91
        1
 62
     0
 92
       -2
340
0
 93
        0
 40
0.045
309
GRIDFORMAT_END
 95
        8
302
GRIDFORMAT
  1
GRIDFORMAT_BEGIN
 90
        0
 91
        1
 62
     0
 92
       -2
340
0
 93
        0
 40
0.045
309
GRIDFORMAT_END
 95
       16
302
GRIDFORMAT
  1
GRIDFORMAT_BEGIN
 90
        0
 91
        1
 62
     0
 92
       -2
340
0
 93
        0
 40
0.045
309
GRIDFORMAT_END
 95
       32
302
GRIDFORMAT
  1
GRIDFORMAT_BEGIN
 90
        0
 91
        1
 62
     0
 92
       -2
340
0
 93
        0
 40
0.045
309
GRIDFORMAT_END
309
TABLEFORMAT_END
  1
CELLSTYLE_BEGIN
 90
        2
 91
        1
300
_HEADER
309
CELLSTYLE_END
300
CELLSTYLE
  1
TABLEFORMAT_BEGIN
 90
        5
170
     1
 91
        0
 92
        0
 62
   257
 93
        1
300
CONTENTFORMAT
  1
CONTENTFORMAT_BEGIN
 90
        0
 91
        0
 92
      512
 93
        0
300

 40
0.0
140
1.0
 94
        2
 62
     0
340
11
144
4.5
309
CONTENTFORMAT_END
171
     1
301
MARGIN
  1
CELLMARGIN_BEGIN
 40
1.5
 40
1.5
 40
1.5
 40
1.5
 40
0.18
 40
0.18
309
CELLMARGIN_END
 94
        6
 95
        1
302
GRIDFORMAT
  1
GRIDFORMAT_BEGIN
 90
        0
 91
        1
 62
     0
 92
       -2
340
0
 93
        0
 40
0.045
309
GRIDFORMAT_END
 95
        2
302
GRIDFORMAT
  1
GRIDFORMAT_BEGIN
 90
        0
 91
        1
 62
     0
 92
       -2
340
0
 93
        0
 40
0.045
309
GRIDFORMAT_END
 95
        4
302
GRIDFORMAT
  1
GRIDFORMAT_BEGIN
 90
        0
 91
        1
 62
     0
 92
       -2
340
0
 93
        0
 40
0.045
309
GRIDFORMAT_END
 95
        8
302
GRIDFORMAT
  1
GRIDFORMAT_BEGIN
 90
        0
 91
        1
 62
     0
 92
       -2
340
0
 93
        0
 40
0.045
309
GRIDFORMAT_END
 95
       16
302
GRIDFORMAT
  1
GRIDFORMAT_BEGIN
 90
        0
 91
        1
 62
     0
 92
       -2
340
0
 93
        0
 40
0.045
309
GRIDFORMAT_END
 95
       32
302
GRIDFORMAT
  1
GRIDFORMAT_BEGIN
 90
        0
 91
        1
 62
     0
 92
       -2
340
0
 93
        0
 40
0.045
309
GRIDFORMAT_END
309
TABLEFORMAT_END
  1
CELLSTYLE_BEGIN
 90
        3
 91
        2
300
_DATA
309
CELLSTYLE_END
  0
XRECORD
  5
E67
102
{ACAD_REACTORS
330
673
102
}
330
673
100
AcDbXrecord
280
     1
102
ACAD_ROUNDTRIP_PRE2007_TABLESTYLE
 90
      512
 91
        0
  1

 92
      512
 93
        0
  2

 94
      512
 95
        0
  3

  0
XRECORD
  5
E7D
102
{ACAD_REACTORS
330
E7C
102
}
330
E7C
100
AcDbXrecord
280
     1
102
RTVSPost2010Prop28
280
     1
102
RTVSPost2010PropOp28
 70
     1
102
RTVSPost2010Prop29
280
     1
102
RTVSPost2010PropOp29
 70
     1
102
RTVSPost2010Prop30
280
     0
102
RTVSPost2010PropOp30
 70
     1
102
RTVSPost2010Prop31
280
     0
102
RTVSPost2010PropOp31
 70
     1
102
RTVSPost2010Prop32
280
     0
102
RTVSPost2010PropOp32
 70
     1
102
RTVSPost2010Prop33
280
     0
102
RTVSPost2010PropOp33
 70
     1
102
RTVSPost2010Prop34
280
     0
102
RTVSPost2010PropOp34
 70
     1
102
RTVSPost2010Prop35
280
     0
102
RTVSPost2010PropOp35
 70
     1
102
RTVSPost2010Prop36
280
     0
102
RTVSPost2010PropOp36
 70
     1
102
RTVSPost2010Prop37
 90
       50
102
RTVSPost2010PropOp37
 70
     1
102
RTVSPost2010Prop38
140
0.0
102
RTVSPost2010PropOp38
 70
     1
102
RTVSPost2010Prop39
140
1.0
102
RTVSPost2010PropOp39
 70
     1
102
RTVSPost2010Prop40
 90
        0
102
RTVSPost2010PropOp40
 70
     1
102
RTVSPost2010Prop41ColorIndex
 90
       18
102
RTVSPost2010Prop41ColorRGB
 90
        0
102
RTVSPost2010PropOp41
 70
     1
102
RTVSPost2010Prop42
 90
       50
102
RTVSPost2010PropOp42
 70
     1
102
RTVSPost2010Prop43
 90
        3
102
RTVSPost2010PropOp43
 70
     1
102
RTVSPost2010Prop44ColorIndex
 90
        5
102
RTVSPost2010Prop44ColorRGB
 90
      255
102
RTVSPost2010PropOp44
 70
     1
102
RTVSPost2010Prop45
280
     0
102
RTVSPost2010PropOp45
 70
     1
102
RTVSPost2010Prop46
 90
       50
102
RTVSPost2010PropOp46
 70
     1
102
RTVSPost2010Prop47
 90
       50
102
RTVSPost2010PropOp47
 70
     1
102
RTVSPost2010Prop48
 90
       50
102
RTVSPost2010PropOp48
 70
     1
102
RTVSPost2010Prop49
280
     0
102
RTVSPost2010PropOp49
 70
     1
102
RTVSPost2010Prop50
 90
       50
102
RTVSPost2010PropOp50
 70
     1
102
RTVSPost2010Prop51ColorIndex
 90
      256
102
RTVSPost2010Prop51ColorRGB
 90
-16777216
102
RTVSPost2010PropOp51
 70
     0
102
RTVSPost2010Prop52
140
1.0
102
RTVSPost2010PropOp52
 70
     0
102
RTVSPost2010Prop53
 90
        2
102
RTVSPost2010PropOp53
 70
     1
102
RTVSPost2010Prop54
  1
strokes_ogs.tif
102
RTVSPost2010PropOp54
 70
     1
102
RTVSPost2010Prop55
280
     0
102
RTVSPost2010PropOp55
 70
     1
102
RTVSPost2010Prop56
140
1.0
102
RTVSPost2010PropOp56
 70
     1
102
RTVSPost2010Prop57
140
1.0
102
RTVSPost2010PropOp57
 70
     1
102
RTVSPropertyOp0
 70
     1
102
RTVSPropertyOp1
 70
     1
102
RTVSPropertyOp2
 70
     1
102
RTVSPropertyOp3
 70
     1
102
RTVSPropertyOp4
 70
     1
102
RTVSPropertyOp5
 70
     1
102
RTVSPropertyOp6
 70
     1
102
RTVSPropertyOp7
 70
     1
102
RTVSPropertyOp8
 70
     1
102
RTVSPropertyOp9
 70
     1
102
RTVSPropertyOp10
 70
     1
102
RTVSPropertyOp11
 70
     1
102
RTVSPropertyOp12
 70
     1
102
RTVSPropertyOp13
 70
     1
102
RTVSPropertyOp14
 70
     1
102
RTVSPropertyOp15
 70
     1
102
RTVSPropertyOp16
 70
     1
102
RTVSPropertyOp17
 70
     1
102
RTVSPropertyOp18
 70
     1
102
RTVSPropertyOp19
 70
     1
102
RTVSPropertyOp20
 70
     1
102
RTVSPropertyOp21
 70
     1
102
RTVSPropertyOp22
 70
     1
102
RTVSPropertyOp23
 70
     1
102
RTVSPropertyOp24
 70
     1
102
RTVSPropertyOp25
 70
     1
102
RTVSPropertyOp26
 70
     1
102
RTVSPropertyOp27
 70
     1
102
RTVSPropertyOp28
 70
     1
102
RTVSPropertyOp29
 70
     1
102
RTVSPropertyOp30
 70
     1
102
RTVSPropertyOp31
 70
     1
102
RTVSPropertyOp32
 70
     1
102
RTVSPropertyOp33
 70
     1
102
RTVSPropertyOp34
 70
     1
102
RTVSPropertyOp35
 70
     1
102
RTVSPropertyOp36
 70
     1
102
RTVSPropertyOp37
 70
     1
102
RTVSPropertyOp38
 70
     1
102
RTVSPropertyOp39
 70
     1
102
RTVSPropertyOp40
 70
     1
102
RTVSPropertyOp41
 70
     1
102
RTVSPropertyOp42
 70
     1
102
RTVSPropertyOp43
 70
     1
102
RTVSPropertyOp44
 70
     1
102
RTVSPropertyOp45
 70
     1
102
RTVSPropertyOp46
 70
     1
102
RTVSPropertyOp47
 70
     1
102
RTVSPropertyOp48
 70
     1
102
RTVSPropertyOp49
 70
     1
102
RTVSPropertyOp50
 70
     1
102
RTVSPropertyOp51
 70
     0
102
RTVSPropertyOp52
 70
     0
102
RTVSPropertyOp53
 70
     1
102
RTVSPropertyOp54
 70
     1
102
RTVSPropertyOp55
 70
     1
102
RTVSPropertyOp56
 70
     1
102
RTVSPropertyOp57
 70
     1
102
RTVSPropertyOp58
 70
     1
102
RTVSPropertyOp59
 70
     1
102
RTVSPropertyOp60
 70
     1
102
RTVSPropertyOp61
 70
     1
102
RTVSPropertyOp62
 70
     1
  0
XRECORD
  5
E81
102
{ACAD_REACTORS
330
E80
102
}
330
E80
100
AcDbXrecord
280
     1
102
RTVSPost2010Prop28
280
     0
102
RTVSPost2010PropOp28
 70
     1
102
RTVSPost2010Prop29
280
     1
102
RTVSPost2010PropOp29
 70
     1
102
RTVSPost2010Prop30
280
     1
102
RTVSPost2010PropOp30
 70
     1
102
RTVSPost2010Prop31
280
     0
102
RTVSPost2010PropOp31
 70
     1
102
RTVSPost2010Prop32
280
     0
102
RTVSPost2010PropOp32
 70
     1
102
RTVSPost2010Prop33
280
     0
102
RTVSPost2010PropOp33
 70
     1
102
RTVSPost2010Prop34
280
     0
102
RTVSPost2010PropOp34
 70
     1
102
RTVSPost2010Prop35
280
     0
102
RTVSPost2010PropOp35
 70
     1
102
RTVSPost2010Prop36
280
     0
102
RTVSPost2010PropOp36
 70
     1
102
RTVSPost2010Prop37
 90
       50
102
RTVSPost2010PropOp37
 70
     1
102
RTVSPost2010Prop38
140
0.0
102
RTVSPost2010PropOp38
 70
     1
102
RTVSPost2010Prop39
140
1.0
102
RTVSPost2010PropOp39
 70
     1
102
RTVSPost2010Prop40
 90
        0
102
RTVSPost2010PropOp40
 70
     1
102
RTVSPost2010Prop41ColorIndex
 90
       18
102
RTVSPost2010Prop41ColorRGB
 90
        0
102
RTVSPost2010PropOp41
 70
     1
102
RTVSPost2010Prop42
 90
       50
102
RTVSPost2010PropOp42
 70
     1
102
RTVSPost2010Prop43
 90
        3
102
RTVSPost2010PropOp43
 70
     1
102
RTVSPost2010Prop44ColorIndex
 90
        5
102
RTVSPost2010Prop44ColorRGB
 90
      255
102
RTVSPost2010PropOp44
 70
     1
102
RTVSPost2010Prop45
280
     0
102
RTVSPost2010PropOp45
 70
     1
102
RTVSPost2010Prop46
 90
       50
102
RTVSPost2010PropOp46
 70
     1
102
RTVSPost2010Prop47
 90
       50
102
RTVSPost2010PropOp47
 70
     1
102
RTVSPost2010Prop48
 90
       50
102
RTVSPost2010PropOp48
 70
     1
102
RTVSPost2010Prop49
280
     0
102
RTVSPost2010PropOp49
 70
     1
102
RTVSPost2010Prop50
 90
       50
102
RTVSPost2010PropOp50
 70
     1
102
RTVSPost2010Prop51ColorIndex
 90
      256
102
RTVSPost2010Prop51ColorRGB
 90
-16777216
102
RTVSPost2010PropOp51
 70
     0
102
RTVSPost2010Prop52
140
1.0
102
RTVSPost2010PropOp52
 70
     0
102
RTVSPost2010Prop53
 90
        2
102
RTVSPost2010PropOp53
 70
     1
102
RTVSPost2010Prop54
  1
strokes_ogs.tif
102
RTVSPost2010PropOp54
 70
     1
102
RTVSPost2010Prop55
280
     0
102
RTVSPost2010PropOp55
 70
     1
102
RTVSPost2010Prop56
140
1.0
102
RTVSPost2010PropOp56
 70
     1
102
RTVSPost2010Prop57
140
1.0
102
RTVSPost2010PropOp57
 70
     1
102
RTVSPropertyOp0
 70
     1
102
RTVSPropertyOp1
 70
     1
102
RTVSPropertyOp2
 70
     1
102
RTVSPropertyOp3
 70
     1
102
RTVSPropertyOp4
 70
     1
102
RTVSPropertyOp5
 70
     1
102
RTVSPropertyOp6
 70
     1
102
RTVSPropertyOp7
 70
     1
102
RTVSPropertyOp8
 70
     1
102
RTVSPropertyOp9
 70
     1
102
RTVSPropertyOp10
 70
     1
102
RTVSPropertyOp11
 70
     1
102
RTVSPropertyOp12
 70
     1
102
RTVSPropertyOp13
 70
     1
102
RTVSPropertyOp14
 70
     1
102
RTVSPropertyOp15
 70
     1
102
RTVSPropertyOp16
 70
     1
102
RTVSPropertyOp17
 70
     1
102
RTVSPropertyOp18
 70
     1
102
RTVSPropertyOp19
 70
     1
102
RTVSPropertyOp20
 70
     1
102
RTVSPropertyOp21
 70
     1
102
RTVSPropertyOp22
 70
     1
102
RTVSPropertyOp23
 70
     1
102
RTVSPropertyOp24
 70
     1
102
RTVSPropertyOp25
 70
     1
102
RTVSPropertyOp26
 70
     1
102
RTVSPropertyOp27
 70
     1
102
RTVSPropertyOp28
 70
     1
102
RTVSPropertyOp29
 70
     1
102
RTVSPropertyOp30
 70
     1
102
RTVSPropertyOp31
 70
     1
102
RTVSPropertyOp32
 70
     1
102
RTVSPropertyOp33
 70
     1
102
RTVSPropertyOp34
 70
     1
102
RTVSPropertyOp35
 70
     1
102
RTVSPropertyOp36
 70
     1
102
RTVSPropertyOp37
 70
     1
102
RTVSPropertyOp38
 70
     1
102
RTVSPropertyOp39
 70
     1
102
RTVSPropertyOp40
 70
     1
102
RTVSPropertyOp41
 70
     1
102
RTVSPropertyOp42
 70
     1
102
RTVSPropertyOp43
 70
     1
102
RTVSPropertyOp44
 70
     1
102
RTVSPropertyOp45
 70
     1
102
RTVSPropertyOp46
 70
     1
102
RTVSPropertyOp47
 70
     1
102
RTVSPropertyOp48
 70
     1
102
RTVSPropertyOp49
 70
     1
102
RTVSPropertyOp50
 70
     1
102
RTVSPropertyOp51
 70
     0
102
RTVSPropertyOp52
 70
     0
102
RTVSPropertyOp53
 70
     1
102
RTVSPropertyOp54
 70
     1
102
RTVSPropertyOp55
 70
     1
102
RTVSPropertyOp56
 70
     1
102
RTVSPropertyOp57
 70
     1
102
RTVSPropertyOp58
 70
     1
102
RTVSPropertyOp59
 70
     1
102
RTVSPropertyOp60
 70
     1
102
RTVSPropertyOp61
 70
     1
102
RTVSPropertyOp62
 70
     1
  0
XRECORD
  5
E7F
102
{ACAD_REACTORS
330
E7E
102
}
330
E7E
100
AcDbXrecord
280
     1
102
RTVSPost2010Prop28
280
     0
102
RTVSPost2010PropOp28
 70
     1
102
RTVSPost2010Prop29
280
     1
102
RTVSPost2010PropOp29
 70
     1
102
RTVSPost2010Prop30
280
     1
102
RTVSPost2010PropOp30
 70
     1
102
RTVSPost2010Prop31
280
     0
102
RTVSPost2010PropOp31
 70
     1
102
RTVSPost2010Prop32
280
     0
102
RTVSPost2010PropOp32
 70
     1
102
RTVSPost2010Prop33
280
     0
102
RTVSPost2010PropOp33
 70
     1
102
RTVSPost2010Prop34
280
     0
102
RTVSPost2010PropOp34
 70
     1
102
RTVSPost2010Prop35
280
     0
102
RTVSPost2010PropOp35
 70
     1
102
RTVSPost2010Prop36
280
     0
102
RTVSPost2010PropOp36
 70
     1
102
RTVSPost2010Prop37
 90
       50
102
RTVSPost2010PropOp37
 70
     1
102
RTVSPost2010Prop38
140
0.0
102
RTVSPost2010PropOp38
 70
     1
102
RTVSPost2010Prop39
140
1.0
102
RTVSPost2010PropOp39
 70
     1
102
RTVSPost2010Prop40
 90
        0
102
RTVSPost2010PropOp40
 70
     1
102
RTVSPost2010Prop41ColorIndex
 90
       18
102
RTVSPost2010Prop41ColorRGB
 90
        0
102
RTVSPost2010PropOp41
 70
     1
102
RTVSPost2010Prop42
 90
       50
102
RTVSPost2010PropOp42
 70
     1
102
RTVSPost2010Prop43
 90
        3
102
RTVSPost2010PropOp43
 70
     1
102
RTVSPost2010Prop44ColorIndex
 90
        5
102
RTVSPost2010Prop44ColorRGB
 90
      255
102
RTVSPost2010PropOp44
 70
     1
102
RTVSPost2010Prop45
280
     0
102
RTVSPost2010PropOp45
 70
     1
102
RTVSPost2010Prop46
 90
       50
102
RTVSPost2010PropOp46
 70
     1
102
RTVSPost2010Prop47
 90
       50
102
RTVSPost2010PropOp47
 70
     1
102
RTVSPost2010Prop48
 90
       50
102
RTVSPost2010PropOp48
 70
     1
102
RTVSPost2010Prop49
280
     0
102
RTVSPost2010PropOp49
 70
     1
102
RTVSPost2010Prop50
 90
       50
102
RTVSPost2010PropOp50
 70
     1
102
RTVSPost2010Prop51ColorIndex
 90
      256
102
RTVSPost2010Prop51ColorRGB
 90
-16777216
102
RTVSPost2010PropOp51
 70
     0
102
RTVSPost2010Prop52
140
1.0
102
RTVSPost2010PropOp52
 70
     0
102
RTVSPost2010Prop53
 90
        2
102
RTVSPost2010PropOp53
 70
     1
102
RTVSPost2010Prop54
  1
strokes_ogs.tif
102
RTVSPost2010PropOp54
 70
     1
102
RTVSPost2010Prop55
280
     0
102
RTVSPost2010PropOp55
 70
     1
102
RTVSPost2010Prop56
140
1.0
102
RTVSPost2010PropOp56
 70
     1
102
RTVSPost2010Prop57
140
1.0
102
RTVSPost2010PropOp57
 70
     1
102
RTVSPropertyOp0
 70
     1
102
RTVSPropertyOp1
 70
     1
102
RTVSPropertyOp2
 70
     1
102
RTVSPropertyOp3
 70
     1
102
RTVSPropertyOp4
 70
     1
102
RTVSPropertyOp5
 70
     1
102
RTVSPropertyOp6
 70
     1
102
RTVSPropertyOp7
 70
     1
102
RTVSPropertyOp8
 70
     1
102
RTVSPropertyOp9
 70
     1
102
RTVSPropertyOp10
 70
     1
102
RTVSPropertyOp11
 70
     1
102
RTVSPropertyOp12
 70
     1
102
RTVSPropertyOp13
 70
     1
102
RTVSPropertyOp14
 70
     1
102
RTVSPropertyOp15
 70
     1
102
RTVSPropertyOp16
 70
     1
102
RTVSPropertyOp17
 70
     1
102
RTVSPropertyOp18
 70
     1
102
RTVSPropertyOp19
 70
     1
102
RTVSPropertyOp20
 70
     1
102
RTVSPropertyOp21
 70
     1
102
RTVSPropertyOp22
 70
     1
102
RTVSPropertyOp23
 70
     1
102
RTVSPropertyOp24
 70
     1
102
RTVSPropertyOp25
 70
     1
102
RTVSPropertyOp26
 70
     1
102
RTVSPropertyOp27
 70
     1
102
RTVSPropertyOp28
 70
     1
102
RTVSPropertyOp29
 70
     1
102
RTVSPropertyOp30
 70
     1
102
RTVSPropertyOp31
 70
     1
102
RTVSPropertyOp32
 70
     1
102
RTVSPropertyOp33
 70
     1
102
RTVSPropertyOp34
 70
     1
102
RTVSPropertyOp35
 70
     1
102
RTVSPropertyOp36
 70
     1
102
RTVSPropertyOp37
 70
     1
102
RTVSPropertyOp38
 70
     1
102
RTVSPropertyOp39
 70
     1
102
RTVSPropertyOp40
 70
     1
102
RTVSPropertyOp41
 70
     1
102
RTVSPropertyOp42
 70
     1
102
RTVSPropertyOp43
 70
     1
102
RTVSPropertyOp44
 70
     1
102
RTVSPropertyOp45
 70
     1
102
RTVSPropertyOp46
 70
     1
102
RTVSPropertyOp47
 70
     1
102
RTVSPropertyOp48
 70
     1
102
RTVSPropertyOp49
 70
     1
102
RTVSPropertyOp50
 70
     1
102
RTVSPropertyOp51
 70
     0
102
RTVSPropertyOp52
 70
     0
102
RTVSPropertyOp53
 70
     1
102
RTVSPropertyOp54
 70
     1
102
RTVSPropertyOp55
 70
     1
102
RTVSPropertyOp56
 70
     1
102
RTVSPropertyOp57
 70
     1
102
RTVSPropertyOp58
 70
     1
102
RTVSPropertyOp59
 70
     1
102
RTVSPropertyOp60
 70
     1
102
RTVSPropertyOp61
 70
     1
102
RTVSPropertyOp62
 70
     1
  0
XRECORD
  5
E7B
102
{ACAD_REACTORS
330
E7A
102
}
330
E7A
100
AcDbXrecord
280
     1
102
RTVSPost2010Prop28
280
     0
102
RTVSPost2010PropOp28
 70
     1
102
RTVSPost2010Prop29
280
     1
102
RTVSPost2010PropOp29
 70
     1
102
RTVSPost2010Prop30
280
     1
102
RTVSPost2010PropOp30
 70
     1
102
RTVSPost2010Prop31
280
     0
102
RTVSPost2010PropOp31
 70
     1
102
RTVSPost2010Prop32
280
     0
102
RTVSPost2010PropOp32
 70
     1
102
RTVSPost2010Prop33
280
     0
102
RTVSPost2010PropOp33
 70
     1
102
RTVSPost2010Prop34
280
     0
102
RTVSPost2010PropOp34
 70
     1
102
RTVSPost2010Prop35
280
     0
102
RTVSPost2010PropOp35
 70
     1
102
RTVSPost2010Prop36
280
     0
102
RTVSPost2010PropOp36
 70
     1
102
RTVSPost2010Prop37
 90
       50
102
RTVSPost2010PropOp37
 70
     1
102
RTVSPost2010Prop38
140
0.0
102
RTVSPost2010PropOp38
 70
     1
102
RTVSPost2010Prop39
140
1.0
102
RTVSPost2010PropOp39
 70
     1
102
RTVSPost2010Prop40
 90
        0
102
RTVSPost2010PropOp40
 70
     1
102
RTVSPost2010Prop41ColorIndex
 90
       18
102
RTVSPost2010Prop41ColorRGB
 90
        0
102
RTVSPost2010PropOp41
 70
     1
102
RTVSPost2010Prop42
 90
       50
102
RTVSPost2010PropOp42
 70
     1
102
RTVSPost2010Prop43
 90
        3
102
RTVSPost2010PropOp43
 70
     1
102
RTVSPost2010Prop44ColorIndex
 90
        5
102
RTVSPost2010Prop44ColorRGB
 90
      255
102
RTVSPost2010PropOp44
 70
     1
102
RTVSPost2010Prop45
280
     0
102
RTVSPost2010PropOp45
 70
     1
102
RTVSPost2010Prop46
 90
       50
102
RTVSPost2010PropOp46
 70
     1
102
RTVSPost2010Prop47
 90
       50
102
RTVSPost2010PropOp47
 70
     1
102
RTVSPost2010Prop48
 90
       50
102
RTVSPost2010PropOp48
 70
     1
102
RTVSPost2010Prop49
280
     0
102
RTVSPost2010PropOp49
 70
     1
102
RTVSPost2010Prop50
 90
       50
102
RTVSPost2010PropOp50
 70
     1
102
RTVSPost2010Prop51ColorIndex
 90
      256
102
RTVSPost2010Prop51ColorRGB
 90
-16777216
102
RTVSPost2010PropOp51
 70
     0
102
RTVSPost2010Prop52
140
1.0
102
RTVSPost2010PropOp52
 70
     0
102
RTVSPost2010Prop53
 90
        2
102
RTVSPost2010PropOp53
 70
     1
102
RTVSPost2010Prop54
  1
strokes_ogs.tif
102
RTVSPost2010PropOp54
 70
     1
102
RTVSPost2010Prop55
280
     0
102
RTVSPost2010PropOp55
 70
     1
102
RTVSPost2010Prop56
140
1.0
102
RTVSPost2010PropOp56
 70
     1
102
RTVSPost2010Prop57
140
1.0
102
RTVSPost2010PropOp57
 70
     1
102
RTVSPropertyOp0
 70
     1
102
RTVSPropertyOp1
 70
     1
102
RTVSPropertyOp2
 70
     1
102
RTVSPropertyOp3
 70
     1
102
RTVSPropertyOp4
 70
     1
102
RTVSPropertyOp5
 70
     1
102
RTVSPropertyOp6
 70
     1
102
RTVSPropertyOp7
 70
     1
102
RTVSPropertyOp8
 70
     1
102
RTVSPropertyOp9
 70
     1
102
RTVSPropertyOp10
 70
     1
102
RTVSPropertyOp11
 70
     1
102
RTVSPropertyOp12
 70
     1
102
RTVSPropertyOp13
 70
     1
102
RTVSPropertyOp14
 70
     1
102
RTVSPropertyOp15
 70
     1
102
RTVSPropertyOp16
 70
     1
102
RTVSPropertyOp17
 70
     1
102
RTVSPropertyOp18
 70
     1
102
RTVSPropertyOp19
 70
     1
102
RTVSPropertyOp20
 70
     1
102
RTVSPropertyOp21
 70
     1
102
RTVSPropertyOp22
 70
     1
102
RTVSPropertyOp23
 70
     1
102
RTVSPropertyOp24
 70
     1
102
RTVSPropertyOp25
 70
     1
102
RTVSPropertyOp26
 70
     1
102
RTVSPropertyOp27
 70
     1
102
RTVSPropertyOp28
 70
     1
102
RTVSPropertyOp29
 70
     1
102
RTVSPropertyOp30
 70
     1
102
RTVSPropertyOp31
 70
     1
102
RTVSPropertyOp32
 70
     1
102
RTVSPropertyOp33
 70
     1
102
RTVSPropertyOp34
 70
     1
102
RTVSPropertyOp35
 70
     1
102
RTVSPropertyOp36
 70
     1
102
RTVSPropertyOp37
 70
     1
102
RTVSPropertyOp38
 70
     1
102
RTVSPropertyOp39
 70
     1
102
RTVSPropertyOp40
 70
     1
102
RTVSPropertyOp41
 70
     1
102
RTVSPropertyOp42
 70
     1
102
RTVSPropertyOp43
 70
     1
102
RTVSPropertyOp44
 70
     1
102
RTVSPropertyOp45
 70
     1
102
RTVSPropertyOp46
 70
     1
102
RTVSPropertyOp47
 70
     1
102
RTVSPropertyOp48
 70
     1
102
RTVSPropertyOp49
 70
     1
102
RTVSPropertyOp50
 70
     1
102
RTVSPropertyOp51
 70
     0
102
RTVSPropertyOp52
 70
     0
102
RTVSPropertyOp53
 70
     1
102
RTVSPropertyOp54
 70
     1
102
RTVSPropertyOp55
 70
     1
102
RTVSPropertyOp56
 70
     1
102
RTVSPropertyOp57
 70
     1
102
RTVSPropertyOp58
 70
     1
102
RTVSPropertyOp59
 70
     1
102
RTVSPropertyOp60
 70
     1
102
RTVSPropertyOp61
 70
     1
102
RTVSPropertyOp62
 70
     1
  0
XRECORD
  5
E89
102
{ACAD_REACTORS
330
E88
102
}
330
E88
100
AcDbXrecord
280
     1
102
RTVSPost2010Prop28
280
     0
102
RTVSPost2010PropOp28
 70
     1
102
RTVSPost2010Prop29
280
     1
102
RTVSPost2010PropOp29
 70
     1
102
RTVSPost2010Prop30
280
     1
102
RTVSPost2010PropOp30
 70
     1
102
RTVSPost2010Prop31
280
     0
102
RTVSPost2010PropOp31
 70
     1
102
RTVSPost2010Prop32
280
     0
102
RTVSPost2010PropOp32
 70
     1
102
RTVSPost2010Prop33
280
     0
102
RTVSPost2010PropOp33
 70
     1
102
RTVSPost2010Prop34
280
     0
102
RTVSPost2010PropOp34
 70
     1
102
RTVSPost2010Prop35
280
     0
102
RTVSPost2010PropOp35
 70
     1
102
RTVSPost2010Prop36
280
     0
102
RTVSPost2010PropOp36
 70
     1
102
RTVSPost2010Prop37
 90
       50
102
RTVSPost2010PropOp37
 70
     1
102
RTVSPost2010Prop38
140
0.0
102
RTVSPost2010PropOp38
 70
     1
102
RTVSPost2010Prop39
140
1.0
102
RTVSPost2010PropOp39
 70
     1
102
RTVSPost2010Prop40
 90
        0
102
RTVSPost2010PropOp40
 70
     1
102
RTVSPost2010Prop41ColorIndex
 90
       18
102
RTVSPost2010Prop41ColorRGB
 90
        0
102
RTVSPost2010PropOp41
 70
     1
102
RTVSPost2010Prop42
 90
       50
102
RTVSPost2010PropOp42
 70
     1
102
RTVSPost2010Prop43
 90
        3
102
RTVSPost2010PropOp43
 70
     1
102
RTVSPost2010Prop44ColorIndex
 90
        5
102
RTVSPost2010Prop44ColorRGB
 90
      255
102
RTVSPost2010PropOp44
 70
     1
102
RTVSPost2010Prop45
280
     0
102
RTVSPost2010PropOp45
 70
     1
102
RTVSPost2010Prop46
 90
       50
102
RTVSPost2010PropOp46
 70
     1
102
RTVSPost2010Prop47
 90
       50
102
RTVSPost2010PropOp47
 70
     1
102
RTVSPost2010Prop48
 90
       50
102
RTVSPost2010PropOp48
 70
     1
102
RTVSPost2010Prop49
280
     0
102
RTVSPost2010PropOp49
 70
     1
102
RTVSPost2010Prop50
 90
       50
102
RTVSPost2010PropOp50
 70
     1
102
RTVSPost2010Prop51ColorIndex
 90
      256
102
RTVSPost2010Prop51ColorRGB
 90
-16777216
102
RTVSPost2010PropOp51
 70
     0
102
RTVSPost2010Prop52
140
1.0
102
RTVSPost2010PropOp52
 70
     0
102
RTVSPost2010Prop53
 90
        2
102
RTVSPost2010PropOp53
 70
     1
102
RTVSPost2010Prop54
  1
strokes_ogs.tif
102
RTVSPost2010PropOp54
 70
     1
102
RTVSPost2010Prop55
280
     0
102
RTVSPost2010PropOp55
 70
     1
102
RTVSPost2010Prop56
140
1.0
102
RTVSPost2010PropOp56
 70
     1
102
RTVSPost2010Prop57
140
1.0
102
RTVSPost2010PropOp57
 70
     1
102
RTVSPropertyOp0
 70
     1
102
RTVSPropertyOp1
 70
     1
102
RTVSPropertyOp2
 70
     1
102
RTVSPropertyOp3
 70
     1
102
RTVSPropertyOp4
 70
     1
102
RTVSPropertyOp5
 70
     1
102
RTVSPropertyOp6
 70
     1
102
RTVSPropertyOp7
 70
     1
102
RTVSPropertyOp8
 70
     1
102
RTVSPropertyOp9
 70
     1
102
RTVSPropertyOp10
 70
     1
102
RTVSPropertyOp11
 70
     1
102
RTVSPropertyOp12
 70
     1
102
RTVSPropertyOp13
 70
     1
102
RTVSPropertyOp14
 70
     1
102
RTVSPropertyOp15
 70
     1
102
RTVSPropertyOp16
 70
     1
102
RTVSPropertyOp17
 70
     1
102
RTVSPropertyOp18
 70
     1
102
RTVSPropertyOp19
 70
     1
102
RTVSPropertyOp20
 70
     1
102
RTVSPropertyOp21
 70
     1
102
RTVSPropertyOp22
 70
     1
102
RTVSPropertyOp23
 70
     1
102
RTVSPropertyOp24
 70
     1
102
RTVSPropertyOp25
 70
     1
102
RTVSPropertyOp26
 70
     1
102
RTVSPropertyOp27
 70
     1
102
RTVSPropertyOp28
 70
     1
102
RTVSPropertyOp29
 70
     1
102
RTVSPropertyOp30
 70
     1
102
RTVSPropertyOp31
 70
     1
102
RTVSPropertyOp32
 70
     1
102
RTVSPropertyOp33
 70
     1
102
RTVSPropertyOp34
 70
     1
102
RTVSPropertyOp35
 70
     1
102
RTVSPropertyOp36
 70
     1
102
RTVSPropertyOp37
 70
     1
102
RTVSPropertyOp38
 70
     1
102
RTVSPropertyOp39
 70
     1
102
RTVSPropertyOp40
 70
     1
102
RTVSPropertyOp41
 70
     1
102
RTVSPropertyOp42
 70
     1
102
RTVSPropertyOp43
 70
     1
102
RTVSPropertyOp44
 70
     1
102
RTVSPropertyOp45
 70
     1
102
RTVSPropertyOp46
 70
     1
102
RTVSPropertyOp47
 70
     1
102
RTVSPropertyOp48
 70
     1
102
RTVSPropertyOp49
 70
     1
102
RTVSPropertyOp50
 70
     1
102
RTVSPropertyOp51
 70
     0
102
RTVSPropertyOp52
 70
     0
102
RTVSPropertyOp53
 70
     1
102
RTVSPropertyOp54
 70
     1
102
RTVSPropertyOp55
 70
     1
102
RTVSPropertyOp56
 70
     1
102
RTVSPropertyOp57
 70
     1
102
RTVSPropertyOp58
 70
     1
102
RTVSPropertyOp59
 70
     1
102
RTVSPropertyOp60
 70
     1
102
RTVSPropertyOp61
 70
     1
102
RTVSPropertyOp62
 70
     1
  0
XRECORD
  5
E91
102
{ACAD_REACTORS
330
E90
102
}
330
E90
100
AcDbXrecord
280
     1
102
RTVSPost2010Prop28
280
     0
102
RTVSPost2010PropOp28
 70
     1
102
RTVSPost2010Prop29
280
     1
102
RTVSPost2010PropOp29
 70
     1
102
RTVSPost2010Prop30
280
     1
102
RTVSPost2010PropOp30
 70
     1
102
RTVSPost2010Prop31
280
     0
102
RTVSPost2010PropOp31
 70
     1
102
RTVSPost2010Prop32
280
     0
102
RTVSPost2010PropOp32
 70
     1
102
RTVSPost2010Prop33
280
     0
102
RTVSPost2010PropOp33
 70
     1
102
RTVSPost2010Prop34
280
     0
102
RTVSPost2010PropOp34
 70
     1
102
RTVSPost2010Prop35
280
     0
102
RTVSPost2010PropOp35
 70
     1
102
RTVSPost2010Prop36
280
     0
102
RTVSPost2010PropOp36
 70
     1
102
RTVSPost2010Prop37
 90
       50
102
RTVSPost2010PropOp37
 70
     1
102
RTVSPost2010Prop38
140
0.0
102
RTVSPost2010PropOp38
 70
     1
102
RTVSPost2010Prop39
140
1.0
102
RTVSPost2010PropOp39
 70
     1
102
RTVSPost2010Prop40
 90
        0
102
RTVSPost2010PropOp40
 70
     1
102
RTVSPost2010Prop41ColorIndex
 90
       18
102
RTVSPost2010Prop41ColorRGB
 90
        0
102
RTVSPost2010PropOp41
 70
     1
102
RTVSPost2010Prop42
 90
       50
102
RTVSPost2010PropOp42
 70
     1
102
RTVSPost2010Prop43
 90
        3
102
RTVSPost2010PropOp43
 70
     1
102
RTVSPost2010Prop44ColorIndex
 90
        5
102
RTVSPost2010Prop44ColorRGB
 90
      255
102
RTVSPost2010PropOp44
 70
     1
102
RTVSPost2010Prop45
280
     0
102
RTVSPost2010PropOp45
 70
     1
102
RTVSPost2010Prop46
 90
       50
102
RTVSPost2010PropOp46
 70
     1
102
RTVSPost2010Prop47
 90
       50
102
RTVSPost2010PropOp47
 70
     1
102
RTVSPost2010Prop48
 90
       50
102
RTVSPost2010PropOp48
 70
     1
102
RTVSPost2010Prop49
280
     0
102
RTVSPost2010PropOp49
 70
     1
102
RTVSPost2010Prop50
 90
       50
102
RTVSPost2010PropOp50
 70
     1
102
RTVSPost2010Prop51ColorIndex
 90
      256
102
RTVSPost2010Prop51ColorRGB
 90
-16777216
102
RTVSPost2010PropOp51
 70
     0
102
RTVSPost2010Prop52
140
1.0
102
RTVSPost2010PropOp52
 70
     0
102
RTVSPost2010Prop53
 90
        2
102
RTVSPost2010PropOp53
 70
     1
102
RTVSPost2010Prop54
  1
strokes_ogs.tif
102
RTVSPost2010PropOp54
 70
     1
102
RTVSPost2010Prop55
280
     0
102
RTVSPost2010PropOp55
 70
     1
102
RTVSPost2010Prop56
140
1.0
102
RTVSPost2010PropOp56
 70
     1
102
RTVSPost2010Prop57
140
1.0
102
RTVSPost2010PropOp57
 70
     1
102
RTVSPropertyOp0
 70
     1
102
RTVSPropertyOp1
 70
     1
102
RTVSPropertyOp2
 70
     1
102
RTVSPropertyOp3
 70
     1
102
RTVSPropertyOp4
 70
     1
102
RTVSPropertyOp5
 70
     1
102
RTVSPropertyOp6
 70
     1
102
RTVSPropertyOp7
 70
     1
102
RTVSPropertyOp8
 70
     1
102
RTVSPropertyOp9
 70
     1
102
RTVSPropertyOp10
 70
     1
102
RTVSPropertyOp11
 70
     1
102
RTVSPropertyOp12
 70
     1
102
RTVSPropertyOp13
 70
     1
102
RTVSPropertyOp14
 70
     1
102
RTVSPropertyOp15
 70
     1
102
RTVSPropertyOp16
 70
     1
102
RTVSPropertyOp17
 70
     1
102
RTVSPropertyOp18
 70
     1
102
RTVSPropertyOp19
 70
     1
102
RTVSPropertyOp20
 70
     1
102
RTVSPropertyOp21
 70
     1
102
RTVSPropertyOp22
 70
     1
102
RTVSPropertyOp23
 70
     1
102
RTVSPropertyOp24
 70
     1
102
RTVSPropertyOp25
 70
     1
102
RTVSPropertyOp26
 70
     1
102
RTVSPropertyOp27
 70
     1
102
RTVSPropertyOp28
 70
     1
102
RTVSPropertyOp29
 70
     1
102
RTVSPropertyOp30
 70
     1
102
RTVSPropertyOp31
 70
     1
102
RTVSPropertyOp32
 70
     1
102
RTVSPropertyOp33
 70
     1
102
RTVSPropertyOp34
 70
     1
102
RTVSPropertyOp35
 70
     1
102
RTVSPropertyOp36
 70
     1
102
RTVSPropertyOp37
 70
     1
102
RTVSPropertyOp38
 70
     1
102
RTVSPropertyOp39
 70
     1
102
RTVSPropertyOp40
 70
     1
102
RTVSPropertyOp41
 70
     1
102
RTVSPropertyOp42
 70
     1
102
RTVSPropertyOp43
 70
     1
102
RTVSPropertyOp44
 70
     1
102
RTVSPropertyOp45
 70
     1
102
RTVSPropertyOp46
 70
     1
102
RTVSPropertyOp47
 70
     1
102
RTVSPropertyOp48
 70
     1
102
RTVSPropertyOp49
 70
     1
102
RTVSPropertyOp50
 70
     1
102
RTVSPropertyOp51
 70
     0
102
RTVSPropertyOp52
 70
     0
102
RTVSPropertyOp53
 70
     1
102
RTVSPropertyOp54
 70
     1
102
RTVSPropertyOp55
 70
     1
102
RTVSPropertyOp56
 70
     1
102
RTVSPropertyOp57
 70
     1
102
RTVSPropertyOp58
 70
     1
102
RTVSPropertyOp59
 70
     1
102
RTVSPropertyOp60
 70
     1
102
RTVSPropertyOp61
 70
     1
102
RTVSPropertyOp62
 70
     1
  0
XRECORD
  5
E83
102
{ACAD_REACTORS
330
E82
102
}
330
E82
100
AcDbXrecord
280
     1
102
RTVSPost2010Prop28
280
     0
102
RTVSPost2010PropOp28
 70
     1
102
RTVSPost2010Prop29
280
     1
102
RTVSPost2010PropOp29
 70
     1
102
RTVSPost2010Prop30
280
     1
102
RTVSPost2010PropOp30
 70
     1
102
RTVSPost2010Prop31
280
     0
102
RTVSPost2010PropOp31
 70
     1
102
RTVSPost2010Prop32
280
     0
102
RTVSPost2010PropOp32
 70
     1
102
RTVSPost2010Prop33
280
     0
102
RTVSPost2010PropOp33
 70
     1
102
RTVSPost2010Prop34
280
     0
102
RTVSPost2010PropOp34
 70
     1
102
RTVSPost2010Prop35
280
     0
102
RTVSPost2010PropOp35
 70
     1
102
RTVSPost2010Prop36
280
     0
102
RTVSPost2010PropOp36
 70
     1
102
RTVSPost2010Prop37
 90
       50
102
RTVSPost2010PropOp37
 70
     1
102
RTVSPost2010Prop38
140
0.0
102
RTVSPost2010PropOp38
 70
     1
102
RTVSPost2010Prop39
140
1.0
102
RTVSPost2010PropOp39
 70
     1
102
RTVSPost2010Prop40
 90
        0
102
RTVSPost2010PropOp40
 70
     1
102
RTVSPost2010Prop41ColorIndex
 90
       18
102
RTVSPost2010Prop41ColorRGB
 90
        0
102
RTVSPost2010PropOp41
 70
     1
102
RTVSPost2010Prop42
 90
       50
102
RTVSPost2010PropOp42
 70
     1
102
RTVSPost2010Prop43
 90
        3
102
RTVSPost2010PropOp43
 70
     1
102
RTVSPost2010Prop44ColorIndex
 90
        5
102
RTVSPost2010Prop44ColorRGB
 90
      255
102
RTVSPost2010PropOp44
 70
     1
102
RTVSPost2010Prop45
280
     0
102
RTVSPost2010PropOp45
 70
     1
102
RTVSPost2010Prop46
 90
       50
102
RTVSPost2010PropOp46
 70
     1
102
RTVSPost2010Prop47
 90
       50
102
RTVSPost2010PropOp47
 70
     1
102
RTVSPost2010Prop48
 90
       50
102
RTVSPost2010PropOp48
 70
     1
102
RTVSPost2010Prop49
280
     0
102
RTVSPost2010PropOp49
 70
     1
102
RTVSPost2010Prop50
 90
       50
102
RTVSPost2010PropOp50
 70
     1
102
RTVSPost2010Prop51ColorIndex
 90
      256
102
RTVSPost2010Prop51ColorRGB
 90
-16777216
102
RTVSPost2010PropOp51
 70
     0
102
RTVSPost2010Prop52
140
1.0
102
RTVSPost2010PropOp52
 70
     0
102
RTVSPost2010Prop53
 90
        2
102
RTVSPost2010PropOp53
 70
     1
102
RTVSPost2010Prop54
  1
strokes_ogs.tif
102
RTVSPost2010PropOp54
 70
     1
102
RTVSPost2010Prop55
280
     0
102
RTVSPost2010PropOp55
 70
     1
102
RTVSPost2010Prop56
140
1.0
102
RTVSPost2010PropOp56
 70
     1
102
RTVSPost2010Prop57
140
1.0
102
RTVSPost2010PropOp57
 70
     1
102
RTVSPropertyOp0
 70
     1
102
RTVSPropertyOp1
 70
     1
102
RTVSPropertyOp2
 70
     1
102
RTVSPropertyOp3
 70
     1
102
RTVSPropertyOp4
 70
     1
102
RTVSPropertyOp5
 70
     1
102
RTVSPropertyOp6
 70
     1
102
RTVSPropertyOp7
 70
     1
102
RTVSPropertyOp8
 70
     1
102
RTVSPropertyOp9
 70
     1
102
RTVSPropertyOp10
 70
     1
102
RTVSPropertyOp11
 70
     1
102
RTVSPropertyOp12
 70
     1
102
RTVSPropertyOp13
 70
     1
102
RTVSPropertyOp14
 70
     1
102
RTVSPropertyOp15
 70
     1
102
RTVSPropertyOp16
 70
     1
102
RTVSPropertyOp17
 70
     1
102
RTVSPropertyOp18
 70
     1
102
RTVSPropertyOp19
 70
     1
102
RTVSPropertyOp20
 70
     1
102
RTVSPropertyOp21
 70
     1
102
RTVSPropertyOp22
 70
     1
102
RTVSPropertyOp23
 70
     1
102
RTVSPropertyOp24
 70
     1
102
RTVSPropertyOp25
 70
     1
102
RTVSPropertyOp26
 70
     1
102
RTVSPropertyOp27
 70
     1
102
RTVSPropertyOp28
 70
     1
102
RTVSPropertyOp29
 70
     1
102
RTVSPropertyOp30
 70
     1
102
RTVSPropertyOp31
 70
     1
102
RTVSPropertyOp32
 70
     1
102
RTVSPropertyOp33
 70
     1
102
RTVSPropertyOp34
 70
     1
102
RTVSPropertyOp35
 70
     1
102
RTVSPropertyOp36
 70
     1
102
RTVSPropertyOp37
 70
     1
102
RTVSPropertyOp38
 70
     1
102
RTVSPropertyOp39
 70
     1
102
RTVSPropertyOp40
 70
     1
102
RTVSPropertyOp41
 70
     1
102
RTVSPropertyOp42
 70
     1
102
RTVSPropertyOp43
 70
     1
102
RTVSPropertyOp44
 70
     1
102
RTVSPropertyOp45
 70
     1
102
RTVSPropertyOp46
 70
     1
102
RTVSPropertyOp47
 70
     1
102
RTVSPropertyOp48
 70
     1
102
RTVSPropertyOp49
 70
     1
102
RTVSPropertyOp50
 70
     1
102
RTVSPropertyOp51
 70
     0
102
RTVSPropertyOp52
 70
     0
102
RTVSPropertyOp53
 70
     1
102
RTVSPropertyOp54
 70
     1
102
RTVSPropertyOp55
 70
     1
102
RTVSPropertyOp56
 70
     1
102
RTVSPropertyOp57
 70
     1
102
RTVSPropertyOp58
 70
     1
102
RTVSPropertyOp59
 70
     1
102
RTVSPropertyOp60
 70
     1
102
RTVSPropertyOp61
 70
     1
102
RTVSPropertyOp62
 70
     1
  0
XRECORD
  5
E87
102
{ACAD_REACTORS
330
E86
102
}
330
E86
100
AcDbXrecord
280
     1
102
RTVSPost2010Prop28
280
     0
102
RTVSPost2010PropOp28
 70
     1
102
RTVSPost2010Prop29
280
     1
102
RTVSPost2010PropOp29
 70
     1
102
RTVSPost2010Prop30
280
     1
102
RTVSPost2010PropOp30
 70
     1
102
RTVSPost2010Prop31
280
     0
102
RTVSPost2010PropOp31
 70
     1
102
RTVSPost2010Prop32
280
     0
102
RTVSPost2010PropOp32
 70
     1
102
RTVSPost2010Prop33
280
     0
102
RTVSPost2010PropOp33
 70
     1
102
RTVSPost2010Prop34
280
     0
102
RTVSPost2010PropOp34
 70
     1
102
RTVSPost2010Prop35
280
     0
102
RTVSPost2010PropOp35
 70
     1
102
RTVSPost2010Prop36
280
     0
102
RTVSPost2010PropOp36
 70
     1
102
RTVSPost2010Prop37
 90
       50
102
RTVSPost2010PropOp37
 70
     1
102
RTVSPost2010Prop38
140
0.0
102
RTVSPost2010PropOp38
 70
     1
102
RTVSPost2010Prop39
140
1.0
102
RTVSPost2010PropOp39
 70
     1
102
RTVSPost2010Prop40
 90
        0
102
RTVSPost2010PropOp40
 70
     1
102
RTVSPost2010Prop41ColorIndex
 90
       18
102
RTVSPost2010Prop41ColorRGB
 90
        0
102
RTVSPost2010PropOp41
 70
     1
102
RTVSPost2010Prop42
 90
       50
102
RTVSPost2010PropOp42
 70
     1
102
RTVSPost2010Prop43
 90
        3
102
RTVSPost2010PropOp43
 70
     1
102
RTVSPost2010Prop44ColorIndex
 90
        5
102
RTVSPost2010Prop44ColorRGB
 90
      255
102
RTVSPost2010PropOp44
 70
     1
102
RTVSPost2010Prop45
280
     0
102
RTVSPost2010PropOp45
 70
     1
102
RTVSPost2010Prop46
 90
       50
102
RTVSPost2010PropOp46
 70
     1
102
RTVSPost2010Prop47
 90
       50
102
RTVSPost2010PropOp47
 70
     1
102
RTVSPost2010Prop48
 90
       50
102
RTVSPost2010PropOp48
 70
     1
102
RTVSPost2010Prop49
280
     0
102
RTVSPost2010PropOp49
 70
     1
102
RTVSPost2010Prop50
 90
       50
102
RTVSPost2010PropOp50
 70
     1
102
RTVSPost2010Prop51ColorIndex
 90
      256
102
RTVSPost2010Prop51ColorRGB
 90
-16777216
102
RTVSPost2010PropOp51
 70
     0
102
RTVSPost2010Prop52
140
1.0
102
RTVSPost2010PropOp52
 70
     0
102
RTVSPost2010Prop53
 90
        2
102
RTVSPost2010PropOp53
 70
     1
102
RTVSPost2010Prop54
  1
strokes_ogs.tif
102
RTVSPost2010PropOp54
 70
     1
102
RTVSPost2010Prop55
280
     0
102
RTVSPost2010PropOp55
 70
     1
102
RTVSPost2010Prop56
140
1.0
102
RTVSPost2010PropOp56
 70
     1
102
RTVSPost2010Prop57
140
1.0
102
RTVSPost2010PropOp57
 70
     1
102
RTVSPropertyOp0
 70
     1
102
RTVSPropertyOp1
 70
     1
102
RTVSPropertyOp2
 70
     1
102
RTVSPropertyOp3
 70
     1
102
RTVSPropertyOp4
 70
     1
102
RTVSPropertyOp5
 70
     1
102
RTVSPropertyOp6
 70
     1
102
RTVSPropertyOp7
 70
     1
102
RTVSPropertyOp8
 70
     1
102
RTVSPropertyOp9
 70
     1
102
RTVSPropertyOp10
 70
     1
102
RTVSPropertyOp11
 70
     1
102
RTVSPropertyOp12
 70
     1
102
RTVSPropertyOp13
 70
     1
102
RTVSPropertyOp14
 70
     1
102
RTVSPropertyOp15
 70
     1
102
RTVSPropertyOp16
 70
     1
102
RTVSPropertyOp17
 70
     1
102
RTVSPropertyOp18
 70
     1
102
RTVSPropertyOp19
 70
     1
102
RTVSPropertyOp20
 70
     1
102
RTVSPropertyOp21
 70
     1
102
RTVSPropertyOp22
 70
     1
102
RTVSPropertyOp23
 70
     1
102
RTVSPropertyOp24
 70
     1
102
RTVSPropertyOp25
 70
     1
102
RTVSPropertyOp26
 70
     1
102
RTVSPropertyOp27
 70
     1
102
RTVSPropertyOp28
 70
     1
102
RTVSPropertyOp29
 70
     1
102
RTVSPropertyOp30
 70
     1
102
RTVSPropertyOp31
 70
     1
102
RTVSPropertyOp32
 70
     1
102
RTVSPropertyOp33
 70
     1
102
RTVSPropertyOp34
 70
     1
102
RTVSPropertyOp35
 70
     1
102
RTVSPropertyOp36
 70
     1
102
RTVSPropertyOp37
 70
     1
102
RTVSPropertyOp38
 70
     1
102
RTVSPropertyOp39
 70
     1
102
RTVSPropertyOp40
 70
     1
102
RTVSPropertyOp41
 70
     1
102
RTVSPropertyOp42
 70
     1
102
RTVSPropertyOp43
 70
     1
102
RTVSPropertyOp44
 70
     1
102
RTVSPropertyOp45
 70
     1
102
RTVSPropertyOp46
 70
     1
102
RTVSPropertyOp47
 70
     1
102
RTVSPropertyOp48
 70
     1
102
RTVSPropertyOp49
 70
     1
102
RTVSPropertyOp50
 70
     1
102
RTVSPropertyOp51
 70
     0
102
RTVSPropertyOp52
 70
     0
102
RTVSPropertyOp53
 70
     1
102
RTVSPropertyOp54
 70
     1
102
RTVSPropertyOp55
 70
     1
102
RTVSPropertyOp56
 70
     1
102
RTVSPropertyOp57
 70
     1
102
RTVSPropertyOp58
 70
     1
102
RTVSPropertyOp59
 70
     1
102
RTVSPropertyOp60
 70
     1
102
RTVSPropertyOp61
 70
     1
102
RTVSPropertyOp62
 70
     1
  0
XRECORD
  5
EAE
102
{ACAD_REACTORS
330
EAD
102
}
330
EAD
100
AcDbXrecord
280
     1
102
RTVSPost2010Prop28
280
     0
102
RTVSPost2010PropOp28
 70
     0
102
RTVSPost2010Prop29
280
     1
102
RTVSPost2010PropOp29
 70
     0
102
RTVSPost2010Prop30
280
     1
102
RTVSPost2010PropOp30
 70
     0
102
RTVSPost2010Prop31
280
     0
102
RTVSPost2010PropOp31
 70
     0
102
RTVSPost2010Prop32
280
     0
102
RTVSPost2010PropOp32
 70
     0
102
RTVSPost2010Prop33
280
     0
102
RTVSPost2010PropOp33
 70
     0
102
RTVSPost2010Prop34
280
     0
102
RTVSPost2010PropOp34
 70
     0
102
RTVSPost2010Prop35
280
     0
102
RTVSPost2010PropOp35
 70
     0
102
RTVSPost2010Prop36
280
     0
102
RTVSPost2010PropOp36
 70
     0
102
RTVSPost2010Prop37
 90
       50
102
RTVSPost2010PropOp37
 70
     0
102
RTVSPost2010Prop38
140
0.0
102
RTVSPost2010PropOp38
 70
     0
102
RTVSPost2010Prop39
140
1.0
102
RTVSPost2010PropOp39
 70
     0
102
RTVSPost2010Prop40
 90
        0
102
RTVSPost2010PropOp40
 70
     0
102
RTVSPost2010Prop41ColorIndex
 90
       18
102
RTVSPost2010Prop41ColorRGB
 90
        0
102
RTVSPost2010PropOp41
 70
     0
102
RTVSPost2010Prop42
 90
       50
102
RTVSPost2010PropOp42
 70
     0
102
RTVSPost2010Prop43
 90
        3
102
RTVSPost2010PropOp43
 70
     0
102
RTVSPost2010Prop44ColorIndex
 90
        5
102
RTVSPost2010Prop44ColorRGB
 90
      255
102
RTVSPost2010PropOp44
 70
     0
102
RTVSPost2010Prop45
280
     0
102
RTVSPost2010PropOp45
 70
     0
102
RTVSPost2010Prop46
 90
       50
102
RTVSPost2010PropOp46
 70
     0
102
RTVSPost2010Prop47
 90
       50
102
RTVSPost2010PropOp47
 70
     0
102
RTVSPost2010Prop48
 90
       50
102
RTVSPost2010PropOp48
 70
     0
102
RTVSPost2010Prop49
280
     0
102
RTVSPost2010PropOp49
 70
     0
102
RTVSPost2010Prop50
 90
       50
102
RTVSPost2010PropOp50
 70
     0
102
RTVSPost2010Prop51ColorIndex
 90
      256
102
RTVSPost2010Prop51ColorRGB
 90
-16777216
102
RTVSPost2010PropOp51
 70
     0
102
RTVSPost2010Prop52
140
1.0
102
RTVSPost2010PropOp52
 70
     0
102
RTVSPost2010Prop53
 90
        2
102
RTVSPost2010PropOp53
 70
     0
102
RTVSPost2010Prop54
  1
strokes_ogs.tif
102
RTVSPost2010PropOp54
 70
     0
102
RTVSPost2010Prop55
280
     0
102
RTVSPost2010PropOp55
 70
     0
102
RTVSPost2010Prop56
140
1.0
102
RTVSPost2010PropOp56
 70
     0
102
RTVSPost2010Prop57
140
1.0
102
RTVSPost2010PropOp57
 70
     0
102
RTVSPropertyOp0
 70
     0
102
RTVSPropertyOp1
 70
     0
102
RTVSPropertyOp2
 70
     0
102
RTVSPropertyOp3
 70
     0
102
RTVSPropertyOp4
 70
     0
102
RTVSPropertyOp5
 70
     0
102
RTVSPropertyOp6
 70
     0
102
RTVSPropertyOp7
 70
     0
102
RTVSPropertyOp8
 70
     0
102
RTVSPropertyOp9
 70
     0
102
RTVSPropertyOp10
 70
     0
102
RTVSPropertyOp11
 70
     0
102
RTVSPropertyOp12
 70
     0
102
RTVSPropertyOp13
 70
     0
102
RTVSPropertyOp14
 70
     2
102
RTVSPropertyOp15
 70
     0
102
RTVSPropertyOp16
 70
     0
102
RTVSPropertyOp17
 70
     0
102
RTVSPropertyOp18
 70
     0
102
RTVSPropertyOp19
 70
     0
102
RTVSPropertyOp20
 70
     0
102
RTVSPropertyOp21
 70
     0
102
RTVSPropertyOp22
 70
     0
102
RTVSPropertyOp23
 70
     0
102
RTVSPropertyOp24
 70
     0
102
RTVSPropertyOp25
 70
     0
102
RTVSPropertyOp26
 70
     0
102
RTVSPropertyOp27
 70
     0
102
RTVSPropertyOp28
 70
     0
102
RTVSPropertyOp29
 70
     0
102
RTVSPropertyOp30
 70
     0
102
RTVSPropertyOp31
 70
     0
102
RTVSPropertyOp32
 70
     0
102
RTVSPropertyOp33
 70
     0
102
RTVSPropertyOp34
 70
     0
102
RTVSPropertyOp35
 70
     0
102
RTVSPropertyOp36
 70
     0
102
RTVSPropertyOp37
 70
     0
102
RTVSPropertyOp38
 70
     0
102
RTVSPropertyOp39
 70
     0
102
RTVSPropertyOp40
 70
     0
102
RTVSPropertyOp41
 70
     0
102
RTVSPropertyOp42
 70
     0
102
RTVSPropertyOp43
 70
     0
102
RTVSPropertyOp44
 70
     0
102
RTVSPropertyOp45
 70
     0
102
RTVSPropertyOp46
 70
     0
102
RTVSPropertyOp47
 70
     0
102
RTVSPropertyOp48
 70
     0
102
RTVSPropertyOp49
 70
     0
102
RTVSPropertyOp50
 70
     0
102
RTVSPropertyOp51
 70
     0
102
RTVSPropertyOp52
 70
     0
102
RTVSPropertyOp53
 70
     0
102
RTVSPropertyOp54
 70
     0
102
RTVSPropertyOp55
 70
     0
102
RTVSPropertyOp56
 70
     0
102
RTVSPropertyOp57
 70
     0
102
RTVSPropertyOp58
 70
     0
102
RTVSPropertyOp59
 70
     0
102
RTVSPropertyOp60
 70
     0
102
RTVSPropertyOp61
 70
     0
102
RTVSPropertyOp62
 70
     0
  0
XRECORD
  5
E8F
102
{ACAD_REACTORS
330
E8E
102
}
330
E8E
100
AcDbXrecord
280
     1
102
RTVSPost2010Prop28
280
     0
102
RTVSPost2010PropOp28
 70
     1
102
RTVSPost2010Prop29
280
     1
102
RTVSPost2010PropOp29
 70
     1
102
RTVSPost2010Prop30
280
     1
102
RTVSPost2010PropOp30
 70
     1
102
RTVSPost2010Prop31
280
     0
102
RTVSPost2010PropOp31
 70
     1
102
RTVSPost2010Prop32
280
     0
102
RTVSPost2010PropOp32
 70
     1
102
RTVSPost2010Prop33
280
     0
102
RTVSPost2010PropOp33
 70
     1
102
RTVSPost2010Prop34
280
     0
102
RTVSPost2010PropOp34
 70
     1
102
RTVSPost2010Prop35
280
     0
102
RTVSPost2010PropOp35
 70
     1
102
RTVSPost2010Prop36
280
     0
102
RTVSPost2010PropOp36
 70
     1
102
RTVSPost2010Prop37
 90
       50
102
RTVSPost2010PropOp37
 70
     1
102
RTVSPost2010Prop38
140
0.0
102
RTVSPost2010PropOp38
 70
     1
102
RTVSPost2010Prop39
140
1.0
102
RTVSPost2010PropOp39
 70
     1
102
RTVSPost2010Prop40
 90
        0
102
RTVSPost2010PropOp40
 70
     1
102
RTVSPost2010Prop41ColorIndex
 90
       18
102
RTVSPost2010Prop41ColorRGB
 90
        0
102
RTVSPost2010PropOp41
 70
     1
102
RTVSPost2010Prop42
 90
       50
102
RTVSPost2010PropOp42
 70
     1
102
RTVSPost2010Prop43
 90
        3
102
RTVSPost2010PropOp43
 70
     1
102
RTVSPost2010Prop44ColorIndex
 90
        5
102
RTVSPost2010Prop44ColorRGB
 90
      255
102
RTVSPost2010PropOp44
 70
     1
102
RTVSPost2010Prop45
280
     0
102
RTVSPost2010PropOp45
 70
     1
102
RTVSPost2010Prop46
 90
       50
102
RTVSPost2010PropOp46
 70
     1
102
RTVSPost2010Prop47
 90
       50
102
RTVSPost2010PropOp47
 70
     1
102
RTVSPost2010Prop48
 90
       50
102
RTVSPost2010PropOp48
 70
     1
102
RTVSPost2010Prop49
280
     0
102
RTVSPost2010PropOp49
 70
     1
102
RTVSPost2010Prop50
 90
       50
102
RTVSPost2010PropOp50
 70
     1
102
RTVSPost2010Prop51ColorIndex
 90
      256
102
RTVSPost2010Prop51ColorRGB
 90
-16777216
102
RTVSPost2010PropOp51
 70
     0
102
RTVSPost2010Prop52
140
1.0
102
RTVSPost2010PropOp52
 70
     0
102
RTVSPost2010Prop53
 90
        2
102
RTVSPost2010PropOp53
 70
     1
102
RTVSPost2010Prop54
  1
strokes_ogs.tif
102
RTVSPost2010PropOp54
 70
     1
102
RTVSPost2010Prop55
280
     0
102
RTVSPost2010PropOp55
 70
     1
102
RTVSPost2010Prop56
140
1.0
102
RTVSPost2010PropOp56
 70
     1
102
RTVSPost2010Prop57
140
1.0
102
RTVSPost2010PropOp57
 70
     1
102
RTVSPropertyOp0
 70
     1
102
RTVSPropertyOp1
 70
     1
102
RTVSPropertyOp2
 70
     1
102
RTVSPropertyOp3
 70
     1
102
RTVSPropertyOp4
 70
     1
102
RTVSPropertyOp5
 70
     1
102
RTVSPropertyOp6
 70
     1
102
RTVSPropertyOp7
 70
     1
102
RTVSPropertyOp8
 70
     1
102
RTVSPropertyOp9
 70
     1
102
RTVSPropertyOp10
 70
     1
102
RTVSPropertyOp11
 70
     1
102
RTVSPropertyOp12
 70
     1
102
RTVSPropertyOp13
 70
     1
102
RTVSPropertyOp14
 70
     1
102
RTVSPropertyOp15
 70
     1
102
RTVSPropertyOp16
 70
     1
102
RTVSPropertyOp17
 70
     1
102
RTVSPropertyOp18
 70
     1
102
RTVSPropertyOp19
 70
     1
102
RTVSPropertyOp20
 70
     1
102
RTVSPropertyOp21
 70
     1
102
RTVSPropertyOp22
 70
     1
102
RTVSPropertyOp23
 70
     1
102
RTVSPropertyOp24
 70
     1
102
RTVSPropertyOp25
 70
     1
102
RTVSPropertyOp26
 70
     1
102
RTVSPropertyOp27
 70
     1
102
RTVSPropertyOp28
 70
     1
102
RTVSPropertyOp29
 70
     1
102
RTVSPropertyOp30
 70
     1
102
RTVSPropertyOp31
 70
     1
102
RTVSPropertyOp32
 70
     1
102
RTVSPropertyOp33
 70
     1
102
RTVSPropertyOp34
 70
     1
102
RTVSPropertyOp35
 70
     1
102
RTVSPropertyOp36
 70
     1
102
RTVSPropertyOp37
 70
     1
102
RTVSPropertyOp38
 70
     1
102
RTVSPropertyOp39
 70
     1
102
RTVSPropertyOp40
 70
     1
102
RTVSPropertyOp41
 70
     1
102
RTVSPropertyOp42
 70
     1
102
RTVSPropertyOp43
 70
     1
102
RTVSPropertyOp44
 70
     1
102
RTVSPropertyOp45
 70
     1
102
RTVSPropertyOp46
 70
     1
102
RTVSPropertyOp47
 70
     1
102
RTVSPropertyOp48
 70
     1
102
RTVSPropertyOp49
 70
     1
102
RTVSPropertyOp50
 70
     1
102
RTVSPropertyOp51
 70
     0
102
RTVSPropertyOp52
 70
     0
102
RTVSPropertyOp53
 70
     1
102
RTVSPropertyOp54
 70
     1
102
RTVSPropertyOp55
 70
     1
102
RTVSPropertyOp56
 70
     1
102
RTVSPropertyOp57
 70
     1
102
RTVSPropertyOp58
 70
     1
102
RTVSPropertyOp59
 70
     1
102
RTVSPropertyOp60
 70
     1
102
RTVSPropertyOp61
 70
     1
102
RTVSPropertyOp62
 70
     1
  0
XRECORD
  5
E73
102
{ACAD_REACTORS
330
E72
102
}
330
E72
100
AcDbXrecord
280
     1
102
RTVSPost2010Prop28
280
     0
102
RTVSPost2010PropOp28
 70
     1
102
RTVSPost2010Prop29
280
     1
102
RTVSPost2010PropOp29
 70
     1
102
RTVSPost2010Prop30
280
     1
102
RTVSPost2010PropOp30
 70
     1
102
RTVSPost2010Prop31
280
     0
102
RTVSPost2010PropOp31
 70
     1
102
RTVSPost2010Prop32
280
     0
102
RTVSPost2010PropOp32
 70
     1
102
RTVSPost2010Prop33
280
     0
102
RTVSPost2010PropOp33
 70
     1
102
RTVSPost2010Prop34
280
     0
102
RTVSPost2010PropOp34
 70
     1
102
RTVSPost2010Prop35
280
     0
102
RTVSPost2010PropOp35
 70
     1
102
RTVSPost2010Prop36
280
     0
102
RTVSPost2010PropOp36
 70
     1
102
RTVSPost2010Prop37
 90
       50
102
RTVSPost2010PropOp37
 70
     1
102
RTVSPost2010Prop38
140
0.0
102
RTVSPost2010PropOp38
 70
     1
102
RTVSPost2010Prop39
140
1.0
102
RTVSPost2010PropOp39
 70
     1
102
RTVSPost2010Prop40
 90
        0
102
RTVSPost2010PropOp40
 70
     1
102
RTVSPost2010Prop41ColorIndex
 90
       18
102
RTVSPost2010Prop41ColorRGB
 90
        0
102
RTVSPost2010PropOp41
 70
     1
102
RTVSPost2010Prop42
 90
       50
102
RTVSPost2010PropOp42
 70
     1
102
RTVSPost2010Prop43
 90
        3
102
RTVSPost2010PropOp43
 70
     1
102
RTVSPost2010Prop44ColorIndex
 90
        5
102
RTVSPost2010Prop44ColorRGB
 90
      255
102
RTVSPost2010PropOp44
 70
     1
102
RTVSPost2010Prop45
280
     0
102
RTVSPost2010PropOp45
 70
     1
102
RTVSPost2010Prop46
 90
       50
102
RTVSPost2010PropOp46
 70
     1
102
RTVSPost2010Prop47
 90
       50
102
RTVSPost2010PropOp47
 70
     1
102
RTVSPost2010Prop48
 90
       50
102
RTVSPost2010PropOp48
 70
     1
102
RTVSPost2010Prop49
280
     0
102
RTVSPost2010PropOp49
 70
     1
102
RTVSPost2010Prop50
 90
       50
102
RTVSPost2010PropOp50
 70
     1
102
RTVSPost2010Prop51ColorIndex
 90
      256
102
RTVSPost2010Prop51ColorRGB
 90
-16777216
102
RTVSPost2010PropOp51
 70
     0
102
RTVSPost2010Prop52
140
1.0
102
RTVSPost2010PropOp52
 70
     0
102
RTVSPost2010Prop53
 90
        2
102
RTVSPost2010PropOp53
 70
     1
102
RTVSPost2010Prop54
  1
strokes_ogs.tif
102
RTVSPost2010PropOp54
 70
     1
102
RTVSPost2010Prop55
280
     0
102
RTVSPost2010PropOp55
 70
     1
102
RTVSPost2010Prop56
140
1.0
102
RTVSPost2010PropOp56
 70
     1
102
RTVSPost2010Prop57
140
1.0
102
RTVSPost2010PropOp57
 70
     1
102
RTVSPropertyOp0
 70
     1
102
RTVSPropertyOp1
 70
     1
102
RTVSPropertyOp2
 70
     1
102
RTVSPropertyOp3
 70
     1
102
RTVSPropertyOp4
 70
     1
102
RTVSPropertyOp5
 70
     1
102
RTVSPropertyOp6
 70
     1
102
RTVSPropertyOp7
 70
     1
102
RTVSPropertyOp8
 70
     1
102
RTVSPropertyOp9
 70
     1
102
RTVSPropertyOp10
 70
     1
102
RTVSPropertyOp11
 70
     1
102
RTVSPropertyOp12
 70
     1
102
RTVSPropertyOp13
 70
     1
102
RTVSPropertyOp14
 70
     1
102
RTVSPropertyOp15
 70
     1
102
RTVSPropertyOp16
 70
     1
102
RTVSPropertyOp17
 70
     1
102
RTVSPropertyOp18
 70
     1
102
RTVSPropertyOp19
 70
     1
102
RTVSPropertyOp20
 70
     1
102
RTVSPropertyOp21
 70
     1
102
RTVSPropertyOp22
 70
     1
102
RTVSPropertyOp23
 70
     1
102
RTVSPropertyOp24
 70
     1
102
RTVSPropertyOp25
 70
     1
102
RTVSPropertyOp26
 70
     1
102
RTVSPropertyOp27
 70
     1
102
RTVSPropertyOp28
 70
     1
102
RTVSPropertyOp29
 70
     1
102
RTVSPropertyOp30
 70
     1
102
RTVSPropertyOp31
 70
     1
102
RTVSPropertyOp32
 70
     1
102
RTVSPropertyOp33
 70
     1
102
RTVSPropertyOp34
 70
     1
102
RTVSPropertyOp35
 70
     1
102
RTVSPropertyOp36
 70
     1
102
RTVSPropertyOp37
 70
     1
102
RTVSPropertyOp38
 70
     1
102
RTVSPropertyOp39
 70
     1
102
RTVSPropertyOp40
 70
     1
102
RTVSPropertyOp41
 70
     1
102
RTVSPropertyOp42
 70
     1
102
RTVSPropertyOp43
 70
     1
102
RTVSPropertyOp44
 70
     1
102
RTVSPropertyOp45
 70
     1
102
RTVSPropertyOp46
 70
     1
102
RTVSPropertyOp47
 70
     1
102
RTVSPropertyOp48
 70
     1
102
RTVSPropertyOp49
 70
     1
102
RTVSPropertyOp50
 70
     1
102
RTVSPropertyOp51
 70
     0
102
RTVSPropertyOp52
 70
     0
102
RTVSPropertyOp53
 70
     1
102
RTVSPropertyOp54
 70
     1
102
RTVSPropertyOp55
 70
     1
102
RTVSPropertyOp56
 70
     1
102
RTVSPropertyOp57
 70
     1
102
RTVSPropertyOp58
 70
     1
102
RTVSPropertyOp59
 70
     1
102
RTVSPropertyOp60
 70
     1
102
RTVSPropertyOp61
 70
     1
102
RTVSPropertyOp62
 70
     1
  0
XRECORD
  5
E75
102
{ACAD_REACTORS
330
E74
102
}
330
E74
100
AcDbXrecord
280
     1
102
RTVSPost2010Prop28
280
     0
102
RTVSPost2010PropOp28
 70
     1
102
RTVSPost2010Prop29
280
     1
102
RTVSPost2010PropOp29
 70
     1
102
RTVSPost2010Prop30
280
     1
102
RTVSPost2010PropOp30
 70
     1
102
RTVSPost2010Prop31
280
     0
102
RTVSPost2010PropOp31
 70
     1
102
RTVSPost2010Prop32
280
     0
102
RTVSPost2010PropOp32
 70
     1
102
RTVSPost2010Prop33
280
     0
102
RTVSPost2010PropOp33
 70
     1
102
RTVSPost2010Prop34
280
     0
102
RTVSPost2010PropOp34
 70
     1
102
RTVSPost2010Prop35
280
     0
102
RTVSPost2010PropOp35
 70
     1
102
RTVSPost2010Prop36
280
     0
102
RTVSPost2010PropOp36
 70
     1
102
RTVSPost2010Prop37
 90
       50
102
RTVSPost2010PropOp37
 70
     1
102
RTVSPost2010Prop38
140
0.0
102
RTVSPost2010PropOp38
 70
     1
102
RTVSPost2010Prop39
140
1.0
102
RTVSPost2010PropOp39
 70
     1
102
RTVSPost2010Prop40
 90
        0
102
RTVSPost2010PropOp40
 70
     1
102
RTVSPost2010Prop41ColorIndex
 90
       18
102
RTVSPost2010Prop41ColorRGB
 90
        0
102
RTVSPost2010PropOp41
 70
     1
102
RTVSPost2010Prop42
 90
       50
102
RTVSPost2010PropOp42
 70
     1
102
RTVSPost2010Prop43
 90
        3
102
RTVSPost2010PropOp43
 70
     1
102
RTVSPost2010Prop44ColorIndex
 90
        5
102
RTVSPost2010Prop44ColorRGB
 90
      255
102
RTVSPost2010PropOp44
 70
     1
102
RTVSPost2010Prop45
280
     0
102
RTVSPost2010PropOp45
 70
     1
102
RTVSPost2010Prop46
 90
       50
102
RTVSPost2010PropOp46
 70
     1
102
RTVSPost2010Prop47
 90
       50
102
RTVSPost2010PropOp47
 70
     1
102
RTVSPost2010Prop48
 90
       50
102
RTVSPost2010PropOp48
 70
     1
102
RTVSPost2010Prop49
280
     0
102
RTVSPost2010PropOp49
 70
     1
102
RTVSPost2010Prop50
 90
       50
102
RTVSPost2010PropOp50
 70
     1
102
RTVSPost2010Prop51ColorIndex
 90
      256
102
RTVSPost2010Prop51ColorRGB
 90
-16777216
102
RTVSPost2010PropOp51
 70
     0
102
RTVSPost2010Prop52
140
1.0
102
RTVSPost2010PropOp52
 70
     0
102
RTVSPost2010Prop53
 90
        2
102
RTVSPost2010PropOp53
 70
     1
102
RTVSPost2010Prop54
  1
strokes_ogs.tif
102
RTVSPost2010PropOp54
 70
     1
102
RTVSPost2010Prop55
280
     0
102
RTVSPost2010PropOp55
 70
     1
102
RTVSPost2010Prop56
140
1.0
102
RTVSPost2010PropOp56
 70
     1
102
RTVSPost2010Prop57
140
1.0
102
RTVSPost2010PropOp57
 70
     1
102
RTVSPropertyOp0
 70
     1
102
RTVSPropertyOp1
 70
     1
102
RTVSPropertyOp2
 70
     1
102
RTVSPropertyOp3
 70
     1
102
RTVSPropertyOp4
 70
     1
102
RTVSPropertyOp5
 70
     1
102
RTVSPropertyOp6
 70
     1
102
RTVSPropertyOp7
 70
     1
102
RTVSPropertyOp8
 70
     1
102
RTVSPropertyOp9
 70
     1
102
RTVSPropertyOp10
 70
     1
102
RTVSPropertyOp11
 70
     1
102
RTVSPropertyOp12
 70
     1
102
RTVSPropertyOp13
 70
     1
102
RTVSPropertyOp14
 70
     1
102
RTVSPropertyOp15
 70
     1
102
RTVSPropertyOp16
 70
     1
102
RTVSPropertyOp17
 70
     1
102
RTVSPropertyOp18
 70
     1
102
RTVSPropertyOp19
 70
     1
102
RTVSPropertyOp20
 70
     1
102
RTVSPropertyOp21
 70
     1
102
RTVSPropertyOp22
 70
     1
102
RTVSPropertyOp23
 70
     1
102
RTVSPropertyOp24
 70
     1
102
RTVSPropertyOp25
 70
     1
102
RTVSPropertyOp26
 70
     1
102
RTVSPropertyOp27
 70
     1
102
RTVSPropertyOp28
 70
     1
102
RTVSPropertyOp29
 70
     1
102
RTVSPropertyOp30
 70
     1
102
RTVSPropertyOp31
 70
     1
102
RTVSPropertyOp32
 70
     1
102
RTVSPropertyOp33
 70
     1
102
RTVSPropertyOp34
 70
     1
102
RTVSPropertyOp35
 70
     1
102
RTVSPropertyOp36
 70
     1
102
RTVSPropertyOp37
 70
     1
102
RTVSPropertyOp38
 70
     1
102
RTVSPropertyOp39
 70
     1
102
RTVSPropertyOp40
 70
     1
102
RTVSPropertyOp41
 70
     1
102
RTVSPropertyOp42
 70
     1
102
RTVSPropertyOp43
 70
     1
102
RTVSPropertyOp44
 70
     1
102
RTVSPropertyOp45
 70
     1
102
RTVSPropertyOp46
 70
     1
102
RTVSPropertyOp47
 70
     1
102
RTVSPropertyOp48
 70
     1
102
RTVSPropertyOp49
 70
     1
102
RTVSPropertyOp50
 70
     1
102
RTVSPropertyOp51
 70
     0
102
RTVSPropertyOp52
 70
     0
102
RTVSPropertyOp53
 70
     1
102
RTVSPropertyOp54
 70
     1
102
RTVSPropertyOp55
 70
     1
102
RTVSPropertyOp56
 70
     1
102
RTVSPropertyOp57
 70
     1
102
RTVSPropertyOp58
 70
     1
102
RTVSPropertyOp59
 70
     1
102
RTVSPropertyOp60
 70
     1
102
RTVSPropertyOp61
 70
     1
102
RTVSPropertyOp62
 70
     1
  0
XRECORD
  5
E77
102
{ACAD_REACTORS
330
E76
102
}
330
E76
100
AcDbXrecord
280
     1
102
RTVSPost2010Prop28
280
     0
102
RTVSPost2010PropOp28
 70
     1
102
RTVSPost2010Prop29
280
     1
102
RTVSPost2010PropOp29
 70
     1
102
RTVSPost2010Prop30
280
     1
102
RTVSPost2010PropOp30
 70
     1
102
RTVSPost2010Prop31
280
     0
102
RTVSPost2010PropOp31
 70
     1
102
RTVSPost2010Prop32
280
     0
102
RTVSPost2010PropOp32
 70
     1
102
RTVSPost2010Prop33
280
     0
102
RTVSPost2010PropOp33
 70
     1
102
RTVSPost2010Prop34
280
     0
102
RTVSPost2010PropOp34
 70
     1
102
RTVSPost2010Prop35
280
     0
102
RTVSPost2010PropOp35
 70
     1
102
RTVSPost2010Prop36
280
     0
102
RTVSPost2010PropOp36
 70
     1
102
RTVSPost2010Prop37
 90
       50
102
RTVSPost2010PropOp37
 70
     1
102
RTVSPost2010Prop38
140
0.0
102
RTVSPost2010PropOp38
 70
     1
102
RTVSPost2010Prop39
140
1.0
102
RTVSPost2010PropOp39
 70
     1
102
RTVSPost2010Prop40
 90
        0
102
RTVSPost2010PropOp40
 70
     1
102
RTVSPost2010Prop41ColorIndex
 90
       18
102
RTVSPost2010Prop41ColorRGB
 90
        0
102
RTVSPost2010PropOp41
 70
     1
102
RTVSPost2010Prop42
 90
       50
102
RTVSPost2010PropOp42
 70
     1
102
RTVSPost2010Prop43
 90
        3
102
RTVSPost2010PropOp43
 70
     1
102
RTVSPost2010Prop44ColorIndex
 90
        5
102
RTVSPost2010Prop44ColorRGB
 90
      255
102
RTVSPost2010PropOp44
 70
     1
102
RTVSPost2010Prop45
280
     0
102
RTVSPost2010PropOp45
 70
     1
102
RTVSPost2010Prop46
 90
       50
102
RTVSPost2010PropOp46
 70
     1
102
RTVSPost2010Prop47
 90
       50
102
RTVSPost2010PropOp47
 70
     1
102
RTVSPost2010Prop48
 90
       50
102
RTVSPost2010PropOp48
 70
     1
102
RTVSPost2010Prop49
280
     0
102
RTVSPost2010PropOp49
 70
     1
102
RTVSPost2010Prop50
 90
       50
102
RTVSPost2010PropOp50
 70
     1
102
RTVSPost2010Prop51ColorIndex
 90
      256
102
RTVSPost2010Prop51ColorRGB
 90
-16777216
102
RTVSPost2010PropOp51
 70
     0
102
RTVSPost2010Prop52
140
1.0
102
RTVSPost2010PropOp52
 70
     0
102
RTVSPost2010Prop53
 90
        2
102
RTVSPost2010PropOp53
 70
     1
102
RTVSPost2010Prop54
  1
strokes_ogs.tif
102
RTVSPost2010PropOp54
 70
     1
102
RTVSPost2010Prop55
280
     0
102
RTVSPost2010PropOp55
 70
     1
102
RTVSPost2010Prop56
140
1.0
102
RTVSPost2010PropOp56
 70
     1
102
RTVSPost2010Prop57
140
1.0
102
RTVSPost2010PropOp57
 70
     1
102
RTVSPropertyOp0
 70
     1
102
RTVSPropertyOp1
 70
     1
102
RTVSPropertyOp2
 70
     1
102
RTVSPropertyOp3
 70
     1
102
RTVSPropertyOp4
 70
     1
102
RTVSPropertyOp5
 70
     1
102
RTVSPropertyOp6
 70
     1
102
RTVSPropertyOp7
 70
     1
102
RTVSPropertyOp8
 70
     1
102
RTVSPropertyOp9
 70
     1
102
RTVSPropertyOp10
 70
     1
102
RTVSPropertyOp11
 70
     1
102
RTVSPropertyOp12
 70
     1
102
RTVSPropertyOp13
 70
     1
102
RTVSPropertyOp14
 70
     1
102
RTVSPropertyOp15
 70
     1
102
RTVSPropertyOp16
 70
     1
102
RTVSPropertyOp17
 70
     1
102
RTVSPropertyOp18
 70
     1
102
RTVSPropertyOp19
 70
     1
102
RTVSPropertyOp20
 70
     1
102
RTVSPropertyOp21
 70
     1
102
RTVSPropertyOp22
 70
     1
102
RTVSPropertyOp23
 70
     1
102
RTVSPropertyOp24
 70
     1
102
RTVSPropertyOp25
 70
     1
102
RTVSPropertyOp26
 70
     1
102
RTVSPropertyOp27
 70
     1
102
RTVSPropertyOp28
 70
     1
102
RTVSPropertyOp29
 70
     1
102
RTVSPropertyOp30
 70
     1
102
RTVSPropertyOp31
 70
     1
102
RTVSPropertyOp32
 70
     1
102
RTVSPropertyOp33
 70
     1
102
RTVSPropertyOp34
 70
     1
102
RTVSPropertyOp35
 70
     1
102
RTVSPropertyOp36
 70
     1
102
RTVSPropertyOp37
 70
     1
102
RTVSPropertyOp38
 70
     1
102
RTVSPropertyOp39
 70
     1
102
RTVSPropertyOp40
 70
     1
102
RTVSPropertyOp41
 70
     1
102
RTVSPropertyOp42
 70
     1
102
RTVSPropertyOp43
 70
     1
102
RTVSPropertyOp44
 70
     1
102
RTVSPropertyOp45
 70
     1
102
RTVSPropertyOp46
 70
     1
102
RTVSPropertyOp47
 70
     1
102
RTVSPropertyOp48
 70
     1
102
RTVSPropertyOp49
 70
     1
102
RTVSPropertyOp50
 70
     1
102
RTVSPropertyOp51
 70
     0
102
RTVSPropertyOp52
 70
     0
102
RTVSPropertyOp53
 70
     1
102
RTVSPropertyOp54
 70
     1
102
RTVSPropertyOp55
 70
     1
102
RTVSPropertyOp56
 70
     1
102
RTVSPropertyOp57
 70
     1
102
RTVSPropertyOp58
 70
     1
102
RTVSPropertyOp59
 70
     1
102
RTVSPropertyOp60
 70
     1
102
RTVSPropertyOp61
 70
     1
102
RTVSPropertyOp62
 70
     1
  0
XRECORD
  5
E79
102
{ACAD_REACTORS
330
E78
102
}
330
E78
100
AcDbXrecord
280
     1
102
RTVSPost2010Prop28
280
     0
102
RTVSPost2010PropOp28
 70
     1
102
RTVSPost2010Prop29
280
     1
102
RTVSPost2010PropOp29
 70
     1
102
RTVSPost2010Prop30
280
     1
102
RTVSPost2010PropOp30
 70
     1
102
RTVSPost2010Prop31
280
     0
102
RTVSPost2010PropOp31
 70
     1
102
RTVSPost2010Prop32
280
     0
102
RTVSPost2010PropOp32
 70
     1
102
RTVSPost2010Prop33
280
     0
102
RTVSPost2010PropOp33
 70
     1
102
RTVSPost2010Prop34
280
     0
102
RTVSPost2010PropOp34
 70
     1
102
RTVSPost2010Prop35
280
     0
102
RTVSPost2010PropOp35
 70
     1
102
RTVSPost2010Prop36
280
     0
102
RTVSPost2010PropOp36
 70
     1
102
RTVSPost2010Prop37
 90
       50
102
RTVSPost2010PropOp37
 70
     1
102
RTVSPost2010Prop38
140
0.0
102
RTVSPost2010PropOp38
 70
     1
102
RTVSPost2010Prop39
140
1.0
102
RTVSPost2010PropOp39
 70
     1
102
RTVSPost2010Prop40
 90
        0
102
RTVSPost2010PropOp40
 70
     1
102
RTVSPost2010Prop41ColorIndex
 90
       18
102
RTVSPost2010Prop41ColorRGB
 90
        0
102
RTVSPost2010PropOp41
 70
     1
102
RTVSPost2010Prop42
 90
       50
102
RTVSPost2010PropOp42
 70
     1
102
RTVSPost2010Prop43
 90
        3
102
RTVSPost2010PropOp43
 70
     1
102
RTVSPost2010Prop44ColorIndex
 90
        5
102
RTVSPost2010Prop44ColorRGB
 90
      255
102
RTVSPost2010PropOp44
 70
     1
102
RTVSPost2010Prop45
280
     0
102
RTVSPost2010PropOp45
 70
     1
102
RTVSPost2010Prop46
 90
       50
102
RTVSPost2010PropOp46
 70
     1
102
RTVSPost2010Prop47
 90
       50
102
RTVSPost2010PropOp47
 70
     1
102
RTVSPost2010Prop48
 90
       50
102
RTVSPost2010PropOp48
 70
     1
102
RTVSPost2010Prop49
280
     0
102
RTVSPost2010PropOp49
 70
     1
102
RTVSPost2010Prop50
 90
       50
102
RTVSPost2010PropOp50
 70
     1
102
RTVSPost2010Prop51ColorIndex
 90
      256
102
RTVSPost2010Prop51ColorRGB
 90
-16777216
102
RTVSPost2010PropOp51
 70
     0
102
RTVSPost2010Prop52
140
1.0
102
RTVSPost2010PropOp52
 70
     0
102
RTVSPost2010Prop53
 90
        2
102
RTVSPost2010PropOp53
 70
     1
102
RTVSPost2010Prop54
  1
strokes_ogs.tif
102
RTVSPost2010PropOp54
 70
     1
102
RTVSPost2010Prop55
280
     0
102
RTVSPost2010PropOp55
 70
     1
102
RTVSPost2010Prop56
140
1.0
102
RTVSPost2010PropOp56
 70
     1
102
RTVSPost2010Prop57
140
1.0
102
RTVSPost2010PropOp57
 70
     1
102
RTVSPropertyOp0
 70
     1
102
RTVSPropertyOp1
 70
     1
102
RTVSPropertyOp2
 70
     1
102
RTVSPropertyOp3
 70
     1
102
RTVSPropertyOp4
 70
     1
102
RTVSPropertyOp5
 70
     1
102
RTVSPropertyOp6
 70
     1
102
RTVSPropertyOp7
 70
     1
102
RTVSPropertyOp8
 70
     1
102
RTVSPropertyOp9
 70
     1
102
RTVSPropertyOp10
 70
     1
102
RTVSPropertyOp11
 70
     1
102
RTVSPropertyOp12
 70
     1
102
RTVSPropertyOp13
 70
     1
102
RTVSPropertyOp14
 70
     1
102
RTVSPropertyOp15
 70
     1
102
RTVSPropertyOp16
 70
     1
102
RTVSPropertyOp17
 70
     1
102
RTVSPropertyOp18
 70
     1
102
RTVSPropertyOp19
 70
     1
102
RTVSPropertyOp20
 70
     1
102
RTVSPropertyOp21
 70
     1
102
RTVSPropertyOp22
 70
     1
102
RTVSPropertyOp23
 70
     1
102
RTVSPropertyOp24
 70
     1
102
RTVSPropertyOp25
 70
     1
102
RTVSPropertyOp26
 70
     1
102
RTVSPropertyOp27
 70
     1
102
RTVSPropertyOp28
 70
     1
102
RTVSPropertyOp29
 70
     1
102
RTVSPropertyOp30
 70
     1
102
RTVSPropertyOp31
 70
     1
102
RTVSPropertyOp32
 70
     1
102
RTVSPropertyOp33
 70
     1
102
RTVSPropertyOp34
 70
     1
102
RTVSPropertyOp35
 70
     1
102
RTVSPropertyOp36
 70
     1
102
RTVSPropertyOp37
 70
     1
102
RTVSPropertyOp38
 70
     1
102
RTVSPropertyOp39
 70
     1
102
RTVSPropertyOp40
 70
     1
102
RTVSPropertyOp41
 70
     1
102
RTVSPropertyOp42
 70
     1
102
RTVSPropertyOp43
 70
     1
102
RTVSPropertyOp44
 70
     1
102
RTVSPropertyOp45
 70
     1
102
RTVSPropertyOp46
 70
     1
102
RTVSPropertyOp47
 70
     1
102
RTVSPropertyOp48
 70
     1
102
RTVSPropertyOp49
 70
     1
102
RTVSPropertyOp50
 70
     1
102
RTVSPropertyOp51
 70
     0
102
RTVSPropertyOp52
 70
     0
102
RTVSPropertyOp53
 70
     1
102
RTVSPropertyOp54
 70
     1
102
RTVSPropertyOp55
 70
     1
102
RTVSPropertyOp56
 70
     1
102
RTVSPropertyOp57
 70
     1
102
RTVSPropertyOp58
 70
     1
102
RTVSPropertyOp59
 70
     1
102
RTVSPropertyOp60
 70
     1
102
RTVSPropertyOp61
 70
     1
102
RTVSPropertyOp62
 70
     1
  0
XRECORD
  5
E9E
102
{ACAD_REACTORS
330
E9D
102
}
330
E9D
100
AcDbXrecord
280
     1
102
RTVSPost2010Prop28
280
     0
102
RTVSPost2010PropOp28
 70
     1
102
RTVSPost2010Prop29
280
     1
102
RTVSPost2010PropOp29
 70
     1
102
RTVSPost2010Prop30
280
     1
102
RTVSPost2010PropOp30
 70
     1
102
RTVSPost2010Prop31
280
     0
102
RTVSPost2010PropOp31
 70
     1
102
RTVSPost2010Prop32
280
     0
102
RTVSPost2010PropOp32
 70
     1
102
RTVSPost2010Prop33
280
     0
102
RTVSPost2010PropOp33
 70
     1
102
RTVSPost2010Prop34
280
     0
102
RTVSPost2010PropOp34
 70
     1
102
RTVSPost2010Prop35
280
     0
102
RTVSPost2010PropOp35
 70
     1
102
RTVSPost2010Prop36
280
     0
102
RTVSPost2010PropOp36
 70
     1
102
RTVSPost2010Prop37
 90
       50
102
RTVSPost2010PropOp37
 70
     1
102
RTVSPost2010Prop38
140
0.0
102
RTVSPost2010PropOp38
 70
     1
102
RTVSPost2010Prop39
140
1.0
102
RTVSPost2010PropOp39
 70
     1
102
RTVSPost2010Prop40
 90
        0
102
RTVSPost2010PropOp40
 70
     1
102
RTVSPost2010Prop41ColorIndex
 90
       18
102
RTVSPost2010Prop41ColorRGB
 90
        0
102
RTVSPost2010PropOp41
 70
     1
102
RTVSPost2010Prop42
 90
       50
102
RTVSPost2010PropOp42
 70
     1
102
RTVSPost2010Prop43
 90
        3
102
RTVSPost2010PropOp43
 70
     1
102
RTVSPost2010Prop44ColorIndex
 90
        5
102
RTVSPost2010Prop44ColorRGB
 90
      255
102
RTVSPost2010PropOp44
 70
     1
102
RTVSPost2010Prop45
280
     0
102
RTVSPost2010PropOp45
 70
     1
102
RTVSPost2010Prop46
 90
       50
102
RTVSPost2010PropOp46
 70
     1
102
RTVSPost2010Prop47
 90
       50
102
RTVSPost2010PropOp47
 70
     1
102
RTVSPost2010Prop48
 90
       50
102
RTVSPost2010PropOp48
 70
     1
102
RTVSPost2010Prop49
280
     0
102
RTVSPost2010PropOp49
 70
     1
102
RTVSPost2010Prop50
 90
       50
102
RTVSPost2010PropOp50
 70
     1
102
RTVSPost2010Prop51ColorIndex
 90
      256
102
RTVSPost2010Prop51ColorRGB
 90
-16777216
102
RTVSPost2010PropOp51
 70
     0
102
RTVSPost2010Prop52
140
1.0
102
RTVSPost2010PropOp52
 70
     0
102
RTVSPost2010Prop53
 90
        2
102
RTVSPost2010PropOp53
 70
     1
102
RTVSPost2010Prop54
  1
strokes_ogs.tif
102
RTVSPost2010PropOp54
 70
     1
102
RTVSPost2010Prop55
280
     0
102
RTVSPost2010PropOp55
 70
     1
102
RTVSPost2010Prop56
140
1.0
102
RTVSPost2010PropOp56
 70
     1
102
RTVSPost2010Prop57
140
1.0
102
RTVSPost2010PropOp57
 70
     1
102
RTVSPropertyOp0
 70
     1
102
RTVSPropertyOp1
 70
     1
102
RTVSPropertyOp2
 70
     1
102
RTVSPropertyOp3
 70
     1
102
RTVSPropertyOp4
 70
     1
102
RTVSPropertyOp5
 70
     1
102
RTVSPropertyOp6
 70
     1
102
RTVSPropertyOp7
 70
     1
102
RTVSPropertyOp8
 70
     1
102
RTVSPropertyOp9
 70
     1
102
RTVSPropertyOp10
 70
     1
102
RTVSPropertyOp11
 70
     1
102
RTVSPropertyOp12
 70
     1
102
RTVSPropertyOp13
 70
     1
102
RTVSPropertyOp14
 70
     1
102
RTVSPropertyOp15
 70
     1
102
RTVSPropertyOp16
 70
     1
102
RTVSPropertyOp17
 70
     1
102
RTVSPropertyOp18
 70
     1
102
RTVSPropertyOp19
 70
     1
102
RTVSPropertyOp20
 70
     1
102
RTVSPropertyOp21
 70
     1
102
RTVSPropertyOp22
 70
     1
102
RTVSPropertyOp23
 70
     1
102
RTVSPropertyOp24
 70
     1
102
RTVSPropertyOp25
 70
     1
102
RTVSPropertyOp26
 70
     1
102
RTVSPropertyOp27
 70
     1
102
RTVSPropertyOp28
 70
     1
102
RTVSPropertyOp29
 70
     1
102
RTVSPropertyOp30
 70
     1
102
RTVSPropertyOp31
 70
     1
102
RTVSPropertyOp32
 70
     1
102
RTVSPropertyOp33
 70
     1
102
RTVSPropertyOp34
 70
     1
102
RTVSPropertyOp35
 70
     1
102
RTVSPropertyOp36
 70
     1
102
RTVSPropertyOp37
 70
     1
102
RTVSPropertyOp38
 70
     1
102
RTVSPropertyOp39
 70
     1
102
RTVSPropertyOp40
 70
     1
102
RTVSPropertyOp41
 70
     1
102
RTVSPropertyOp42
 70
     1
102
RTVSPropertyOp43
 70
     1
102
RTVSPropertyOp44
 70
     1
102
RTVSPropertyOp45
 70
     1
102
RTVSPropertyOp46
 70
     1
102
RTVSPropertyOp47
 70
     1
102
RTVSPropertyOp48
 70
     1
102
RTVSPropertyOp49
 70
     1
102
RTVSPropertyOp50
 70
     1
102
RTVSPropertyOp51
 70
     0
102
RTVSPropertyOp52
 70
     0
102
RTVSPropertyOp53
 70
     1
102
RTVSPropertyOp54
 70
     1
102
RTVSPropertyOp55
 70
     1
102
RTVSPropertyOp56
 70
     1
102
RTVSPropertyOp57
 70
     1
102
RTVSPropertyOp58
 70
     1
102
RTVSPropertyOp59
 70
     1
102
RTVSPropertyOp60
 70
     1
102
RTVSPropertyOp61
 70
     1
102
RTVSPropertyOp62
 70
     1
  0
XRECORD
  5
EAA
102
{ACAD_REACTORS
330
EA9
102
}
330
EA9
100
AcDbXrecord
280
     1
102
RTVSPost2010Prop28
280
     0
102
RTVSPost2010PropOp28
 70
     0
102
RTVSPost2010Prop29
280
     1
102
RTVSPost2010PropOp29
 70
     0
102
RTVSPost2010Prop30
280
     1
102
RTVSPost2010PropOp30
 70
     0
102
RTVSPost2010Prop31
280
     0
102
RTVSPost2010PropOp31
 70
     0
102
RTVSPost2010Prop32
280
     0
102
RTVSPost2010PropOp32
 70
     0
102
RTVSPost2010Prop33
280
     0
102
RTVSPost2010PropOp33
 70
     0
102
RTVSPost2010Prop34
280
     0
102
RTVSPost2010PropOp34
 70
     0
102
RTVSPost2010Prop35
280
     0
102
RTVSPost2010PropOp35
 70
     0
102
RTVSPost2010Prop36
280
     0
102
RTVSPost2010PropOp36
 70
     0
102
RTVSPost2010Prop37
 90
       50
102
RTVSPost2010PropOp37
 70
     0
102
RTVSPost2010Prop38
140
0.0
102
RTVSPost2010PropOp38
 70
     0
102
RTVSPost2010Prop39
140
1.0
102
RTVSPost2010PropOp39
 70
     0
102
RTVSPost2010Prop40
 90
        0
102
RTVSPost2010PropOp40
 70
     0
102
RTVSPost2010Prop41ColorIndex
 90
       18
102
RTVSPost2010Prop41ColorRGB
 90
        0
102
RTVSPost2010PropOp41
 70
     0
102
RTVSPost2010Prop42
 90
       50
102
RTVSPost2010PropOp42
 70
     0
102
RTVSPost2010Prop43
 90
        3
102
RTVSPost2010PropOp43
 70
     0
102
RTVSPost2010Prop44ColorIndex
 90
        5
102
RTVSPost2010Prop44ColorRGB
 90
      255
102
RTVSPost2010PropOp44
 70
     0
102
RTVSPost2010Prop45
280
     0
102
RTVSPost2010PropOp45
 70
     0
102
RTVSPost2010Prop46
 90
       50
102
RTVSPost2010PropOp46
 70
     0
102
RTVSPost2010Prop47
 90
       50
102
RTVSPost2010PropOp47
 70
     0
102
RTVSPost2010Prop48
 90
       50
102
RTVSPost2010PropOp48
 70
     0
102
RTVSPost2010Prop49
280
     0
102
RTVSPost2010PropOp49
 70
     0
102
RTVSPost2010Prop50
 90
       50
102
RTVSPost2010PropOp50
 70
     0
102
RTVSPost2010Prop51ColorIndex
 90
      256
102
RTVSPost2010Prop51ColorRGB
 90
-16777216
102
RTVSPost2010PropOp51
 70
     0
102
RTVSPost2010Prop52
140
1.0
102
RTVSPost2010PropOp52
 70
     0
102
RTVSPost2010Prop53
 90
        2
102
RTVSPost2010PropOp53
 70
     0
102
RTVSPost2010Prop54
  1
strokes_ogs.tif
102
RTVSPost2010PropOp54
 70
     0
102
RTVSPost2010Prop55
280
     0
102
RTVSPost2010PropOp55
 70
     0
102
RTVSPost2010Prop56
140
1.0
102
RTVSPost2010PropOp56
 70
     0
102
RTVSPost2010Prop57
140
1.0
102
RTVSPost2010PropOp57
 70
     0
102
RTVSPropertyOp0
 70
     0
102
RTVSPropertyOp1
 70
     0
102
RTVSPropertyOp2
 70
     0
102
RTVSPropertyOp3
 70
     0
102
RTVSPropertyOp4
 70
     0
102
RTVSPropertyOp5
 70
     0
102
RTVSPropertyOp6
 70
     0
102
RTVSPropertyOp7
 70
     0
102
RTVSPropertyOp8
 70
     0
102
RTVSPropertyOp9
 70
     0
102
RTVSPropertyOp10
 70
     0
102
RTVSPropertyOp11
 70
     0
102
RTVSPropertyOp12
 70
     0
102
RTVSPropertyOp13
 70
     0
102
RTVSPropertyOp14
 70
     2
102
RTVSPropertyOp15
 70
     0
102
RTVSPropertyOp16
 70
     0
102
RTVSPropertyOp17
 70
     0
102
RTVSPropertyOp18
 70
     0
102
RTVSPropertyOp19
 70
     0
102
RTVSPropertyOp20
 70
     0
102
RTVSPropertyOp21
 70
     0
102
RTVSPropertyOp22
 70
     0
102
RTVSPropertyOp23
 70
     0
102
RTVSPropertyOp24
 70
     0
102
RTVSPropertyOp25
 70
     0
102
RTVSPropertyOp26
 70
     0
102
RTVSPropertyOp27
 70
     0
102
RTVSPropertyOp28
 70
     0
102
RTVSPropertyOp29
 70
     0
102
RTVSPropertyOp30
 70
     0
102
RTVSPropertyOp31
 70
     0
102
RTVSPropertyOp32
 70
     0
102
RTVSPropertyOp33
 70
     0
102
RTVSPropertyOp34
 70
     0
102
RTVSPropertyOp35
 70
     0
102
RTVSPropertyOp36
 70
     0
102
RTVSPropertyOp37
 70
     0
102
RTVSPropertyOp38
 70
     0
102
RTVSPropertyOp39
 70
     0
102
RTVSPropertyOp40
 70
     0
102
RTVSPropertyOp41
 70
     0
102
RTVSPropertyOp42
 70
     0
102
RTVSPropertyOp43
 70
     0
102
RTVSPropertyOp44
 70
     0
102
RTVSPropertyOp45
 70
     0
102
RTVSPropertyOp46
 70
     0
102
RTVSPropertyOp47
 70
     0
102
RTVSPropertyOp48
 70
     0
102
RTVSPropertyOp49
 70
     0
102
RTVSPropertyOp50
 70
     0
102
RTVSPropertyOp51
 70
     0
102
RTVSPropertyOp52
 70
     0
102
RTVSPropertyOp53
 70
     0
102
RTVSPropertyOp54
 70
     0
102
RTVSPropertyOp55
 70
     0
102
RTVSPropertyOp56
 70
     0
102
RTVSPropertyOp57
 70
     0
102
RTVSPropertyOp58
 70
     0
102
RTVSPropertyOp59
 70
     0
102
RTVSPropertyOp60
 70
     0
102
RTVSPropertyOp61
 70
     0
102
RTVSPropertyOp62
 70
     0
  0
XRECORD
  5
E8D
102
{ACAD_REACTORS
330
E8C
102
}
330
E8C
100
AcDbXrecord
280
     1
102
RTVSPost2010Prop28
280
     0
102
RTVSPost2010PropOp28
 70
     1
102
RTVSPost2010Prop29
280
     1
102
RTVSPost2010PropOp29
 70
     1
102
RTVSPost2010Prop30
280
     1
102
RTVSPost2010PropOp30
 70
     1
102
RTVSPost2010Prop31
280
     0
102
RTVSPost2010PropOp31
 70
     1
102
RTVSPost2010Prop32
280
     0
102
RTVSPost2010PropOp32
 70
     1
102
RTVSPost2010Prop33
280
     0
102
RTVSPost2010PropOp33
 70
     1
102
RTVSPost2010Prop34
280
     0
102
RTVSPost2010PropOp34
 70
     1
102
RTVSPost2010Prop35
280
     0
102
RTVSPost2010PropOp35
 70
     1
102
RTVSPost2010Prop36
280
     0
102
RTVSPost2010PropOp36
 70
     1
102
RTVSPost2010Prop37
 90
       50
102
RTVSPost2010PropOp37
 70
     1
102
RTVSPost2010Prop38
140
0.0
102
RTVSPost2010PropOp38
 70
     1
102
RTVSPost2010Prop39
140
1.0
102
RTVSPost2010PropOp39
 70
     1
102
RTVSPost2010Prop40
 90
        0
102
RTVSPost2010PropOp40
 70
     1
102
RTVSPost2010Prop41ColorIndex
 90
       18
102
RTVSPost2010Prop41ColorRGB
 90
        0
102
RTVSPost2010PropOp41
 70
     1
102
RTVSPost2010Prop42
 90
       50
102
RTVSPost2010PropOp42
 70
     1
102
RTVSPost2010Prop43
 90
        3
102
RTVSPost2010PropOp43
 70
     1
102
RTVSPost2010Prop44ColorIndex
 90
        5
102
RTVSPost2010Prop44ColorRGB
 90
      255
102
RTVSPost2010PropOp44
 70
     1
102
RTVSPost2010Prop45
280
     0
102
RTVSPost2010PropOp45
 70
     1
102
RTVSPost2010Prop46
 90
       50
102
RTVSPost2010PropOp46
 70
     1
102
RTVSPost2010Prop47
 90
       50
102
RTVSPost2010PropOp47
 70
     1
102
RTVSPost2010Prop48
 90
       50
102
RTVSPost2010PropOp48
 70
     1
102
RTVSPost2010Prop49
280
     0
102
RTVSPost2010PropOp49
 70
     1
102
RTVSPost2010Prop50
 90
       50
102
RTVSPost2010PropOp50
 70
     1
102
RTVSPost2010Prop51ColorIndex
 90
      256
102
RTVSPost2010Prop51ColorRGB
 90
-16777216
102
RTVSPost2010PropOp51
 70
     0
102
RTVSPost2010Prop52
140
1.0
102
RTVSPost2010PropOp52
 70
     0
102
RTVSPost2010Prop53
 90
        2
102
RTVSPost2010PropOp53
 70
     1
102
RTVSPost2010Prop54
  1
strokes_ogs.tif
102
RTVSPost2010PropOp54
 70
     1
102
RTVSPost2010Prop55
280
     0
102
RTVSPost2010PropOp55
 70
     1
102
RTVSPost2010Prop56
140
1.0
102
RTVSPost2010PropOp56
 70
     1
102
RTVSPost2010Prop57
140
1.0
102
RTVSPost2010PropOp57
 70
     1
102
RTVSPropertyOp0
 70
     1
102
RTVSPropertyOp1
 70
     1
102
RTVSPropertyOp2
 70
     1
102
RTVSPropertyOp3
 70
     1
102
RTVSPropertyOp4
 70
     1
102
RTVSPropertyOp5
 70
     1
102
RTVSPropertyOp6
 70
     1
102
RTVSPropertyOp7
 70
     1
102
RTVSPropertyOp8
 70
     1
102
RTVSPropertyOp9
 70
     1
102
RTVSPropertyOp10
 70
     1
102
RTVSPropertyOp11
 70
     1
102
RTVSPropertyOp12
 70
     1
102
RTVSPropertyOp13
 70
     1
102
RTVSPropertyOp14
 70
     1
102
RTVSPropertyOp15
 70
     1
102
RTVSPropertyOp16
 70
     1
102
RTVSPropertyOp17
 70
     1
102
RTVSPropertyOp18
 70
     1
102
RTVSPropertyOp19
 70
     1
102
RTVSPropertyOp20
 70
     1
102
RTVSPropertyOp21
 70
     1
102
RTVSPropertyOp22
 70
     1
102
RTVSPropertyOp23
 70
     1
102
RTVSPropertyOp24
 70
     1
102
RTVSPropertyOp25
 70
     1
102
RTVSPropertyOp26
 70
     1
102
RTVSPropertyOp27
 70
     1
102
RTVSPropertyOp28
 70
     1
102
RTVSPropertyOp29
 70
     1
102
RTVSPropertyOp30
 70
     1
102
RTVSPropertyOp31
 70
     1
102
RTVSPropertyOp32
 70
     1
102
RTVSPropertyOp33
 70
     1
102
RTVSPropertyOp34
 70
     1
102
RTVSPropertyOp35
 70
     1
102
RTVSPropertyOp36
 70
     1
102
RTVSPropertyOp37
 70
     1
102
RTVSPropertyOp38
 70
     1
102
RTVSPropertyOp39
 70
     1
102
RTVSPropertyOp40
 70
     1
102
RTVSPropertyOp41
 70
     1
102
RTVSPropertyOp42
 70
     1
102
RTVSPropertyOp43
 70
     1
102
RTVSPropertyOp44
 70
     1
102
RTVSPropertyOp45
 70
     1
102
RTVSPropertyOp46
 70
     1
102
RTVSPropertyOp47
 70
     1
102
RTVSPropertyOp48
 70
     1
102
RTVSPropertyOp49
 70
     1
102
RTVSPropertyOp50
 70
     1
102
RTVSPropertyOp51
 70
     0
102
RTVSPropertyOp52
 70
     0
102
RTVSPropertyOp53
 70
     1
102
RTVSPropertyOp54
 70
     1
102
RTVSPropertyOp55
 70
     1
102
RTVSPropertyOp56
 70
     1
102
RTVSPropertyOp57
 70
     1
102
RTVSPropertyOp58
 70
     1
102
RTVSPropertyOp59
 70
     1
102
RTVSPropertyOp60
 70
     1
102
RTVSPropertyOp61
 70
     1
102
RTVSPropertyOp62
 70
     1
  0
XRECORD
  5
EAC
102
{ACAD_REACTORS
330
EAB
102
}
330
EAB
100
AcDbXrecord
280
     1
102
RTVSPost2010Prop28
280
     0
102
RTVSPost2010PropOp28
 70
     0
102
RTVSPost2010Prop29
280
     1
102
RTVSPost2010PropOp29
 70
     0
102
RTVSPost2010Prop30
280
     1
102
RTVSPost2010PropOp30
 70
     0
102
RTVSPost2010Prop31
280
     0
102
RTVSPost2010PropOp31
 70
     0
102
RTVSPost2010Prop32
280
     0
102
RTVSPost2010PropOp32
 70
     0
102
RTVSPost2010Prop33
280
     0
102
RTVSPost2010PropOp33
 70
     0
102
RTVSPost2010Prop34
280
     0
102
RTVSPost2010PropOp34
 70
     0
102
RTVSPost2010Prop35
280
     0
102
RTVSPost2010PropOp35
 70
     0
102
RTVSPost2010Prop36
280
     0
102
RTVSPost2010PropOp36
 70
     0
102
RTVSPost2010Prop37
 90
       50
102
RTVSPost2010PropOp37
 70
     0
102
RTVSPost2010Prop38
140
0.0
102
RTVSPost2010PropOp38
 70
     0
102
RTVSPost2010Prop39
140
1.0
102
RTVSPost2010PropOp39
 70
     0
102
RTVSPost2010Prop40
 90
        0
102
RTVSPost2010PropOp40
 70
     0
102
RTVSPost2010Prop41ColorIndex
 90
       18
102
RTVSPost2010Prop41ColorRGB
 90
        0
102
RTVSPost2010PropOp41
 70
     0
102
RTVSPost2010Prop42
 90
       50
102
RTVSPost2010PropOp42
 70
     0
102
RTVSPost2010Prop43
 90
        3
102
RTVSPost2010PropOp43
 70
     0
102
RTVSPost2010Prop44ColorIndex
 90
        5
102
RTVSPost2010Prop44ColorRGB
 90
      255
102
RTVSPost2010PropOp44
 70
     0
102
RTVSPost2010Prop45
280
     0
102
RTVSPost2010PropOp45
 70
     0
102
RTVSPost2010Prop46
 90
       50
102
RTVSPost2010PropOp46
 70
     0
102
RTVSPost2010Prop47
 90
       50
102
RTVSPost2010PropOp47
 70
     0
102
RTVSPost2010Prop48
 90
       50
102
RTVSPost2010PropOp48
 70
     0
102
RTVSPost2010Prop49
280
     0
102
RTVSPost2010PropOp49
 70
     0
102
RTVSPost2010Prop50
 90
       50
102
RTVSPost2010PropOp50
 70
     0
102
RTVSPost2010Prop51ColorIndex
 90
      256
102
RTVSPost2010Prop51ColorRGB
 90
-16777216
102
RTVSPost2010PropOp51
 70
     0
102
RTVSPost2010Prop52
140
1.0
102
RTVSPost2010PropOp52
 70
     0
102
RTVSPost2010Prop53
 90
        2
102
RTVSPost2010PropOp53
 70
     0
102
RTVSPost2010Prop54
  1
strokes_ogs.tif
102
RTVSPost2010PropOp54
 70
     0
102
RTVSPost2010Prop55
280
     0
102
RTVSPost2010PropOp55
 70
     0
102
RTVSPost2010Prop56
140
1.0
102
RTVSPost2010PropOp56
 70
     0
102
RTVSPost2010Prop57
140
1.0
102
RTVSPost2010PropOp57
 70
     0
102
RTVSPropertyOp0
 70
     0
102
RTVSPropertyOp1
 70
     0
102
RTVSPropertyOp2
 70
     0
102
RTVSPropertyOp3
 70
     0
102
RTVSPropertyOp4
 70
     0
102
RTVSPropertyOp5
 70
     0
102
RTVSPropertyOp6
 70
     0
102
RTVSPropertyOp7
 70
     0
102
RTVSPropertyOp8
 70
     0
102
RTVSPropertyOp9
 70
     0
102
RTVSPropertyOp10
 70
     0
102
RTVSPropertyOp11
 70
     0
102
RTVSPropertyOp12
 70
     0
102
RTVSPropertyOp13
 70
     0
102
RTVSPropertyOp14
 70
     2
102
RTVSPropertyOp15
 70
     0
102
RTVSPropertyOp16
 70
     0
102
RTVSPropertyOp17
 70
     0
102
RTVSPropertyOp18
 70
     0
102
RTVSPropertyOp19
 70
     0
102
RTVSPropertyOp20
 70
     0
102
RTVSPropertyOp21
 70
     0
102
RTVSPropertyOp22
 70
     0
102
RTVSPropertyOp23
 70
     0
102
RTVSPropertyOp24
 70
     0
102
RTVSPropertyOp25
 70
     0
102
RTVSPropertyOp26
 70
     0
102
RTVSPropertyOp27
 70
     0
102
RTVSPropertyOp28
 70
     0
102
RTVSPropertyOp29
 70
     0
102
RTVSPropertyOp30
 70
     0
102
RTVSPropertyOp31
 70
     0
102
RTVSPropertyOp32
 70
     0
102
RTVSPropertyOp33
 70
     0
102
RTVSPropertyOp34
 70
     0
102
RTVSPropertyOp35
 70
     0
102
RTVSPropertyOp36
 70
     0
102
RTVSPropertyOp37
 70
     0
102
RTVSPropertyOp38
 70
     0
102
RTVSPropertyOp39
 70
     0
102
RTVSPropertyOp40
 70
     0
102
RTVSPropertyOp41
 70
     0
102
RTVSPropertyOp42
 70
     0
102
RTVSPropertyOp43
 70
     0
102
RTVSPropertyOp44
 70
     0
102
RTVSPropertyOp45
 70
     0
102
RTVSPropertyOp46
 70
     0
102
RTVSPropertyOp47
 70
     0
102
RTVSPropertyOp48
 70
     0
102
RTVSPropertyOp49
 70
     0
102
RTVSPropertyOp50
 70
     0
102
RTVSPropertyOp51
 70
     0
102
RTVSPropertyOp52
 70
     0
102
RTVSPropertyOp53
 70
     0
102
RTVSPropertyOp54
 70
     0
102
RTVSPropertyOp55
 70
     0
102
RTVSPropertyOp56
 70
     0
102
RTVSPropertyOp57
 70
     0
102
RTVSPropertyOp58
 70
     0
102
RTVSPropertyOp59
 70
     0
102
RTVSPropertyOp60
 70
     0
102
RTVSPropertyOp61
 70
     0
102
RTVSPropertyOp62
 70
     0
  0
XRECORD
  5
E85
102
{ACAD_REACTORS
330
E84
102
}
330
E84
100
AcDbXrecord
280
     1
102
RTVSPost2010Prop28
280
     0
102
RTVSPost2010PropOp28
 70
     1
102
RTVSPost2010Prop29
280
     1
102
RTVSPost2010PropOp29
 70
     1
102
RTVSPost2010Prop30
280
     1
102
RTVSPost2010PropOp30
 70
     1
102
RTVSPost2010Prop31
280
     0
102
RTVSPost2010PropOp31
 70
     1
102
RTVSPost2010Prop32
280
     0
102
RTVSPost2010PropOp32
 70
     1
102
RTVSPost2010Prop33
280
     0
102
RTVSPost2010PropOp33
 70
     1
102
RTVSPost2010Prop34
280
     0
102
RTVSPost2010PropOp34
 70
     1
102
RTVSPost2010Prop35
280
     0
102
RTVSPost2010PropOp35
 70
     1
102
RTVSPost2010Prop36
280
     0
102
RTVSPost2010PropOp36
 70
     1
102
RTVSPost2010Prop37
 90
       50
102
RTVSPost2010PropOp37
 70
     1
102
RTVSPost2010Prop38
140
0.0
102
RTVSPost2010PropOp38
 70
     1
102
RTVSPost2010Prop39
140
1.0
102
RTVSPost2010PropOp39
 70
     1
102
RTVSPost2010Prop40
 90
        0
102
RTVSPost2010PropOp40
 70
     1
102
RTVSPost2010Prop41ColorIndex
 90
       18
102
RTVSPost2010Prop41ColorRGB
 90
        0
102
RTVSPost2010PropOp41
 70
     1
102
RTVSPost2010Prop42
 90
       50
102
RTVSPost2010PropOp42
 70
     1
102
RTVSPost2010Prop43
 90
        3
102
RTVSPost2010PropOp43
 70
     1
102
RTVSPost2010Prop44ColorIndex
 90
        5
102
RTVSPost2010Prop44ColorRGB
 90
      255
102
RTVSPost2010PropOp44
 70
     1
102
RTVSPost2010Prop45
280
     0
102
RTVSPost2010PropOp45
 70
     1
102
RTVSPost2010Prop46
 90
       50
102
RTVSPost2010PropOp46
 70
     1
102
RTVSPost2010Prop47
 90
       50
102
RTVSPost2010PropOp47
 70
     1
102
RTVSPost2010Prop48
 90
       50
102
RTVSPost2010PropOp48
 70
     1
102
RTVSPost2010Prop49
280
     0
102
RTVSPost2010PropOp49
 70
     1
102
RTVSPost2010Prop50
 90
       50
102
RTVSPost2010PropOp50
 70
     1
102
RTVSPost2010Prop51ColorIndex
 90
      256
102
RTVSPost2010Prop51ColorRGB
 90
-16777216
102
RTVSPost2010PropOp51
 70
     0
102
RTVSPost2010Prop52
140
1.0
102
RTVSPost2010PropOp52
 70
     0
102
RTVSPost2010Prop53
 90
        2
102
RTVSPost2010PropOp53
 70
     1
102
RTVSPost2010Prop54
  1
strokes_ogs.tif
102
RTVSPost2010PropOp54
 70
     1
102
RTVSPost2010Prop55
280
     0
102
RTVSPost2010PropOp55
 70
     1
102
RTVSPost2010Prop56
140
1.0
102
RTVSPost2010PropOp56
 70
     1
102
RTVSPost2010Prop57
140
1.0
102
RTVSPost2010PropOp57
 70
     1
102
RTVSPropertyOp0
 70
     1
102
RTVSPropertyOp1
 70
     1
102
RTVSPropertyOp2
 70
     1
102
RTVSPropertyOp3
 70
     1
102
RTVSPropertyOp4
 70
     1
102
RTVSPropertyOp5
 70
     1
102
RTVSPropertyOp6
 70
     1
102
RTVSPropertyOp7
 70
     1
102
RTVSPropertyOp8
 70
     1
102
RTVSPropertyOp9
 70
     1
102
RTVSPropertyOp10
 70
     1
102
RTVSPropertyOp11
 70
     1
102
RTVSPropertyOp12
 70
     1
102
RTVSPropertyOp13
 70
     1
102
RTVSPropertyOp14
 70
     1
102
RTVSPropertyOp15
 70
     1
102
RTVSPropertyOp16
 70
     1
102
RTVSPropertyOp17
 70
     1
102
RTVSPropertyOp18
 70
     1
102
RTVSPropertyOp19
 70
     1
102
RTVSPropertyOp20
 70
     1
102
RTVSPropertyOp21
 70
     1
102
RTVSPropertyOp22
 70
     1
102
RTVSPropertyOp23
 70
     1
102
RTVSPropertyOp24
 70
     1
102
RTVSPropertyOp25
 70
     1
102
RTVSPropertyOp26
 70
     1
102
RTVSPropertyOp27
 70
     1
102
RTVSPropertyOp28
 70
     1
102
RTVSPropertyOp29
 70
     1
102
RTVSPropertyOp30
 70
     1
102
RTVSPropertyOp31
 70
     1
102
RTVSPropertyOp32
 70
     1
102
RTVSPropertyOp33
 70
     1
102
RTVSPropertyOp34
 70
     1
102
RTVSPropertyOp35
 70
     1
102
RTVSPropertyOp36
 70
     1
102
RTVSPropertyOp37
 70
     1
102
RTVSPropertyOp38
 70
     1
102
RTVSPropertyOp39
 70
     1
102
RTVSPropertyOp40
 70
     1
102
RTVSPropertyOp41
 70
     1
102
RTVSPropertyOp42
 70
     1
102
RTVSPropertyOp43
 70
     1
102
RTVSPropertyOp44
 70
     1
102
RTVSPropertyOp45
 70
     1
102
RTVSPropertyOp46
 70
     1
102
RTVSPropertyOp47
 70
     1
102
RTVSPropertyOp48
 70
     1
102
RTVSPropertyOp49
 70
     1
102
RTVSPropertyOp50
 70
     1
102
RTVSPropertyOp51
 70
     0
102
RTVSPropertyOp52
 70
     0
102
RTVSPropertyOp53
 70
     1
102
RTVSPropertyOp54
 70
     1
102
RTVSPropertyOp55
 70
     1
102
RTVSPropertyOp56
 70
     1
102
RTVSPropertyOp57
 70
     1
102
RTVSPropertyOp58
 70
     1
102
RTVSPropertyOp59
 70
     1
102
RTVSPropertyOp60
 70
     1
102
RTVSPropertyOp61
 70
     1
102
RTVSPropertyOp62
 70
     1
  0
XRECORD
  5
EA8
102
{ACAD_REACTORS
330
EA7
102
}
330
EA7
100
AcDbXrecord
280
     1
102
RTVSPost2010Prop28
280
     0
102
RTVSPost2010PropOp28
 70
     1
102
RTVSPost2010Prop29
280
     1
102
RTVSPost2010PropOp29
 70
     1
102
RTVSPost2010Prop30
280
     1
102
RTVSPost2010PropOp30
 70
     1
102
RTVSPost2010Prop31
280
     0
102
RTVSPost2010PropOp31
 70
     1
102
RTVSPost2010Prop32
280
     0
102
RTVSPost2010PropOp32
 70
     1
102
RTVSPost2010Prop33
280
     0
102
RTVSPost2010PropOp33
 70
     1
102
RTVSPost2010Prop34
280
     0
102
RTVSPost2010PropOp34
 70
     1
102
RTVSPost2010Prop35
280
     0
102
RTVSPost2010PropOp35
 70
     1
102
RTVSPost2010Prop36
280
     0
102
RTVSPost2010PropOp36
 70
     1
102
RTVSPost2010Prop37
 90
       50
102
RTVSPost2010PropOp37
 70
     1
102
RTVSPost2010Prop38
140
0.0
102
RTVSPost2010PropOp38
 70
     1
102
RTVSPost2010Prop39
140
1.0
102
RTVSPost2010PropOp39
 70
     1
102
RTVSPost2010Prop40
 90
        0
102
RTVSPost2010PropOp40
 70
     1
102
RTVSPost2010Prop41ColorIndex
 90
       18
102
RTVSPost2010Prop41ColorRGB
 90
        0
102
RTVSPost2010PropOp41
 70
     1
102
RTVSPost2010Prop42
 90
       50
102
RTVSPost2010PropOp42
 70
     1
102
RTVSPost2010Prop43
 90
        3
102
RTVSPost2010PropOp43
 70
     1
102
RTVSPost2010Prop44ColorIndex
 90
        5
102
RTVSPost2010Prop44ColorRGB
 90
      255
102
RTVSPost2010PropOp44
 70
     1
102
RTVSPost2010Prop45
280
     0
102
RTVSPost2010PropOp45
 70
     1
102
RTVSPost2010Prop46
 90
       50
102
RTVSPost2010PropOp46
 70
     1
102
RTVSPost2010Prop47
 90
       50
102
RTVSPost2010PropOp47
 70
     1
102
RTVSPost2010Prop48
 90
       50
102
RTVSPost2010PropOp48
 70
     1
102
RTVSPost2010Prop49
280
     0
102
RTVSPost2010PropOp49
 70
     1
102
RTVSPost2010Prop50
 90
       50
102
RTVSPost2010PropOp50
 70
     1
102
RTVSPost2010Prop51ColorIndex
 90
      256
102
RTVSPost2010Prop51ColorRGB
 90
-16777216
102
RTVSPost2010PropOp51
 70
     0
102
RTVSPost2010Prop52
140
1.0
102
RTVSPost2010PropOp52
 70
     0
102
RTVSPost2010Prop53
 90
        2
102
RTVSPost2010PropOp53
 70
     1
102
RTVSPost2010Prop54
  1
strokes_ogs.tif
102
RTVSPost2010PropOp54
 70
     1
102
RTVSPost2010Prop55
280
     0
102
RTVSPost2010PropOp55
 70
     1
102
RTVSPost2010Prop56
140
1.0
102
RTVSPost2010PropOp56
 70
     1
102
RTVSPost2010Prop57
140
1.0
102
RTVSPost2010PropOp57
 70
     1
102
RTVSPropertyOp0
 70
     1
102
RTVSPropertyOp1
 70
     1
102
RTVSPropertyOp2
 70
     1
102
RTVSPropertyOp3
 70
     1
102
RTVSPropertyOp4
 70
     1
102
RTVSPropertyOp5
 70
     1
102
RTVSPropertyOp6
 70
     1
102
RTVSPropertyOp7
 70
     1
102
RTVSPropertyOp8
 70
     1
102
RTVSPropertyOp9
 70
     1
102
RTVSPropertyOp10
 70
     1
102
RTVSPropertyOp11
 70
     1
102
RTVSPropertyOp12
 70
     1
102
RTVSPropertyOp13
 70
     1
102
RTVSPropertyOp14
 70
     1
102
RTVSPropertyOp15
 70
     1
102
RTVSPropertyOp16
 70
     1
102
RTVSPropertyOp17
 70
     1
102
RTVSPropertyOp18
 70
     1
102
RTVSPropertyOp19
 70
     1
102
RTVSPropertyOp20
 70
     1
102
RTVSPropertyOp21
 70
     1
102
RTVSPropertyOp22
 70
     1
102
RTVSPropertyOp23
 70
     1
102
RTVSPropertyOp24
 70
     1
102
RTVSPropertyOp25
 70
     1
102
RTVSPropertyOp26
 70
     1
102
RTVSPropertyOp27
 70
     1
102
RTVSPropertyOp28
 70
     1
102
RTVSPropertyOp29
 70
     1
102
RTVSPropertyOp30
 70
     1
102
RTVSPropertyOp31
 70
     1
102
RTVSPropertyOp32
 70
     1
102
RTVSPropertyOp33
 70
     1
102
RTVSPropertyOp34
 70
     1
102
RTVSPropertyOp35
 70
     1
102
RTVSPropertyOp36
 70
     1
102
RTVSPropertyOp37
 70
     1
102
RTVSPropertyOp38
 70
     1
102
RTVSPropertyOp39
 70
     1
102
RTVSPropertyOp40
 70
     1
102
RTVSPropertyOp41
 70
     1
102
RTVSPropertyOp42
 70
     1
102
RTVSPropertyOp43
 70
     1
102
RTVSPropertyOp44
 70
     1
102
RTVSPropertyOp45
 70
     1
102
RTVSPropertyOp46
 70
     1
102
RTVSPropertyOp47
 70
     1
102
RTVSPropertyOp48
 70
     1
102
RTVSPropertyOp49
 70
     1
102
RTVSPropertyOp50
 70
     1
102
RTVSPropertyOp51
 70
     0
102
RTVSPropertyOp52
 70
     0
102
RTVSPropertyOp53
 70
     1
102
RTVSPropertyOp54
 70
     1
102
RTVSPropertyOp55
 70
     1
102
RTVSPropertyOp56
 70
     1
102
RTVSPropertyOp57
 70
     1
102
RTVSPropertyOp58
 70
     1
102
RTVSPropertyOp59
 70
     1
102
RTVSPropertyOp60
 70
     1
102
RTVSPropertyOp61
 70
     1
102
RTVSPropertyOp62
 70
     1
  0
XRECORD
  5
EA6
102
{ACAD_REACTORS
330
EA5
102
}
330
EA5
100
AcDbXrecord
280
     1
102
RTVSPost2010Prop28
280
     0
102
RTVSPost2010PropOp28
 70
     1
102
RTVSPost2010Prop29
280
     1
102
RTVSPost2010PropOp29
 70
     1
102
RTVSPost2010Prop30
280
     1
102
RTVSPost2010PropOp30
 70
     1
102
RTVSPost2010Prop31
280
     0
102
RTVSPost2010PropOp31
 70
     1
102
RTVSPost2010Prop32
280
     0
102
RTVSPost2010PropOp32
 70
     1
102
RTVSPost2010Prop33
280
     0
102
RTVSPost2010PropOp33
 70
     1
102
RTVSPost2010Prop34
280
     0
102
RTVSPost2010PropOp34
 70
     1
102
RTVSPost2010Prop35
280
     0
102
RTVSPost2010PropOp35
 70
     1
102
RTVSPost2010Prop36
280
     0
102
RTVSPost2010PropOp36
 70
     1
102
RTVSPost2010Prop37
 90
       50
102
RTVSPost2010PropOp37
 70
     1
102
RTVSPost2010Prop38
140
0.0
102
RTVSPost2010PropOp38
 70
     1
102
RTVSPost2010Prop39
140
1.0
102
RTVSPost2010PropOp39
 70
     1
102
RTVSPost2010Prop40
 90
        0
102
RTVSPost2010PropOp40
 70
     1
102
RTVSPost2010Prop41ColorIndex
 90
       18
102
RTVSPost2010Prop41ColorRGB
 90
        0
102
RTVSPost2010PropOp41
 70
     1
102
RTVSPost2010Prop42
 90
       50
102
RTVSPost2010PropOp42
 70
     1
102
RTVSPost2010Prop43
 90
        3
102
RTVSPost2010PropOp43
 70
     1
102
RTVSPost2010Prop44ColorIndex
 90
        5
102
RTVSPost2010Prop44ColorRGB
 90
      255
102
RTVSPost2010PropOp44
 70
     1
102
RTVSPost2010Prop45
280
     0
102
RTVSPost2010PropOp45
 70
     1
102
RTVSPost2010Prop46
 90
       50
102
RTVSPost2010PropOp46
 70
     1
102
RTVSPost2010Prop47
 90
       50
102
RTVSPost2010PropOp47
 70
     1
102
RTVSPost2010Prop48
 90
       50
102
RTVSPost2010PropOp48
 70
     1
102
RTVSPost2010Prop49
280
     0
102
RTVSPost2010PropOp49
 70
     1
102
RTVSPost2010Prop50
 90
       50
102
RTVSPost2010PropOp50
 70
     1
102
RTVSPost2010Prop51ColorIndex
 90
      256
102
RTVSPost2010Prop51ColorRGB
 90
-16777216
102
RTVSPost2010PropOp51
 70
     0
102
RTVSPost2010Prop52
140
1.0
102
RTVSPost2010PropOp52
 70
     0
102
RTVSPost2010Prop53
 90
        2
102
RTVSPost2010PropOp53
 70
     1
102
RTVSPost2010Prop54
  1
strokes_ogs.tif
102
RTVSPost2010PropOp54
 70
     1
102
RTVSPost2010Prop55
280
     0
102
RTVSPost2010PropOp55
 70
     1
102
RTVSPost2010Prop56
140
1.0
102
RTVSPost2010PropOp56
 70
     1
102
RTVSPost2010Prop57
140
1.0
102
RTVSPost2010PropOp57
 70
     1
102
RTVSPropertyOp0
 70
     1
102
RTVSPropertyOp1
 70
     1
102
RTVSPropertyOp2
 70
     1
102
RTVSPropertyOp3
 70
     1
102
RTVSPropertyOp4
 70
     1
102
RTVSPropertyOp5
 70
     1
102
RTVSPropertyOp6
 70
     1
102
RTVSPropertyOp7
 70
     1
102
RTVSPropertyOp8
 70
     1
102
RTVSPropertyOp9
 70
     1
102
RTVSPropertyOp10
 70
     1
102
RTVSPropertyOp11
 70
     1
102
RTVSPropertyOp12
 70
     1
102
RTVSPropertyOp13
 70
     1
102
RTVSPropertyOp14
 70
     1
102
RTVSPropertyOp15
 70
     1
102
RTVSPropertyOp16
 70
     1
102
RTVSPropertyOp17
 70
     1
102
RTVSPropertyOp18
 70
     1
102
RTVSPropertyOp19
 70
     1
102
RTVSPropertyOp20
 70
     1
102
RTVSPropertyOp21
 70
     1
102
RTVSPropertyOp22
 70
     1
102
RTVSPropertyOp23
 70
     1
102
RTVSPropertyOp24
 70
     1
102
RTVSPropertyOp25
 70
     1
102
RTVSPropertyOp26
 70
     1
102
RTVSPropertyOp27
 70
     1
102
RTVSPropertyOp28
 70
     1
102
RTVSPropertyOp29
 70
     1
102
RTVSPropertyOp30
 70
     1
102
RTVSPropertyOp31
 70
     1
102
RTVSPropertyOp32
 70
     1
102
RTVSPropertyOp33
 70
     1
102
RTVSPropertyOp34
 70
     1
102
RTVSPropertyOp35
 70
     1
102
RTVSPropertyOp36
 70
     1
102
RTVSPropertyOp37
 70
     1
102
RTVSPropertyOp38
 70
     1
102
RTVSPropertyOp39
 70
     1
102
RTVSPropertyOp40
 70
     1
102
RTVSPropertyOp41
 70
     1
102
RTVSPropertyOp42
 70
     1
102
RTVSPropertyOp43
 70
     1
102
RTVSPropertyOp44
 70
     1
102
RTVSPropertyOp45
 70
     1
102
RTVSPropertyOp46
 70
     1
102
RTVSPropertyOp47
 70
     1
102
RTVSPropertyOp48
 70
     1
102
RTVSPropertyOp49
 70
     1
102
RTVSPropertyOp50
 70
     1
102
RTVSPropertyOp51
 70
     0
102
RTVSPropertyOp52
 70
     0
102
RTVSPropertyOp53
 70
     1
102
RTVSPropertyOp54
 70
     1
102
RTVSPropertyOp55
 70
     1
102
RTVSPropertyOp56
 70
     1
102
RTVSPropertyOp57
 70
     1
102
RTVSPropertyOp58
 70
     1
102
RTVSPropertyOp59
 70
     1
102
RTVSPropertyOp60
 70
     1
102
RTVSPropertyOp61
 70
     1
102
RTVSPropertyOp62
 70
     1
  0
XRECORD
  5
EA0
102
{ACAD_REACTORS
330
E9F
102
}
330
E9F
100
AcDbXrecord
280
     1
102
RTVSPost2010Prop28
280
     0
102
RTVSPost2010PropOp28
 70
     1
102
RTVSPost2010Prop29
280
     1
102
RTVSPost2010PropOp29
 70
     1
102
RTVSPost2010Prop30
280
     1
102
RTVSPost2010PropOp30
 70
     1
102
RTVSPost2010Prop31
280
     0
102
RTVSPost2010PropOp31
 70
     1
102
RTVSPost2010Prop32
280
     0
102
RTVSPost2010PropOp32
 70
     1
102
RTVSPost2010Prop33
280
     0
102
RTVSPost2010PropOp33
 70
     1
102
RTVSPost2010Prop34
280
     0
102
RTVSPost2010PropOp34
 70
     1
102
RTVSPost2010Prop35
280
     0
102
RTVSPost2010PropOp35
 70
     1
102
RTVSPost2010Prop36
280
     0
102
RTVSPost2010PropOp36
 70
     1
102
RTVSPost2010Prop37
 90
       50
102
RTVSPost2010PropOp37
 70
     1
102
RTVSPost2010Prop38
140
0.0
102
RTVSPost2010PropOp38
 70
     1
102
RTVSPost2010Prop39
140
1.0
102
RTVSPost2010PropOp39
 70
     1
102
RTVSPost2010Prop40
 90
        0
102
RTVSPost2010PropOp40
 70
     1
102
RTVSPost2010Prop41ColorIndex
 90
       18
102
RTVSPost2010Prop41ColorRGB
 90
        0
102
RTVSPost2010PropOp41
 70
     1
102
RTVSPost2010Prop42
 90
       50
102
RTVSPost2010PropOp42
 70
     1
102
RTVSPost2010Prop43
 90
        3
102
RTVSPost2010PropOp43
 70
     1
102
RTVSPost2010Prop44ColorIndex
 90
        5
102
RTVSPost2010Prop44ColorRGB
 90
      255
102
RTVSPost2010PropOp44
 70
     1
102
RTVSPost2010Prop45
280
     0
102
RTVSPost2010PropOp45
 70
     1
102
RTVSPost2010Prop46
 90
       50
102
RTVSPost2010PropOp46
 70
     1
102
RTVSPost2010Prop47
 90
       50
102
RTVSPost2010PropOp47
 70
     1
102
RTVSPost2010Prop48
 90
       50
102
RTVSPost2010PropOp48
 70
     1
102
RTVSPost2010Prop49
280
     0
102
RTVSPost2010PropOp49
 70
     1
102
RTVSPost2010Prop50
 90
       50
102
RTVSPost2010PropOp50
 70
     1
102
RTVSPost2010Prop51ColorIndex
 90
      256
102
RTVSPost2010Prop51ColorRGB
 90
-16777216
102
RTVSPost2010PropOp51
 70
     0
102
RTVSPost2010Prop52
140
1.0
102
RTVSPost2010PropOp52
 70
     0
102
RTVSPost2010Prop53
 90
        2
102
RTVSPost2010PropOp53
 70
     1
102
RTVSPost2010Prop54
  1
strokes_ogs.tif
102
RTVSPost2010PropOp54
 70
     1
102
RTVSPost2010Prop55
280
     0
102
RTVSPost2010PropOp55
 70
     1
102
RTVSPost2010Prop56
140
1.0
102
RTVSPost2010PropOp56
 70
     1
102
RTVSPost2010Prop57
140
1.0
102
RTVSPost2010PropOp57
 70
     1
102
RTVSPropertyOp0
 70
     1
102
RTVSPropertyOp1
 70
     1
102
RTVSPropertyOp2
 70
     1
102
RTVSPropertyOp3
 70
     1
102
RTVSPropertyOp4
 70
     1
102
RTVSPropertyOp5
 70
     1
102
RTVSPropertyOp6
 70
     1
102
RTVSPropertyOp7
 70
     1
102
RTVSPropertyOp8
 70
     1
102
RTVSPropertyOp9
 70
     1
102
RTVSPropertyOp10
 70
     1
102
RTVSPropertyOp11
 70
     1
102
RTVSPropertyOp12
 70
     1
102
RTVSPropertyOp13
 70
     1
102
RTVSPropertyOp14
 70
     1
102
RTVSPropertyOp15
 70
     1
102
RTVSPropertyOp16
 70
     1
102
RTVSPropertyOp17
 70
     1
102
RTVSPropertyOp18
 70
     1
102
RTVSPropertyOp19
 70
     1
102
RTVSPropertyOp20
 70
     1
102
RTVSPropertyOp21
 70
     1
102
RTVSPropertyOp22
 70
     1
102
RTVSPropertyOp23
 70
     1
102
RTVSPropertyOp24
 70
     1
102
RTVSPropertyOp25
 70
     1
102
RTVSPropertyOp26
 70
     1
102
RTVSPropertyOp27
 70
     1
102
RTVSPropertyOp28
 70
     1
102
RTVSPropertyOp29
 70
     1
102
RTVSPropertyOp30
 70
     1
102
RTVSPropertyOp31
 70
     1
102
RTVSPropertyOp32
 70
     1
102
RTVSPropertyOp33
 70
     1
102
RTVSPropertyOp34
 70
     1
102
RTVSPropertyOp35
 70
     1
102
RTVSPropertyOp36
 70
     1
102
RTVSPropertyOp37
 70
     1
102
RTVSPropertyOp38
 70
     1
102
RTVSPropertyOp39
 70
     1
102
RTVSPropertyOp40
 70
     1
102
RTVSPropertyOp41
 70
     1
102
RTVSPropertyOp42
 70
     1
102
RTVSPropertyOp43
 70
     1
102
RTVSPropertyOp44
 70
     1
102
RTVSPropertyOp45
 70
     1
102
RTVSPropertyOp46
 70
     1
102
RTVSPropertyOp47
 70
     1
102
RTVSPropertyOp48
 70
     1
102
RTVSPropertyOp49
 70
     1
102
RTVSPropertyOp50
 70
     1
102
RTVSPropertyOp51
 70
     0
102
RTVSPropertyOp52
 70
     0
102
RTVSPropertyOp53
 70
     1
102
RTVSPropertyOp54
 70
     1
102
RTVSPropertyOp55
 70
     1
102
RTVSPropertyOp56
 70
     1
102
RTVSPropertyOp57
 70
     1
102
RTVSPropertyOp58
 70
     1
102
RTVSPropertyOp59
 70
     1
102
RTVSPropertyOp60
 70
     1
102
RTVSPropertyOp61
 70
     1
102
RTVSPropertyOp62
 70
     1
  0
XRECORD
  5
EA2
102
{ACAD_REACTORS
330
EA1
102
}
330
EA1
100
AcDbXrecord
280
     1
102
RTVSPost2010Prop28
280
     0
102
RTVSPost2010PropOp28
 70
     1
102
RTVSPost2010Prop29
280
     1
102
RTVSPost2010PropOp29
 70
     1
102
RTVSPost2010Prop30
280
     1
102
RTVSPost2010PropOp30
 70
     1
102
RTVSPost2010Prop31
280
     0
102
RTVSPost2010PropOp31
 70
     1
102
RTVSPost2010Prop32
280
     0
102
RTVSPost2010PropOp32
 70
     1
102
RTVSPost2010Prop33
280
     0
102
RTVSPost2010PropOp33
 70
     1
102
RTVSPost2010Prop34
280
     0
102
RTVSPost2010PropOp34
 70
     1
102
RTVSPost2010Prop35
280
     0
102
RTVSPost2010PropOp35
 70
     1
102
RTVSPost2010Prop36
280
     0
102
RTVSPost2010PropOp36
 70
     1
102
RTVSPost2010Prop37
 90
       50
102
RTVSPost2010PropOp37
 70
     1
102
RTVSPost2010Prop38
140
0.0
102
RTVSPost2010PropOp38
 70
     1
102
RTVSPost2010Prop39
140
1.0
102
RTVSPost2010PropOp39
 70
     1
102
RTVSPost2010Prop40
 90
        0
102
RTVSPost2010PropOp40
 70
     1
102
RTVSPost2010Prop41ColorIndex
 90
       18
102
RTVSPost2010Prop41ColorRGB
 90
        0
102
RTVSPost2010PropOp41
 70
     1
102
RTVSPost2010Prop42
 90
       50
102
RTVSPost2010PropOp42
 70
     1
102
RTVSPost2010Prop43
 90
        3
102
RTVSPost2010PropOp43
 70
     1
102
RTVSPost2010Prop44ColorIndex
 90
        5
102
RTVSPost2010Prop44ColorRGB
 90
      255
102
RTVSPost2010PropOp44
 70
     1
102
RTVSPost2010Prop45
280
     0
102
RTVSPost2010PropOp45
 70
     1
102
RTVSPost2010Prop46
 90
       50
102
RTVSPost2010PropOp46
 70
     1
102
RTVSPost2010Prop47
 90
       50
102
RTVSPost2010PropOp47
 70
     1
102
RTVSPost2010Prop48
 90
       50
102
RTVSPost2010PropOp48
 70
     1
102
RTVSPost2010Prop49
280
     0
102
RTVSPost2010PropOp49
 70
     1
102
RTVSPost2010Prop50
 90
       50
102
RTVSPost2010PropOp50
 70
     1
102
RTVSPost2010Prop51ColorIndex
 90
      256
102
RTVSPost2010Prop51ColorRGB
 90
-16777216
102
RTVSPost2010PropOp51
 70
     0
102
RTVSPost2010Prop52
140
1.0
102
RTVSPost2010PropOp52
 70
     0
102
RTVSPost2010Prop53
 90
        2
102
RTVSPost2010PropOp53
 70
     1
102
RTVSPost2010Prop54
  1
strokes_ogs.tif
102
RTVSPost2010PropOp54
 70
     1
102
RTVSPost2010Prop55
280
     0
102
RTVSPost2010PropOp55
 70
     1
102
RTVSPost2010Prop56
140
1.0
102
RTVSPost2010PropOp56
 70
     1
102
RTVSPost2010Prop57
140
1.0
102
RTVSPost2010PropOp57
 70
     1
102
RTVSPropertyOp0
 70
     1
102
RTVSPropertyOp1
 70
     1
102
RTVSPropertyOp2
 70
     1
102
RTVSPropertyOp3
 70
     1
102
RTVSPropertyOp4
 70
     1
102
RTVSPropertyOp5
 70
     1
102
RTVSPropertyOp6
 70
     1
102
RTVSPropertyOp7
 70
     1
102
RTVSPropertyOp8
 70
     1
102
RTVSPropertyOp9
 70
     1
102
RTVSPropertyOp10
 70
     1
102
RTVSPropertyOp11
 70
     1
102
RTVSPropertyOp12
 70
     1
102
RTVSPropertyOp13
 70
     1
102
RTVSPropertyOp14
 70
     1
102
RTVSPropertyOp15
 70
     1
102
RTVSPropertyOp16
 70
     1
102
RTVSPropertyOp17
 70
     1
102
RTVSPropertyOp18
 70
     1
102
RTVSPropertyOp19
 70
     1
102
RTVSPropertyOp20
 70
     1
102
RTVSPropertyOp21
 70
     1
102
RTVSPropertyOp22
 70
     1
102
RTVSPropertyOp23
 70
     1
102
RTVSPropertyOp24
 70
     1
102
RTVSPropertyOp25
 70
     1
102
RTVSPropertyOp26
 70
     1
102
RTVSPropertyOp27
 70
     1
102
RTVSPropertyOp28
 70
     1
102
RTVSPropertyOp29
 70
     1
102
RTVSPropertyOp30
 70
     1
102
RTVSPropertyOp31
 70
     1
102
RTVSPropertyOp32
 70
     1
102
RTVSPropertyOp33
 70
     1
102
RTVSPropertyOp34
 70
     1
102
RTVSPropertyOp35
 70
     1
102
RTVSPropertyOp36
 70
     1
102
RTVSPropertyOp37
 70
     1
102
RTVSPropertyOp38
 70
     1
102
RTVSPropertyOp39
 70
     1
102
RTVSPropertyOp40
 70
     1
102
RTVSPropertyOp41
 70
     1
102
RTVSPropertyOp42
 70
     1
102
RTVSPropertyOp43
 70
     1
102
RTVSPropertyOp44
 70
     1
102
RTVSPropertyOp45
 70
     1
102
RTVSPropertyOp46
 70
     1
102
RTVSPropertyOp47
 70
     1
102
RTVSPropertyOp48
 70
     1
102
RTVSPropertyOp49
 70
     1
102
RTVSPropertyOp50
 70
     1
102
RTVSPropertyOp51
 70
     0
102
RTVSPropertyOp52
 70
     0
102
RTVSPropertyOp53
 70
     1
102
RTVSPropertyOp54
 70
     1
102
RTVSPropertyOp55
 70
     1
102
RTVSPropertyOp56
 70
     1
102
RTVSPropertyOp57
 70
     1
102
RTVSPropertyOp58
 70
     1
102
RTVSPropertyOp59
 70
     1
102
RTVSPropertyOp60
 70
     1
102
RTVSPropertyOp61
 70
     1
102
RTVSPropertyOp62
 70
     1
  0
XRECORD
  5
E8B
102
{ACAD_REACTORS
330
E8A
102
}
330
E8A
100
AcDbXrecord
280
     1
102
RTVSPost2010Prop28
280
     0
102
RTVSPost2010PropOp28
 70
     1
102
RTVSPost2010Prop29
280
     1
102
RTVSPost2010PropOp29
 70
     1
102
RTVSPost2010Prop30
280
     1
102
RTVSPost2010PropOp30
 70
     1
102
RTVSPost2010Prop31
280
     0
102
RTVSPost2010PropOp31
 70
     1
102
RTVSPost2010Prop32
280
     0
102
RTVSPost2010PropOp32
 70
     1
102
RTVSPost2010Prop33
280
     0
102
RTVSPost2010PropOp33
 70
     1
102
RTVSPost2010Prop34
280
     0
102
RTVSPost2010PropOp34
 70
     1
102
RTVSPost2010Prop35
280
     0
102
RTVSPost2010PropOp35
 70
     1
102
RTVSPost2010Prop36
280
     0
102
RTVSPost2010PropOp36
 70
     1
102
RTVSPost2010Prop37
 90
       50
102
RTVSPost2010PropOp37
 70
     1
102
RTVSPost2010Prop38
140
0.0
102
RTVSPost2010PropOp38
 70
     1
102
RTVSPost2010Prop39
140
1.0
102
RTVSPost2010PropOp39
 70
     1
102
RTVSPost2010Prop40
 90
        0
102
RTVSPost2010PropOp40
 70
     1
102
RTVSPost2010Prop41ColorIndex
 90
       18
102
RTVSPost2010Prop41ColorRGB
 90
        0
102
RTVSPost2010PropOp41
 70
     1
102
RTVSPost2010Prop42
 90
       50
102
RTVSPost2010PropOp42
 70
     1
102
RTVSPost2010Prop43
 90
        3
102
RTVSPost2010PropOp43
 70
     1
102
RTVSPost2010Prop44ColorIndex
 90
        5
102
RTVSPost2010Prop44ColorRGB
 90
      255
102
RTVSPost2010PropOp44
 70
     1
102
RTVSPost2010Prop45
280
     0
102
RTVSPost2010PropOp45
 70
     1
102
RTVSPost2010Prop46
 90
       50
102
RTVSPost2010PropOp46
 70
     1
102
RTVSPost2010Prop47
 90
       50
102
RTVSPost2010PropOp47
 70
     1
102
RTVSPost2010Prop48
 90
       50
102
RTVSPost2010PropOp48
 70
     1
102
RTVSPost2010Prop49
280
     0
102
RTVSPost2010PropOp49
 70
     1
102
RTVSPost2010Prop50
 90
       50
102
RTVSPost2010PropOp50
 70
     1
102
RTVSPost2010Prop51ColorIndex
 90
      256
102
RTVSPost2010Prop51ColorRGB
 90
-16777216
102
RTVSPost2010PropOp51
 70
     0
102
RTVSPost2010Prop52
140
1.0
102
RTVSPost2010PropOp52
 70
     0
102
RTVSPost2010Prop53
 90
        2
102
RTVSPost2010PropOp53
 70
     1
102
RTVSPost2010Prop54
  1
strokes_ogs.tif
102
RTVSPost2010PropOp54
 70
     1
102
RTVSPost2010Prop55
280
     0
102
RTVSPost2010PropOp55
 70
     1
102
RTVSPost2010Prop56
140
1.0
102
RTVSPost2010PropOp56
 70
     1
102
RTVSPost2010Prop57
140
1.0
102
RTVSPost2010PropOp57
 70
     1
102
RTVSPropertyOp0
 70
     1
102
RTVSPropertyOp1
 70
     1
102
RTVSPropertyOp2
 70
     1
102
RTVSPropertyOp3
 70
     1
102
RTVSPropertyOp4
 70
     1
102
RTVSPropertyOp5
 70
     1
102
RTVSPropertyOp6
 70
     1
102
RTVSPropertyOp7
 70
     1
102
RTVSPropertyOp8
 70
     1
102
RTVSPropertyOp9
 70
     1
102
RTVSPropertyOp10
 70
     1
102
RTVSPropertyOp11
 70
     1
102
RTVSPropertyOp12
 70
     1
102
RTVSPropertyOp13
 70
     1
102
RTVSPropertyOp14
 70
     1
102
RTVSPropertyOp15
 70
     1
102
RTVSPropertyOp16
 70
     1
102
RTVSPropertyOp17
 70
     1
102
RTVSPropertyOp18
 70
     1
102
RTVSPropertyOp19
 70
     1
102
RTVSPropertyOp20
 70
     1
102
RTVSPropertyOp21
 70
     1
102
RTVSPropertyOp22
 70
     1
102
RTVSPropertyOp23
 70
     1
102
RTVSPropertyOp24
 70
     1
102
RTVSPropertyOp25
 70
     1
102
RTVSPropertyOp26
 70
     1
102
RTVSPropertyOp27
 70
     1
102
RTVSPropertyOp28
 70
     1
102
RTVSPropertyOp29
 70
     1
102
RTVSPropertyOp30
 70
     1
102
RTVSPropertyOp31
 70
     1
102
RTVSPropertyOp32
 70
     1
102
RTVSPropertyOp33
 70
     1
102
RTVSPropertyOp34
 70
     1
102
RTVSPropertyOp35
 70
     1
102
RTVSPropertyOp36
 70
     1
102
RTVSPropertyOp37
 70
     1
102
RTVSPropertyOp38
 70
     1
102
RTVSPropertyOp39
 70
     1
102
RTVSPropertyOp40
 70
     1
102
RTVSPropertyOp41
 70
     1
102
RTVSPropertyOp42
 70
     1
102
RTVSPropertyOp43
 70
     1
102
RTVSPropertyOp44
 70
     1
102
RTVSPropertyOp45
 70
     1
102
RTVSPropertyOp46
 70
     1
102
RTVSPropertyOp47
 70
     1
102
RTVSPropertyOp48
 70
     1
102
RTVSPropertyOp49
 70
     1
102
RTVSPropertyOp50
 70
     1
102
RTVSPropertyOp51
 70
     0
102
RTVSPropertyOp52
 70
     0
102
RTVSPropertyOp53
 70
     1
102
RTVSPropertyOp54
 70
     1
102
RTVSPropertyOp55
 70
     1
102
RTVSPropertyOp56
 70
     1
102
RTVSPropertyOp57
 70
     1
102
RTVSPropertyOp58
 70
     1
102
RTVSPropertyOp59
 70
     1
102
RTVSPropertyOp60
 70
     1
102
RTVSPropertyOp61
 70
     1
102
RTVSPropertyOp62
 70
     1
  0
XRECORD
  5
E9C
102
{ACAD_REACTORS
330
E9B
102
}
330
E9B
100
AcDbXrecord
280
     1
102
RTVSPost2010Prop28
280
     0
102
RTVSPost2010PropOp28
 70
     1
102
RTVSPost2010Prop29
280
     1
102
RTVSPost2010PropOp29
 70
     1
102
RTVSPost2010Prop30
280
     1
102
RTVSPost2010PropOp30
 70
     1
102
RTVSPost2010Prop31
280
     0
102
RTVSPost2010PropOp31
 70
     1
102
RTVSPost2010Prop32
280
     0
102
RTVSPost2010PropOp32
 70
     1
102
RTVSPost2010Prop33
280
     0
102
RTVSPost2010PropOp33
 70
     1
102
RTVSPost2010Prop34
280
     0
102
RTVSPost2010PropOp34
 70
     1
102
RTVSPost2010Prop35
280
     0
102
RTVSPost2010PropOp35
 70
     1
102
RTVSPost2010Prop36
280
     0
102
RTVSPost2010PropOp36
 70
     1
102
RTVSPost2010Prop37
 90
       50
102
RTVSPost2010PropOp37
 70
     1
102
RTVSPost2010Prop38
140
0.0
102
RTVSPost2010PropOp38
 70
     1
102
RTVSPost2010Prop39
140
1.0
102
RTVSPost2010PropOp39
 70
     1
102
RTVSPost2010Prop40
 90
        0
102
RTVSPost2010PropOp40
 70
     1
102
RTVSPost2010Prop41ColorIndex
 90
       18
102
RTVSPost2010Prop41ColorRGB
 90
        0
102
RTVSPost2010PropOp41
 70
     1
102
RTVSPost2010Prop42
 90
       50
102
RTVSPost2010PropOp42
 70
     1
102
RTVSPost2010Prop43
 90
        3
102
RTVSPost2010PropOp43
 70
     1
102
RTVSPost2010Prop44ColorIndex
 90
        5
102
RTVSPost2010Prop44ColorRGB
 90
      255
102
RTVSPost2010PropOp44
 70
     1
102
RTVSPost2010Prop45
280
     0
102
RTVSPost2010PropOp45
 70
     1
102
RTVSPost2010Prop46
 90
       50
102
RTVSPost2010PropOp46
 70
     1
102
RTVSPost2010Prop47
 90
       50
102
RTVSPost2010PropOp47
 70
     1
102
RTVSPost2010Prop48
 90
       50
102
RTVSPost2010PropOp48
 70
     1
102
RTVSPost2010Prop49
280
     0
102
RTVSPost2010PropOp49
 70
     1
102
RTVSPost2010Prop50
 90
       50
102
RTVSPost2010PropOp50
 70
     1
102
RTVSPost2010Prop51ColorIndex
 90
      256
102
RTVSPost2010Prop51ColorRGB
 90
-16777216
102
RTVSPost2010PropOp51
 70
     0
102
RTVSPost2010Prop52
140
1.0
102
RTVSPost2010PropOp52
 70
     0
102
RTVSPost2010Prop53
 90
        2
102
RTVSPost2010PropOp53
 70
     1
102
RTVSPost2010Prop54
  1
strokes_ogs.tif
102
RTVSPost2010PropOp54
 70
     1
102
RTVSPost2010Prop55
280
     0
102
RTVSPost2010PropOp55
 70
     1
102
RTVSPost2010Prop56
140
1.0
102
RTVSPost2010PropOp56
 70
     1
102
RTVSPost2010Prop57
140
1.0
102
RTVSPost2010PropOp57
 70
     1
102
RTVSPropertyOp0
 70
     1
102
RTVSPropertyOp1
 70
     1
102
RTVSPropertyOp2
 70
     1
102
RTVSPropertyOp3
 70
     1
102
RTVSPropertyOp4
 70
     1
102
RTVSPropertyOp5
 70
     1
102
RTVSPropertyOp6
 70
     1
102
RTVSPropertyOp7
 70
     1
102
RTVSPropertyOp8
 70
     1
102
RTVSPropertyOp9
 70
     1
102
RTVSPropertyOp10
 70
     1
102
RTVSPropertyOp11
 70
     1
102
RTVSPropertyOp12
 70
     1
102
RTVSPropertyOp13
 70
     1
102
RTVSPropertyOp14
 70
     1
102
RTVSPropertyOp15
 70
     1
102
RTVSPropertyOp16
 70
     1
102
RTVSPropertyOp17
 70
     1
102
RTVSPropertyOp18
 70
     1
102
RTVSPropertyOp19
 70
     1
102
RTVSPropertyOp20
 70
     1
102
RTVSPropertyOp21
 70
     1
102
RTVSPropertyOp22
 70
     1
102
RTVSPropertyOp23
 70
     1
102
RTVSPropertyOp24
 70
     1
102
RTVSPropertyOp25
 70
     1
102
RTVSPropertyOp26
 70
     1
102
RTVSPropertyOp27
 70
     1
102
RTVSPropertyOp28
 70
     1
102
RTVSPropertyOp29
 70
     1
102
RTVSPropertyOp30
 70
     1
102
RTVSPropertyOp31
 70
     1
102
RTVSPropertyOp32
 70
     1
102
RTVSPropertyOp33
 70
     1
102
RTVSPropertyOp34
 70
     1
102
RTVSPropertyOp35
 70
     1
102
RTVSPropertyOp36
 70
     1
102
RTVSPropertyOp37
 70
     1
102
RTVSPropertyOp38
 70
     1
102
RTVSPropertyOp39
 70
     1
102
RTVSPropertyOp40
 70
     1
102
RTVSPropertyOp41
 70
     1
102
RTVSPropertyOp42
 70
     1
102
RTVSPropertyOp43
 70
     1
102
RTVSPropertyOp44
 70
     1
102
RTVSPropertyOp45
 70
     1
102
RTVSPropertyOp46
 70
     1
102
RTVSPropertyOp47
 70
     1
102
RTVSPropertyOp48
 70
     1
102
RTVSPropertyOp49
 70
     1
102
RTVSPropertyOp50
 70
     1
102
RTVSPropertyOp51
 70
     0
102
RTVSPropertyOp52
 70
     0
102
RTVSPropertyOp53
 70
     1
102
RTVSPropertyOp54
 70
     1
102
RTVSPropertyOp55
 70
     1
102
RTVSPropertyOp56
 70
     1
102
RTVSPropertyOp57
 70
     1
102
RTVSPropertyOp58
 70
     1
102
RTVSPropertyOp59
 70
     1
102
RTVSPropertyOp60
 70
     1
102
RTVSPropertyOp61
 70
     1
102
RTVSPropertyOp62
 70
     1
  0
XRECORD
  5
EA4
102
{ACAD_REACTORS
330
EA3
102
}
330
EA3
100
AcDbXrecord
280
     1
102
RTVSPost2010Prop28
280
     0
102
RTVSPost2010PropOp28
 70
     1
102
RTVSPost2010Prop29
280
     1
102
RTVSPost2010PropOp29
 70
     1
102
RTVSPost2010Prop30
280
     1
102
RTVSPost2010PropOp30
 70
     1
102
RTVSPost2010Prop31
280
     0
102
RTVSPost2010PropOp31
 70
     1
102
RTVSPost2010Prop32
280
     0
102
RTVSPost2010PropOp32
 70
     1
102
RTVSPost2010Prop33
280
     0
102
RTVSPost2010PropOp33
 70
     1
102
RTVSPost2010Prop34
280
     0
102
RTVSPost2010PropOp34
 70
     1
102
RTVSPost2010Prop35
280
     0
102
RTVSPost2010PropOp35
 70
     1
102
RTVSPost2010Prop36
280
     0
102
RTVSPost2010PropOp36
 70
     1
102
RTVSPost2010Prop37
 90
       50
102
RTVSPost2010PropOp37
 70
     1
102
RTVSPost2010Prop38
140
0.0
102
RTVSPost2010PropOp38
 70
     1
102
RTVSPost2010Prop39
140
1.0
102
RTVSPost2010PropOp39
 70
     1
102
RTVSPost2010Prop40
 90
        0
102
RTVSPost2010PropOp40
 70
     1
102
RTVSPost2010Prop41ColorIndex
 90
       18
102
RTVSPost2010Prop41ColorRGB
 90
        0
102
RTVSPost2010PropOp41
 70
     1
102
RTVSPost2010Prop42
 90
       50
102
RTVSPost2010PropOp42
 70
     1
102
RTVSPost2010Prop43
 90
        3
102
RTVSPost2010PropOp43
 70
     1
102
RTVSPost2010Prop44ColorIndex
 90
        5
102
RTVSPost2010Prop44ColorRGB
 90
      255
102
RTVSPost2010PropOp44
 70
     1
102
RTVSPost2010Prop45
280
     0
102
RTVSPost2010PropOp45
 70
     1
102
RTVSPost2010Prop46
 90
       50
102
RTVSPost2010PropOp46
 70
     1
102
RTVSPost2010Prop47
 90
       50
102
RTVSPost2010PropOp47
 70
     1
102
RTVSPost2010Prop48
 90
       50
102
RTVSPost2010PropOp48
 70
     1
102
RTVSPost2010Prop49
280
     0
102
RTVSPost2010PropOp49
 70
     1
102
RTVSPost2010Prop50
 90
       50
102
RTVSPost2010PropOp50
 70
     1
102
RTVSPost2010Prop51ColorIndex
 90
      256
102
RTVSPost2010Prop51ColorRGB
 90
-16777216
102
RTVSPost2010PropOp51
 70
     0
102
RTVSPost2010Prop52
140
1.0
102
RTVSPost2010PropOp52
 70
     0
102
RTVSPost2010Prop53
 90
        2
102
RTVSPost2010PropOp53
 70
     1
102
RTVSPost2010Prop54
  1
strokes_ogs.tif
102
RTVSPost2010PropOp54
 70
     1
102
RTVSPost2010Prop55
280
     0
102
RTVSPost2010PropOp55
 70
     1
102
RTVSPost2010Prop56
140
1.0
102
RTVSPost2010PropOp56
 70
     1
102
RTVSPost2010Prop57
140
1.0
102
RTVSPost2010PropOp57
 70
     1
102
RTVSPropertyOp0
 70
     1
102
RTVSPropertyOp1
 70
     1
102
RTVSPropertyOp2
 70
     1
102
RTVSPropertyOp3
 70
     1
102
RTVSPropertyOp4
 70
     1
102
RTVSPropertyOp5
 70
     1
102
RTVSPropertyOp6
 70
     1
102
RTVSPropertyOp7
 70
     1
102
RTVSPropertyOp8
 70
     1
102
RTVSPropertyOp9
 70
     1
102
RTVSPropertyOp10
 70
     1
102
RTVSPropertyOp11
 70
     1
102
RTVSPropertyOp12
 70
     1
102
RTVSPropertyOp13
 70
     1
102
RTVSPropertyOp14
 70
     1
102
RTVSPropertyOp15
 70
     1
102
RTVSPropertyOp16
 70
     1
102
RTVSPropertyOp17
 70
     1
102
RTVSPropertyOp18
 70
     1
102
RTVSPropertyOp19
 70
     1
102
RTVSPropertyOp20
 70
     1
102
RTVSPropertyOp21
 70
     1
102
RTVSPropertyOp22
 70
     1
102
RTVSPropertyOp23
 70
     1
102
RTVSPropertyOp24
 70
     1
102
RTVSPropertyOp25
 70
     1
102
RTVSPropertyOp26
 70
     1
102
RTVSPropertyOp27
 70
     1
102
RTVSPropertyOp28
 70
     1
102
RTVSPropertyOp29
 70
     1
102
RTVSPropertyOp30
 70
     1
102
RTVSPropertyOp31
 70
     1
102
RTVSPropertyOp32
 70
     1
102
RTVSPropertyOp33
 70
     1
102
RTVSPropertyOp34
 70
     1
102
RTVSPropertyOp35
 70
     1
102
RTVSPropertyOp36
 70
     1
102
RTVSPropertyOp37
 70
     1
102
RTVSPropertyOp38
 70
     1
102
RTVSPropertyOp39
 70
     1
102
RTVSPropertyOp40
 70
     1
102
RTVSPropertyOp41
 70
     1
102
RTVSPropertyOp42
 70
     1
102
RTVSPropertyOp43
 70
     1
102
RTVSPropertyOp44
 70
     1
102
RTVSPropertyOp45
 70
     1
102
RTVSPropertyOp46
 70
     1
102
RTVSPropertyOp47
 70
     1
102
RTVSPropertyOp48
 70
     1
102
RTVSPropertyOp49
 70
     1
102
RTVSPropertyOp50
 70
     1
102
RTVSPropertyOp51
 70
     0
102
RTVSPropertyOp52
 70
     0
102
RTVSPropertyOp53
 70
     1
102
RTVSPropertyOp54
 70
     1
102
RTVSPropertyOp55
 70
     1
102
RTVSPropertyOp56
 70
     1
102
RTVSPropertyOp57
 70
     1
102
RTVSPropertyOp58
 70
     1
102
RTVSPropertyOp59
 70
     1
102
RTVSPropertyOp60
 70
     1
102
RTVSPropertyOp61
 70
     1
102
RTVSPropertyOp62
 70
     1
  0
ENDSEC
  0
EOF
