  0
SECTION
  2
HEADER
  9
$ACADVER
  1
AC1015
  9
$ACADMAINTVER
 70
    18
  9
$DWGCODEPAGE
  3
ANSI_932
  9
$INSBASE
 10
0.0
 20
0.0
 30
0.0
  9
$EXTMIN
 10
-1817.12453711955
 20
-1269594.816970825
 30
0.0
  9
$EXTMAX
 10
2104.999981466858
 20
1270405.183029175
 30
0.0
  9
$LIMMIN
 10
0.0
 20
0.0
  9
$LIMMAX
 10
2100.0
 20
1485.0
  9
$ORTHOMODE
 70
     0
  9
$REGENMODE
 70
     1
  9
$FILLMODE
 70
     1
  9
$QTEXTMODE
 70
     0
  9
$MIRRTEXT
 70
     0
  9
$LTSCALE
 40
5.0
  9
$ATTMODE
 70
     1
  9
$TEXTSIZE
 40
2.5
  9
$TRACEWID
 40
1.0
  9
$TEXTSTYLE
  7
STD
  9
$CLAYER
  8
0
  9
$CELTYPE
  6
Continuous
  9
$CECOLOR
 62
     7
  9
$CELTSCALE
 40
1.0
  9
$DISPSILH
 70
     0
  9
$DIMSCALE
 40
5.0
  9
$DIMASZ
 40
3.0
  9
$DIMEXO
 40
1.0
  9
$DIMDLI
 40
8.0
  9
$DIMRND
 40
0.0
  9
$DIMDLE
 40
0.0
  9
$DIMEXE
 40
1.0
  9
$DIMTP
 40
0.0
  9
$DIMTM
 40
0.000000001
  9
$DIMTXT
 40
3.0
  9
$DIMCEN
 40
0.0
  9
$DIMTSZ
 40
0.0
  9
$DIMTOL
 70
     0
  9
$DIMLIM
 70
     0
  9
$DIMTIH
 70
     0
  9
$DIMTOH
 70
     0
  9
$DIMSE1
 70
     0
  9
$DIMSE2
 70
     0
  9
$DIMTAD
 70
     3
  9
$DIMZIN
 70
     9
  9
$DIMBLK
  1
Open30
  9
$DIMASO
 70
     1
  9
$DIMSHO
 70
     1
  9
$DIMPOST
  1

  9
$DIMAPOST
  1

  9
$DIMALT
 70
     0
  9
$DIMALTD
 70
     2
  9
$DIMALTF
 40
0.0005
  9
$DIMLFAC
 40
1.0
  9
$DIMTOFL
 70
     1
  9
$DIMTVP
 40
0.0
  9
$DIMTIX
 70
     0
  9
$DIMSOXD
 70
     0
  9
$DIMSAH
 70
     0
  9
$DIMBLK1
  1

  9
$DIMBLK2
  1

  9
$DIMSTYLE
  2
ASKSTANDARD
  9
$DIMCLRD
 70
     4
  9
$DIMCLRE
 70
     4
  9
$DIMCLRT
 70
     4
  9
$DIMTFAC
 40
0.5
  9
$DIMGAP
 40
1.0
  9
$DIMJUST
 70
     0
  9
$DIMSD1
 70
     0
  9
$DIMSD2
 70
     0
  9
$DIMTOLJ
 70
     1
  9
$DIMTZIN
 70
     0
  9
$DIMALTZ
 70
     0
  9
$DIMALTTZ
 70
     0
  9
$DIMUPT
 70
     0
  9
$DIMDEC
 70
     2
  9
$DIMTDEC
 70
     2
  9
$DIMALTU
 70
     2
  9
$DIMALTTD
 70
     2
  9
$DIMTXSTY
  7
STD
  9
$DIMAUNIT
 70
     0
  9
$DIMADEC
 70
     2
  9
$DIMALTRND
 40
0.0
  9
$DIMAZIN
 70
     2
  9
$DIMDSEP
 70
    46
  9
$DIMATFIT
 70
     0
  9
$DIMFRAC
 70
     0
  9
$DIMLDRBLK
  1
Open30
  9
$DIMLUNIT
 70
     2
  9
$DIMLWD
 70
     9
  9
$DIMLWE
 70
     9
  9
$DIMTMOVE
 70
     0
  9
$LUNITS
 70
     2
  9
$LUPREC
 70
     4
  9
$SKETCHINC
 40
1.0
  9
$FILLETRAD
 40
0.0
  9
$AUNITS
 70
     0
  9
$AUPREC
 70
     0
  9
$MENU
  1
.
  9
$ELEVATION
 40
0.0
  9
$PELEVATION
 40
0.0
  9
$THICKNESS
 40
0.0
  9
$LIMCHECK
 70
     0
  9
$CHAMFERA
 40
0.0
  9
$CHAMFERB
 40
0.0
  9
$CHAMFERC
 40
0.0
  9
$CHAMFERD
 40
0.0
  9
$SKPOLY
 70
     0
  9
$TDCREATE
 40
2454497.602825139
  9
$TDUCREATE
 40
2454497.227825139
  9
$TDUPDATE
 40
2454811.419976123
  9
$TDUUPDATE
 40
2454811.044976123
  9
$TDINDWG
 40
0.1542553125
  9
$TDUSRTIMER
 40
0.1542553125
  9
$USRTIMER
 70
     1
  9
$ANGBASE
 50
0.0
  9
$ANGDIR
 70
     0
  9
$PDMODE
 70
     1
  9
$PDSIZE
 40
0.0
  9
$PLINEWID
 40
0.0
  9
$SPLFRAME
 70
     0
  9
$SPLINETYPE
 70
     6
  9
$SPLINESEGS
 70
     8
  9
$HANDSEED
  5
C88
  9
$SURFTAB1
 70
     6
  9
$SURFTAB2
 70
     6
  9
$SURFTYPE
 70
     6
  9
$SURFU
 70
     6
  9
$SURFV
 70
     6
  9
$UCSBASE
  2

  9
$UCSNAME
  2

  9
$UCSORG
 10
0.0
 20
0.0
 30
0.0
  9
$UCSXDIR
 10
1.0
 20
0.0
 30
0.0
  9
$UCSYDIR
 10
0.0
 20
1.0
 30
0.0
  9
$UCSORTHOREF
  2

  9
$UCSORTHOVIEW
 70
     0
  9
$UCSORGTOP
 10
0.0
 20
0.0
 30
0.0
  9
$UCSORGBOTTOM
 10
0.0
 20
0.0
 30
0.0
  9
$UCSORGLEFT
 10
0.0
 20
0.0
 30
0.0
  9
$UCSORGRIGHT
 10
0.0
 20
0.0
 30
0.0
  9
$UCSORGFRONT
 10
0.0
 20
0.0
 30
0.0
  9
$UCSORGBACK
 10
0.0
 20
0.0
 30
0.0
  9
$PUCSBASE
  2

  9
$PUCSNAME
  2

  9
$PUCSORG
 10
0.0
 20
0.0
 30
0.0
  9
$PUCSXDIR
 10
1.0
 20
0.0
 30
0.0
  9
$PUCSYDIR
 10
0.0
 20
1.0
 30
0.0
  9
$PUCSORTHOREF
  2

  9
$PUCSORTHOVIEW
 70
     0
  9
$PUCSORGTOP
 10
0.0
 20
0.0
 30
0.0
  9
$PUCSORGBOTTOM
 10
0.0
 20
0.0
 30
0.0
  9
$PUCSORGLEFT
 10
0.0
 20
0.0
 30
0.0
  9
$PUCSORGRIGHT
 10
0.0
 20
0.0
 30
0.0
  9
$PUCSORGFRONT
 10
0.0
 20
0.0
 30
0.0
  9
$PUCSORGBACK
 10
0.0
 20
0.0
 30
0.0
  9
$USERI1
 70
     0
  9
$USERI2
 70
     0
  9
$USERI3
 70
     0
  9
$USERI4
 70
     0
  9
$USERI5
 70
     0
  9
$USERR1
 40
0.0
  9
$USERR2
 40
0.0
  9
$USERR3
 40
0.0
  9
$USERR4
 40
0.0
  9
$USERR5
 40
0.0
  9
$WORLDVIEW
 70
     1
  9
$SHADEDGE
 70
     3
  9
$SHADEDIF
 70
    70
  9
$TILEMODE
 70
     1
  9
$MAXACTVP
 70
    64
  9
$PINSBASE
 10
0.0
 20
0.0
 30
0.0
  9
$PLIMCHECK
 70
     0
  9
$PEXTMIN
 10
0.0
 20
0.0
 30
0.0
  9
$PEXTMAX
 10
0.0
 20
0.0
 30
0.0
  9
$PLIMMIN
 10
0.0
 20
0.0
  9
$PLIMMAX
 10
12.0
 20
9.0
  9
$UNITMODE
 70
     0
  9
$VISRETAIN
 70
     1
  9
$PLINEGEN
 70
     0
  9
$PSLTSCALE
 70
     1
  9
$TREEDEPTH
 70
  3020
  9
$CMLSTYLE
  2
Standard
  9
$CMLJUST
 70
     0
  9
$CMLSCALE
 40
20.0
  9
$PROXYGRAPHICS
 70
     1
  9
$MEASUREMENT
 70
     1
  9
$CELWEIGHT
370
    -1
  9
$ENDCAPS
280
     0
  9
$JOINSTYLE
280
     0
  9
$LWDISPLAY
290
     0
  9
$INSUNITS
 70
     4
  9
$HYPERLINKBASE
  1

  9
$STYLESHEET
  1

  9
$XEDIT
290
     1
  9
$CEPSNTYPE
380
     0
  9
$PSTYLEMODE
290
     1
  9
$FINGERPRINTGUID
  2
{D178A04D-76D8-4F2C-AB2D-4FB1B243C31E}
  9
$VERSIONGUID
  2
{FB8DB25B-56A9-4E45-B4E9-8EF1F98951EF}
  9
$EXTNAMES
290
     1
  9
$PSVPSCALE
 40
0.0
  9
$OLESTARTUP
290
     0
  0
ENDSEC
  0
SECTION
  2
CLASSES
  0
CLASS
  1
ACDBDICTIONARYWDFLT
  2
AcDbDictionaryWithDefault
  3
ObjectDBX Classes
 90
        0
280
     0
281
     0
  0
CLASS
  1
DICTIONARYVAR
  2
AcDbDictionaryVar
  3
ObjectDBX Classes
 90
        0
280
     0
281
     0
  0
CLASS
  1
TABLESTYLE
  2
AcDbTableStyle
  3
ObjectDBX Classes
 90
     4095
280
     0
281
     0
  0
CLASS
  1
MATERIAL
  2
AcDbMaterial
  3
ObjectDBX Classes
 90
     1153
280
     0
281
     0
  0
CLASS
  1
VISUALSTYLE
  2
AcDbVisualStyle
  3
ObjectDBX Classes
 90
     4095
280
     0
281
     0
  0
CLASS
  1
SORTENTSTABLE
  2
AcDbSortentsTable
  3
ObjectDBX Classes
 90
        0
280
     0
281
     0
  0
CLASS
  1
SCALE
  2
AcDbScale
  3
ObjectDBX Classes
 90
     1153
280
     0
281
     0
  0
CLASS
  1
MLEADERSTYLE
  2
AcDbMLeaderStyle
  3
ACDB_MLEADERSTYLE_CLASS
 90
     4095
280
     0
281
     0
  0
CLASS
  1
CELLSTYLEMAP
  2
AcDbCellStyleMap
  3
ObjectDBX Classes
 90
     1152
280
     0
281
     0
  0
CLASS
  1
EXACXREFPANELOBJECT
  2
ExAcXREFPanelObject
  3
EXAC_ESW
 90
    33793
280
     0
281
     0
  0
CLASS
  1
NPOCOLLECTION
  2
AcDbImpNonPersistentObjectsCollection
  3
ObjectDBX Classes
 90
    33921
280
     0
281
     0
  0
CLASS
  1
RASTERVARIABLES
  2
AcDbRasterVariables
  3
ISM
 90
        0
280
     0
281
     0
  0
CLASS
  1
ACDBPLACEHOLDER
  2
AcDbPlaceHolder
  3
ObjectDBX Classes
 90
        0
280
     0
281
     0
  0
CLASS
  1
LAYOUT
  2
AcDbLayout
  3
ObjectDBX Classes
 90
        0
280
     0
281
     0
  0
ENDSEC
  0
SECTION
  2
TABLES
  0
TABLE
  2
VPORT
  5
8
330
0
100
AcDbSymbolTable
 70
     1
  0
VPORT
  5
ED
330
8
100
AcDbSymbolTableRecord
100
AcDbViewportTableRecord
  2
*Active
 70
     0
 10
0.0
 20
0.0
 11
1.0
 21
1.0
 12
1050.0
 22
1725.979181369089
 13
0.0
 23
0.0
 14
10.0
 24
10.0
 15
10.0
 25
10.0
 16
0.0
 26
0.0
 36
1.0
 17
0.0
 27
0.0
 37
0.0
 40
3451.958362738179
 41
1.213358070500927
 42
50.0
 43
0.0
 44
0.0
 50
0.0
 51
0.0
 71
     0
 72
  1000
 73
     1
 74
     3
 75
     0
 76
     0
 77
     0
 78
     0
281
     0
 65
     1
110
0.0
120
0.0
130
0.0
111
1.0
121
0.0
131
0.0
112
0.0
122
1.0
132
0.0
 79
     0
146
0.0
  0
ENDTAB
  0
TABLE
  2
LTYPE
  5
5
330
0
100
AcDbSymbolTable
 70
     6
  0
LTYPE
  5
14
330
5
100
AcDbSymbolTableRecord
100
AcDbLinetypeTableRecord
  2
ByBlock
 70
     0
  3

 72
    65
 73
     0
 40
0.0
  0
LTYPE
  5
15
330
5
100
AcDbSymbolTableRecord
100
AcDbLinetypeTableRecord
  2
ByLayer
 70
     0
  3

 72
    65
 73
     0
 40
0.0
  0
LTYPE
  5
16
330
5
100
AcDbSymbolTableRecord
100
AcDbLinetypeTableRecord
  2
Continuous
 70
     0
  3
Solid line
 72
    65
 73
     0
 40
0.0
  0
LTYPE
  5
780
330
5
100
AcDbSymbolTableRecord
100
AcDbLinetypeTableRecord
  2
CENTER2
 70
     0
  3
Center (.5x) ___ _ ___ _ ___ _ ___ _ ___ _ ___
 72
    65
 73
     4
 40
28.575
 49
19.05
 74
     0
 49
-3.174999999999999
 74
     0
 49
3.174999999999999
 74
     0
 49
-3.174999999999999
 74
     0
  0
LTYPE
  5
781
330
5
100
AcDbSymbolTableRecord
100
AcDbLinetypeTableRecord
  2
HIDDEN2
 70
     0
  3
Hidden (.5x) _ _ _ _ _ _ _ _ _ _ _ _ _ _ _ _ _
 72
    65
 73
     2
 40
4.762499999999999
 49
3.174999999999999
 74
     0
 49
-1.587499999999999
 74
     0
  0
LTYPE
  5
782
330
5
100
AcDbSymbolTableRecord
100
AcDbLinetypeTableRecord
  2
PHANTOM2
 70
     0
  3
Phantom (.5x) ___ _ _ ___ _ _ ___ _ _ ___ _ _
 72
    65
 73
     6
 40
31.75
 49
15.875
 74
     0
 49
-3.174999999999999
 74
     0
 49
3.174999999999999
 74
     0
 49
-3.174999999999999
 74
     0
 49
3.174999999999999
 74
     0
 49
-3.174999999999999
 74
     0
  0
LTYPE
  5
7A8
330
5
100
AcDbSymbolTableRecord
100
AcDbLinetypeTableRecord
  2
zigzag
 70
     0
  3
/\/-/\/-/\/-/\/-/\/-/\/
 72
    65
 73
     2
 40
11.0001
 49
0.0001
 74
     4
 75
   135
340
77F
 46
0.04
 50
0.0
 44
0.0
 45
0.0
 49
-11.0
 74
     0
  0
LTYPE
  5
7D1
330
5
100
AcDbSymbolTableRecord
100
AcDbLinetypeTableRecord
  2
DIMENSION
 70
     0
  3
_______________________________________________
 72
    65
 73
     2
 40
0.000000000000002
 49
0.000000000000001
 74
     0
 49
0.000000000000001
 74
     0
  0
ENDTAB
  0
TABLE
  2
LAYER
  5
2
102
{ACAD_XDICTIONARY
360
688
102
}
330
0
100
AcDbSymbolTable
 70
     5
  0
LAYER
  5
10
102
{ACAD_XDICTIONARY
360
785
102
}
330
2
100
AcDbSymbolTableRecord
100
AcDbLayerTableRecord
  2
0
 70
     0
 62
     7
  6
Continuous
370
    -3
390
F
  0
LAYER
  5
14A
330
2
100
AcDbSymbolTableRecord
100
AcDbLayerTableRecord
  2
Defpoints
 70
     0
 62
     7
  6
Continuous
290
     0
370
    -3
390
F
  0
LAYER
  5
7F9
330
2
100
AcDbSymbolTableRecord
100
AcDbLayerTableRecord
  2
PV0001_5
 70
     0
 62
     7
  6
Continuous
370
    -3
390
F
  0
LAYER
  5
B72
330
2
100
AcDbSymbolTableRecord
100
AcDbLayerTableRecord
  2
F00001_1
 70
     0
 62
     7
  6
Continuous
370
    -3
390
F
  0
LAYER
  5
BE1
330
2
100
AcDbSymbolTableRecord
100
AcDbLayerTableRecord
  2
P_1791_5
 70
     0
 62
     7
  6
Continuous
370
    -3
390
F
  0
ENDTAB
  0
TABLE
  2
STYLE
  5
3
330
0
100
AcDbSymbolTable
 70
     3
  0
STYLE
  5
11
330
3
100
AcDbSymbolTableRecord
100
AcDbTextStyleTableRecord
  2
Standard
 70
     0
 40
0.0
 41
0.8
 50
0.0
 71
     0
 42
2.5
  3
romans.shx
  4
extfont2.shx
  0
STYLE
  5
77F
330
3
100
AcDbSymbolTableRecord
100
AcDbTextStyleTableRecord
  2

 70
     1
 40
0.0
 41
1.0
 50
0.0
 71
     0
 42
2.5
  3
ltypeshp.shx
  4

  0
STYLE
  5
783
330
3
100
AcDbSymbolTableRecord
100
AcDbTextStyleTableRecord
  2
STD
 70
     0
 40
0.0
 41
0.6
 50
0.0
 71
     0
 42
2.5
  3
monotxt.shx
  4
extfont2.shx
  0
ENDTAB
  0
TABLE
  2
VIEW
  5
6
330
0
100
AcDbSymbolTable
 70
     0
  0
ENDTAB
  0
TABLE
  2
UCS
  5
7
330
0
100
AcDbSymbolTable
 70
     0
  0
ENDTAB
  0
TABLE
  2
APPID
  5
9
330
0
100
AcDbSymbolTable
 70
    21
  0
APPID
  5
12
330
9
100
AcDbSymbolTableRecord
100
AcDbRegAppTableRecord
  2
ACAD
 70
     0
  0
APPID
  5
9E
330
9
100
AcDbSymbolTableRecord
100
AcDbRegAppTableRecord
  2
ACAD_PSEXT
 70
     0
  0
APPID
  5
15A
330
9
100
AcDbSymbolTableRecord
100
AcDbRegAppTableRecord
  2
ACAD_DSTYLE_DIMTEXT_FILL
 70
     0
  0
APPID
  5
15B
330
9
100
AcDbSymbolTableRecord
100
AcDbRegAppTableRecord
  2
ACAD_DSTYLE_DIMEXT_LENGTH
 70
     0
  0
APPID
  5
15C
330
9
100
AcDbSymbolTableRecord
100
AcDbRegAppTableRecord
  2
ACAD_DSTYLE_DIMEXT_ENABLED
 70
     0
  0
APPID
  5
15D
330
9
100
AcDbSymbolTableRecord
100
AcDbRegAppTableRecord
  2
ACAD_DSTYLE_DIM_LINETYPE
 70
     0
  0
APPID
  5
15E
330
9
100
AcDbSymbolTableRecord
100
AcDbRegAppTableRecord
  2
ACAD_DSTYLE_DIM_EXT1_LINETYPE
 70
     0
  0
APPID
  5
15F
330
9
100
AcDbSymbolTableRecord
100
AcDbRegAppTableRecord
  2
ACAD_DSTYLE_DIM_EXT2_LINETYPE
 70
     0
  0
APPID
  5
160
330
9
100
AcDbSymbolTableRecord
100
AcDbRegAppTableRecord
  2
ACAD_DSTYLE_DIMJOGGED_JOGANGLE_SYMBOL
 70
     0
  0
APPID
  5
161
330
9
100
AcDbSymbolTableRecord
100
AcDbRegAppTableRecord
  2
ACAD_DSTYLE_DIMARC_LENGTH_SYMBOL
 70
     0
  0
APPID
  5
162
330
9
100
AcDbSymbolTableRecord
100
AcDbRegAppTableRecord
  2
ACAD_MLEADERVER
 70
     0
  0
APPID
  5
163
330
9
100
AcDbSymbolTableRecord
100
AcDbRegAppTableRecord
  2
AcAecLayerStandard
 70
     0
  0
APPID
  5
164
330
9
100
AcDbSymbolTableRecord
100
AcDbRegAppTableRecord
  2
ACAD_DSTYLE_DIMJAG
 70
     0
  0
APPID
  5
165
330
9
100
AcDbSymbolTableRecord
100
AcDbRegAppTableRecord
  2
ACAD_DSTYLE_DIMTALN
 70
     0
  0
APPID
  5
166
330
9
100
AcDbSymbolTableRecord
100
AcDbRegAppTableRecord
  2
DIMEXPLODE
 70
     0
  0
APPID
  5
41A
330
9
100
AcDbSymbolTableRecord
100
AcDbRegAppTableRecord
  2
AcadAnnoPO
 70
     0
  0
APPID
  5
7AC
330
9
100
AcDbSymbolTableRecord
100
AcDbRegAppTableRecord
  2
AcadAnnotative
 70
     0
  0
APPID
  5
7C9
330
9
100
AcDbSymbolTableRecord
100
AcDbRegAppTableRecord
  2
ACAD_EXEMPT_FROM_CAD_STANDARDS
 70
     0
  0
APPID
  5
A10
330
9
100
AcDbSymbolTableRecord
100
AcDbRegAppTableRecord
  2
DEKIMAS
 70
     0
  0
APPID
  5
C26
330
9
100
AcDbSymbolTableRecord
100
AcDbRegAppTableRecord
  2
ASKOBJSC
 70
     0
  0
APPID
  5
C27
330
9
100
AcDbSymbolTableRecord
100
AcDbRegAppTableRecord
  2
ASKDWGSC
 70
     0
  0
ENDTAB
  0
TABLE
  2
DIMSTYLE
  5
A
330
0
100
AcDbSymbolTable
 70
     4
100
AcDbDimStyleTable
 71
     1
340
159
  0
DIMSTYLE
105
159
102
{ACAD_REACTORS
330
7FA
330
83D
330
880
330
8F8
330
938
330
97B
330
9BE
102
}
330
A
100
AcDbSymbolTableRecord
100
AcDbDimStyleTableRecord
  2
ASKSTANDARD
 70
     0
 40
4.999999925494194
 41
3.0
 42
1.0
 43
8.0
 44
1.0
 48
0.000000001
 73
     0
 74
     0
 77
     3
 78
     9
 79
     2
140
3.0
141
0.0
143
0.0005
146
0.5
147
1.0
172
     1
176
     4
177
     4
178
     4
179
     2
271
     2
272
     2
289
     0
340
783
341
71F
342
71F
371
     9
372
     9
1001
ACAD_DSTYLE_DIMJAG
1070
   388
1040
1.5
1001
ACAD_DSTYLE_DIMTALN
1070
   392
1070
     0
1001
ACAD_DSTYLE_DIMEXT_LENGTH
1070
   378
1040
2.0
1001
ACAD_DSTYLE_DIMJOGGED_JOGANGLE_SYMBOL
1070
   384
1040
1.570796326794896
  0
DIMSTYLE
105
7AA
330
A
100
AcDbSymbolTableRecord
100
AcDbDimStyleTableRecord
  2
Standard
 70
     0
340
11
  0
DIMSTYLE
105
7F8
330
A
100
AcDbSymbolTableRecord
100
AcDbDimStyleTableRecord
  2
SYMBOL
 70
     0
 40
4.999999925494194
 41
3.0
 42
1.0
 43
8.0
 44
1.0
 48
0.000000001
 73
     0
 74
     0
 77
     3
 78
     9
 79
     2
140
3.0
141
0.0
143
0.0005
146
0.5
147
1.0
172
     1
176
     4
177
     4
178
     4
179
     2
271
     2
272
     2
289
     0
340
783
341
71F
342
71F
371
     9
372
     9
1001
ACAD_DSTYLE_DIMJAG
1070
   388
1040
1.5
1001
ACAD_DSTYLE_DIMTALN
1070
   392
1070
     0
1001
ACAD_DSTYLE_DIMEXT_LENGTH
1070
   378
1040
2.0
1001
ACAD_DSTYLE_DIMJOGGED_JOGANGLE_SYMBOL
1070
   384
1040
1.570796326794896
  0
DIMSTYLE
105
B71
102
{ACAD_REACTORS
330
7FA
330
83D
330
880
330
8F8
330
938
330
97B
330
9BE
102
}
330
A
100
AcDbSymbolTableRecord
100
AcDbDimStyleTableRecord
  2
ASKSTANDARDF00P2
 70
     0
 40
4.999999925494194
 41
3.0
 42
1.0
 43
8.0
 44
1.0
 48
0.000000001
 73
     0
 74
     0
 77
     3
 78
     9
 79
     2
140
3.0
141
0.0
143
0.0005
144
0.2
146
0.5
147
1.0
172
     1
176
     4
177
     4
178
     4
179
     2
271
     2
272
     2
289
     0
340
783
341
71F
342
71F
371
     9
372
     9
1001
ACAD_DSTYLE_DIMJAG
1070
   388
1040
1.5
1001
ACAD_DSTYLE_DIMTALN
1070
   392
1070
     0
1001
ACAD_DSTYLE_DIMEXT_LENGTH
1070
   378
1040
2.0
1001
ACAD_DSTYLE_DIMJOGGED_JOGANGLE_SYMBOL
1070
   384
1040
1.570796326794896
  0
ENDTAB
  0
TABLE
  2
BLOCK_RECORD
  5
1
330
0
100
AcDbSymbolTable
 70
     9
  0
BLOCK_RECORD
  5
1F
102
{ACAD_XDICTIONARY
360
318
102
}
330
1
100
AcDbSymbolTableRecord
100
AcDbBlockTableRecord
  2
*Model_Space
340
22
  0
BLOCK_RECORD
  5
D2
330
1
100
AcDbSymbolTableRecord
100
AcDbBlockTableRecord
  2
*Paper_Space
340
D3
  0
BLOCK_RECORD
  5
D6
330
1
100
AcDbSymbolTableRecord
100
AcDbBlockTableRecord
  2
*Paper_Space0
340
D7
  0
BLOCK_RECORD
  5
71F
330
1
100
AcDbSymbolTableRecord
100
AcDbBlockTableRecord
  2
_Open30
340
0
102
{BLKREFS
331
C2B
331
C2C
331
C34
331
C35
331
C3E
331
C3F
331
C44
331
C45
331
C4C
331
C4D
331
C55
331
C56
331
C5E
331
C5F
102
}
  0
BLOCK_RECORD
  5
7FB
330
1
100
AcDbSymbolTableRecord
100
AcDbBlockTableRecord
  2
*D2
340
0
  0
BLOCK_RECORD
  5
83E
330
1
100
AcDbSymbolTableRecord
100
AcDbBlockTableRecord
  2
*D3
340
0
  0
BLOCK_RECORD
  5
881
330
1
100
AcDbSymbolTableRecord
100
AcDbBlockTableRecord
  2
*D4
340
0
  0
BLOCK_RECORD
  5
8F9
330
1
100
AcDbSymbolTableRecord
100
AcDbBlockTableRecord
  2
*D5
340
0
  0
BLOCK_RECORD
  5
939
330
1
100
AcDbSymbolTableRecord
100
AcDbBlockTableRecord
  2
*D6
340
0
  0
BLOCK_RECORD
  5
97C
330
1
100
AcDbSymbolTableRecord
100
AcDbBlockTableRecord
  2
*D7
340
0
  0
BLOCK_RECORD
  5
9BF
330
1
100
AcDbSymbolTableRecord
100
AcDbBlockTableRecord
  2
*D8
340
0
  0
ENDTAB
  0
ENDSEC
  0
SECTION
  2
BLOCKS
  0
BLOCK
  5
20
330
1F
100
AcDbEntity
  8
0
100
AcDbBlockBegin
  2
*Model_Space
 70
     0
 10
0.0
 20
0.0
 30
0.0
  3
*Model_Space
  1

  0
ENDBLK
  5
21
330
1F
100
AcDbEntity
  8
0
100
AcDbBlockEnd
  0
BLOCK
  5
D4
330
D2
100
AcDbEntity
 67
     1
  8
0
100
AcDbBlockBegin
  2
*Paper_Space
 70
     0
 10
0.0
 20
0.0
 30
0.0
  3
*Paper_Space
  1

  0
ENDBLK
  5
D5
330
D2
100
AcDbEntity
 67
     1
  8
0
100
AcDbBlockEnd
  0
BLOCK
  5
D8
330
D6
100
AcDbEntity
 67
     1
  8
0
100
AcDbBlockBegin
  2
*Paper_Space0
 70
     0
 10
0.0
 20
0.0
 30
0.0
  3
*Paper_Space0
  1

  0
ENDBLK
  5
D9
330
D6
100
AcDbEntity
 67
     1
  8
0
100
AcDbBlockEnd
  0
BLOCK
  5
723
330
71F
100
AcDbEntity
  8
0
100
AcDbBlockBegin
  2
_Open30
 70
     0
 10
0.0
 20
0.0
 30
0.0
  3
_Open30
  1

  0
LINE
  5
720
330
71F
100
AcDbEntity
  8
0
  6
ByBlock
 62
     0
370
    -2
100
AcDbLine
 10
-1.0
 20
0.26794919
 30
0.0
 11
0.0
 21
0.0
 31
0.0
  0
LINE
  5
721
330
71F
100
AcDbEntity
  8
0
  6
ByBlock
 62
     0
370
    -2
100
AcDbLine
 10
0.0
 20
0.0
 30
0.0
 11
-1.0
 21
-0.26794919
 31
0.0
  0
LINE
  5
722
330
71F
100
AcDbEntity
  8
0
  6
ByBlock
 62
     0
370
    -2
100
AcDbLine
 10
0.0
 20
0.0
 30
0.0
 11
-1.0
 21
0.0
 31
0.0
  0
ENDBLK
  5
724
330
71F
100
AcDbEntity
  8
0
100
AcDbBlockEnd
  0
BLOCK
  5
7FC
330
7FB
100
AcDbEntity
  8
0
 62
     7
100
AcDbBlockBegin
  2
*D2
 70
     1
 10
0.0
 20
0.0
 30
0.0
  3
*D2
  1

  0
LINE
  5
C28
330
7FB
100
AcDbEntity
  8
PV0001_5
  6
Continuous
 62
     4
370
     9
100
AcDbLine
 10
608.2721978779858
 20
520.1830291747898
 30
0.0
 11
458.34112749847
 21
520.1830291747898
 31
0.0
  0
LINE
  5
C29
330
7FB
100
AcDbEntity
  8
PV0001_5
  6
Continuous
 62
     4
370
     9
100
AcDbLine
 10
640.6572317943758
 20
205.1830291748
 30
0.0
 11
458.34112749847
 21
205.1830291748
 31
0.0
  0
LINE
  5
C2A
330
7FB
100
AcDbEntity
  8
PV0001_5
  6
Continuous
 62
     4
370
     9
100
AcDbLine
 10
469.77112749847
 20
505.1830293983073
 30
0.0
 11
469.77112749847
 21
220.1830289512826
 31
0.0
  0
INSERT
  5
C2B
330
7FB
100
AcDbEntity
  8
PV0001_5
  6
Continuous
 62
     4
370
     9
100
AcDbBlockReference
  2
_Open30
 10
469.77112749847
 20
520.1830291747898
 30
0.0
 41
14.99999977648258
 42
14.99999977648258
 43
14.99999977648258
 50
90.0
  0
INSERT
  5
C2C
330
7FB
100
AcDbEntity
  8
PV0001_5
  6
Continuous
 62
     4
370
     9
100
AcDbBlockReference
  2
_Open30
 10
469.77112749847
 20
205.1830291748
 30
0.0
 41
14.99999977648258
 42
14.99999977648258
 43
14.99999977648258
 50
270.0
  0
MTEXT
  5
C2D
330
7FB
100
AcDbEntity
  8
PV0001_5
  6
Continuous
 62
     4
100
AcDbMText
 10
456.771127692185
 20
362.68302917479
 30
0.0
 40
15.99999976158142
 41
0.0
 71
     5
 72
     1
  1
\A1;315
  7
STD
 11
0.0000000000000001
 21
1.0
 31
0.0
 73
     1
 44
1.0
1001
ACAD
1000
MTEXTBEGIN
1070
    73
1070
     1
1070
    44
1040
1.0
1070
    74
1070
     0
1000
MTEXTEND
  0
POINT
  5
C2E
330
7FB
100
AcDbEntity
  8
Defpoints
  6
Continuous
 62
     0
100
AcDbPoint
 10
613.27219780348
 20
520.1830291747898
 30
0.0
  0
POINT
  5
C2F
330
7FB
100
AcDbEntity
  8
Defpoints
  6
Continuous
 62
     0
100
AcDbPoint
 10
645.6572317198699
 20
205.1830291748
 30
0.0
  0
POINT
  5
C30
330
7FB
100
AcDbEntity
  8
Defpoints
  6
Continuous
 62
     0
100
AcDbPoint
 10
469.77112749847
 20
205.1830291748
 30
0.0
  0
ENDBLK
  5
7FD
330
7FB
100
AcDbEntity
  8
0
 62
     7
100
AcDbBlockEnd
  0
BLOCK
  5
83F
330
83E
100
AcDbEntity
  8
0
 62
     7
100
AcDbBlockBegin
  2
*D3
 70
     1
 10
0.0
 20
0.0
 30
0.0
  3
*D3
  1

  0
LINE
  5
C31
330
83E
100
AcDbEntity
  8
PV0001_5
  6
Continuous
 62
     4
370
     9
100
AcDbLine
 10
585.2652587890499
 20
499.1830291002941
 30
0.0
 11
585.2652587890499
 21
608.7844817313
 31
0.0
  0
LINE
  5
C32
330
83E
100
AcDbEntity
  8
PV0001_5
  6
Continuous
 62
     4
370
     9
100
AcDbLine
 10
1137.26525878905
 20
499.1830291002941
 30
0.0
 11
1137.26525878905
 21
608.7844817313
 31
0.0
  0
LINE
  5
C33
330
83E
100
AcDbEntity
  8
PV0001_5
  6
Continuous
 62
     4
370
     9
100
AcDbLine
 10
600.2652585655326
 20
597.3544817312999
 30
0.0
 11
1122.265259012567
 21
597.3544817312999
 31
0.0
  0
INSERT
  5
C34
330
83E
100
AcDbEntity
  8
PV0001_5
  6
Continuous
 62
     4
370
     9
100
AcDbBlockReference
  2
_Open30
 10
585.2652587890499
 20
597.3544817312999
 30
0.0
 41
14.99999977648258
 42
14.99999977648258
 43
14.99999977648258
 50
180.0
  0
INSERT
  5
C35
330
83E
100
AcDbEntity
  8
PV0001_5
  6
Continuous
 62
     4
370
     9
100
AcDbBlockReference
  2
_Open30
 10
1137.26525878905
 20
597.3544817312999
 30
0.0
 41
14.99999977648258
 42
14.99999977648258
 43
14.99999977648258
  0
MTEXT
  5
C36
102
{ACAD_XDICTIONARY
360
C82
102
}
330
83E
100
AcDbEntity
  8
PV0001_5
  6
Continuous
 62
     4
100
AcDbMText
 10
861.2652587890499
 20
610.3544815375848
 30
0.0
 40
15.99999976158142
 41
0.0
 71
     5
 72
     1
  1
\A1;\U+2205552
  7
STD
 73
     1
 44
1.0
1001
ACAD
1000
MTEXTBEGIN
1070
    73
1070
     1
1070
    44
1040
1.0
1070
    74
1070
     0
1000
MTEXTEND
  0
POINT
  5
C37
330
83E
100
AcDbEntity
  8
Defpoints
  6
Continuous
 62
     0
100
AcDbPoint
 10
585.2652587890499
 20
494.1830291747999
 30
0.0
  0
POINT
  5
C38
330
83E
100
AcDbEntity
  8
Defpoints
  6
Continuous
 62
     0
100
AcDbPoint
 10
1137.26525878905
 20
494.1830291747999
 30
0.0
  0
POINT
  5
C39
330
83E
100
AcDbEntity
  8
Defpoints
  6
Continuous
 62
     0
100
AcDbPoint
 10
1137.26525878905
 20
597.3544817312999
 30
0.0
  0
ENDBLK
  5
840
330
83E
100
AcDbEntity
  8
0
 62
     7
100
AcDbBlockEnd
  0
BLOCK
  5
882
330
881
100
AcDbEntity
  8
0
 62
     7
100
AcDbBlockBegin
  2
*D4
 70
     1
 10
0.0
 20
0.0
 30
0.0
  3
*D4
  1

  0
LINE
  5
C3A
330
881
100
AcDbEntity
  8
PV0001_5
  6
Continuous
 62
     4
370
     9
100
AcDbLine
 10
1066.011395522822
 20
408.2796394089223
 30
0.0
 11
1051.034490447913
 21
409.1116896908609
 31
0.0
  0
LINE
  5
C3B
330
881
100
AcDbEntity
  8
PV0001_5
  6
Continuous
 62
     4
370
     9
100
AcDbLine
 10
1104.951348851487
 20
406.1163086684425
 30
0.0
 11
1119.928253926395
 21
405.2842583865039
 31
0.0
  0
MTEXT
  5
C3C
330
881
100
AcDbEntity
  8
PV0001_5
  6
Continuous
 62
     4
100
AcDbMText
 10
1120.985111360856
 20
418.2455901630834
 30
0.0
 40
15.99999976158142
 41
0.0
 71
     5
 72
     1
  1
\A1;9
  7
STD
 11
0.9984603532054148
 21
-0.0554700196224791
 31
0.0
 73
     1
 44
1.0
1001
ACAD
1000
MTEXTBEGIN
1070
    73
1070
     1
1070
    44
1040
1.0
1070
    74
1070
     0
1000
MTEXTEND
  0
LINE
  5
C3D
330
881
100
AcDbEntity
  8
PV0001_5
  6
Continuous
 62
     4
370
     9
100
AcDbLine
 10
1080.988300597729
 20
407.4475891269836
 30
0.0
 11
1089.974443776579
 21
406.9483589503812
 31
0.0
  0
INSERT
  5
C3E
330
881
100
AcDbEntity
  8
PV0001_5
  6
Continuous
 62
     4
370
     9
100
AcDbBlockReference
  2
_Open30
 10
1080.988300597729
 20
407.4475891269836
 30
0.0
 41
14.99999977648258
 42
14.99999977648258
 43
14.99999977648258
 50
356.8201698801383
  0
INSERT
  5
C3F
330
881
100
AcDbEntity
  8
PV0001_5
  6
Continuous
 62
     4
370
     9
100
AcDbBlockReference
  2
_Open30
 10
1089.974443776579
 20
406.9483589503812
 30
0.0
 41
14.99999977648258
 42
14.99999977648258
 43
14.99999977648258
 50
176.8201698801383
  0
POINT
  5
C40
330
881
100
AcDbEntity
  8
Defpoints
  6
Continuous
 62
     0
100
AcDbPoint
 10
1077.279373319369
 20
340.68689811646
 30
0.0
  0
POINT
  5
C41
330
881
100
AcDbEntity
  8
Defpoints
  6
Continuous
 62
     0
100
AcDbPoint
 10
1086.26551649822
 20
340.18766793986
 30
0.0
  0
POINT
  5
C42
330
881
100
AcDbEntity
  8
Defpoints
  6
Continuous
 62
     0
100
AcDbPoint
 10
1089.974443776579
 20
406.9483589503812
 30
0.0
  0
ENDBLK
  5
883
330
881
100
AcDbEntity
  8
0
 62
     7
100
AcDbBlockEnd
  0
BLOCK
  5
8FA
330
8F9
100
AcDbEntity
  8
0
 62
     7
100
AcDbBlockBegin
  2
*D5
 70
     1
 10
0.0
 20
0.0
 30
0.0
  3
*D5
  1

  0
LINE
  5
C43
330
8F9
100
AcDbEntity
  8
PV0001_5
  6
Continuous
 62
     4
370
     9
100
AcDbLine
 10
-1321.394084474708
 20
1369.138127744954
 30
0.0
 11
-1722.854989764394
 21
978.7163788314868
 31
0.0
  0
INSERT
  5
C44
330
8F9
100
AcDbEntity
  8
PV0001_5
  6
Continuous
 62
     4
370
     9
100
AcDbBlockReference
  2
_Open30
 10
-1310.640667537556
 20
1379.595852998099
 30
0.0
 41
14.99999977648258
 42
14.99999977648258
 43
14.99999977648258
 50
44.20132598038073
  0
INSERT
  5
C45
330
8F9
100
AcDbEntity
  8
PV0001_5
  6
Continuous
 62
     4
370
     9
100
AcDbBlockReference
  2
_Open30
 10
-1733.608406701545
 20
968.2586535783416
 30
0.0
 41
14.99999977648258
 42
14.99999977648258
 43
14.99999977648258
 50
224.2013259803807
  0
MTEXT
  5
C46
330
8F9
100
AcDbEntity
  8
PV0001_5
  6
Continuous
 62
     4
100
AcDbMText
 10
-1531.195067950341
 20
1183.23990948348
 30
0.0
 40
15.99999976158142
 41
0.0
 71
     5
 72
     1
  1
\A1;\U+2205590
  7
STD
 11
0.716894473159319
 21
0.6971816939318061
 31
0.0
 73
     1
 44
1.0
1001
ACAD
1000
MTEXTBEGIN
1070
    73
1070
     1
1070
    44
1040
1.0
1070
    74
1070
     0
1000
MTEXTEND
  0
POINT
  5
C47
330
8F9
100
AcDbEntity
  8
Defpoints
  6
Continuous
 62
     0
100
AcDbPoint
 10
-1733.608406701545
 20
968.2586535783416
 30
0.0
  0
POINT
  5
C48
330
8F9
100
AcDbEntity
  8
Defpoints
  6
Continuous
 62
     0
100
AcDbPoint
 10
-1310.640667537556
 20
1379.595852998099
 30
0.0
  0
ENDBLK
  5
8FB
330
8F9
100
AcDbEntity
  8
0
 62
     7
100
AcDbBlockEnd
  0
BLOCK
  5
93A
330
939
100
AcDbEntity
  8
0
 62
     7
100
AcDbBlockBegin
  2
*D6
 70
     1
 10
0.0
 20
0.0
 30
0.0
  3
*D6
  1

  0
LINE
  5
C49
330
939
100
AcDbEntity
  8
PV0001_5
  6
Continuous
 62
     4
370
     9
100
AcDbLine
 10
866.2652587145442
 20
239.1830291748
 30
0.0
 11
1249.48311119909
 21
239.1830291747999
 31
0.0
  0
LINE
  5
C4A
330
939
100
AcDbEntity
  8
PV0001_5
  6
Continuous
 62
     4
370
     9
100
AcDbLine
 10
1114.258319620214
 20
520.1830291747898
 30
0.0
 11
1249.48311119909
 21
520.1830291747898
 31
0.0
  0
LINE
  5
C4B
330
939
100
AcDbEntity
  8
PV0001_5
  6
Continuous
 62
     4
370
     9
100
AcDbLine
 10
1238.05311119909
 20
254.1830289512824
 30
0.0
 11
1238.05311119909
 21
505.1830293983072
 31
0.0
  0
INSERT
  5
C4C
330
939
100
AcDbEntity
  8
PV0001_5
  6
Continuous
 62
     4
370
     9
100
AcDbBlockReference
  2
_Open30
 10
1238.05311119909
 20
239.1830291747999
 30
0.0
 41
14.99999977648258
 42
14.99999977648258
 43
14.99999977648258
 50
270.0
  0
INSERT
  5
C4D
330
939
100
AcDbEntity
  8
PV0001_5
  6
Continuous
 62
     4
370
     9
100
AcDbBlockReference
  2
_Open30
 10
1238.05311119909
 20
520.1830291747898
 30
0.0
 41
14.99999977648258
 42
14.99999977648258
 43
14.99999977648258
 50
90.0
  0
MTEXT
  5
C4E
330
939
100
AcDbEntity
  8
PV0001_5
  6
Continuous
 62
     4
100
AcDbMText
 10
1225.053111392805
 20
379.6830291748
 30
0.0
 40
15.99999976158142
 41
0.0
 71
     5
 72
     1
  1
\A1;(281)
  7
STD
 11
0.0000000000000001
 21
1.0
 31
0.0
 73
     1
 44
1.0
1001
ACAD
1000
MTEXTBEGIN
1070
    73
1070
     1
1070
    44
1040
1.0
1070
    74
1070
     0
1000
MTEXTEND
  0
POINT
  5
C4F
330
939
100
AcDbEntity
  8
Defpoints
  6
Continuous
 62
     0
100
AcDbPoint
 10
861.2652587890499
 20
239.1830291748
 30
0.0
  0
POINT
  5
C50
330
939
100
AcDbEntity
  8
Defpoints
  6
Continuous
 62
     0
100
AcDbPoint
 10
1109.25831969472
 20
520.1830291747898
 30
0.0
  0
POINT
  5
C51
330
939
100
AcDbEntity
  8
Defpoints
  6
Continuous
 62
     0
100
AcDbPoint
 10
1238.05311119909
 20
520.1830291747898
 30
0.0
  0
ENDBLK
  5
93B
330
939
100
AcDbEntity
  8
0
 62
     7
100
AcDbBlockEnd
  0
BLOCK
  5
97D
330
97C
100
AcDbEntity
  8
0
 62
     7
100
AcDbBlockBegin
  2
*D7
 70
     1
 10
0.0
 20
0.0
 30
0.0
  3
*D7
  1

  0
LINE
  5
C52
330
97C
100
AcDbEntity
  8
PV0001_5
  6
Continuous
 62
     4
370
     9
100
AcDbLine
 10
1078.76525878905
 20
200.1830292493058
 30
0.0
 11
1078.76525878905
 21
122.2369520156409
 31
0.0
  0
LINE
  5
C53
330
97C
100
AcDbEntity
  8
PV0001_5
  6
Continuous
 62
     4
370
     9
100
AcDbLine
 10
643.7652587890499
 20
200.1830292493058
 30
0.0
 11
643.7652587890499
 21
122.2369520156409
 31
0.0
  0
LINE
  5
C54
330
97C
100
AcDbEntity
  8
PV0001_5
  6
Continuous
 62
     4
370
     9
100
AcDbLine
 10
1063.765259012567
 20
133.6669520156409
 30
0.0
 11
658.7652585655326
 21
133.6669520156409
 31
0.0
  0
INSERT
  5
C55
330
97C
100
AcDbEntity
  8
PV0001_5
  6
Continuous
 62
     4
370
     9
100
AcDbBlockReference
  2
_Open30
 10
1078.76525878905
 20
133.6669520156409
 30
0.0
 41
14.99999977648258
 42
14.99999977648258
 43
14.99999977648258
  0
INSERT
  5
C56
330
97C
100
AcDbEntity
  8
PV0001_5
  6
Continuous
 62
     4
370
     9
100
AcDbBlockReference
  2
_Open30
 10
643.7652587890499
 20
133.6669520156409
 30
0.0
 41
14.99999977648258
 42
14.99999977648258
 43
14.99999977648258
 50
180.0
  0
MTEXT
  5
C57
102
{ACAD_XDICTIONARY
360
C84
102
}
330
97C
100
AcDbEntity
  8
PV0001_5
  6
Continuous
 62
     4
100
AcDbMText
 10
861.2652587890499
 20
146.6669518219258
 30
0.0
 40
15.99999976158142
 41
0.0
 71
     5
 72
     1
  1
\A1;\U+2205435
  7
STD
 73
     1
 44
1.0
1001
ACAD
1000
MTEXTBEGIN
1070
    73
1070
     1
1070
    44
1040
1.0
1070
    74
1070
     0
1000
MTEXTEND
  0
POINT
  5
C58
330
97C
100
AcDbEntity
  8
Defpoints
  6
Continuous
 62
     0
100
AcDbPoint
 10
1078.76525878905
 20
205.1830291748
 30
0.0
  0
POINT
  5
C59
330
97C
100
AcDbEntity
  8
Defpoints
  6
Continuous
 62
     0
100
AcDbPoint
 10
643.7652587890499
 20
205.1830291748
 30
0.0
  0
POINT
  5
C5A
330
97C
100
AcDbEntity
  8
Defpoints
  6
Continuous
 62
     0
100
AcDbPoint
 10
643.7652587890499
 20
133.6669520156409
 30
0.0
  0
ENDBLK
  5
97E
330
97C
100
AcDbEntity
  8
0
 62
     7
100
AcDbBlockEnd
  0
BLOCK
  5
9C0
330
9BF
100
AcDbEntity
  8
0
 62
     7
100
AcDbBlockBegin
  2
*D8
 70
     1
 10
0.0
 20
0.0
 30
0.0
  3
*D8
  1

  0
LINE
  5
C5B
330
9BF
100
AcDbEntity
  8
PV0001_5
  6
Continuous
 62
     4
370
     9
100
AcDbLine
 10
635.27913697771
 20
525.1830291002841
 30
0.0
 11
635.27913697771
 21
573.0166194569899
 31
0.0
  0
LINE
  5
C5C
330
9BF
100
AcDbEntity
  8
PV0001_5
  6
Continuous
 62
     4
370
     9
100
AcDbLine
 10
1087.25138060039
 20
525.1830291002841
 30
0.0
 11
1087.25138060039
 21
573.0166194569899
 31
0.0
  0
LINE
  5
C5D
330
9BF
100
AcDbEntity
  8
PV0001_5
  6
Continuous
 62
     4
370
     9
100
AcDbLine
 10
650.2791367541925
 20
561.58661945699
 30
0.0
 11
1072.251380823907
 21
561.58661945699
 31
0.0
  0
INSERT
  5
C5E
330
9BF
100
AcDbEntity
  8
PV0001_5
  6
Continuous
 62
     4
370
     9
100
AcDbBlockReference
  2
_Open30
 10
635.27913697771
 20
561.58661945699
 30
0.0
 41
14.99999977648258
 42
14.99999977648258
 43
14.99999977648258
 50
180.0
  0
INSERT
  5
C5F
330
9BF
100
AcDbEntity
  8
PV0001_5
  6
Continuous
 62
     4
370
     9
100
AcDbBlockReference
  2
_Open30
 10
1087.25138060039
 20
561.58661945699
 30
0.0
 41
14.99999977648258
 42
14.99999977648258
 43
14.99999977648258
  0
MTEXT
  5
C60
102
{ACAD_XDICTIONARY
360
C86
102
}
330
9BF
100
AcDbEntity
  8
PV0001_5
  6
Continuous
 62
     4
100
AcDbMText
 10
861.2652587890499
 20
574.5866192632749
 30
0.0
 40
15.99999976158142
 41
0.0
 71
     5
 72
     1
  1
\A1;\U+2205470
  7
STD
 73
     1
 44
1.0
1001
ACAD
1000
MTEXTBEGIN
1070
    73
1070
     1
1070
    44
1040
1.0
1070
    74
1070
     0
1000
MTEXTEND
  0
POINT
  5
C61
330
9BF
100
AcDbEntity
  8
Defpoints
  6
Continuous
 62
     0
100
AcDbPoint
 10
635.27913697771
 20
520.1830291747898
 30
0.0
  0
POINT
  5
C62
330
9BF
100
AcDbEntity
  8
Defpoints
  6
Continuous
 62
     0
100
AcDbPoint
 10
1087.25138060039
 20
520.1830291747898
 30
0.0
  0
POINT
  5
C63
330
9BF
100
AcDbEntity
  8
Defpoints
  6
Continuous
 62
     0
100
AcDbPoint
 10
1087.25138060039
 20
561.58661945699
 30
0.0
  0
ENDBLK
  5
9C1
330
9BF
100
AcDbEntity
  8
0
 62
     7
100
AcDbBlockEnd
  0
ENDSEC
  0
SECTION
  2
ENTITIES
  0
DIMENSION
  5
7FA
330
1F
100
AcDbEntity
  8
PV0001_5
  6
Continuous
 62
     7
100
AcDbDimension
  2
*D2
 10
469.77112749847
 20
205.1830291748
 30
0.0
 11
469.7711274984699
 21
362.68302917479
 31
0.0
 70
   160
  1
<>
 71
     5
 42
314.9999999999899
  3
ASKSTANDARD
100
AcDbAlignedDimension
 13
613.27219780348
 23
520.1830291747898
 33
0.0
 14
645.6572317198699
 24
205.1830291748
 34
0.0
 50
90.0
100
AcDbRotatedDimension
1001
ACAD
1000
DSTYLE
1002
{
1070
    44
1040
2.286000034064056
1070
    40
1040
4.999999925494194
1070
   284
1070
     8
1070
   140
1040
3.2
1070
   271
1070
     0
1070
   173
1070
     1
1070
   343
1005
71F
1070
   344
1005
71F
1002
}
  0
DIMENSION
  5
83D
330
1F
100
AcDbEntity
  8
PV0001_5
  6
Continuous
 62
     7
100
AcDbDimension
  2
*D3
 10
1137.26525878905
 20
597.3544817312999
 30
0.0
 11
861.2652587890499
 21
597.3544817312999
 31
0.0
 70
   160
  1
\U+2205<>
 71
     5
 42
552.0
  3
ASKSTANDARD
100
AcDbAlignedDimension
 13
585.2652587890499
 23
494.1830291747999
 33
0.0
 14
1137.26525878905
 24
494.1830291747999
 34
0.0
100
AcDbRotatedDimension
1001
ACAD
1000
DSTYLE
1002
{
1070
    44
1040
2.286000034064056
1070
    40
1040
4.999999925494194
1070
   284
1070
     8
1070
   140
1040
3.2
1070
   271
1070
     0
1070
   173
1070
     1
1070
   343
1005
71F
1070
   344
1005
71F
1002
}
  0
DIMENSION
  5
880
330
1F
100
AcDbEntity
  8
PV0001_5
  6
Continuous
 62
     7
100
AcDbDimension
  2
*D4
 10
1089.974443776579
 20
406.9483589503812
 30
0.0
 11
1120.26400111651
 21
405.2656057648299
 31
0.0
 70
   160
  1
<>
 71
     5
 42
9.000000000001136
  3
ASKSTANDARD
100
AcDbAlignedDimension
 13
1077.27937331937
 23
340.68689811646
 33
0.0
 14
1086.26551649822
 24
340.18766793986
 34
0.0
 50
356.8201698801383
100
AcDbRotatedDimension
1001
ACAD
1000
DSTYLE
1002
{
1070
    40
1040
4.999999925494194
1070
   284
1070
     8
1070
   140
1040
3.2
1070
   271
1070
     0
1070
   173
1070
     1
1070
   343
1005
71F
1070
   344
1005
71F
1070
    75
1070
     1
1070
    76
1070
     1
1070
   279
1070
     1
1002
}
  0
DIMENSION
  5
8F8
330
1F
100
AcDbEntity
  8
PV0001_5
  6
Continuous
 62
     7
100
AcDbDimension
  2
*D5
 10
-1310.640667537556
 20
1379.595852998099
 30
0.0
 11
-1522.131706064282
 21
1173.920281471281
 31
0.0
 70
   163
  1
<>
 71
     5
 42
589.9999999999882
  3
ASKSTANDARD
100
AcDbDiametricDimension
 15
-1733.608406701545
 25
968.2586535783416
 35
0.0
 40
0.0
1001
ACAD
1000
DSTYLE
1002
{
1070
    40
1040
4.999999925494194
1070
   284
1070
     8
1070
   140
1040
3.2
1070
   271
1070
     0
1070
    45
1040
0.1
1070
   173
1070
     1
1070
   343
1005
71F
1070
   344
1005
71F
1070
     3
1000
\U+2205<>
1002
}
  0
DIMENSION
  5
938
330
1F
100
AcDbEntity
  8
PV0001_5
  6
Continuous
 62
     7
100
AcDbDimension
  2
*D6
 10
1238.05311119909
 20
520.1830291747898
 30
0.0
 11
1238.05311119909
 21
379.6830291748
 31
0.0
 70
   160
  1
(<>)
 71
     5
 42
280.99999999999
  3
ASKSTANDARD
100
AcDbAlignedDimension
 13
861.2652587890499
 23
239.1830291748
 33
0.0
 14
1109.25831969472
 24
520.1830291747898
 34
0.0
 50
90.0
100
AcDbRotatedDimension
1001
ACAD
1000
DSTYLE
1002
{
1070
    44
1040
2.286000034064056
1070
    40
1040
4.999999925494194
1070
   284
1070
     8
1070
   140
1040
3.2
1070
   271
1070
     0
1070
   173
1070
     1
1070
   343
1005
71F
1070
   344
1005
71F
1002
}
  0
DIMENSION
  5
97B
330
1F
100
AcDbEntity
  8
PV0001_5
  6
Continuous
 62
     7
100
AcDbDimension
  2
*D7
 10
643.7652587890499
 20
133.6669520156409
 30
0.0
 11
861.2652587890499
 21
133.6669520156409
 31
0.0
 70
   160
  1
\U+2205<>
 71
     5
 42
435.0
  3
ASKSTANDARD
100
AcDbAlignedDimension
 13
1078.76525878905
 23
205.1830291748
 33
0.0
 14
643.7652587890499
 24
205.1830291748
 34
0.0
100
AcDbRotatedDimension
1001
ACAD
1000
DSTYLE
1002
{
1070
    44
1040
2.286000034064056
1070
    40
1040
4.999999925494194
1070
   284
1070
     8
1070
   140
1040
3.2
1070
   271
1070
     0
1070
   173
1070
     1
1070
   343
1005
71F
1070
   344
1005
71F
1002
}
  0
DIMENSION
  5
9BE
330
1F
100
AcDbEntity
  8
PV0001_5
  6
Continuous
 62
     7
100
AcDbDimension
  2
*D8
 10
1087.25138060039
 20
561.58661945699
 30
0.0
 11
861.2652587890499
 21
561.58661945699
 31
0.0
 70
   160
  1
\U+2205470
 71
     5
 42
451.9722436226799
  3
ASKSTANDARD
100
AcDbAlignedDimension
 13
635.27913697771
 23
520.1830291747898
 33
0.0
 14
1087.25138060039
 24
520.1830291747898
 34
0.0
100
AcDbRotatedDimension
1001
ACAD
1000
DSTYLE
1002
{
1070
    44
1040
2.286000034064056
1070
    40
1040
4.999999925494194
1070
   284
1070
     8
1070
   140
1040
3.2
1070
   271
1070
     0
1070
   173
1070
     1
1070
   343
1005
71F
1070
   344
1005
71F
1002
}
  0
POINT
  5
A01
330
1F
100
AcDbEntity
  8
PV0001_5
  6
Continuous
 62
     4
100
AcDbPoint
 10
-1522.12453711955
 20
1173.92725328822
 30
0.0
  0
POINT
  5
A02
330
1F
100
AcDbEntity
  8
PV0001_5
  6
Continuous
 62
     4
100
AcDbPoint
 10
-1522.12453711955
 20
664.8339398207599
 30
0.0
  0
POINT
  5
A03
330
1F
100
AcDbEntity
  8
PV0001_5
  6
Continuous
 62
     4
100
AcDbPoint
 10
-1522.12453711955
 20
334.8339398207599
 30
0.0
  0
POINT
  5
A04
330
1F
100
AcDbEntity
  8
PV0001_5
  6
Continuous
 62
     4
100
AcDbPoint
 10
1078.76525878905
 20
205.1830291748
 30
0.0
  0
POINT
  5
A05
330
1F
100
AcDbEntity
  8
PV0001_5
  6
Continuous
 62
     4
100
AcDbPoint
 10
1066.76525878905
 20
212.1830291748
 30
0.0
  0
POINT
  5
A06
330
1F
100
AcDbEntity
  8
PV0001_5
  6
Continuous
 62
     4
100
AcDbPoint
 10
861.2652587890499
 20
230.1830291748
 30
0.0
  0
POINT
  5
A07
330
1F
100
AcDbEntity
  8
PV0001_5
  6
Continuous
 62
     4
100
AcDbPoint
 10
655.7652587890499
 20
212.1830291748
 30
0.0
  0
POINT
  5
A08
330
1F
100
AcDbEntity
  8
PV0001_5
  6
Continuous
 62
     4
100
AcDbPoint
 10
1066.76525878905
 20
212.1830291748
 30
0.0
  0
POINT
  5
A09
330
1F
100
AcDbEntity
  8
PV0001_5
  6
Continuous
 62
     4
100
AcDbPoint
 10
1066.76525878905
 20
205.1830291748
 30
0.0
  0
POINT
  5
A0A
330
1F
100
AcDbEntity
  8
PV0001_5
  6
Continuous
 62
     4
100
AcDbPoint
 10
1070.61016468841
 20
220.641142759157
 30
0.0
  0
POINT
  5
A0B
330
1F
100
AcDbEntity
  8
PV0001_5
  6
Continuous
 62
     4
100
AcDbPoint
 10
1096.26525878905
 20
520.1830291747898
 30
0.0
  0
POINT
  5
A0C
330
1F
100
AcDbEntity
  8
PV0001_5
  6
Continuous
 62
     4
100
AcDbPoint
 10
626.2652587890499
 20
520.1830291747898
 30
0.0
  0
POINT
  5
A0D
330
1F
100
AcDbEntity
  8
PV0001_5
  6
Continuous
 62
     4
100
AcDbPoint
 10
643.7652587890499
 20
205.1830291748
 30
0.0
  0
POINT
  5
A0E
330
1F
100
AcDbEntity
  8
PV0001_5
  6
Continuous
 62
     4
100
AcDbPoint
 10
1087.25138060039
 20
520.1830291747898
 30
0.0
  0
POINT
  5
A0F
330
1F
100
AcDbEntity
  8
PV0001_5
  6
Continuous
 62
     4
100
AcDbPoint
 10
635.27913697771
 20
520.1830291747898
 30
0.0
  0
LINE
  5
A11
330
1F
100
AcDbEntity
  8
PV0001_5
  6
Continuous
 62
     7
100
AcDbLine
 10
645.6572317198699
 20
205.1830291748
 30
0.0
 11
861.2652587890499
 21
205.1830291748
 31
0.0
1001
DEKIMAS
1000
実線（中）
1040
0.25
1001
DIMEXPLODE
1070
     0
  0
LINE
  5
A12
330
1F
100
AcDbEntity
  8
PV0001_5
  6
Continuous
 62
     7
100
AcDbLine
 10
613.2721978833799
 20
520.1830291747898
 30
0.0
 11
861.2652587890499
 21
520.1830291747898
 31
0.0
1001
DEKIMAS
1000
実線（中）
1040
0.25
1001
DIMEXPLODE
1070
     0
  0
LINE
  5
A13
330
1F
100
AcDbEntity
  8
PV0001_5
  6
Continuous
 62
     7
100
AcDbLine
 10
643.6603110134599
 20
207.0720891355549
 30
0.0
 11
628.2097032335
 21
485.1830291747999
 31
0.0
1001
DEKIMAS
1000
実線（中）
1040
0.25
1001
DIMEXPLODE
1070
     0
  0
LINE
  5
A14
330
1F
100
AcDbEntity
  8
PV0001_5
  6
Continuous
 62
     7
 48
0.5
100
AcDbLine
 10
585.2652587890499
 20
494.1830291747999
 30
0.0
 11
586.5069977918999
 21
494.1830291747999
 31
0.0
1001
DEKIMAS
1000
実線（中）
1040
0.25
1001
DIMEXPLODE
1070
     0
  0
LINE
  5
A15
330
1F
100
AcDbEntity
  8
PV0001_5
  6
Continuous
 62
     7
100
AcDbLine
 10
585.2652587890499
 20
485.18302917479
 30
0.0
 11
861.2652587890499
 21
485.18302917479
 31
0.0
1001
DEKIMAS
1000
実線（中）
1040
0.25
1001
DIMEXPLODE
1070
     0
  0
LINE
  5
A16
330
1F
100
AcDbEntity
  8
PV0001_5
  6
Continuous
 62
     7
 48
0.5
100
AcDbLine
 10
600.2617885754901
 20
495.5837654150299
 30
0.0
 11
600.2617885754901
 21
495.1830291748
 31
0.0
1001
DEKIMAS
1000
実線（中）
1040
0.25
1001
DIMEXPLODE
1070
     0
  0
LINE
  5
A17
330
1F
100
AcDbEntity
  8
PV0001_5
  6
Continuous
 62
     7
 48
0.5
100
AcDbLine
 10
585.2652587890499
 20
494.1830291747999
 30
0.0
 11
585.2652587890499
 21
485.1830291747999
 31
0.0
1001
DEKIMAS
1000
実線（中）
1040
0.25
1001
DIMEXPLODE
1070
     0
  0
LINE
  5
A18
330
1F
100
AcDbEntity
  8
PV0001_5
  6
Continuous
 62
     7
 48
0.5
100
AcDbLine
 10
1122.26872900261
 20
495.5837654150299
 30
0.0
 11
1122.26872900261
 21
495.1830291748
 31
0.0
1001
DEKIMAS
1000
実線（中）
1040
0.25
1001
DIMEXPLODE
1070
     0
  0
LINE
  5
A19
330
1F
100
AcDbEntity
  8
PV0001_5
  6
Continuous
 62
     7
100
AcDbLine
 10
1076.87328585823
 20
205.1830291748
 30
0.0
 11
861.2652587890499
 21
205.1830291748
 31
0.0
1001
DEKIMAS
1000
実線（中）
1040
0.25
1001
DIMEXPLODE
1070
     0
  0
LINE
  5
A1A
330
1F
100
AcDbEntity
  8
PV0001_5
  6
Continuous
 62
     7
 48
0.5
100
AcDbLine
 10
1137.26525878905
 20
485.18302917479
 30
0.0
 11
1132.26872900261
 21
485.18302917479
 31
0.0
1001
DEKIMAS
1000
実線（中）
1040
0.25
1001
DIMEXPLODE
1070
     0
  0
LINE
  5
A1B
330
1F
100
AcDbEntity
  8
PV0001_5
  6
Continuous
 62
     7
100
AcDbLine
 10
1109.25831969472
 20
520.1830291747898
 30
0.0
 11
861.2652587890499
 21
520.1830291747898
 31
0.0
1001
DEKIMAS
1000
実線（中）
1040
0.25
1001
DIMEXPLODE
1070
     0
  0
LINE
  5
A1C
330
1F
100
AcDbEntity
  8
PV0001_5
  6
Continuous
 62
     7
100
AcDbLine
 10
1078.87020656464
 20
207.0720891355549
 30
0.0
 11
1094.87095543533
 21
495.0855688079999
 31
0.0
1001
DEKIMAS
1000
実線（中）
1040
0.25
1001
DIMEXPLODE
1070
     0
  0
LINE
  5
A1D
330
1F
100
AcDbEntity
  8
PV0001_5
  6
Continuous
 62
     7
 48
0.5
100
AcDbLine
 10
1137.26525878905
 20
494.1830291747999
 30
0.0
 11
1136.0235197862
 21
494.1830291747999
 31
0.0
1001
DEKIMAS
1000
実線（中）
1040
0.25
1001
DIMEXPLODE
1070
     0
  0
LINE
  5
A1E
330
1F
100
AcDbEntity
  8
PV0001_5
  6
Continuous
 62
     7
 48
0.5
100
AcDbLine
 10
1122.26872900261
 20
495.5837654150299
 30
0.0
 11
1122.26872900261
 21
495.1830291748
 31
0.0
1001
DEKIMAS
1000
実線（中）
1040
0.25
1001
DIMEXPLODE
1070
     0
  0
LINE
  5
A1F
330
1F
100
AcDbEntity
  8
PV0001_5
  6
Continuous
 62
     7
 48
0.5
100
AcDbLine
 10
1137.26525878905
 20
494.1830291747999
 30
0.0
 11
1137.26525878905
 21
485.1830291747999
 31
0.0
1001
DEKIMAS
1000
実線（中）
1040
0.25
1001
DIMEXPLODE
1070
     0
  0
LINE
  5
A20
330
1F
100
AcDbEntity
  8
PV0001_5
  6
Continuous
 62
     7
100
AcDbLine
 10
1071.23355109798
 20
231.862098131459
 30
0.0
 11
1085.80693615756
 21
494.18302920387
 31
0.0
1001
DEKIMAS
1000
実線（中）
1040
0.25
1001
DIMEXPLODE
1070
     0
  0
LINE
  5
A21
330
1F
100
AcDbEntity
  8
PV0001_5
  6
HIDDEN2
 62
     4
 48
0.5
100
AcDbLine
 10
628.2097032335
 20
485.1830291747999
 30
0.0
 11
627.65956214277
 21
495.0855688079999
 31
0.0
1001
DEKIMAS
1000
破線（細）
1040
0.15
1001
DIMEXPLODE
1070
     0
  0
LINE
  5
A22
330
1F
100
AcDbEntity
  8
PV0001_5
  6
CENTER2
 62
     1
100
AcDbLine
 10
861.2652587890499
 20
543.6715504900899
 30
0.0
 11
861.2652587890499
 21
173.0425728645369
 31
0.0
1001
DEKIMAS
1000
一点鎖線（細）
1040
0.15
1001
DIMEXPLODE
1070
     0
  0
LINE
  5
A23
330
1F
100
AcDbEntity
  8
PV0001_5
  6
Continuous
 62
     7
100
AcDbLine
 10
-1817.12453711955
 20
664.8339398207599
 30
0.0
 11
-1227.12453711955
 21
664.8339398207599
 31
0.0
1001
DEKIMAS
1000
実線（中）
1040
0.25
1001
DIMEXPLODE
1070
     0
  0
LINE
  5
A24
330
1F
100
AcDbEntity
  8
PV0001_5
  6
Continuous
 62
     7
100
AcDbLine
 10
-1522.12453711955
 20
1270405.183029175
 30
0.0
 11
-1522.12453711955
 21
-1269594.816970825
 31
0.0
1001
DEKIMAS
1000
実線（中）
1040
0.25
1001
DIMEXPLODE
1070
     0
  0
LINE
  5
A25
330
1F
100
AcDbEntity
  8
PV0001_5
  6
Continuous
 62
     7
100
AcDbLine
 10
-1762.12453711955
 20
334.8339398207599
 30
0.0
 11
-1282.12453711955
 21
334.8339398207599
 31
0.0
1001
DEKIMAS
1000
実線（中）
1040
0.25
1001
DIMEXPLODE
1070
     0
  0
LINE
  5
A26
330
1F
100
AcDbEntity
  8
PV0001_5
  6
Continuous
 62
     7
 48
0.5
100
AcDbLine
 10
1066.76525878905
 20
209.6635240339013
 30
0.0
 11
1066.76525878905
 21
208.1830291748
 31
0.0
1001
DEKIMAS
1000
実線（中）
1040
0.25
1001
DIMEXPLODE
1070
     0
  0
LINE
  5
A27
330
1F
100
AcDbEntity
  8
PV0001_5
  6
HIDDEN2
 62
     4
 48
0.5
100
AcDbLine
 10
655.7652587890499
 20
209.6635240339013
 30
0.0
 11
655.7652587890499
 21
208.1830291748
 31
0.0
1001
DEKIMAS
1000
破線（細）
1040
0.15
1001
DIMEXPLODE
1070
     0
  0
LINE
  5
A28
330
1F
100
AcDbEntity
  8
PV0001_5
  6
HIDDEN2
 62
     4
100
AcDbLine
 10
641.08996392403
 20
415.58814414118
 30
0.0
 11
636.7235814205399
 21
494.18302920387
 31
0.0
1001
DEKIMAS
1000
破線（細）
1040
0.15
1001
DIMEXPLODE
1070
     0
  0
ARC
  5
A29
330
1F
100
AcDbEntity
  8
PV0001_5
  6
HIDDEN2
 62
     4
 48
0.5
100
AcDbCircle
 10
590.26178857549
 20
495.1830291747899
 30
0.0
 40
10.0
100
AcDbArc
 50
270.0
 51
0.0
1001
DEKIMAS
1000
破線（細）
1040
0.15
1001
DIMEXPLODE
1070
     0
  0
ARC
  5
A2A
330
1F
100
AcDbEntity
  8
PV0001_5
  6
Continuous
 62
     7
 48
0.5
100
AcDbCircle
 10
586.5069977918999
 20
499.1830291747899
 30
0.0
 40
5.0
100
AcDbArc
 50
270.0
 51
353.0377816120334
1001
DEKIMAS
1000
実線（中）
1040
0.25
1001
DIMEXPLODE
1070
     0
  0
ARC
  5
A2B
330
1F
100
AcDbEntity
  8
PV0001_5
  6
Continuous
 62
     7
 48
0.5
100
AcDbCircle
 10
645.6572317198699
 20
207.1830291748
 30
0.0
 40
2.0
100
AcDbArc
 50
183.1798301198649
 51
270.0
1001
DEKIMAS
1000
実線（中）
1040
0.25
1001
DIMEXPLODE
1070
     0
  0
ARC
  5
A2C
330
1F
100
AcDbEntity
  8
PV0001_5
  6
Continuous
 62
     7
 48
0.5
100
AcDbCircle
 10
1132.26872900261
 20
495.1830291747899
 30
0.0
 40
10.0
100
AcDbArc
 50
180.0
 51
270.0
1001
DEKIMAS
1000
実線（中）
1040
0.25
1001
DIMEXPLODE
1070
     0
  0
ARC
  5
A2D
330
1F
100
AcDbEntity
  8
PV0001_5
  6
Continuous
 62
     7
 48
0.5
100
AcDbCircle
 10
1136.0235197862
 20
499.1830291747899
 30
0.0
 40
5.0
100
AcDbArc
 50
186.9622183879665
 51
270.0
1001
DEKIMAS
1000
実線（中）
1040
0.25
1001
DIMEXPLODE
1070
     0
  0
ARC
  5
A2E
330
1F
100
AcDbEntity
  8
PV0001_5
  6
Continuous
 62
     7
 48
0.5
100
AcDbCircle
 10
1076.87328585823
 20
207.1830291748
 30
0.0
 40
2.0
100
AcDbArc
 50
270.0
 51
356.8201698801383
1001
DEKIMAS
1000
実線（中）
1040
0.25
1001
DIMEXPLODE
1070
     0
  0
CIRCLE
  5
A2F
330
1F
100
AcDbEntity
  8
PV0001_5
  6
Continuous
 62
     7
100
AcDbCircle
 10
-1522.12453711955
 20
1173.92725328822
 30
0.0
 40
295.0
1001
DEKIMAS
1000
実線（中）
1040
0.25
  0
CIRCLE
  5
A30
330
1F
100
AcDbEntity
  8
PV0001_5
  6
Continuous
 62
     7
100
AcDbCircle
 10
-1522.12453711955
 20
1173.92725328822
 30
0.0
 40
280.0
1001
DEKIMAS
1000
実線（中）
1040
0.25
  0
CIRCLE
  5
A31
330
1F
100
AcDbEntity
  8
PV0001_5
  6
Continuous
 62
     7
100
AcDbCircle
 10
-1522.12453711955
 20
1173.92725328822
 30
0.0
 40
260.0
1001
DEKIMAS
1000
実線（中）
1040
0.25
  0
CIRCLE
  5
A32
330
1F
100
AcDbEntity
  8
PV0001_5
  6
Continuous
 62
     7
100
AcDbCircle
 10
-1522.12453711955
 20
1173.92725328822
 30
0.0
 40
290.0
1001
DEKIMAS
1000
実線（中）
1040
0.25
  0
ARC
  5
A33
330
1F
100
AcDbEntity
  8
PV0001_5
  6
Continuous
 62
     7
100
AcDbCircle
 10
861.2652587890499
 20
-951.8794708252
 30
0.0
 40
1182.0625
100
AcDbArc
 50
80.11061317665479
 51
90.0
1001
DEKIMAS
1000
実線（中）
1040
0.25
1001
DIMEXPLODE
1070
     0
  0
ARC
  5
A34
330
1F
100
AcDbEntity
  8
PV0001_5
  6
Continuous
 62
     7
100
AcDbCircle
 10
861.2652587890499
 20
-951.8794708252
 30
0.0
 40
1191.0625
100
AcDbArc
 50
80.41528825342302
 51
90.0
1001
DEKIMAS
1000
実線（中）
1040
0.25
1001
DIMEXPLODE
1070
     0
  0
ARC
  5
A35
330
1F
100
AcDbEntity
  8
PV0001_5
  6
Continuous
 62
     7
 48
0.5
100
AcDbCircle
 10
1063.76525878905
 20
209.6635240339013
 30
0.0
 40
3.0
100
AcDbArc
 50
0.0
 51
80.11061317665479
1001
DEKIMAS
1000
実線（中）
1040
0.25
1001
DIMEXPLODE
1070
     0
  0
ARC
  5
A36
330
1F
100
AcDbEntity
  8
PV0001_5
  6
Continuous
 62
     7
 48
0.5
100
AcDbCircle
 10
1069.76525878905
 20
208.1830291748
 30
0.0
 40
3.0
100
AcDbArc
 50
180.0
 51
270.0
1001
DEKIMAS
1000
実線（中）
1040
0.25
1001
DIMEXPLODE
1070
     0
  0
ARC
  5
A37
330
1F
100
AcDbEntity
  8
PV0001_5
  6
Continuous
 62
     7
 48
0.5
100
AcDbCircle
 10
1061.24894756592
 20
232.416798327685
 30
0.0
 40
10.0
100
AcDbArc
 50
260.415288253423
 51
356.8201698801383
1001
DEKIMAS
1000
実線（中）
1040
0.25
1001
DIMEXPLODE
1070
     0
  0
ARC
  5
A38
330
1F
100
AcDbEntity
  8
PV0001_5
  6
HIDDEN2
 62
     4
 48
0.5
100
AcDbCircle
 10
652.76525878905
 20
208.1830291748
 30
0.0
 40
3.0
100
AcDbArc
 50
270.0
 51
0.0
1001
DEKIMAS
1000
破線（細）
1040
0.15
1001
DIMEXPLODE
1070
     0
  0
ARC
  5
A39
330
1F
100
AcDbEntity
  8
PV0001_5
  6
HIDDEN2
 62
     4
 48
0.5
100
AcDbCircle
 10
658.76525878905
 20
209.6635240339013
 30
0.0
 40
3.0
100
AcDbArc
 50
99.8893868233452
 51
180.0
1001
DEKIMAS
1000
破線（細）
1040
0.15
1001
DIMEXPLODE
1070
     0
  0
ARC
  5
A3A
330
1F
100
AcDbEntity
  8
PV0001_5
  6
HIDDEN2
 62
     4
100
AcDbCircle
 10
861.2652587890499
 20
-951.8794708252
 30
0.0
 40
1182.0625
100
AcDbArc
 50
90.0
 51
99.8893868233452
1001
DEKIMAS
1000
破線（細）
1040
0.15
1001
DIMEXPLODE
1070
     0
  0
ELLIPSE
  5
A3B
330
1F
100
AcDbEntity
  8
PV0001_5
  6
Continuous
 62
     7
100
AcDbEllipse
 10
613.99442010561
 20
494.18302917479
 30
0.0
 11
-3.015913251870017
 21
25.86684440380998
 31
0.0
210
0.0
220
0.0
230
1.0
 40
0.8713763714016
 41
6.181935654224657
 42
7.582919882105395
1001
DEKIMAS
1000
実線（中）
1040
0.25
  0
SPLINE
  5
A3E
330
1F
100
AcDbEntity
  8
PV0001_5
  6
HIDDEN2
 62
     4
100
AcDbSpline
210
0.0
220
0.0
230
1.0
 70
     8
 71
     3
 72
    16
 73
    12
 74
     0
 42
0.0000000001
 43
0.0000000001
 40
6.181935654224657
 40
6.181935654224657
 40
6.181935654224657
 40
6.181935654224657
 40
6.470572495438181
 40
6.470572495438181
 40
6.759209336651705
 40
6.759209336651705
 40
7.047846177865229
 40
7.047846177865229
 40
7.336483019078753
 40
7.336483019078753
 40
7.582919882105395
 40
7.582919882105395
 40
7.582919882105395
 40
7.582919882105395
 10
613.2721978396752
 20
511.1830291747912
 30
0.0
 10
612.0758927271338
 20
511.1830291699804
 30
0.0
 10
610.8983217275412
 20
510.9872968084139
 30
0.0
 10
608.6047021618687
 20
510.2008294330969
 30
0.0
 10
607.4871278296699
 20
509.6080068226889
 30
0.0
 10
605.3811003456984
 20
508.0058585083297
 30
0.0
 10
604.3939266213083
 20
506.994700189515
 30
0.0
 10
602.6701935025307
 20
504.586851619955
 30
0.0
 10
601.9355126450118
 20
503.1902707757806
 30
0.0
 10
600.9160106078913
 20
500.3479678180524
 30
0.0
 10
600.5813667148496
 20
498.9403915368377
 30
0.0
 10
600.4037659655872
 20
497.4860217126007
 30
0.0
1001
DEKIMAS
1000
破線（細）
1040
0.15
  0
ELLIPSE
  5
A40
330
1F
100
AcDbEntity
  8
PV0001_5
  6
Continuous
 62
     7
100
AcDbEllipse
 10
1108.53609747249
 20
494.18302917479
 30
0.0
 11
3.015913251870017
 21
25.86684440380998
 31
0.0
210
0.0
220
0.0
230
1.0
 40
0.8713763714016
 41
4.983450732253777
 42
7.955231289324879
1001
DEKIMAS
1000
実線（中）
1040
0.25
  0
SPLINE
  5
A43
330
1F
100
AcDbEntity
  8
PV0001_5
  6
Continuous
 62
     7
100
AcDbSpline
210
0.0
220
0.0
230
1.0
 70
     8
 71
     3
 72
    30
 73
    26
 74
     0
 42
0.0000000001
 43
0.0000000001
 40
4.983450732253777
 40
4.983450732253777
 40
4.983450732253777
 40
4.983450732253777
 40
5.162863146556954
 40
5.162863146556954
 40
5.437746035446687
 40
5.437746035446687
 40
5.712628924336419
 40
5.712628924336419
 40
5.987511813226151
 40
5.987511813226151
 40
6.262394702115884
 40
6.262394702115884
 40
6.537277591005616
 40
6.537277591005616
 40
6.812160479895348
 40
6.812160479895348
 40
7.087043368785081
 40
7.087043368785081
 40
7.361926257674813
 40
7.361926257674813
 40
7.636809146564545
 40
7.636809146564545
 40
7.911692035454278
 40
7.911692035454278
 40
7.955231289324879
 40
7.955231289324879
 40
7.955231289324879
 40
7.955231289324879
 10
1122.126751612512
 20
497.4860217126007
 30
0.0
 10
1121.997453670574
 20
498.5448405851159
 30
0.0
 10
1121.78525358717
 20
499.579095528827
 30
0.0
 10
1121.05750656287
 20
502.0837181921461
 30
0.0
 10
1120.439993438511
 20
503.4917453916325
 30
0.0
 10
1118.942141545571
 20
505.9808757256307
 30
0.0
 10
1118.063137465392
 20
507.0615727276391
 30
0.0
 10
1116.152041934477
 20
508.8450278639523
 30
0.0
 10
1115.121337459213
 20
509.5487200132883
 30
0.0
 10
1112.988847901686
 20
510.5850342927529
 30
0.0
 10
1111.886769488306
 20
510.9195725057889
 30
0.0
 10
1109.6426161344
 20
511.2356583664952
 30
0.0
 10
1108.498456604363
 20
511.2176444097544
 30
0.0
 10
1106.189320087955
 20
510.812729430929
 30
0.0
 10
1105.02327973095
 20
510.4241585573584
 30
0.0
 10
1102.736006703212
 20
509.2484379524021
 30
0.0
 10
1101.615724399446
 20
508.4598648829945
 30
0.0
 10
1099.533990490385
 20
506.4963083631645
 30
0.0
 10
1098.573975192235
 20
505.3212461344537
 30
0.0
 10
1096.933206349885
 20
502.66325311485
 30
0.0
 10
1096.253395641327
 20
501.1810128879374
 30
0.0
 10
1095.261557405189
 20
498.0417663394947
 30
0.0
 10
1094.949949345439
 20
496.3856598143897
 30
0.0
 10
1094.823110114371
 20
494.4598791395828
 30
0.0
 10
1094.810779453175
 20
494.1964119695
 30
0.0
 10
1094.803465942375
 20
493.9331255899457
 30
0.0
1001
DEKIMAS
1000
実線（中）
1040
0.25
  0
ELLIPSE
  5
A44
330
1F
100
AcDbEntity
  8
PV0001_5
  6
HIDDEN2
 62
     4
100
AcDbEllipse
 10
613.99442010561
 20
494.18302917479
 30
0.0
 11
-3.015913251870017
 21
25.86684440380998
 31
0.0
210
0.0
220
0.0
230
1.0
 40
0.8713763714016
 41
4.611139325033943
 42
6.181935633151293
1001
DEKIMAS
1000
破線（細）
1040
0.15
  0
POINT
  5
B73
330
1F
100
AcDbEntity
  8
F00001_1
  6
Continuous
 62
     4
100
AcDbPoint
 10
138.7500107663162
 20
1371.24999602736
 30
0.0
1001
ASKOBJSC
1000
1/1
1001
ASKDWGSC
1040
5.0
  0
POINT
  5
B74
330
1F
100
AcDbEntity
  8
F00001_1
  6
Continuous
 62
     4
100
AcDbPoint
 10
287.5000085497685
 20
1371.24999602736
 30
0.0
1001
ASKOBJSC
1000
1/1
1001
ASKDWGSC
1040
5.0
  0
POINT
  5
B75
330
1F
100
AcDbEntity
  8
F00001_1
  6
Continuous
 62
     4
100
AcDbPoint
 10
443.750006221452
 20
1371.24999602736
 30
0.0
1001
ASKOBJSC
1000
1/1
1001
ASKDWGSC
1040
5.0
  0
POINT
  5
B76
330
1F
100
AcDbEntity
  8
F00001_1
  6
Continuous
 62
     4
100
AcDbPoint
 10
582.500004153916
 20
1371.24999602736
 30
0.0
1001
ASKOBJSC
1000
1/1
1001
ASKDWGSC
1040
5.0
  0
POINT
  5
B77
330
1F
100
AcDbEntity
  8
F00001_1
  6
Continuous
 62
     4
100
AcDbPoint
 10
1557.499989625244
 20
212.50001329411
 30
0.0
1001
ASKOBJSC
1000
1/1
1001
ASKDWGSC
1040
5.0
  0
POINT
  5
B78
330
1F
100
AcDbEntity
  8
F00001_1
  6
Continuous
 62
     4
100
AcDbPoint
 10
1492.499990593819
 20
212.50001329411
 30
0.0
1001
ASKOBJSC
1000
1/1
1001
ASKDWGSC
1040
5.0
  0
POINT
  5
B79
330
1F
100
AcDbEntity
  8
F00001_1
  6
Continuous
 62
     4
100
AcDbPoint
 10
1427.499991562395
 20
212.50001329411
 30
0.0
1001
ASKOBJSC
1000
1/1
1001
ASKDWGSC
1040
5.0
  0
POINT
  5
B7A
330
1F
100
AcDbEntity
  8
F00001_1
  6
Continuous
 62
     4
100
AcDbPoint
 10
1589.317616104274
 20
170.45495471653
 30
0.0
1001
ASKOBJSC
1000
1/1
1001
ASKDWGSC
1040
5.0
  0
POINT
  5
B7B
330
1F
100
AcDbEntity
  8
F00001_1
  6
Continuous
 62
     4
100
AcDbPoint
 10
1613.182438136361
 20
154.5450733618109
 30
0.0
1001
ASKOBJSC
1000
1/1
1001
ASKDWGSC
1040
5.0
  0
POINT
  5
B7C
330
1F
100
AcDbEntity
  8
F00001_1
  6
Continuous
 62
     4
100
AcDbPoint
 10
1471.249990910469
 20
162.5000140391681
 30
0.0
1001
ASKOBJSC
1000
1/1
1001
ASKDWGSC
1040
5.0
  0
POINT
  5
B7D
330
1F
100
AcDbEntity
  8
F00001_1
  6
Continuous
 62
     4
100
AcDbPoint
 10
1622.499988656668
 20
212.50001329411
 30
0.0
1001
ASKOBJSC
1000
1/1
1001
ASKDWGSC
1040
5.0
  0
POINT
  5
B7E
330
1F
100
AcDbEntity
  8
F00001_1
  6
Continuous
 62
     4
100
AcDbPoint
 10
1712.499987315564
 20
162.5000140391681
 30
0.0
1001
ASKOBJSC
1000
1/1
1001
ASKDWGSC
1040
5.0
  0
POINT
  5
B7F
330
1F
100
AcDbEntity
  8
F00001_1
  6
Continuous
 62
     4
100
AcDbPoint
 10
1712.499987315564
 20
212.50001329411
 30
0.0
1001
ASKOBJSC
1000
1/1
1001
ASKDWGSC
1040
5.0
  0
POINT
  5
B80
330
1F
100
AcDbEntity
  8
F00001_1
  6
Continuous
 62
     4
100
AcDbPoint
 10
1479.999990780084
 20
377.5000108354185
 30
0.0
1001
ASKOBJSC
1000
1/1
1001
ASKDWGSC
1040
5.0
  0
POINT
  5
B81
330
1F
100
AcDbEntity
  8
F00001_1
  6
Continuous
 62
     4
100
AcDbPoint
 10
1792.499986123471
 20
377.5000108354185
 30
0.0
1001
ASKOBJSC
1000
1/1
1001
ASKDWGSC
1040
5.0
  0
POINT
  5
B82
330
1F
100
AcDbEntity
  8
F00001_1
  6
Continuous
 62
     4
100
AcDbPoint
 10
1697.499987539081
 20
377.5000108354185
 30
0.0
1001
ASKOBJSC
1000
1/1
1001
ASKDWGSC
1040
5.0
  0
POINT
  5
B83
330
1F
100
AcDbEntity
  8
F00001_1
  6
Continuous
 62
     4
100
AcDbPoint
 10
1424.999991599648
 20
377.5000108354185
 30
0.0
1001
ASKOBJSC
1000
1/1
1001
ASKDWGSC
1040
5.0
  0
POINT
  5
B84
330
1F
100
AcDbEntity
  8
F00001_1
  6
Continuous
 62
     4
100
AcDbPoint
 10
1642.499988358645
 20
377.5000108354185
 30
0.0
1001
ASKOBJSC
1000
1/1
1001
ASKDWGSC
1040
5.0
  0
POINT
  5
B85
330
1F
100
AcDbEntity
  8
F00001_1
  6
Continuous
 62
     4
100
AcDbPoint
 10
1844.99998534116
 20
377.5000108354185
 30
0.0
1001
ASKOBJSC
1000
1/1
1001
ASKDWGSC
1040
5.0
  0
POINT
  5
B86
330
1F
100
AcDbEntity
  8
F00001_1
  6
Continuous
 62
     4
100
AcDbPoint
 10
1554.999989662497
 20
293.7500120833907
 30
0.0
1001
ASKOBJSC
1000
1/1
1001
ASKDWGSC
1040
5.0
  0
POINT
  5
B87
330
1F
100
AcDbEntity
  8
F00001_1
  6
Continuous
 62
     4
100
AcDbPoint
 10
1977.500212248603
 20
102.2927242869171
 30
0.0
1001
ASKOBJSC
1000
1/1
1001
ASKDWGSC
1040
5.0
  0
POINT
  5
B88
330
1F
100
AcDbEntity
  8
F00001_1
  6
Continuous
 62
     4
100
AcDbPoint
 10
1704.999987427322
 20
106.2500148773627
 30
0.0
1001
ASKOBJSC
1000
1/1
1001
ASKDWGSC
1040
5.0
  0
POINT
  5
B89
330
1F
100
AcDbEntity
  8
F00001_1
  6
Continuous
 62
     4
100
AcDbPoint
 10
1054.999997113112
 20
747.5000053219587
 30
0.0
1001
ASKOBJSC
1000
1/1
1001
ASKDWGSC
1040
5.0
  0
POINT
  5
B8A
330
1F
100
AcDbEntity
  8
F00001_1
  6
Continuous
 62
     4
100
AcDbPoint
 10
2109.999981392352
 20
0.0000164606115618
 30
0.0
1001
ASKOBJSC
1000
1/1
1001
ASKDWGSC
1040
5.0
  0
POINT
  5
B8B
330
1F
100
AcDbEntity
  8
F00001_1
  6
Continuous
 62
     4
100
AcDbPoint
 10
2004.999982956975
 20
325.0000116177294
 30
0.0
1001
ASKOBJSC
1000
1/1
1001
ASKDWGSC
1040
5.0
  0
POINT
  5
B8C
330
1F
100
AcDbEntity
  8
F00001_1
  6
Continuous
 62
     4
100
AcDbPoint
 10
2016.546689938266
 20
421.4391810180787
 30
0.0
1001
ASKOBJSC
1000
1/1
1001
ASKDWGSC
1040
5.0
  0
POINT
  5
B8D
330
1F
100
AcDbEntity
  8
F00001_1
  6
Continuous
 62
     4
100
AcDbPoint
 10
138.7500107663162
 20
1371.24999602736
 30
0.0
1001
ASKOBJSC
1000
1/1
1001
ASKDWGSC
1040
5.0
  0
POINT
  5
B8E
330
1F
100
AcDbEntity
  8
F00001_1
  6
Continuous
 62
     4
100
AcDbPoint
 10
443.750006221452
 20
1371.24999602736
 30
0.0
1001
ASKOBJSC
1000
1/1
1001
ASKDWGSC
1040
5.0
  0
POINT
  5
B8F
330
1F
100
AcDbEntity
  8
F00001_1
  6
Continuous
 62
     4
100
AcDbPoint
 10
582.500004153916
 20
1371.24999602736
 30
0.0
1001
ASKOBJSC
1000
1/1
1001
ASKDWGSC
1040
5.0
  0
POINT
  5
B90
330
1F
100
AcDbEntity
  8
F00001_1
  6
Continuous
 62
     4
100
AcDbPoint
 10
188.4999947661837
 20
1371.24999602736
 30
0.0
1001
ASKOBJSC
1000
1/1
1001
ASKDWGSC
1040
5.0
  0
POINT
  5
B91
330
1F
100
AcDbEntity
  8
F00001_1
  6
Continuous
 62
     4
100
AcDbPoint
 10
105.0000112692304
 20
1387.499995785216
 30
0.0
1001
ASKOBJSC
1000
1/1
1001
ASKDWGSC
1040
5.0
  0
LINE
  5
B92
330
1F
100
AcDbEntity
  8
F00001_1
  6
Continuous
 62
     4
100
AcDbLine
 10
5.000012759346532
 20
1489.999994257846
 30
0.0
 11
5.000012759346532
 21
1439.999995002905
 31
0.0
1001
DEKIMAS
1000
実線（細）
1040
0.15
1001
DIMEXPLODE
1070
     0
1001
ASKOBJSC
1000
1/1
1001
ASKDWGSC
1040
5.0
  0
LINE
  5
B93
330
1F
100
AcDbEntity
  8
F00001_1
  6
Continuous
 62
     4
100
AcDbLine
 10
2104.999981466858
 20
1489.999994257846
 30
0.0
 11
2104.999981466858
 21
1439.999995002905
 31
0.0
1001
DEKIMAS
1000
実線（細）
1040
0.15
1001
DIMEXPLODE
1070
     0
1001
ASKOBJSC
1000
1/1
1001
ASKDWGSC
1040
5.0
  0
LINE
  5
B94
330
1F
100
AcDbEntity
  8
F00001_1
  6
Continuous
 62
     4
100
AcDbLine
 10
5.000012759346532
 20
1489.999994257846
 30
0.0
 11
55.00001201428847
 21
1489.999994257846
 31
0.0
1001
DEKIMAS
1000
実線（細）
1040
0.15
1001
DIMEXPLODE
1070
     0
1001
ASKOBJSC
1000
1/1
1001
ASKDWGSC
1040
5.0
  0
LINE
  5
B95
330
1F
100
AcDbEntity
  8
F00001_1
  6
Continuous
 62
     4
100
AcDbLine
 10
5.000012759346532
 20
5.000016386105755
 30
0.0
 11
55.00001201428847
 21
5.000016386105755
 31
0.0
1001
DEKIMAS
1000
実線（細）
1040
0.15
1001
DIMEXPLODE
1070
     0
1001
ASKOBJSC
1000
1/1
1001
ASKDWGSC
1040
5.0
  0
LINE
  5
B96
330
1F
100
AcDbEntity
  8
F00001_1
  6
Continuous
 62
     2
100
AcDbLine
 10
1394.999992046682
 20
325.0000116177294
 30
0.0
 11
1394.999992046682
 21
75.00001534302402
 31
0.0
1001
DEKIMAS
1000
実線（太）
1040
0.5
1001
DIMEXPLODE
1070
     0
1001
ASKOBJSC
1000
1/1
1001
ASKDWGSC
1040
5.0
  0
LINE
  5
B97
330
1F
100
AcDbEntity
  8
F00001_1
  6
Continuous
 62
     2
100
AcDbLine
 10
1394.999992046682
 20
325.0000116177294
 30
0.0
 11
2004.999982956975
 21
325.0000116177294
 31
0.0
1001
DEKIMAS
1000
実線（太）
1040
0.5
1001
DIMEXPLODE
1070
     0
1001
ASKOBJSC
1000
1/1
1001
ASKDWGSC
1040
5.0
  0
LINE
  5
B98
330
1F
100
AcDbEntity
  8
F00001_1
  6
Continuous
 62
     4
100
AcDbLine
 10
1394.999992046682
 20
262.500012549052
 30
0.0
 11
2004.999982956975
 21
262.500012549052
 31
0.0
1001
DEKIMAS
1000
実線（細）
1040
0.15
1001
DIMEXPLODE
1070
     0
1001
ASKOBJSC
1000
1/1
1001
ASKDWGSC
1040
5.0
  0
LINE
  5
B99
330
1F
100
AcDbEntity
  8
F00001_1
  6
Continuous
 62
     4
100
AcDbLine
 10
1394.999992046682
 20
137.5000144116971
 30
0.0
 11
2004.999982956975
 21
137.5000144116971
 31
0.0
1001
DEKIMAS
1000
実線（細）
1040
0.15
1001
DIMEXPLODE
1070
     0
1001
ASKOBJSC
1000
1/1
1001
ASKDWGSC
1040
5.0
  0
LINE
  5
B9A
330
1F
100
AcDbEntity
  8
F00001_1
  6
Continuous
 62
     4
100
AcDbLine
 10
1524.999990109531
 20
325.0000116177294
 30
0.0
 11
1524.999990109531
 21
137.5000144116971
 31
0.0
1001
DEKIMAS
1000
実線（細）
1040
0.15
1001
DIMEXPLODE
1070
     0
1001
ASKOBJSC
1000
1/1
1001
ASKDWGSC
1040
5.0
  0
LINE
  5
B9B
330
1F
100
AcDbEntity
  8
F00001_1
  6
Continuous
 62
     4
100
AcDbLine
 10
1459.999991078107
 20
262.500012549052
 30
0.0
 11
1459.999991078107
 21
187.500013666639
 31
0.0
1001
DEKIMAS
1000
実線（細）
1040
0.15
1001
DIMEXPLODE
1070
     0
1001
ASKOBJSC
1000
1/1
1001
ASKDWGSC
1040
5.0
  0
LINE
  5
B9C
330
1F
100
AcDbEntity
  8
F00001_1
  6
Continuous
 62
     4
100
AcDbLine
 10
1394.999992046682
 20
237.500012921581
 30
0.0
 11
1654.99998817238
 21
237.500012921581
 31
0.0
1001
DEKIMAS
1000
実線（細）
1040
0.15
1001
DIMEXPLODE
1070
     0
1001
ASKOBJSC
1000
1/1
1001
ASKDWGSC
1040
5.0
  0
LINE
  5
B9D
330
1F
100
AcDbEntity
  8
F00001_1
  6
Continuous
 62
     4
100
AcDbLine
 10
1394.999992046682
 20
187.500013666639
 30
0.0
 11
1654.99998817238
 21
187.500013666639
 31
0.0
1001
DEKIMAS
1000
実線（細）
1040
0.15
1001
DIMEXPLODE
1070
     0
1001
ASKOBJSC
1000
1/1
1001
ASKDWGSC
1040
5.0
  0
LINE
  5
B9E
330
1F
100
AcDbEntity
  8
F00001_1
  6
Continuous
 62
     4
100
AcDbLine
 10
1417.499991711406
 20
187.500013666639
 30
0.0
 11
1417.499991711406
 21
137.5000144116971
 31
0.0
1001
DEKIMAS
1000
実線（細）
1040
0.15
1001
DIMEXPLODE
1070
     0
1001
ASKOBJSC
1000
1/1
1001
ASKDWGSC
1040
5.0
  0
LINE
  5
B9F
330
1F
100
AcDbEntity
  8
F00001_1
  6
Continuous
 62
     4
100
AcDbLine
 10
1547.499989774255
 20
187.500013666639
 30
0.0
 11
1547.499989774255
 21
137.5000144116971
 31
0.0
1001
DEKIMAS
1000
実線（細）
1040
0.15
1001
DIMEXPLODE
1070
     0
1001
ASKOBJSC
1000
1/1
1001
ASKDWGSC
1040
5.0
  0
LINE
  5
BA0
330
1F
100
AcDbEntity
  8
F00001_1
  6
Continuous
 62
     4
100
AcDbLine
 10
1654.99998817238
 20
262.500012549052
 30
0.0
 11
1654.99998817238
 21
75.00001534302402
 31
0.0
1001
DEKIMAS
1000
実線（細）
1040
0.15
1001
DIMEXPLODE
1070
     0
1001
ASKOBJSC
1000
1/1
1001
ASKDWGSC
1040
5.0
  0
LINE
  5
BA1
330
1F
100
AcDbEntity
  8
F00001_1
  6
Continuous
 62
     4
100
AcDbLine
 10
1589.999989140956
 20
262.500012549052
 30
0.0
 11
1589.999989140956
 21
187.500013666639
 31
0.0
1001
DEKIMAS
1000
実線（細）
1040
0.15
1001
DIMEXPLODE
1070
     0
1001
ASKOBJSC
1000
1/1
1001
ASKDWGSC
1040
5.0
  0
LINE
  5
BA2
330
1F
100
AcDbEntity
  8
F00001_1
  6
Continuous
 62
     4
100
AcDbLine
 10
1682.499987762598
 20
262.500012549052
 30
0.0
 11
1682.499987762598
 21
75.00001534302402
 31
0.0
1001
DEKIMAS
1000
実線（細）
1040
0.15
1001
DIMEXPLODE
1070
     0
1001
ASKOBJSC
1000
1/1
1001
ASKDWGSC
1040
5.0
  0
LINE
  5
BA3
330
1F
100
AcDbEntity
  8
F00001_1
  6
Continuous
 62
     4
100
AcDbLine
 10
1394.999992046682
 20
360.0000110961888
 30
0.0
 11
1394.999992046682
 21
325.0000116177294
 31
0.0
1001
DEKIMAS
1000
実線（細）
1040
0.15
1001
DIMEXPLODE
1070
     0
1001
ASKOBJSC
1000
1/1
1001
ASKDWGSC
1040
5.0
  0
LINE
  5
BA4
330
1F
100
AcDbEntity
  8
F00001_1
  6
Continuous
 62
     4
100
AcDbLine
 10
1394.999992046682
 20
360.0000110961888
 30
0.0
 11
2004.999982956975
 21
360.0000110961888
 31
0.0
1001
DEKIMAS
1000
実線（細）
1040
0.15
1001
DIMEXPLODE
1070
     0
1001
ASKOBJSC
1000
1/1
1001
ASKDWGSC
1040
5.0
  0
LINE
  5
BA5
330
1F
100
AcDbEntity
  8
F00001_1
  6
Continuous
 62
     2
100
AcDbLine
 10
105.0000112692304
 20
1419.999995300928
 30
0.0
 11
105.0000112692304
 21
75.00001534302402
 31
0.0
1001
DEKIMAS
1000
実線（太）
1040
0.5
1001
DIMEXPLODE
1070
     0
1001
ASKOBJSC
1000
1/1
1001
ASKDWGSC
1040
5.0
  0
LINE
  5
BA6
330
1F
100
AcDbEntity
  8
F00001_1
  6
Continuous
 62
     2
100
AcDbLine
 10
2004.999982956975
 20
1419.999995300928
 30
0.0
 11
2004.999982956975
 21
75.00001534302402
 31
0.0
1001
DEKIMAS
1000
実線（太）
1040
0.5
1001
DIMEXPLODE
1070
     0
1001
ASKOBJSC
1000
1/1
1001
ASKDWGSC
1040
5.0
  0
LINE
  5
BA7
330
1F
100
AcDbEntity
  8
F00001_1
  6
Continuous
 62
     2
100
AcDbLine
 10
105.0000112692304
 20
1419.999995300928
 30
0.0
 11
2004.999982956975
 21
1419.999995300928
 31
0.0
1001
DEKIMAS
1000
実線（太）
1040
0.5
1001
DIMEXPLODE
1070
     0
1001
ASKOBJSC
1000
1/1
1001
ASKDWGSC
1040
5.0
  0
LINE
  5
BA8
330
1F
100
AcDbEntity
  8
F00001_1
  6
Continuous
 62
     2
100
AcDbLine
 10
105.0000112692304
 20
75.00001534302402
 30
0.0
 11
2004.999982956975
 21
75.00001534302402
 31
0.0
1001
DEKIMAS
1000
実線（太）
1040
0.5
1001
DIMEXPLODE
1070
     0
1001
ASKOBJSC
1000
1/1
1001
ASKDWGSC
1040
5.0
  0
LINE
  5
BA9
330
1F
100
AcDbEntity
  8
F00001_1
  6
Continuous
 62
     4
100
AcDbLine
 10
105.0000112692304
 20
1387.499995785216
 30
0.0
 11
550.0000046382037
 21
1387.499995785216
 31
0.0
1001
DEKIMAS
1000
実線（細）
1040
0.15
1001
DIMEXPLODE
1070
     0
1001
ASKOBJSC
1000
1/1
1001
ASKDWGSC
1040
5.0
  0
LINE
  5
BAA
330
1F
100
AcDbEntity
  8
F00001_1
  6
Continuous
 62
     4
100
AcDbLine
 10
550.0000046382037
 20
1419.999995300928
 30
0.0
 11
550.0000046382037
 21
1387.499995785216
 31
0.0
1001
DEKIMAS
1000
実線（細）
1040
0.15
1001
DIMEXPLODE
1070
     0
1001
ASKOBJSC
1000
1/1
1001
ASKDWGSC
1040
5.0
  0
LINE
  5
BAB
330
1F
100
AcDbEntity
  8
F00001_1
  6
Continuous
 62
     4
100
AcDbLine
 10
485.0000056067791
 20
1419.999995300928
 30
0.0
 11
485.0000056067791
 21
1387.499995785216
 31
0.0
1001
DEKIMAS
1000
実線（細）
1040
0.15
1001
DIMEXPLODE
1070
     0
1001
ASKOBJSC
1000
1/1
1001
ASKDWGSC
1040
5.0
  0
LINE
  5
BAC
330
1F
100
AcDbEntity
  8
F00001_1
  6
Continuous
 62
     4
100
AcDbLine
 10
402.5000068361249
 20
1419.999995300928
 30
0.0
 11
402.5000068361249
 21
1387.499995785216
 31
0.0
1001
DEKIMAS
1000
実線（細）
1040
0.15
1001
DIMEXPLODE
1070
     0
1001
ASKOBJSC
1000
1/1
1001
ASKDWGSC
1040
5.0
  0
LINE
  5
BAD
330
1F
100
AcDbEntity
  8
F00001_1
  6
Continuous
 62
     4
100
AcDbLine
 10
172.500010263402
 20
1419.999995300928
 30
0.0
 11
172.500010263402
 21
1387.499995785216
 31
0.0
1001
DEKIMAS
1000
実線（細）
1040
0.15
1001
DIMEXPLODE
1070
     0
1001
ASKOBJSC
1000
1/1
1001
ASKDWGSC
1040
5.0
  0
LINE
  5
BAE
330
1F
100
AcDbEntity
  8
F00001_1
  6
Continuous
 62
     4
100
AcDbLine
 10
1585.340137192743
 20
146.5901000360691
 30
0.0
 11
1617.159943213091
 21
178.4099033742073
 31
0.0
1001
DEKIMAS
1000
実線（細）
1040
0.15
1001
DIMEXPLODE
1070
     0
1001
ASKOBJSC
1000
1/1
1001
ASKDWGSC
1040
5.0
  0
LINE
  5
BAF
330
1F
100
AcDbEntity
  8
F00001_1
  6
Continuous
 62
     7
100
AcDbLine
 10
1959.999983627526
 20
92.18919355368241
 30
0.0
 11
1994.999983105986
 21
92.18919355368241
 31
0.0
1001
DEKIMAS
1000
実線（中）
1040
0.25
1001
DIMEXPLODE
1070
     0
1001
ASKOBJSC
1000
1/1
1001
ASKDWGSC
1040
5.0
  0
LINE
  5
BB0
330
1F
100
AcDbEntity
  8
F00001_1
  6
Continuous
 62
     7
100
AcDbLine
 10
1960.000314720621
 20
92.18886794347287
 30
0.0
 11
1977.500316260001
 21
122.4997555849189
 31
0.0
1001
DEKIMAS
1000
実線（中）
1040
0.25
1001
DIMEXPLODE
1070
     0
1001
ASKOBJSC
1000
1/1
1001
ASKDWGSC
1040
5.0
  0
LINE
  5
BB1
330
1F
100
AcDbEntity
  8
F00001_1
  6
Continuous
 62
     7
100
AcDbLine
 10
1977.499992492306
 20
122.5001296863873
 30
0.0
 11
1994.999994031736
 21
92.18924204494129
 31
0.0
1001
DEKIMAS
1000
実線（中）
1040
0.25
1001
DIMEXPLODE
1070
     0
1001
ASKOBJSC
1000
1/1
1001
ASKDWGSC
1040
5.0
  0
LINE
  5
BB2
330
1F
100
AcDbEntity
  8
F00001_1
  6
Continuous
 62
     4
100
AcDbLine
 10
5.000012759346532
 20
55.00001564104724
 30
0.0
 11
5.000012759346532
 21
5.000016386105755
 31
0.0
1001
DEKIMAS
1000
実線（細）
1040
0.15
1001
DIMEXPLODE
1070
     0
1001
ASKOBJSC
1000
1/1
1001
ASKDWGSC
1040
5.0
  0
LINE
  5
BB3
330
1F
100
AcDbEntity
  8
F00001_1
  6
Continuous
 62
     4
100
AcDbLine
 10
2054.999982211916
 20
1489.999994257846
 30
0.0
 11
2104.999981466858
 21
1489.999994257846
 31
0.0
1001
DEKIMAS
1000
実線（細）
1040
0.15
1001
DIMEXPLODE
1070
     0
1001
ASKOBJSC
1000
1/1
1001
ASKDWGSC
1040
5.0
  0
LINE
  5
BB4
330
1F
100
AcDbEntity
  8
F00001_1
  6
Continuous
 62
     4
100
AcDbLine
 10
2104.999981466858
 20
55.00001564104724
 30
0.0
 11
2104.999981466858
 21
5.000016386105755
 31
0.0
1001
DEKIMAS
1000
実線（細）
1040
0.15
1001
DIMEXPLODE
1070
     0
1001
ASKOBJSC
1000
1/1
1001
ASKDWGSC
1040
5.0
  0
LINE
  5
BB5
330
1F
100
AcDbEntity
  8
F00001_1
  6
Continuous
 62
     4
100
AcDbLine
 10
2054.999982211916
 20
5.000016386105755
 30
0.0
 11
2104.999981466858
 21
5.000016386105755
 31
0.0
1001
DEKIMAS
1000
実線（細）
1040
0.15
1001
DIMEXPLODE
1070
     0
1001
ASKOBJSC
1000
1/1
1001
ASKDWGSC
1040
5.0
  0
LINE
  5
BB6
330
1F
100
AcDbEntity
  8
F00001_1
  6
Continuous
 62
     4
100
AcDbLine
 10
1454.999991152613
 20
360.0000110961888
 30
0.0
 11
1454.999991152613
 21
325.0000116177294
 31
0.0
1001
DEKIMAS
1000
実線（細）
1040
0.15
1001
DIMEXPLODE
1070
     0
1001
ASKOBJSC
1000
1/1
1001
ASKDWGSC
1040
5.0
  0
LINE
  5
BB7
330
1F
100
AcDbEntity
  8
F00001_1
  6
Continuous
 62
     4
100
AcDbLine
 10
1604.999988917439
 20
360.0000110961888
 30
0.0
 11
1604.999988917439
 21
325.0000116177294
 31
0.0
1001
DEKIMAS
1000
実線（細）
1040
0.15
1001
DIMEXPLODE
1070
     0
1001
ASKOBJSC
1000
1/1
1001
ASKDWGSC
1040
5.0
  0
LINE
  5
BB8
330
1F
100
AcDbEntity
  8
F00001_1
  6
Continuous
 62
     4
100
AcDbLine
 10
1679.999987799851
 20
360.0000110961888
 30
0.0
 11
1679.999987799851
 21
325.0000116177294
 31
0.0
1001
DEKIMAS
1000
実線（細）
1040
0.15
1001
DIMEXPLODE
1070
     0
1001
ASKOBJSC
1000
1/1
1001
ASKDWGSC
1040
5.0
  0
LINE
  5
BB9
330
1F
100
AcDbEntity
  8
F00001_1
  6
Continuous
 62
     4
100
AcDbLine
 10
1754.999986682264
 20
360.0000110961888
 30
0.0
 11
1754.999986682264
 21
325.0000116177294
 31
0.0
1001
DEKIMAS
1000
実線（細）
1040
0.15
1001
DIMEXPLODE
1070
     0
1001
ASKOBJSC
1000
1/1
1001
ASKDWGSC
1040
5.0
  0
LINE
  5
BBA
330
1F
100
AcDbEntity
  8
F00001_1
  6
Continuous
 62
     4
100
AcDbLine
 10
1829.999985564677
 20
360.0000110961888
 30
0.0
 11
1829.999985564677
 21
325.0000116177294
 31
0.0
1001
DEKIMAS
1000
実線（細）
1040
0.15
1001
DIMEXPLODE
1070
     0
1001
ASKOBJSC
1000
1/1
1001
ASKDWGSC
1040
5.0
  0
LINE
  5
BBB
330
1F
100
AcDbEntity
  8
F00001_1
  6
Continuous
 62
     4
100
AcDbLine
 10
1537.418142720987
 20
436.6010009801448
 30
0.0
 11
1857.976488381445
 21
436.6010009801448
 31
0.0
1001
DEKIMAS
1000
実線（細）
1040
0.15
1001
DIMEXPLODE
1070
     0
1001
ASKOBJSC
1000
1/1
1001
ASKDWGSC
1040
5.0
  0
LINE
  5
BBC
330
1F
100
AcDbEntity
  8
F00001_1
  6
Continuous
 62
     4
100
AcDbLine
 10
1402.78544070532
 20
212.50001329411
 30
0.0
 11
1452.382086861173
 21
212.50001329411
 31
0.0
1001
DEKIMAS
1000
実線（細）
1040
0.15
1001
DIMEXPLODE
1070
     0
1001
ASKOBJSC
1000
1/1
1001
ASKDWGSC
1040
5.0
  0
MTEXT
  5
BBD
330
1F
100
AcDbEntity
  8
F00001_1
  6
Continuous
 62
     4
100
AcDbMText
 10
140.1177188984683
 20
1403.749995543072
 30
0.0
 40
12.49999981373548
 41
0.0
 71
     5
 72
     5
  1
\T1.40;\W0.60;記　号
  7
STD
 73
     1
 44
1.0
1001
DEKIMAS
1040
0.15
1001
ASKOBJSC
1000
1/1
1001
ASKDWGSC
1040
5.0
1001
ACAD
1000
MTEXTBEGIN
1070
    73
1070
     1
1070
    44
1040
1.0
1070
    74
1070
     0
1000
MTEXTEND
  0
MTEXT
  5
BBE
330
1F
100
AcDbEntity
  8
F00001_1
  6
Continuous
 62
     4
100
AcDbMText
 10
289.36771667447
 20
1403.749995543072
 30
0.0
 40
12.49999981373548
 41
0.0
 71
     5
 72
     5
  1
\T1.40;\W0.60;来　　　　　　　　　　　歴
  7
STD
 73
     1
 44
1.0
1001
DEKIMAS
1040
0.15
1001
ASKOBJSC
1000
1/1
1001
ASKDWGSC
1040
5.0
1001
ACAD
1000
MTEXTBEGIN
1070
    73
1070
     1
1070
    44
1040
1.0
1070
    74
1070
     0
1000
MTEXTEND
  0
MTEXT
  5
BBF
330
1F
100
AcDbEntity
  8
F00001_1
  6
Continuous
 62
     4
100
AcDbMText
 10
444.7177143595647
 20
1403.749995543072
 30
0.0
 40
12.49999981373548
 41
0.0
 71
     5
 72
     5
  1
\T1.40;\W0.60;年　月　日
  7
STD
 73
     1
 44
1.0
1001
DEKIMAS
1040
0.15
1001
ASKOBJSC
1000
1/1
1001
ASKDWGSC
1040
5.0
1001
ACAD
1000
MTEXTBEGIN
1070
    73
1070
     1
1070
    44
1040
1.0
1070
    74
1070
     0
1000
MTEXTEND
  0
MTEXT
  5
BC0
330
1F
100
AcDbEntity
  8
F00001_1
  6
Continuous
 62
     4
100
AcDbMText
 10
518.8677132546436
 20
1403.749995543072
 30
0.0
 40
12.49999981373548
 41
0.0
 71
     5
 72
     5
  1
\T1.40;\W0.60;記　入
  7
STD
 73
     1
 44
1.0
1001
DEKIMAS
1040
0.15
1001
ASKOBJSC
1000
1/1
1001
ASKDWGSC
1040
5.0
1001
ACAD
1000
MTEXTBEGIN
1070
    73
1070
     1
1070
    44
1040
1.0
1070
    74
1070
     0
1000
MTEXTEND
  0
MTEXT
  5
BC1
330
1F
100
AcDbEntity
  8
F00001_1
  6
Continuous
 62
     4
100
AcDbMText
 10
1426.641241417835
 20
342.5000113569591
 30
0.0
 40
14.99999977648258
 41
0.0
 71
     5
 72
     5
  1
\T1.40;\W0.60;品　番
  7
STD
 73
     1
 44
1.0
1001
DEKIMAS
1040
0.15
1001
ASKOBJSC
1000
1/1
1001
ASKDWGSC
1040
5.0
1001
ACAD
1000
MTEXTBEGIN
1070
    73
1070
     1
1070
    44
1040
1.0
1070
    74
1070
     0
1000
MTEXTEND
  0
MTEXT
  5
BC2
330
1F
100
AcDbEntity
  8
F00001_1
  6
Continuous
 62
     4
100
AcDbMText
 10
1531.881239849637
 20
342.5000113569591
 30
0.0
 40
14.99999977648258
 41
0.0
 71
     5
 72
     5
  1
\T1.40;\W0.60;名　　　　　称
  7
STD
 73
     1
 44
1.0
1001
DEKIMAS
1040
0.15
1001
ASKOBJSC
1000
1/1
1001
ASKDWGSC
1040
5.0
1001
ACAD
1000
MTEXTBEGIN
1070
    73
1070
     1
1070
    44
1040
1.0
1070
    74
1070
     0
1000
MTEXTEND
  0
MTEXT
  5
BC3
330
1F
100
AcDbEntity
  8
F00001_1
  6
Continuous
 62
     4
100
AcDbMText
 10
1719.141237059245
 20
342.5000113569591
 30
0.0
 40
14.99999977648258
 41
0.0
 71
     5
 72
     5
  1
\T1.40;\W0.60;材　質
  7
STD
 73
     1
 44
1.0
1001
DEKIMAS
1040
0.15
1001
ASKOBJSC
1000
1/1
1001
ASKDWGSC
1040
5.0
1001
ACAD
1000
MTEXTBEGIN
1070
    73
1070
     1
1070
    44
1040
1.0
1070
    74
1070
     0
1000
MTEXTEND
  0
MTEXT
  5
BC4
330
1F
100
AcDbEntity
  8
F00001_1
  6
Continuous
 62
     4
100
AcDbMText
 10
1794.141235941658
 20
342.5000113569591
 30
0.0
 40
14.99999977648258
 41
0.0
 71
     5
 72
     5
  1
\T1.40;\W0.60;個　数
  7
STD
 73
     1
 44
1.0
1001
DEKIMAS
1040
0.15
1001
ASKOBJSC
1000
1/1
1001
ASKDWGSC
1040
5.0
1001
ACAD
1000
MTEXTBEGIN
1070
    73
1070
     1
1070
    44
1040
1.0
1070
    74
1070
     0
1000
MTEXTEND
  0
MTEXT
  5
BC5
330
1F
100
AcDbEntity
  8
F00001_1
  6
Continuous
 62
     4
100
AcDbMText
 10
1919.415519789212
 20
342.5000113569591
 30
0.0
 40
14.99999977648258
 41
0.0
 71
     5
 72
     5
  1
\T1.40;\W0.60;摘　　　　　　　要
  7
STD
 73
     1
 44
1.0
1001
DEKIMAS
1040
0.15
1001
ASKOBJSC
1000
1/1
1001
ASKDWGSC
1040
5.0
1001
ACAD
1000
MTEXTBEGIN
1070
    73
1070
     1
1070
    44
1040
1.0
1070
    74
1070
     0
1000
MTEXTEND
  0
MTEXT
  5
BC6
330
1F
100
AcDbEntity
  8
F00001_1
  6
Continuous
 62
     4
100
AcDbMText
 10
1462.34832426598
 20
293.7500120833907
 30
0.0
 40
19.99999970197678
 41
0.0
 71
     5
 72
     5
  1
\T1.40;\W0.60;納　入　先
  7
STD
 73
     1
 44
1.0
1001
DEKIMAS
1040
0.15
1001
ASKOBJSC
1000
1/1
1001
ASKDWGSC
1040
5.0
1001
ACAD
1000
MTEXTBEGIN
1070
    73
1070
     1
1070
    44
1040
1.0
1070
    74
1070
     0
1000
MTEXTEND
  0
MTEXT
  5
BC7
330
1F
100
AcDbEntity
  8
F00001_1
  6
Continuous
 62
     4
100
AcDbMText
 10
1527.716078016268
 20
106.2500148773627
 30
0.0
 40
19.99999970197678
 41
0.0
 71
     5
 72
     5
  1
\T1.40;\W0.46;ス　イ　コ　ー　株　式　会　社
  7
STD
 73
     1
 44
1.0
1001
DEKIMAS
1040
0.15
1001
ASKOBJSC
1000
1/1
1001
ASKDWGSC
1040
5.0
1001
ACAD
1000
MTEXTBEGIN
1070
    73
1070
     1
1070
    44
1040
1.0
1070
    74
1070
     0
1000
MTEXTEND
  0
MTEXT
  5
BC8
330
1F
100
AcDbEntity
  8
F00001_1
  6
Continuous
 62
     4
100
AcDbMText
 10
1537.517698224547
 20
150.0000142254326
 30
0.0
 40
12.49999981373548
 41
0.0
 71
     5
 72
     5
  1
\T1.40;\W0.60;度
  7
STD
 73
     1
 44
1.0
1001
DEKIMAS
1040
0.15
1001
ASKOBJSC
1000
1/1
1001
ASKDWGSC
1040
5.0
1001
ACAD
1000
MTEXTBEGIN
1070
    73
1070
     1
1070
    44
1040
1.0
1070
    74
1070
     0
1000
MTEXTEND
  0
MTEXT
  5
BC9
330
1F
100
AcDbEntity
  8
F00001_1
  6
Continuous
 62
     4
100
AcDbMText
 10
1428.867699843558
 20
250.0000127353165
 30
0.0
 40
12.49999981373548
 41
0.0
 71
     5
 72
     5
  1
\T1.40;\W0.60;設　計
  7
STD
 73
     1
 44
1.0
1001
DEKIMAS
1040
0.15
1001
ASKOBJSC
1000
1/1
1001
ASKDWGSC
1040
5.0
1001
ACAD
1000
MTEXTBEGIN
1070
    73
1070
     1
1070
    44
1040
1.0
1070
    74
1070
     0
1000
MTEXTEND
  0
MTEXT
  5
BCA
330
1F
100
AcDbEntity
  8
F00001_1
  6
Continuous
 62
     4
100
AcDbMText
 10
1493.617698878708
 20
250.0000127353165
 30
0.0
 40
12.49999981373548
 41
0.0
 71
     5
 72
     5
  1
\T1.40;\W0.60;製　図
  7
STD
 73
     1
 44
1.0
1001
DEKIMAS
1040
0.15
1001
ASKOBJSC
1000
1/1
1001
ASKDWGSC
1040
5.0
1001
ACAD
1000
MTEXTBEGIN
1070
    73
1070
     1
1070
    44
1040
1.0
1070
    74
1070
     0
1000
MTEXTEND
  0
MTEXT
  5
BCB
330
1F
100
AcDbEntity
  8
F00001_1
  6
Continuous
 62
     4
100
AcDbMText
 10
1558.617697910133
 20
250.0000127353165
 30
0.0
 40
12.49999981373548
 41
0.0
 71
     5
 72
     5
  1
\T1.40;\W0.60;検　図
  7
STD
 73
     1
 44
1.0
1001
DEKIMAS
1040
0.15
1001
ASKOBJSC
1000
1/1
1001
ASKDWGSC
1040
5.0
1001
ACAD
1000
MTEXTBEGIN
1070
    73
1070
     1
1070
    44
1040
1.0
1070
    74
1070
     0
1000
MTEXTEND
  0
MTEXT
  5
BCC
330
1F
100
AcDbEntity
  8
F00001_1
  6
Continuous
 62
     4
100
AcDbMText
 10
1623.867696937832
 20
250.0000127353165
 30
0.0
 40
12.49999981373548
 41
0.0
 71
     5
 72
     5
  1
\T1.40;\W0.60;承　認
  7
STD
 73
     1
 44
1.0
1001
DEKIMAS
1040
0.15
1001
ASKOBJSC
1000
1/1
1001
ASKDWGSC
1040
5.0
1001
ACAD
1000
MTEXTBEGIN
1070
    73
1070
     1
1070
    44
1040
1.0
1070
    74
1070
     0
1000
MTEXTEND
  0
MTEXT
  5
BCD
330
1F
100
AcDbEntity
  8
F00001_1
  6
Continuous
 62
     4
100
AcDbMText
 10
1670.271237787465
 20
168.7500139460358
 30
0.0
 40
14.99999977648258
 41
0.0
 71
     5
 72
     5
  1
\T1.40;\W0.60;称
  7
STD
 73
     1
 44
1.0
1001
DEKIMAS
1040
0.15
1001
ASKOBJSC
1000
1/1
1001
ASKDWGSC
1040
5.0
1001
ACAD
1000
MTEXTBEGIN
1070
    73
1070
     1
1070
    44
1040
1.0
1070
    74
1070
     0
1000
MTEXTEND
  0
MTEXT
  5
BCE
330
1F
100
AcDbEntity
  8
F00001_1
  6
Continuous
 62
     4
100
AcDbMText
 10
1669.671237796405
 20
121.8750146445321
 30
0.0
 40
14.99999977648258
 41
0.0
 71
     5
 72
     5
  1
\T1.40;\W0.60;図
  7
STD
 73
     1
 44
1.0
1001
DEKIMAS
1040
0.15
1001
ASKOBJSC
1000
1/1
1001
ASKDWGSC
1040
5.0
1001
ACAD
1000
MTEXTBEGIN
1070
    73
1070
     1
1070
    44
1040
1.0
1070
    74
1070
     0
1000
MTEXTEND
  0
MTEXT
  5
BCF
330
1F
100
AcDbEntity
  8
F00001_1
  6
Continuous
 62
     4
100
AcDbMText
 10
1670.271237787465
 20
90.62501511019338
 30
0.0
 40
14.99999977648258
 41
0.0
 71
     5
 72
     5
  1
\T1.40;\W0.60;番
  7
STD
 73
     1
 44
1.0
1001
DEKIMAS
1040
0.15
1001
ASKOBJSC
1000
1/1
1001
ASKDWGSC
1040
5.0
1001
ACAD
1000
MTEXTBEGIN
1070
    73
1070
     1
1070
    44
1040
1.0
1070
    74
1070
     0
1000
MTEXTEND
  0
MTEXT
  5
BD0
330
1F
100
AcDbEntity
  8
F00001_1
  6
Continuous
 62
     4
100
AcDbMText
 10
1669.971237791935
 20
231.2500130147133
 30
0.0
 40
14.99999977648258
 41
0.0
 71
     5
 72
     5
  1
\T1.40;\W0.60;名
  7
STD
 73
     1
 44
1.0
1001
DEKIMAS
1040
0.15
1001
ASKOBJSC
1000
1/1
1001
ASKDWGSC
1040
5.0
1001
ACAD
1000
MTEXTBEGIN
1070
    73
1070
     1
1070
    44
1040
1.0
1070
    74
1070
     0
1000
MTEXTEND
  0
MTEXT
  5
BD1
330
1F
100
AcDbEntity
  8
F00001_1
  6
Continuous
 62
     4
100
AcDbMText
 10
1537.517698075536
 20
175.0000138529036
 30
0.0
 40
12.49999981373548
 41
0.0
 71
     5
 72
     5
  1
\T1.40;\W0.60;尺
  7
STD
 73
     1
 44
1.0
1001
DEKIMAS
1040
0.15
1001
ASKOBJSC
1000
1/1
1001
ASKDWGSC
1040
5.0
1001
ACAD
1000
MTEXTBEGIN
1070
    73
1070
     1
1070
    44
1040
1.0
1070
    74
1070
     0
1000
MTEXTEND
  0
MTEXT
  5
BD2
330
1F
100
AcDbEntity
  8
F00001_1
  6
Continuous
 62
     4
100
AcDbMText
 10
1406.864158332314
 20
162.5000140391681
 30
0.0
 40
9.999999850988389
 41
0.0
 71
     5
 72
     5
  1
\T1.40;\W0.60;月
  7
STD
 73
     1
 44
1.0
1001
DEKIMAS
1040
0.15
1001
ASKOBJSC
1000
1/1
1001
ASKDWGSC
1040
5.0
1001
ACAD
1000
MTEXTBEGIN
1070
    73
1070
     1
1070
    44
1040
1.0
1070
    74
1070
     0
1000
MTEXTEND
  0
MTEXT
  5
BD3
330
1F
100
AcDbEntity
  8
F00001_1
  6
Continuous
 62
     4
100
AcDbMText
 10
1406.464158338274
 20
145.9999990262525
 30
0.0
 40
9.999999850988389
 41
0.0
 71
     5
 72
     5
  1
\T1.40;\W0.60;日
  7
STD
 73
     1
 44
1.0
1001
DEKIMAS
1040
0.15
1001
ASKOBJSC
1000
1/1
1001
ASKDWGSC
1040
5.0
1001
ACAD
1000
MTEXTBEGIN
1070
    73
1070
     1
1070
    44
1040
1.0
1070
    74
1070
     0
1000
MTEXTEND
  0
MTEXT
  5
BD4
330
1F
100
AcDbEntity
  8
F00001_1
  6
Continuous
 62
     4
100
AcDbMText
 10
1407.264158326354
 20
154.2499683857382
 30
0.0
 40
9.999999850988389
 41
0.0
 71
     5
 72
     5
  1
\T1.40;\W0.60;・
  7
STD
 73
     1
 44
1.0
1001
DEKIMAS
1040
0.15
1001
ASKOBJSC
1000
1/1
1001
ASKDWGSC
1040
5.0
1001
ACAD
1000
MTEXTBEGIN
1070
    73
1070
     1
1070
    44
1040
1.0
1070
    74
1070
     0
1000
MTEXTEND
  0
MTEXT
  5
BD5
330
1F
100
AcDbEntity
  8
F00001_1
  6
Continuous
 62
     4
100
AcDbMText
 10
1407.264158326354
 20
170.7500596926025
 30
0.0
 40
9.999999850988389
 41
0.0
 71
     5
 72
     5
  1
\T1.40;\W0.60;・
  7
STD
 73
     1
 44
1.0
1001
DEKIMAS
1040
0.15
1001
ASKOBJSC
1000
1/1
1001
ASKDWGSC
1040
5.0
1001
ACAD
1000
MTEXTBEGIN
1070
    73
1070
     1
1070
    44
1040
1.0
1070
    74
1070
     0
1000
MTEXTEND
  0
MTEXT
  5
BD6
330
1F
100
AcDbEntity
  8
F00001_1
  6
Continuous
 62
     4
100
AcDbMText
 10
1407.264158326354
 20
178.9999527581447
 30
0.0
 40
9.999999850988389
 41
0.0
 71
     5
 72
     5
  1
\T1.40;\W0.60;年
  7
STD
 73
     1
 44
1.0
1001
DEKIMAS
1040
0.15
1001
ASKOBJSC
1000
1/1
1001
ASKDWGSC
1040
5.0
1001
ACAD
1000
MTEXTBEGIN
1070
    73
1070
     1
1070
    44
1040
1.0
1070
    74
1070
     0
1000
MTEXTEND
  0
MTEXT
  5
BD7
330
1F
100
AcDbEntity
  8
F00001_1
  6
Continuous
 62
     4
100
AcDbMText
 10
1644.141238176833
 20
342.5000113569591
 30
0.0
 40
14.99999977648258
 41
0.0
 71
     5
 72
     5
  1
\T1.40;\W0.60;サイズ
  7
STD
 73
     1
 44
1.0
1001
DEKIMAS
1040
0.15
1001
ASKOBJSC
1000
1/1
1001
ASKDWGSC
1040
5.0
1001
ACAD
1000
MTEXTBEGIN
1070
    73
1070
     1
1070
    44
1040
1.0
1070
    74
1070
     0
1000
MTEXTEND
  0
MTEXT
  5
BD8
330
1F
100
AcDbEntity
  8
F00001_1
  6
Continuous
 62
     4
100
AcDbMText
 10
1547.772821197503
 20
454.1010007193746
 30
0.0
 40
15.99999976158142
 41
0.0
 71
     4
 72
     5
  1
\T1.40;\W0.60;注記　１．　材質ハポリエチレントスル
  7
STD
 73
     1
 44
1.0
1001
DEKIMAS
1040
0.15
1001
ASKOBJSC
1000
1/1
1001
ASKDWGSC
1040
5.0
1001
ACAD
1000
MTEXTBEGIN
1070
    73
1070
     1
1070
    44
1040
1.0
1070
    74
1070
     0
1000
MTEXTEND
  0
MTEXT
  5
BD9
330
1F
100
AcDbEntity
  8
F00001_1
  6
Continuous
 62
     4
100
AcDbMText
 10
1700.280802562551
 20
106.2500148773627
 30
0.0
 40
29.99999955296517
 41
0.0
 71
     4
 72
     5
  1
\T1.40;\W0.53;ＡＹ１０３－Ｐ０１
  7
STD
 73
     1
 44
1.0
1001
DEKIMAS
1040
0.15
1001
ASKOBJSC
1000
1/1
1001
ASKDWGSC
1040
5.0
1001
ACAD
1000
MTEXTBEGIN
1070
    73
1070
     1
1070
    44
1040
1.0
1070
    74
1070
     0
1000
MTEXTEND
  0
MTEXT
  5
BDA
330
1F
100
AcDbEntity
  8
F00001_1
  6
Continuous
 62
     4
100
AcDbMText
 10
1794.602988665983
 20
168.28534045942
 30
0.0
 40
29.99999955296517
 41
0.0
 71
     4
 72
     5
  1
\T1.40;\W0.60;製品図
  7
STD
 73
     1
 44
1.0
1001
DEKIMAS
1040
0.15
1001
ASKOBJSC
1000
1/1
1001
ASKDWGSC
1040
5.0
1001
ACAD
1000
MTEXTBEGIN
1070
    73
1070
     1
1070
    44
1040
1.0
1070
    74
1070
     0
1000
MTEXTEND
  0
MTEXT
  5
BDB
330
1F
100
AcDbEntity
  8
F00001_1
  6
Continuous
 62
     4
100
AcDbMText
 10
1711.031534803994
 20
214.955113395331
 30
0.0
 40
29.99999955296517
 41
0.0
 71
     4
 72
     5
  1
\T1.40;\W0.60;飼葉おけ　Ｓ－３型
  7
STD
 73
     1
 44
1.0
1001
DEKIMAS
1040
0.15
1001
ASKOBJSC
1000
1/1
1001
ASKDWGSC
1040
5.0
1001
ACAD
1000
MTEXTBEGIN
1070
    73
1070
     1
1070
    44
1040
1.0
1070
    74
1070
     0
1000
MTEXTEND
  0
MTEXT
  5
BDC
330
1F
100
AcDbEntity
  8
F00001_1
  6
Continuous
 62
     4
100
AcDbMText
 10
1610.324938162252
 20
154.5450733618109
 30
0.0
 40
15.99999976158142
 41
0.0
 71
     4
 72
     5
  1
\T1.40;\W0.60;５
  7
STD
 73
     1
 44
1.0
1001
DEKIMAS
1040
0.15
1001
ASKOBJSC
1000
1/1
1001
ASKDWGSC
1040
5.0
1001
ACAD
1000
MTEXTBEGIN
1070
    73
1070
     1
1070
    44
1040
1.0
1070
    74
1070
     0
1000
MTEXTEND
  0
MTEXT
  5
BDD
330
1F
100
AcDbEntity
  8
F00001_1
  6
Continuous
 62
     4
100
AcDbMText
 10
1586.460116130165
 20
170.45495471653
 30
0.0
 40
15.99999976158142
 41
0.0
 71
     4
 72
     5
  1
\T1.40;\W0.60;１
  7
STD
 73
     1
 44
1.0
1001
DEKIMAS
1040
0.15
1001
ASKOBJSC
1000
1/1
1001
ASKDWGSC
1040
5.0
1001
ACAD
1000
MTEXTBEGIN
1070
    73
1070
     1
1070
    44
1040
1.0
1070
    74
1070
     0
1000
MTEXTEND
  0
MTEXT
  5
BDE
330
1F
100
AcDbEntity
  8
F00001_1
  6
Continuous
 62
     4
100
AcDbMText
 10
1471.434117065295
 20
162.5000140391681
 30
0.0
 40
15.99999976158142
 41
0.0
 71
     5
 72
     5
  1
\T1.40;\W0.46;Ｈ１８．１２．８
  7
STD
 73
     1
 44
1.0
1001
DEKIMAS
1040
0.15
1001
ASKOBJSC
1000
1/1
1001
ASKDWGSC
1040
5.0
1001
ACAD
1000
MTEXTBEGIN
1070
    73
1070
     1
1070
    44
1040
1.0
1070
    74
1070
     0
1000
MTEXTEND
  0
MTEXT
  5
BDF
330
1F
100
AcDbEntity
  8
F00001_1
  6
Continuous
 62
     4
100
AcDbMText
 10
1494.18649043279
 20
212.50001329411
 30
0.0
 40
15.99999976158142
 41
0.0
 71
     5
 72
     5
  1
\T1.40;\W0.60;尾崎
  7
STD
 73
     1
 44
1.0
1001
DEKIMAS
1040
0.15
1001
ASKOBJSC
1000
1/1
1001
ASKDWGSC
1040
5.0
1001
ACAD
1000
MTEXTBEGIN
1070
    73
1070
     1
1070
    44
1040
1.0
1070
    74
1070
     0
1000
MTEXTEND
  0
MTEXT
  5
BE0
330
1F
100
AcDbEntity
  8
F00001_1
  6
Continuous
 62
     4
100
AcDbMText
 10
1547.772821197503
 20
484.1010002723397
 30
0.0
 40
15.99999976158142
 41
0.0
 71
     4
 72
     5
  1
\T1.40;\W0.60;　　　２．　寸法公差：±１．５％
  7
STD
 73
     1
 44
1.0
1001
DEKIMAS
1040
0.15
1001
ASKOBJSC
1000
1/1
1001
ASKDWGSC
1040
5.0
1001
ACAD
1000
MTEXTBEGIN
1070
    73
1070
     1
1070
    44
1040
1.0
1070
    74
1070
     0
1000
MTEXTEND
  0
POINT
  5
BE2
330
1F
100
AcDbEntity
  8
P_1791_5
  6
Continuous
 62
     4
100
AcDbPoint
 10
861.2652587890499
 20
1009.281356811518
 30
0.0
 50
179.9999999764969
  0
LINE
  5
BE3
330
1F
100
AcDbEntity
  8
P_1791_5
  6
CENTER2
 62
     1
100
AcDbLine
 10
1177.79437229734
 20
1009.281356681676
 30
0.0
 11
544.7361452807599
 21
1009.281356941361
 31
0.0
1001
DEKIMAS
1000
一点鎖線（細）
1040
0.15
1001
DIMEXPLODE
1070
     0
  0
LINE
  5
BE4
330
1F
100
AcDbEntity
  8
P_1791_5
  6
CENTER2
 62
     1
100
AcDbLine
 10
861.2652586592075
 20
692.7522433032286
 30
0.0
 11
861.2652589188924
 21
1325.810470319809
 31
0.0
1001
DEKIMAS
1000
一点鎖線（細）
1040
0.15
1001
DIMEXPLODE
1070
     0
  0
CIRCLE
  5
BE5
330
1F
100
AcDbEntity
  8
P_1791_5
  6
Continuous
 62
     7
100
AcDbCircle
 10
861.2652587890499
 20
1009.281356811518
 30
0.0
 40
235.0
1001
DEKIMAS
1000
実線（中）
1040
0.25
  0
CIRCLE
  5
BE6
330
1F
100
AcDbEntity
  8
P_1791_5
  6
Continuous
 62
     7
100
AcDbCircle
 10
861.2652587890499
 20
1009.281356811518
 30
0.0
 40
270.0
1001
DEKIMAS
1000
実線（中）
1040
0.25
  0
CIRCLE
  5
BE7
330
1F
100
AcDbEntity
  8
P_1791_5
  6
Continuous
 62
     7
100
AcDbCircle
 10
861.2652587890499
 20
1009.281356811518
 30
0.0
 40
276.0
1001
DEKIMAS
1000
実線（中）
1040
0.25
  0
ENDSEC
  0
SECTION
  2
OBJECTS
  0
DICTIONARY
  5
C
330
0
100
AcDbDictionary
281
     1
  3
ACAD_2007HEADERVARS_RT
350
C72
  3
ACAD_COLOR
350
6B
  3
ACAD_GROUP
350
D
  3
ACAD_IMAGE_VARS
350
731
  3
ACAD_LAYOUT
350
1A
  3
ACAD_MATERIAL
350
6A
  3
ACAD_MLEADERSTYLE
350
402
  3
ACAD_MLINESTYLE
350
17
  3
ACAD_PLOTSETTINGS
350
19
  3
ACAD_PLOTSTYLENAME
350
E
  3
ACAD_SCALELIST
350
3E0
  3
ACAD_TABLESTYLE
350
7E
  3
ACAD_VISUALSTYLE
350
F2
  3
ACDB_RECOMPOSE_DATA
350
675
  3
AcDbVariableDictionary
350
5E
  3
ASKSYSVAR
350
6E7
  3
DWGPROPS
350
C71
  3
SAKAE_DICT
350
C24
  0
DICTIONARY
  5
688
330
2
100
AcDbDictionary
280
     1
281
     1
  3
ACAD_LAYERFILTERS
360
771
  3
ACLYDICTIONARY
360
770
  0
DICTIONARY
  5
785
330
10
100
AcDbDictionary
280
     1
281
     1
  3
ADSK_XREC_LAYER_RECONCILED
360
7F6
  0
DICTIONARY
  5
318
330
1F
100
AcDbDictionary
280
     1
281
     1
  3
ACAD_SORTENTS
360
A3F
  0
DICTIONARY
  5
C82
330
C36
100
AcDbDictionary
280
     1
281
     1
  3
ACAD_MTEXT_RT
360
C83
  0
DICTIONARY
  5
C84
330
C57
100
AcDbDictionary
280
     1
281
     1
  3
ACAD_MTEXT_RT
360
C85
  0
DICTIONARY
  5
C86
330
C60
100
AcDbDictionary
280
     1
281
     1
  3
ACAD_MTEXT_RT
360
C87
  0
DICTIONARY
  5
C72
102
{ACAD_REACTORS
330
C
102
}
330
C
100
AcDbDictionary
281
     1
  3
DIMFXL
350
C73
  3
DIMJOGANG
350
C74
  0
DICTIONARY
  5
6B
102
{ACAD_REACTORS
330
C
102
}
330
C
100
AcDbDictionary
281
     1
  0
DICTIONARY
  5
D
102
{ACAD_REACTORS
330
C
102
}
330
C
100
AcDbDictionary
281
     1
  0
RASTERVARIABLES
  5
731
102
{ACAD_REACTORS
330
C
102
}
330
C
100
AcDbRasterVariables
 90
        0
 70
     3
 71
     1
 72
     1
  0
DICTIONARY
  5
1A
102
{ACAD_REACTORS
330
C
102
}
330
C
100
AcDbDictionary
281
     1
  3
Model
350
22
  3
レイアウト1
350
D3
  3
レイアウト2
350
D7
  0
DICTIONARY
  5
6A
102
{ACAD_REACTORS
330
C
102
}
330
C
100
AcDbDictionary
281
     1
  3
ByBlock
350
F0
  3
ByLayer
350
EF
  3
Global
350
F1
  0
DICTIONARY
  5
402
102
{ACAD_REACTORS
330
C
102
}
330
C
100
AcDbDictionary
281
     1
  3
Standard
350
403
  0
DICTIONARY
  5
17
102
{ACAD_REACTORS
330
C
102
}
330
C
100
AcDbDictionary
281
     1
  3
Standard
350
18
  0
DICTIONARY
  5
19
102
{ACAD_REACTORS
330
C
102
}
330
C
100
AcDbDictionary
281
     1
  0
ACDBDICTIONARYWDFLT
  5
E
102
{ACAD_REACTORS
330
C
102
}
330
C
100
AcDbDictionary
281
     1
  3
Normal
350
F
100
AcDbDictionaryWithDefault
340
F
  0
DICTIONARY
  5
3E0
102
{ACAD_REACTORS
330
C
102
}
330
C
100
AcDbDictionary
281
     1
  3
A0
350
3E1
  3
A1
350
3E2
  3
A2
350
3E3
  3
A3
350
3E4
  3
A4
350
3E5
  3
A5
350
3E6
  3
A6
350
3E7
  3
A7
350
3E8
  3
A8
350
3E9
  3
A9
350
3EA
  3
B0
350
3EB
  3
B1
350
3EC
  3
B2
350
3ED
  3
B3
350
3EE
  3
B4
350
3EF
  3
B5
350
3F0
  3
B6
350
3F1
  3
B7
350
3F2
  3
B8
350
3F3
  3
B9
350
3F4
  3
C0
350
3F5
  3
C1
350
3F6
  3
C2
350
3F7
  3
C3
350
3F8
  3
C4
350
3F9
  3
C5
350
3FA
  3
C6
350
3FB
  3
C7
350
3FC
  3
C8
350
3FD
  3
C9
350
3FE
  3
D0
350
3FF
  3
D1
350
400
  3
D2
350
401
  0
DICTIONARY
  5
7E
102
{ACAD_REACTORS
330
C
102
}
330
C
100
AcDbDictionary
281
     1
  3
Standard
350
7F
  0
DICTIONARY
  5
F2
102
{ACAD_REACTORS
330
C
102
}
330
C
100
AcDbDictionary
281
     1
  3
2dWireframe
350
F8
  3
3D Hidden
350
FA
  3
3dWireframe
350
F9
  3
Basic
350
F7
  3
Brighten
350
FE
  3
ColorChange
350
102
  3
Conceptual
350
FB
  3
Dim
350
FD
  3
Facepattern
350
101
  3
Flat
350
F3
  3
FlatWithEdges
350
F4
  3
Gouraud
350
F5
  3
GouraudWithEdges
350
F6
  3
Linepattern
350
100
  3
Realistic
350
FC
  3
Thicken
350
FF
  0
XRECORD
  5
675
102
{ACAD_REACTORS
330
C
102
}
330
C
100
AcDbXrecord
280
     1
 90
        1
330
7F
  0
DICTIONARY
  5
5E
102
{ACAD_REACTORS
330
C
102
}
330
C
100
AcDbDictionary
281
     1
  3
CANNOSCALE
350
678
  3
CMLEADERSTYLE
350
676
  3
CTABLESTYLE
350
84
  3
DIMASSOC
350
5F
  3
HIDETEXT
350
63
  3
INDEXCTL
350
C6D
  3
LIGHTINGUNITS
350
679
  3
MSLTSCALE
350
677
  3
PSOLHEIGHT
350
C6F
  3
PSOLWIDTH
350
C6E
  3
SORTENTS
350
C6C
  0
DICTIONARY
  5
6E7
102
{ACAD_REACTORS
330
C
102
}
330
C
100
AcDbDictionary
281
     1
  3
ASK_SUMMARY
350
6E8
  3
ASKCURSC
350
7D3
  0
XRECORD
  5
C71
102
{ACAD_REACTORS
330
C
102
}
330
C
100
AcDbXrecord
280
     1
  1
DWGPROPS COOKIE
  2

  3

  4

  6

  7

  8
Administrator
  9

300
=
301
=
302
=
303
=
304
=
305
=
306
=
307
=
308
=
309
=
 40
0.1542547685185185
 41
2454497.602825139
 42
2454811.419976123
  1

 90
        0
  0
DICTIONARY
  5
C24
102
{ACAD_REACTORS
330
C
102
}
330
C
100
AcDbDictionary
281
     1
  3
XREC1
350
C25
  0
DICTIONARY
  5
771
102
{ACAD_REACTORS
330
688
102
}
330
688
100
AcDbDictionary
281
     1
  0
DICTIONARY
  5
770
102
{ACAD_REACTORS
330
688
102
}
330
688
100
AcDbDictionary
281
     1
1001
ACAD
1000
<All
  0
XRECORD
  5
7F6
102
{ACAD_REACTORS
330
785
102
}
330
785
100
AcDbXrecord
280
     1
290
     1
  0
SORTENTSTABLE
  5
A3F
102
{ACAD_REACTORS
330
318
102
}
330
318
100
AcDbSortentsTable
330
1F
331
A3B
  5
A3B
331
A1D
  5
A1D
331
A26
  5
A26
331
A08
  5
A08
331
7FA
  5
7FA
331
A2F
  5
A2F
331
880
  5
880
331
A33
  5
A33
331
A15
  5
A15
331
A1E
  5
A1E
331
A27
  5
A27
331
A09
  5
A09
331
97B
  5
97B
331
A34
  5
A34
331
A16
  5
A16
331
A01
  5
A01
331
A1F
  5
A1F
331
A28
  5
A28
331
A0A
  5
A0A
331
A35
  5
A35
331
A17
  5
A17
331
83D
  5
83D
331
A3E
  5
A3D
331
A20
  5
A20
331
A02
  5
A02
331
A29
  5
A29
331
A0B
  5
A0B
331
A36
  5
A36
331
A18
  5
A18
331
A21
  5
A21
331
A03
  5
A03
331
A2A
  5
A2A
331
A0C
  5
A0C
331
A37
  5
A37
331
A19
  5
A19
331
A40
  5
A40
331
A22
  5
A22
331
A04
  5
A04
331
A2B
  5
A2B
331
A0D
  5
A0D
331
A11
  5
A11
331
A38
  5
A38
331
A1A
  5
A1A
331
A23
  5
A23
331
A05
  5
A05
331
A2C
  5
A2C
331
A0E
  5
A0E
331
A12
  5
A12
331
A30
  5
A30
331
A39
  5
A39
331
A1B
  5
A1B
331
A24
  5
A24
331
A06
  5
A06
331
A2D
  5
A2D
331
A0F
  5
A0F
331
A31
  5
A31
331
A13
  5
A13
331
A3A
  5
A3A
331
938
  5
938
331
A1C
  5
A1C
331
A43
  5
A42
331
A25
  5
A25
331
A07
  5
A07
331
A2E
  5
A2E
331
A32
  5
A32
331
A14
  5
A14
331
8F8
  5
8F8
331
9BE
  5
9BE
  0
XRECORD
  5
C83
102
{ACAD_REACTORS
330
C82
102
}
330
C82
100
AcDbXrecord
280
     1
 40
5814.0
  1
\A1;\U+2205552
  0
XRECORD
  5
C85
102
{ACAD_REACTORS
330
C84
102
}
330
C84
100
AcDbXrecord
280
     1
 40
5818.0
  1
\A1;\U+2205435
  0
XRECORD
  5
C87
102
{ACAD_REACTORS
330
C86
102
}
330
C86
100
AcDbXrecord
280
     1
 40
5800.0
  1
\A1;\U+2205470
  0
XRECORD
  5
C73
102
{ACAD_REACTORS
330
C72
102
}
330
C72
100
AcDbXrecord
280
     1
 40
2.0
  0
XRECORD
  5
C74
102
{ACAD_REACTORS
330
C72
102
}
330
C72
100
AcDbXrecord
280
     1
 40
1.570796326794896
  0
LAYOUT
  5
22
102
{ACAD_XDICTIONARY
360
C75
102
}
102
{ACAD_REACTORS
330
1A
102
}
330
1A
100
AcDbPlotSettings
  1

  2
none_device
  4
ISO_A4_(210.00_x_297.00_MM)
  6

 40
7.5
 41
20.0
 42
7.5
 43
20.0
 44
210.0
 45
297.0
 46
0.0
 47
59.55357142857143
 48
0.0
 49
0.0
140
0.0
141
0.0
142
1.0
143
2.153846153846153
 70
 11956
 72
     1
 73
     0
 74
     2
  7
C:\Documents and Settings\tomiya\Application Data\Autodesk\AutoCAD Mechanical 2008\R17.1\jpn\Plot Styles\SUIKO.ctb
 75
     0
147
0.4642857142857144
148
0.0
149
0.0
100
AcDbLayout
  1
Model
 70
     1
 71
     0
 10
0.0
 20
0.0
 11
12.0
 21
9.0
 12
0.0
 22
0.0
 32
0.0
 14
0.0
 24
0.0
 34
0.0
 15
0.0
 25
0.0
 35
0.0
146
0.0
 13
0.0
 23
0.0
 33
0.0
 16
1.0
 26
0.0
 36
0.0
 17
0.0
 27
1.0
 37
0.0
 76
     0
330
1F
331
ED
1001
ACAD_PSEXT
1000
なし
1000
なし
1000
適切ではありません
1000
新しいプロッタ環境設定名を選択しない限り、レイアウトは印刷されません。
1070
     0
  0
LAYOUT
  5
D3
102
{ACAD_XDICTIONARY
360
C78
102
}
102
{ACAD_REACTORS
330
1A
102
}
330
1A
100
AcDbPlotSettings
  1

  2
C:\Documents and Settings\basas\Application Data\Autodesk\AutoCAD 2005\R16.1\enu\plotters\Default Windows System Printer.pc3
  4

  6

 40
0.0
 41
0.0
 42
0.0
 43
0.0
 44
0.0
 45
0.0
 46
0.0
 47
0.0
 48
0.0
 49
0.0
140
0.0
141
0.0
142
1.0
143
1.0
 70
   688
 72
     0
 73
     0
 74
     5
  7
C:\Documents and Settings\tomiya\Application Data\Autodesk\AutoCAD Mechanical 2008\R17.1\jpn\Plot Styles\SUIKO.ctb
 75
    16
147
1.0
148
0.0
149
0.0
100
AcDbLayout
  1
レイアウト1
 70
     1
 71
     1
 10
0.0
 20
0.0
 11
12.0
 21
9.0
 12
0.0
 22
0.0
 32
0.0
 14
0.0
 24
0.0
 34
0.0
 15
0.0
 25
0.0
 35
0.0
146
0.0
 13
0.0
 23
0.0
 33
0.0
 16
1.0
 26
0.0
 36
0.0
 17
0.0
 27
1.0
 37
0.0
 76
     0
330
D2
  0
LAYOUT
  5
D7
102
{ACAD_XDICTIONARY
360
C7A
102
}
102
{ACAD_REACTORS
330
1A
102
}
330
1A
100
AcDbPlotSettings
  1

  2
C:\Documents and Settings\basas\Application Data\Autodesk\AutoCAD 2005\R16.1\enu\plotters\Default Windows System Printer.pc3
  4

  6

 40
0.0
 41
0.0
 42
0.0
 43
0.0
 44
0.0
 45
0.0
 46
0.0
 47
0.0
 48
0.0
 49
0.0
140
0.0
141
0.0
142
1.0
143
1.0
 70
   688
 72
     0
 73
     0
 74
     5
  7
C:\Documents and Settings\tomiya\Application Data\Autodesk\AutoCAD Mechanical 2008\R17.1\jpn\Plot Styles\SUIKO.ctb
 75
    16
147
1.0
148
0.0
149
0.0
100
AcDbLayout
  1
レイアウト2
 70
     1
 71
     2
 10
0.0
 20
0.0
 11
12.0
 21
9.0
 12
0.0
 22
0.0
 32
0.0
 14
0.0
 24
0.0
 34
0.0
 15
0.0
 25
0.0
 35
0.0
146
0.0
 13
0.0
 23
0.0
 33
0.0
 16
1.0
 26
0.0
 36
0.0
 17
0.0
 27
1.0
 37
0.0
 76
     0
330
D6
  0
MATERIAL
  5
F0
102
{ACAD_XDICTIONARY
360
C7E
102
}
102
{ACAD_REACTORS
330
6A
102
}
330
6A
100
AcDbMaterial
  1
ByBlock
 73
     1
 78
     1
172
     1
176
     1
270
     1
274
     1
  0
MATERIAL
  5
EF
102
{ACAD_XDICTIONARY
360
C7C
102
}
102
{ACAD_REACTORS
330
6A
102
}
330
6A
100
AcDbMaterial
  1
ByLayer
 73
     1
 78
     1
172
     1
176
     1
270
     1
274
     1
  0
MATERIAL
  5
F1
102
{ACAD_XDICTIONARY
360
C80
102
}
102
{ACAD_REACTORS
330
6A
102
}
330
6A
100
AcDbMaterial
  1
Global
 73
     1
 78
     1
172
     1
176
     1
270
     1
274
     1
  0
MLEADERSTYLE
  5
403
102
{ACAD_REACTORS
330
402
102
}
330
402
100
AcDbMLeaderStyle
170
     2
171
     1
172
     0
 90
        2
 40
0.0
 41
0.0
173
     1
 91
-1056964608
340
14
 92
       -2
290
     1
 42
2.0
291
     1
 43
0.36
  3
Standard
 44
4.0
300

342
11
174
     1
178
     6
175
     1
176
     0
 93
-1056964608
 45
4.0
292
     0
297
     0
 46
4.0
 94
-1056964608
 47
1.0
 49
1.0
140
1.0
293
     1
141
0.0
294
     1
177
     0
142
1.0
295
     0
296
     0
143
0.125
1001
ACAD_MLEADERVER
1070
     2
  0
MLINESTYLE
  5
18
102
{ACAD_REACTORS
330
17
102
}
330
17
100
AcDbMlineStyle
  2
STANDARD
 70
     0
  3

 62
   256
 51
90.0
 52
90.0
 71
     2
 49
0.5
 62
   256
  6
BYLAYER
 49
-0.5
 62
   256
  6
BYLAYER
  0
ACDBPLACEHOLDER
  5
F
102
{ACAD_REACTORS
330
E
102
}
330
E
  0
SCALE
  5
3E1
102
{ACAD_REACTORS
330
3E0
102
}
330
3E0
100
AcDbScale
 70
     0
300
1:1
140
1.0
141
1.0
290
     1
  0
SCALE
  5
3E2
102
{ACAD_REACTORS
330
3E0
102
}
330
3E0
100
AcDbScale
 70
     0
300
1:2
140
1.0
141
2.0
290
     0
  0
SCALE
  5
3E3
102
{ACAD_REACTORS
330
3E0
102
}
330
3E0
100
AcDbScale
 70
     0
300
1:4
140
1.0
141
4.0
290
     0
  0
SCALE
  5
3E4
102
{ACAD_REACTORS
330
3E0
102
}
330
3E0
100
AcDbScale
 70
     0
300
1:5
140
1.0
141
5.0
290
     0
  0
SCALE
  5
3E5
102
{ACAD_REACTORS
330
3E0
102
}
330
3E0
100
AcDbScale
 70
     0
300
1:8
140
1.0
141
8.0
290
     0
  0
SCALE
  5
3E6
102
{ACAD_REACTORS
330
3E0
102
}
330
3E0
100
AcDbScale
 70
     0
300
1:10
140
1.0
141
10.0
290
     0
  0
SCALE
  5
3E7
102
{ACAD_REACTORS
330
3E0
102
}
330
3E0
100
AcDbScale
 70
     0
300
1:16
140
1.0
141
16.0
290
     0
  0
SCALE
  5
3E8
102
{ACAD_REACTORS
330
3E0
102
}
330
3E0
100
AcDbScale
 70
     0
300
1:20
140
1.0
141
20.0
290
     0
  0
SCALE
  5
3E9
102
{ACAD_REACTORS
330
3E0
102
}
330
3E0
100
AcDbScale
 70
     0
300
1:30
140
1.0
141
30.0
290
     0
  0
SCALE
  5
3EA
102
{ACAD_REACTORS
330
3E0
102
}
330
3E0
100
AcDbScale
 70
     0
300
1:40
140
1.0
141
40.0
290
     0
  0
SCALE
  5
3EB
102
{ACAD_REACTORS
330
3E0
102
}
330
3E0
100
AcDbScale
 70
     0
300
1:50
140
1.0
141
50.0
290
     0
  0
SCALE
  5
3EC
102
{ACAD_REACTORS
330
3E0
102
}
330
3E0
100
AcDbScale
 70
     0
300
1:100
140
1.0
141
100.0
290
     0
  0
SCALE
  5
3ED
102
{ACAD_REACTORS
330
3E0
102
}
330
3E0
100
AcDbScale
 70
     0
300
2:1
140
2.0
141
1.0
290
     0
  0
SCALE
  5
3EE
102
{ACAD_REACTORS
330
3E0
102
}
330
3E0
100
AcDbScale
 70
     0
300
4:1
140
4.0
141
1.0
290
     0
  0
SCALE
  5
3EF
102
{ACAD_REACTORS
330
3E0
102
}
330
3E0
100
AcDbScale
 70
     0
300
8:1
140
8.0
141
1.0
290
     0
  0
SCALE
  5
3F0
102
{ACAD_REACTORS
330
3E0
102
}
330
3E0
100
AcDbScale
 70
     0
300
10:1
140
10.0
141
1.0
290
     0
  0
SCALE
  5
3F1
102
{ACAD_REACTORS
330
3E0
102
}
330
3E0
100
AcDbScale
 70
     0
300
100:1
140
100.0
141
1.0
290
     0
  0
SCALE
  5
3F2
102
{ACAD_REACTORS
330
3E0
102
}
330
3E0
100
AcDbScale
 70
     0
300
1/128" = 1'-0"
140
0.0078125
141
12.0
290
     0
  0
SCALE
  5
3F3
102
{ACAD_REACTORS
330
3E0
102
}
330
3E0
100
AcDbScale
 70
     0
300
1/64" = 1'-0"
140
0.015625
141
12.0
290
     0
  0
SCALE
  5
3F4
102
{ACAD_REACTORS
330
3E0
102
}
330
3E0
100
AcDbScale
 70
     0
300
1/32" = 1'-0"
140
0.03125
141
12.0
290
     0
  0
SCALE
  5
3F5
102
{ACAD_REACTORS
330
3E0
102
}
330
3E0
100
AcDbScale
 70
     0
300
1/16" = 1'-0"
140
0.0625
141
12.0
290
     0
  0
SCALE
  5
3F6
102
{ACAD_REACTORS
330
3E0
102
}
330
3E0
100
AcDbScale
 70
     0
300
3/32" = 1'-0"
140
0.09375
141
12.0
290
     0
  0
SCALE
  5
3F7
102
{ACAD_REACTORS
330
3E0
102
}
330
3E0
100
AcDbScale
 70
     0
300
1/8" = 1'-0"
140
0.125
141
12.0
290
     0
  0
SCALE
  5
3F8
102
{ACAD_REACTORS
330
3E0
102
}
330
3E0
100
AcDbScale
 70
     0
300
3/16" = 1'-0"
140
0.1875
141
12.0
290
     0
  0
SCALE
  5
3F9
102
{ACAD_REACTORS
330
3E0
102
}
330
3E0
100
AcDbScale
 70
     0
300
1/4" = 1'-0"
140
0.25
141
12.0
290
     0
  0
SCALE
  5
3FA
102
{ACAD_REACTORS
330
3E0
102
}
330
3E0
100
AcDbScale
 70
     0
300
3/8" = 1'-0"
140
0.375
141
12.0
290
     0
  0
SCALE
  5
3FB
102
{ACAD_REACTORS
330
3E0
102
}
330
3E0
100
AcDbScale
 70
     0
300
1/2" = 1'-0"
140
0.5
141
12.0
290
     0
  0
SCALE
  5
3FC
102
{ACAD_REACTORS
330
3E0
102
}
330
3E0
100
AcDbScale
 70
     0
300
3/4" = 1'-0"
140
0.75
141
12.0
290
     0
  0
SCALE
  5
3FD
102
{ACAD_REACTORS
330
3E0
102
}
330
3E0
100
AcDbScale
 70
     0
300
1" = 1'-0"
140
1.0
141
12.0
290
     0
  0
SCALE
  5
3FE
102
{ACAD_REACTORS
330
3E0
102
}
330
3E0
100
AcDbScale
 70
     0
300
1-1/2" = 1'-0"
140
1.5
141
12.0
290
     0
  0
SCALE
  5
3FF
102
{ACAD_REACTORS
330
3E0
102
}
330
3E0
100
AcDbScale
 70
     0
300
3" = 1'-0"
140
3.0
141
12.0
290
     0
  0
SCALE
  5
400
102
{ACAD_REACTORS
330
3E0
102
}
330
3E0
100
AcDbScale
 70
     0
300
6" = 1'-0"
140
6.0
141
12.0
290
     0
  0
SCALE
  5
401
102
{ACAD_REACTORS
330
3E0
102
}
330
3E0
100
AcDbScale
 70
     0
300
1'-0" = 1'-0"
140
12.0
141
12.0
290
     0
  0
TABLESTYLE
  5
7F
102
{ACAD_XDICTIONARY
360
673
102
}
102
{ACAD_REACTORS
330
7E
102
}
330
7E
100
AcDbTableStyle
  3
Standard
 70
     0
 71
     0
 40
1.5
 41
1.5
280
     0
281
     0
  7
Standard
140
4.5
170
     2
 62
     0
 63
     7
283
     0
274
    -2
284
     1
 64
     0
275
    -2
285
     1
 65
     0
276
    -2
286
     1
 66
     0
277
    -2
287
     1
 67
     0
278
    -2
288
     1
 68
     0
279
    -2
289
     1
 69
     0
  7
Standard
140
6.0
170
     5
 62
     0
 63
     7
283
     0
274
    -2
284
     1
 64
     0
275
    -2
285
     1
 65
     0
276
    -2
286
     1
 66
     0
277
    -2
287
     1
 67
     0
278
    -2
288
     1
 68
     0
279
    -2
289
     1
 69
     0
  7
Standard
140
4.5
170
     5
 62
     0
 63
     7
283
     0
274
    -2
284
     1
 64
     0
275
    -2
285
     1
 65
     0
276
    -2
286
     1
 66
     0
277
    -2
287
     1
 67
     0
278
    -2
288
     1
 68
     0
279
    -2
289
     1
 69
     0
  0
VISUALSTYLE
  5
F8
102
{ACAD_REACTORS
330
F2
102
}
330
F2
100
AcDbVisualStyle
  2
2dWireframe
 70
     4
 71
     0
 72
     2
 73
     1
 90
        0
 40
-0.6
 41
-30.0
 62
     5
 63
     7
 74
     1
 91
        4
 64
     7
 65
   257
 75
     1
175
     1
 42
1.0
 92
        0
 66
   257
 43
1.0
 76
     1
 77
     6
 78
     2
 67
     7
 79
     5
170
     0
171
     0
290
     0
174
     0
 93
        1
 44
0.0
173
     0
291
     0
 45
0.0
1001
ACAD
1000
AcDbSavedByObjectVersion
1070
     0
  0
VISUALSTYLE
  5
FA
102
{ACAD_REACTORS
330
F2
102
}
330
F2
100
AcDbVisualStyle
  2
3D Hidden
 70
     6
 71
     1
 72
     2
 73
     2
 90
        0
 40
-0.6
 41
-30.0
 62
     5
 63
     7
 74
     2
 91
        2
 64
     7
 65
   257
 75
     2
175
     1
 42
40.0
 92
        0
 66
   257
 43
1.0
 76
     1
 77
     6
 78
     2
 67
     7
 79
     3
170
     0
171
     0
290
     0
174
     0
 93
        1
 44
0.0
173
     0
291
     0
 45
0.0
1001
ACAD
1000
AcDbSavedByObjectVersion
1070
     0
  0
VISUALSTYLE
  5
F9
102
{ACAD_REACTORS
330
F2
102
}
330
F2
100
AcDbVisualStyle
  2
3dWireframe
 70
     5
 71
     0
 72
     2
 73
     1
 90
        0
 40
-0.6
 41
-30.0
 62
     5
 63
     7
 74
     1
 91
        4
 64
     7
 65
   257
 75
     1
175
     1
 42
1.0
 92
        0
 66
   257
 43
1.0
 76
     1
 77
     6
 78
     2
 67
     7
 79
     5
170
     0
171
     0
290
     0
174
     0
 93
        1
 44
0.0
173
     0
291
     0
 45
0.0
1001
ACAD
1000
AcDbSavedByObjectVersion
1070
     0
  0
VISUALSTYLE
  5
F7
102
{ACAD_REACTORS
330
F2
102
}
330
F2
100
AcDbVisualStyle
  2
Basic
 70
     7
 71
     1
 72
     0
 73
     1
 90
        0
 40
-0.6
 41
-30.0
 62
     5
 63
     7
 74
     0
 91
        4
 64
     7
 65
   257
 75
     1
175
     1
 42
1.0
 92
        8
 66
     7
 43
1.0
 76
     1
 77
     6
 78
     2
 67
     7
 79
     5
170
     0
171
     0
290
     0
174
     0
 93
        1
 44
0.0
173
     0
291
     1
 45
0.0
1001
ACAD
1000
AcDbSavedByObjectVersion
1070
     0
  0
VISUALSTYLE
  5
FE
102
{ACAD_REACTORS
330
F2
102
}
330
F2
100
AcDbVisualStyle
  2
Brighten
 70
    12
 71
     2
 72
     2
 73
     1
 90
        0
 40
-0.6
 41
-30.0
 62
     5
 63
     7
 74
     1
 91
        4
 64
     7
 65
   257
 75
     1
175
     1
 42
1.0
 92
        8
 66
     7
 43
1.0
 76
     1
 77
     6
 78
     2
 67
     7
 79
     5
170
     0
171
     0
290
     0
174
     0
 93
        1
 44
50.0
173
     0
291
     1
 45
0.0
1001
ACAD
1000
AcDbSavedByObjectVersion
1070
     0
  0
VISUALSTYLE
  5
102
102
{ACAD_REACTORS
330
F2
102
}
330
F2
100
AcDbVisualStyle
  2
ColorChange
 70
    16
 71
     2
 72
     2
 73
     3
 90
        0
 40
-0.6
 41
-30.0
 62
     5
 63
     8
 74
     1
 91
        4
 64
     7
 65
   257
 75
     1
175
     1
 42
1.0
 92
        8
 66
     8
 43
1.0
 76
     1
 77
     6
 78
     2
 67
     7
 79
     5
170
     0
171
     0
290
     0
174
     0
 93
        1
 44
0.0
173
     0
291
     1
 45
0.0
1001
ACAD
1000
AcDbSavedByObjectVersion
1070
     0
  0
VISUALSTYLE
  5
FB
102
{ACAD_REACTORS
330
F2
102
}
330
F2
100
AcDbVisualStyle
  2
Conceptual
 70
     9
 71
     3
 72
     2
 73
     1
 90
        0
 40
-0.6
 41
-30.0
 62
     5
 63
     7
 74
     2
 91
        2
 64
     7
 65
   257
 75
     1
175
     1
 42
40.0
 92
        8
 66
     7
 43
1.0
 76
     1
 77
     6
 78
     2
 67
     7
 79
     3
170
     0
171
     0
290
     0
174
     0
 93
        1
 44
0.0
173
     0
291
     0
 45
0.0
1001
ACAD
1000
AcDbSavedByObjectVersion
1070
     0
  0
VISUALSTYLE
  5
FD
102
{ACAD_REACTORS
330
F2
102
}
330
F2
100
AcDbVisualStyle
  2
Dim
 70
    11
 71
     2
 72
     2
 73
     1
 90
        0
 40
-0.6
 41
-30.0
 62
     5
 63
     7
 74
     1
 91
        4
 64
     7
 65
   257
 75
     1
175
     1
 42
1.0
 92
        8
 66
     7
 43
1.0
 76
     1
 77
     6
 78
     2
 67
     7
 79
     5
170
     0
171
     0
290
     0
174
     0
 93
        1
 44
-50.0
173
     0
291
     1
 45
0.0
1001
ACAD
1000
AcDbSavedByObjectVersion
1070
     0
  0
VISUALSTYLE
  5
101
102
{ACAD_REACTORS
330
F2
102
}
330
F2
100
AcDbVisualStyle
  2
Facepattern
 70
    15
 71
     2
 72
     2
 73
     1
 90
        0
 40
-0.6
 41
-30.0
 62
     5
 63
     7
 74
     1
 91
        4
 64
     7
 65
   257
 75
     1
175
     1
 42
1.0
 92
        8
 66
     7
 43
1.0
 76
     1
 77
     6
 78
     2
 67
     7
 79
     5
170
     0
171
     0
290
     0
174
     0
 93
        1
 44
0.0
173
     0
291
     1
 45
0.0
1001
ACAD
1000
AcDbSavedByObjectVersion
1070
     0
  0
VISUALSTYLE
  5
F3
102
{ACAD_REACTORS
330
F2
102
}
330
F2
100
AcDbVisualStyle
  2
Flat
 70
     0
 71
     2
 72
     1
 73
     1
 90
        2
 40
-0.6
 41
30.0
 62
     5
 63
     7
 74
     0
 91
        4
 64
     7
 65
   257
 75
     1
175
     1
 42
1.0
 92
        8
 66
     7
 43
1.0
 76
     1
 77
     6
 78
     2
 67
     7
 79
     5
170
     0
171
     0
290
     0
174
     0
 93
       13
 44
0.0
173
     0
291
     1
 45
0.0
1001
ACAD
1000
AcDbSavedByObjectVersion
1070
     0
  0
VISUALSTYLE
  5
F4
102
{ACAD_REACTORS
330
F2
102
}
330
F2
100
AcDbVisualStyle
  2
FlatWithEdges
 70
     1
 71
     2
 72
     1
 73
     1
 90
        2
 40
-0.6
 41
30.0
 62
     5
 63
     7
 74
     1
 91
        4
 64
     7
 65
   257
 75
     1
175
     1
 42
1.0
 92
        0
 66
   257
 43
1.0
 76
     1
 77
     6
 78
     2
 67
     7
 79
     5
170
     0
171
     0
290
     0
174
     0
 93
       13
 44
0.0
173
     0
291
     1
 45
0.0
1001
ACAD
1000
AcDbSavedByObjectVersion
1070
     0
  0
VISUALSTYLE
  5
F5
102
{ACAD_REACTORS
330
F2
102
}
330
F2
100
AcDbVisualStyle
  2
Gouraud
 70
     2
 71
     2
 72
     2
 73
     1
 90
        2
 40
-0.6
 41
30.0
 62
     5
 63
     7
 74
     0
 91
        4
 64
     7
 65
   257
 75
     1
175
     1
 42
1.0
 92
        0
 66
     7
 43
1.0
 76
     1
 77
     6
 78
     2
 67
     7
 79
     5
170
     0
171
     0
290
     0
174
     0
 93
       13
 44
0.0
173
     0
291
     1
 45
0.0
1001
ACAD
1000
AcDbSavedByObjectVersion
1070
     0
  0
VISUALSTYLE
  5
F6
102
{ACAD_REACTORS
330
F2
102
}
330
F2
100
AcDbVisualStyle
  2
GouraudWithEdges
 70
     3
 71
     2
 72
     2
 73
     1
 90
        2
 40
-0.6
 41
30.0
 62
     5
 63
     7
 74
     1
 91
        4
 64
     7
 65
   257
 75
     1
175
     1
 42
1.0
 92
        0
 66
   257
 43
1.0
 76
     1
 77
     6
 78
     2
 67
     7
 79
     5
170
     0
171
     0
290
     0
174
     0
 93
       13
 44
0.0
173
     0
291
     1
 45
0.0
1001
ACAD
1000
AcDbSavedByObjectVersion
1070
     0
  0
VISUALSTYLE
  5
100
102
{ACAD_REACTORS
330
F2
102
}
330
F2
100
AcDbVisualStyle
  2
Linepattern
 70
    14
 71
     2
 72
     2
 73
     1
 90
        0
 40
-0.6
 41
-30.0
 62
     5
 63
     7
 74
     1
 91
        4
 64
     7
 65
   257
 75
     7
175
     7
 42
1.0
 92
        8
 66
     7
 43
1.0
 76
     1
 77
     6
 78
     2
 67
     7
 79
     5
170
     0
171
     0
290
     0
174
     0
 93
        1
 44
0.0
173
     0
291
     1
 45
0.0
1001
ACAD
1000
AcDbSavedByObjectVersion
1070
     0
  0
VISUALSTYLE
  5
FC
102
{ACAD_REACTORS
330
F2
102
}
330
F2
100
AcDbVisualStyle
  2
Realistic
 70
     8
 71
     2
 72
     2
 73
     1
 90
        0
 40
-0.6
 41
-30.0
 62
     5
 63
     7
 74
     1
 91
        0
 64
     7
 65
   257
 75
     1
175
     1
 42
1.0
 92
        8
 66
     8
 43
1.0
 76
     1
 77
     6
 78
     2
 67
     7
 79
     5
170
     0
171
     0
290
     0
174
     0
 93
       13
 44
0.0
173
     0
291
     0
 45
0.0
1001
ACAD
1000
AcDbSavedByObjectVersion
1070
     0
  0
VISUALSTYLE
  5
FF
102
{ACAD_REACTORS
330
F2
102
}
330
F2
100
AcDbVisualStyle
  2
Thicken
 70
    13
 71
     2
 72
     2
 73
     1
 90
        0
 40
-0.6
 41
-30.0
 62
     5
 63
     7
 74
     1
 91
        4
 64
     7
 65
   257
 75
     1
175
     1
 42
1.0
 92
       12
 66
     7
 43
1.0
 76
     1
 77
     6
 78
     2
 67
     7
 79
     5
170
     0
171
     0
290
     0
174
     0
 93
        1
 44
0.0
173
     0
291
     1
 45
0.0
1001
ACAD
1000
AcDbSavedByObjectVersion
1070
     0
  0
DICTIONARYVAR
  5
678
102
{ACAD_REACTORS
330
5E
102
}
330
5E
100
DictionaryVariables
280
     0
  1
1:1
  0
DICTIONARYVAR
  5
676
102
{ACAD_REACTORS
330
5E
102
}
330
5E
100
DictionaryVariables
280
     0
  1
STANDARD
  0
DICTIONARYVAR
  5
84
102
{ACAD_REACTORS
330
5E
102
}
330
5E
100
DictionaryVariables
280
     0
  1
STANDARD
  0
DICTIONARYVAR
  5
5F
102
{ACAD_REACTORS
330
5E
102
}
330
5E
100
DictionaryVariables
280
     0
  1
1
  0
DICTIONARYVAR
  5
63
102
{ACAD_REACTORS
330
5E
102
}
330
5E
100
DictionaryVariables
280
     0
  1
1
  0
DICTIONARYVAR
  5
C6D
102
{ACAD_REACTORS
330
5E
102
}
330
5E
100
DictionaryVariables
280
     0
  1
0
  0
DICTIONARYVAR
  5
679
102
{ACAD_REACTORS
330
5E
102
}
330
5E
100
DictionaryVariables
280
     0
  1
0
  0
DICTIONARYVAR
  5
677
102
{ACAD_REACTORS
330
5E
102
}
330
5E
100
DictionaryVariables
280
     0
  1
0
  0
DICTIONARYVAR
  5
C6F
102
{ACAD_REACTORS
330
5E
102
}
330
5E
100
DictionaryVariables
280
     0
  1
80.000000
  0
DICTIONARYVAR
  5
C6E
102
{ACAD_REACTORS
330
5E
102
}
330
5E
100
DictionaryVariables
280
     0
  1
5.000000
  0
DICTIONARYVAR
  5
C6C
102
{ACAD_REACTORS
330
5E
102
}
330
5E
100
DictionaryVariables
280
     0
  1
127
  0
XRECORD
  5
6E8
102
{ACAD_REACTORS
330
6E7
102
}
330
6E7
100
AcDbXrecord
280
     1
300
ASK2000BIKOU>>A3横 1/5        <<                                                                                                                                                                                                                                                                                
  0
XRECORD
  5
7D3
102
{ACAD_REACTORS
330
6E7
102
}
330
6E7
100
AcDbXrecord
280
     1
  1
DwgScale
  0
XRECORD
  5
C25
102
{ACAD_REACTORS
330
C24
102
}
330
C24
100
AcDbXrecord
280
     1
  1

 40
0.2000000029802322
 50
-9869.372873971039
 51
-4643.055500408428
 52
14309.44608054913
 53
12488.38257400261
  0
DICTIONARY
  5
C75
330
22
100
AcDbDictionary
280
     1
281
     1
  3
ACAD_XREC_ROUNDTRIP
360
C76
  0
DICTIONARY
  5
C78
330
D3
100
AcDbDictionary
280
     1
281
     1
  3
ACAD_XREC_ROUNDTRIP
360
C79
  0
DICTIONARY
  5
C7A
330
D7
100
AcDbDictionary
280
     1
281
     1
  3
ACAD_XREC_ROUNDTRIP
360
C7B
  0
DICTIONARY
  5
C7E
330
F0
100
AcDbDictionary
280
     1
281
     1
  3
ACAD_XREC_ROUNDTRIP
360
C7F
  0
DICTIONARY
  5
C7C
330
EF
100
AcDbDictionary
280
     1
281
     1
  3
ACAD_XREC_ROUNDTRIP
360
C7D
  0
DICTIONARY
  5
C80
330
F1
100
AcDbDictionary
280
     1
281
     1
  3
ACAD_XREC_ROUNDTRIP
360
C81
  0
DICTIONARY
  5
673
330
7F
100
AcDbDictionary
280
     1
281
     1
  3
ACAD_ROUNDTRIP_2008_TABLESTYLE_CELLSTYLEMAP
360
C70
  3
ACAD_XREC_ROUNDTRIP
360
C77
  0
XRECORD
  5
C76
102
{ACAD_REACTORS
330
C75
102
}
330
C75
100
AcDbXrecord
280
     1
102
SHADEPLOT
 70
     0
102
SHADEPLOTRESLEVEL
 70
     2
102
SHADEPLOTCUSTOMDPI
 70
   300
  0
XRECORD
  5
C79
102
{ACAD_REACTORS
330
C78
102
}
330
C78
100
AcDbXrecord
280
     1
102
SHADEPLOT
 70
     0
102
SHADEPLOTRESLEVEL
 70
     2
102
SHADEPLOTCUSTOMDPI
 70
   300
  0
XRECORD
  5
C7B
102
{ACAD_REACTORS
330
C7A
102
}
330
C7A
100
AcDbXrecord
280
     1
102
SHADEPLOT
 70
     0
102
SHADEPLOTRESLEVEL
 70
     2
102
SHADEPLOTCUSTOMDPI
 70
   300
  0
XRECORD
  5
C7F
102
{ACAD_REACTORS
330
C7E
102
}
330
C7E
100
AcDbXrecord
280
     1
102
MATERIAL
148
0.0
149
0.0
149
0.0
 93
        0
 94
       63
282
     0
 72
     1
 77
     1
171
     1
175
     1
179
     1
273
     0
  0
XRECORD
  5
C7D
102
{ACAD_REACTORS
330
C7C
102
}
330
C7C
100
AcDbXrecord
280
     1
102
MATERIAL
148
0.0
149
0.0
149
0.0
 93
        0
 94
       63
282
     0
 72
     1
 77
     1
171
     1
175
     1
179
     1
273
     0
  0
XRECORD
  5
C81
102
{ACAD_REACTORS
330
C80
102
}
330
C80
100
AcDbXrecord
280
     1
102
MATERIAL
148
0.0
149
0.0
149
0.0
 93
        0
 94
       63
282
     0
 72
     1
 77
     1
171
     1
175
     1
179
     1
273
     0
  0
CELLSTYLEMAP
  5
C70
102
{ACAD_REACTORS
330
673
102
}
330
673
100
AcDbCellStyleMap
 90
        3
300
CELLSTYLE
  1
TABLEFORMAT_BEGIN
 90
        5
170
     1
 91
        0
 92
    32768
 62
   257
 93
        1
300
CONTENTFORMAT
  1
CONTENTFORMAT_BEGIN
 90
        0
 91
        0
 92
      512
 93
        0
300

 40
0.0
140
1.0
 94
        5
 62
     0
340
11
144
6.0
309
CONTENTFORMAT_END
171
     1
301
MARGIN
  1
CELLMARGIN_BEGIN
 40
1.5
 40
1.5
 40
1.5
 40
1.5
 40
0.18
 40
0.18
309
CELLMARGIN_END
 94
        6
 95
        1
302
GRIDFORMAT
  1
GRIDFORMAT_BEGIN
 90
        0
 91
        1
 62
     0
 92
       -2
340
0
 93
        0
 40
0.045
309
GRIDFORMAT_END
 95
        2
302
GRIDFORMAT
  1
GRIDFORMAT_BEGIN
 90
        0
 91
        1
 62
     0
 92
       -2
340
0
 93
        0
 40
0.045
309
GRIDFORMAT_END
 95
        4
302
GRIDFORMAT
  1
GRIDFORMAT_BEGIN
 90
        0
 91
        1
 62
     0
 92
       -2
340
0
 93
        0
 40
0.045
309
GRIDFORMAT_END
 95
        8
302
GRIDFORMAT
  1
GRIDFORMAT_BEGIN
 90
        0
 91
        1
 62
     0
 92
       -2
340
0
 93
        0
 40
0.045
309
GRIDFORMAT_END
 95
       16
302
GRIDFORMAT
  1
GRIDFORMAT_BEGIN
 90
        0
 91
        1
 62
     0
 92
       -2
340
0
 93
        0
 40
0.045
309
GRIDFORMAT_END
 95
       32
302
GRIDFORMAT
  1
GRIDFORMAT_BEGIN
 90
        0
 91
        1
 62
     0
 92
       -2
340
0
 93
        0
 40
0.045
309
GRIDFORMAT_END
309
TABLEFORMAT_END
  1
CELLSTYLE_BEGIN
 90
        1
 91
        1
300
_TITLE
309
CELLSTYLE_END
300
CELLSTYLE
  1
TABLEFORMAT_BEGIN
 90
        5
170
     1
 91
        0
 92
        0
 62
   257
 93
        1
300
CONTENTFORMAT
  1
CONTENTFORMAT_BEGIN
 90
        0
 91
        0
 92
      512
 93
        0
300

 40
0.0
140
1.0
 94
        5
 62
     0
340
11
144
4.5
309
CONTENTFORMAT_END
171
     1
301
MARGIN
  1
CELLMARGIN_BEGIN
 40
1.5
 40
1.5
 40
1.5
 40
1.5
 40
0.18
 40
0.18
309
CELLMARGIN_END
 94
        6
 95
        1
302
GRIDFORMAT
  1
GRIDFORMAT_BEGIN
 90
        0
 91
        1
 62
     0
 92
       -2
340
0
 93
        0
 40
0.045
309
GRIDFORMAT_END
 95
        2
302
GRIDFORMAT
  1
GRIDFORMAT_BEGIN
 90
        0
 91
        1
 62
     0
 92
       -2
340
0
 93
        0
 40
0.045
309
GRIDFORMAT_END
 95
        4
302
GRIDFORMAT
  1
GRIDFORMAT_BEGIN
 90
        0
 91
        1
 62
     0
 92
       -2
340
0
 93
        0
 40
0.045
309
GRIDFORMAT_END
 95
        8
302
GRIDFORMAT
  1
GRIDFORMAT_BEGIN
 90
        0
 91
        1
 62
     0
 92
       -2
340
0
 93
        0
 40
0.045
309
GRIDFORMAT_END
 95
       16
302
GRIDFORMAT
  1
GRIDFORMAT_BEGIN
 90
        0
 91
        1
 62
     0
 92
       -2
340
0
 93
        0
 40
0.045
309
GRIDFORMAT_END
 95
       32
302
GRIDFORMAT
  1
GRIDFORMAT_BEGIN
 90
        0
 91
        1
 62
     0
 92
       -2
340
0
 93
        0
 40
0.045
309
GRIDFORMAT_END
309
TABLEFORMAT_END
  1
CELLSTYLE_BEGIN
 90
        2
 91
        1
300
_HEADER
309
CELLSTYLE_END
300
CELLSTYLE
  1
TABLEFORMAT_BEGIN
 90
        5
170
     1
 91
        0
 92
        0
 62
   257
 93
        1
300
CONTENTFORMAT
  1
CONTENTFORMAT_BEGIN
 90
        0
 91
        0
 92
      512
 93
        0
300

 40
0.0
140
1.0
 94
        2
 62
     0
340
11
144
4.5
309
CONTENTFORMAT_END
171
     1
301
MARGIN
  1
CELLMARGIN_BEGIN
 40
1.5
 40
1.5
 40
1.5
 40
1.5
 40
0.18
 40
0.18
309
CELLMARGIN_END
 94
        6
 95
        1
302
GRIDFORMAT
  1
GRIDFORMAT_BEGIN
 90
        0
 91
        1
 62
     0
 92
       -2
340
0
 93
        0
 40
0.045
309
GRIDFORMAT_END
 95
        2
302
GRIDFORMAT
  1
GRIDFORMAT_BEGIN
 90
        0
 91
        1
 62
     0
 92
       -2
340
0
 93
        0
 40
0.045
309
GRIDFORMAT_END
 95
        4
302
GRIDFORMAT
  1
GRIDFORMAT_BEGIN
 90
        0
 91
        1
 62
     0
 92
       -2
340
0
 93
        0
 40
0.045
309
GRIDFORMAT_END
 95
        8
302
GRIDFORMAT
  1
GRIDFORMAT_BEGIN
 90
        0
 91
        1
 62
     0
 92
       -2
340
0
 93
        0
 40
0.045
309
GRIDFORMAT_END
 95
       16
302
GRIDFORMAT
  1
GRIDFORMAT_BEGIN
 90
        0
 91
        1
 62
     0
 92
       -2
340
0
 93
        0
 40
0.045
309
GRIDFORMAT_END
 95
       32
302
GRIDFORMAT
  1
GRIDFORMAT_BEGIN
 90
        0
 91
        1
 62
     0
 92
       -2
340
0
 93
        0
 40
0.045
309
GRIDFORMAT_END
309
TABLEFORMAT_END
  1
CELLSTYLE_BEGIN
 90
        3
 91
        2
300
_DATA
309
CELLSTYLE_END
  0
XRECORD
  5
C77
102
{ACAD_REACTORS
330
673
102
}
330
673
100
AcDbXrecord
280
     1
102
ACAD_ROUNDTRIP_PRE2007_TABLESTYLE
 90
      512
 91
        0
  1

 92
      512
 93
        0
  2

 94
      512
 95
        0
  3

  0
ENDSEC
  0
EOF
