  0
SECTION
  2
HEADER
  9
$ACADVER
  1
AC1015
  9
$ACADMAINTVER
 70
    18
  9
$DWGCODEPAGE
  3
ANSI_932
  9
$INSBASE
 10
0.0
 20
0.0
 30
0.0
  9
$EXTMIN
 10
6.000142066116836
 20
6.00000651395544
 30
0.0
  9
$EXTMAX
 10
2525.999929635131
 20
1787.999999182569
 30
0.0
  9
$LIMMIN
 10
0.0
 20
0.0
  9
$LIMMAX
 10
2519.999999999496
 20
1781.999999999644
  9
$ORTHOMODE
 70
     0
  9
$REGENMODE
 70
     1
  9
$FILLMODE
 70
     1
  9
$QTEXTMODE
 70
     0
  9
$MIRRTEXT
 70
     0
  9
$LTSCALE
 40
5.9999999999988
  9
$ATTMODE
 70
     1
  9
$TEXTSIZE
 40
2.5
  9
$TRACEWID
 40
1.0
  9
$TEXTSTYLE
  7
STD
  9
$CLAYER
  8
0
  9
$CELTYPE
  6
Continuous
  9
$CECOLOR
 62
     7
  9
$CELTSCALE
 40
1.0
  9
$DISPSILH
 70
     0
  9
$DIMSCALE
 40
5.9999999999988
  9
$DIMASZ
 40
3.0
  9
$DIMEXO
 40
1.0
  9
$DIMDLI
 40
8.0
  9
$DIMRND
 40
0.0
  9
$DIMDLE
 40
0.0
  9
$DIMEXE
 40
1.0
  9
$DIMTP
 40
0.0
  9
$DIMTM
 40
0.000000001
  9
$DIMTXT
 40
3.0
  9
$DIMCEN
 40
0.0
  9
$DIMTSZ
 40
0.0
  9
$DIMTOL
 70
     0
  9
$DIMLIM
 70
     0
  9
$DIMTIH
 70
     0
  9
$DIMTOH
 70
     0
  9
$DIMSE1
 70
     0
  9
$DIMSE2
 70
     0
  9
$DIMTAD
 70
     3
  9
$DIMZIN
 70
     9
  9
$DIMBLK
  1
Open30
  9
$DIMASO
 70
     1
  9
$DIMSHO
 70
     1
  9
$DIMPOST
  1

  9
$DIMAPOST
  1

  9
$DIMALT
 70
     0
  9
$DIMALTD
 70
     2
  9
$DIMALTF
 40
0.0005
  9
$DIMLFAC
 40
1.0
  9
$DIMTOFL
 70
     1
  9
$DIMTVP
 40
0.0
  9
$DIMTIX
 70
     0
  9
$DIMSOXD
 70
     0
  9
$DIMSAH
 70
     0
  9
$DIMBLK1
  1

  9
$DIMBLK2
  1

  9
$DIMSTYLE
  2
ASKSTANDARD
  9
$DIMCLRD
 70
     4
  9
$DIMCLRE
 70
     4
  9
$DIMCLRT
 70
     4
  9
$DIMTFAC
 40
0.5
  9
$DIMGAP
 40
1.0
  9
$DIMJUST
 70
     0
  9
$DIMSD1
 70
     0
  9
$DIMSD2
 70
     0
  9
$DIMTOLJ
 70
     1
  9
$DIMTZIN
 70
     0
  9
$DIMALTZ
 70
     0
  9
$DIMALTTZ
 70
     0
  9
$DIMUPT
 70
     0
  9
$DIMDEC
 70
     2
  9
$DIMTDEC
 70
     2
  9
$DIMALTU
 70
     2
  9
$DIMALTTD
 70
     2
  9
$DIMTXSTY
  7
STD
  9
$DIMAUNIT
 70
     0
  9
$DIMADEC
 70
     2
  9
$DIMALTRND
 40
0.0
  9
$DIMAZIN
 70
     2
  9
$DIMDSEP
 70
    46
  9
$DIMATFIT
 70
     0
  9
$DIMFRAC
 70
     0
  9
$DIMLDRBLK
  1
Open30
  9
$DIMLUNIT
 70
     2
  9
$DIMLWD
 70
     9
  9
$DIMLWE
 70
     9
  9
$DIMTMOVE
 70
     0
  9
$LUNITS
 70
     2
  9
$LUPREC
 70
     4
  9
$SKETCHINC
 40
1.0
  9
$FILLETRAD
 40
0.0
  9
$AUNITS
 70
     0
  9
$AUPREC
 70
     0
  9
$MENU
  1
.
  9
$ELEVATION
 40
0.0
  9
$PELEVATION
 40
0.0
  9
$THICKNESS
 40
0.0
  9
$LIMCHECK
 70
     0
  9
$CHAMFERA
 40
0.0
  9
$CHAMFERB
 40
0.0
  9
$CHAMFERC
 40
0.0
  9
$CHAMFERD
 40
0.0
  9
$SKPOLY
 70
     0
  9
$TDCREATE
 40
2454497.602825139
  9
$TDUCREATE
 40
2454497.227825139
  9
$TDUPDATE
 40
2456276.810410336
  9
$TDUUPDATE
 40
2456276.435410336
  9
$TDINDWG
 40
0.2113191551
  9
$TDUSRTIMER
 40
0.2113191551
  9
$USRTIMER
 70
     1
  9
$ANGBASE
 50
0.0
  9
$ANGDIR
 70
     0
  9
$PDMODE
 70
     1
  9
$PDSIZE
 40
0.0
  9
$PLINEWID
 40
0.0
  9
$SPLFRAME
 70
     0
  9
$SPLINETYPE
 70
     6
  9
$SPLINESEGS
 70
     8
  9
$HANDSEED
  5
175B
  9
$SURFTAB1
 70
     6
  9
$SURFTAB2
 70
     6
  9
$SURFTYPE
 70
     6
  9
$SURFU
 70
     6
  9
$SURFV
 70
     6
  9
$UCSBASE
  2

  9
$UCSNAME
  2

  9
$UCSORG
 10
0.0
 20
0.0
 30
0.0
  9
$UCSXDIR
 10
1.0
 20
0.0
 30
0.0
  9
$UCSYDIR
 10
0.0
 20
1.0
 30
0.0
  9
$UCSORTHOREF
  2

  9
$UCSORTHOVIEW
 70
     0
  9
$UCSORGTOP
 10
0.0
 20
0.0
 30
0.0
  9
$UCSORGBOTTOM
 10
0.0
 20
0.0
 30
0.0
  9
$UCSORGLEFT
 10
0.0
 20
0.0
 30
0.0
  9
$UCSORGRIGHT
 10
0.0
 20
0.0
 30
0.0
  9
$UCSORGFRONT
 10
0.0
 20
0.0
 30
0.0
  9
$UCSORGBACK
 10
0.0
 20
0.0
 30
0.0
  9
$PUCSBASE
  2

  9
$PUCSNAME
  2

  9
$PUCSORG
 10
0.0
 20
0.0
 30
0.0
  9
$PUCSXDIR
 10
1.0
 20
0.0
 30
0.0
  9
$PUCSYDIR
 10
0.0
 20
1.0
 30
0.0
  9
$PUCSORTHOREF
  2

  9
$PUCSORTHOVIEW
 70
     0
  9
$PUCSORGTOP
 10
0.0
 20
0.0
 30
0.0
  9
$PUCSORGBOTTOM
 10
0.0
 20
0.0
 30
0.0
  9
$PUCSORGLEFT
 10
0.0
 20
0.0
 30
0.0
  9
$PUCSORGRIGHT
 10
0.0
 20
0.0
 30
0.0
  9
$PUCSORGFRONT
 10
0.0
 20
0.0
 30
0.0
  9
$PUCSORGBACK
 10
0.0
 20
0.0
 30
0.0
  9
$USERI1
 70
     0
  9
$USERI2
 70
     0
  9
$USERI3
 70
     0
  9
$USERI4
 70
     0
  9
$USERI5
 70
     0
  9
$USERR1
 40
0.0
  9
$USERR2
 40
0.0
  9
$USERR3
 40
0.0
  9
$USERR4
 40
0.0
  9
$USERR5
 40
0.0
  9
$WORLDVIEW
 70
     1
  9
$SHADEDGE
 70
     3
  9
$SHADEDIF
 70
    70
  9
$TILEMODE
 70
     1
  9
$MAXACTVP
 70
    64
  9
$PINSBASE
 10
0.0
 20
0.0
 30
0.0
  9
$PLIMCHECK
 70
     0
  9
$PEXTMIN
 10
0.0
 20
0.0
 30
0.0
  9
$PEXTMAX
 10
0.0
 20
0.0
 30
0.0
  9
$PLIMMIN
 10
0.0
 20
0.0
  9
$PLIMMAX
 10
12.0
 20
9.0
  9
$UNITMODE
 70
     0
  9
$VISRETAIN
 70
     1
  9
$PLINEGEN
 70
     0
  9
$PSLTSCALE
 70
     1
  9
$TREEDEPTH
 70
  3020
  9
$CMLSTYLE
  2
Standard
  9
$CMLJUST
 70
     0
  9
$CMLSCALE
 40
20.0
  9
$PROXYGRAPHICS
 70
     1
  9
$MEASUREMENT
 70
     1
  9
$CELWEIGHT
370
    -1
  9
$ENDCAPS
280
     0
  9
$JOINSTYLE
280
     0
  9
$LWDISPLAY
290
     0
  9
$INSUNITS
 70
     4
  9
$HYPERLINKBASE
  1

  9
$STYLESHEET
  1

  9
$XEDIT
290
     1
  9
$CEPSNTYPE
380
     0
  9
$PSTYLEMODE
290
     1
  9
$FINGERPRINTGUID
  2
{D178A04D-76D8-4F2C-AB2D-4FB1B243C31E}
  9
$VERSIONGUID
  2
{7E343929-1355-49D2-A186-D54B38062911}
  9
$EXTNAMES
290
     1
  9
$PSVPSCALE
 40
0.0
  9
$OLESTARTUP
290
     0
  0
ENDSEC
  0
SECTION
  2
CLASSES
  0
CLASS
  1
ACDBDICTIONARYWDFLT
  2
AcDbDictionaryWithDefault
  3
ObjectDBX Classes
 90
        0
280
     0
281
     0
  0
CLASS
  1
DICTIONARYVAR
  2
AcDbDictionaryVar
  3
ObjectDBX Classes
 90
        0
280
     0
281
     0
  0
CLASS
  1
TABLESTYLE
  2
AcDbTableStyle
  3
ObjectDBX Classes
 90
     4095
280
     0
281
     0
  0
CLASS
  1
MATERIAL
  2
AcDbMaterial
  3
ObjectDBX Classes
 90
     1153
280
     0
281
     0
  0
CLASS
  1
VISUALSTYLE
  2
AcDbVisualStyle
  3
ObjectDBX Classes
 90
     4095
280
     0
281
     0
  0
CLASS
  1
SORTENTSTABLE
  2
AcDbSortentsTable
  3
ObjectDBX Classes
 90
    32768
280
     0
281
     0
  0
CLASS
  1
SCALE
  2
AcDbScale
  3
ObjectDBX Classes
 90
     1153
280
     0
281
     0
  0
CLASS
  1
MLEADERSTYLE
  2
AcDbMLeaderStyle
  3
ACDB_MLEADERSTYLE_CLASS
 90
     4095
280
     0
281
     0
  0
CLASS
  1
CELLSTYLEMAP
  2
AcDbCellStyleMap
  3
ObjectDBX Classes
 90
     1152
280
     0
281
     0
  0
CLASS
  1
EXACXREFPANELOBJECT
  2
ExAcXREFPanelObject
  3
EXAC_ESW
 90
    33793
280
     0
281
     0
  0
CLASS
  1
NPOCOLLECTION
  2
AcDbImpNonPersistentObjectsCollection
  3
ObjectDBX Classes
 90
    33921
280
     0
281
     0
  0
CLASS
  1
RASTERVARIABLES
  2
AcDbRasterVariables
  3
ISM
 90
        0
280
     0
281
     0
  0
CLASS
  1
ACDBSECTIONVIEWSTYLE
  2
AcDbSectionViewStyle
  3
ObjectDBX Classes
 90
     1025
280
     0
281
     0
  0
CLASS
  1
ACDBDETAILVIEWSTYLE
  2
AcDbDetailViewStyle
  3
ObjectDBX Classes
 90
     1025
280
     0
281
     0
  0
CLASS
  1
ACDBPLACEHOLDER
  2
AcDbPlaceHolder
  3
ObjectDBX Classes
 90
        0
280
     0
281
     0
  0
CLASS
  1
LAYOUT
  2
AcDbLayout
  3
ObjectDBX Classes
 90
        0
280
     0
281
     0
  0
ENDSEC
  0
SECTION
  2
TABLES
  0
TABLE
  2
VPORT
  5
8
330
0
100
AcDbSymbolTable
 70
     1
  0
VPORT
  5
ED
330
8
100
AcDbSymbolTableRecord
100
AcDbViewportTableRecord
  2
*Active
 70
     0
 10
0.0
 20
0.0
 11
1.0
 21
1.0
 12
1259.999999999748
 22
890.9999999998218
 13
0.0
 23
0.0
 14
10.0
 24
10.0
 15
10.0
 25
10.0
 16
0.0
 26
0.0
 36
1.0
 17
0.0
 27
0.0
 37
0.0
 40
1781.999999999644
 41
1.633943427620632
 42
50.0
 43
0.0
 44
0.0
 50
0.0
 51
0.0
 71
     0
 72
  1000
 73
     1
 74
     3
 75
     0
 76
     0
 77
     0
 78
     0
281
     0
 65
     1
110
0.0
120
0.0
130
0.0
111
1.0
121
0.0
131
0.0
112
0.0
122
1.0
132
0.0
 79
     0
146
0.0
1001
ACAD_NAV_VCDISPLAY
1070
     3
  0
ENDTAB
  0
TABLE
  2
LTYPE
  5
5
330
0
100
AcDbSymbolTable
 70
     6
  0
LTYPE
  5
14
330
5
100
AcDbSymbolTableRecord
100
AcDbLinetypeTableRecord
  2
ByBlock
 70
     0
  3

 72
    65
 73
     0
 40
0.0
  0
LTYPE
  5
15
330
5
100
AcDbSymbolTableRecord
100
AcDbLinetypeTableRecord
  2
ByLayer
 70
     0
  3

 72
    65
 73
     0
 40
0.0
  0
LTYPE
  5
16
330
5
100
AcDbSymbolTableRecord
100
AcDbLinetypeTableRecord
  2
Continuous
 70
     0
  3
Solid line
 72
    65
 73
     0
 40
0.0
  0
LTYPE
  5
780
330
5
100
AcDbSymbolTableRecord
100
AcDbLinetypeTableRecord
  2
CENTER2
 70
     0
  3
Center (.5x) ___ _ ___ _ ___ _ ___ _ ___ _ ___
 72
    65
 73
     4
 40
28.575
 49
19.05
 74
     0
 49
-3.174999999999999
 74
     0
 49
3.174999999999999
 74
     0
 49
-3.174999999999999
 74
     0
  0
LTYPE
  5
781
330
5
100
AcDbSymbolTableRecord
100
AcDbLinetypeTableRecord
  2
HIDDEN2
 70
     0
  3
Hidden (.5x) _ _ _ _ _ _ _ _ _ _ _ _ _ _ _ _ _
 72
    65
 73
     2
 40
4.762499999999999
 49
3.174999999999999
 74
     0
 49
-1.587499999999999
 74
     0
  0
LTYPE
  5
782
330
5
100
AcDbSymbolTableRecord
100
AcDbLinetypeTableRecord
  2
PHANTOM2
 70
     0
  3
Phantom (.5x) ___ _ _ ___ _ _ ___ _ _ ___ _ _
 72
    65
 73
     6
 40
31.75
 49
15.875
 74
     0
 49
-3.174999999999999
 74
     0
 49
3.174999999999999
 74
     0
 49
-3.174999999999999
 74
     0
 49
3.174999999999999
 74
     0
 49
-3.174999999999999
 74
     0
  0
LTYPE
  5
7A8
330
5
100
AcDbSymbolTableRecord
100
AcDbLinetypeTableRecord
  2
zigzag
 70
     0
  3
/\/-/\/-/\/-/\/-/\/-/\/
 72
    65
 73
     2
 40
11.0001
 49
0.0001
 74
     4
 75
   135
340
77F
 46
0.04
 50
0.0
 44
0.0
 45
0.0
 49
-11.0
 74
     0
  0
LTYPE
  5
7D1
330
5
100
AcDbSymbolTableRecord
100
AcDbLinetypeTableRecord
  2
DIMENSION
 70
     0
  3
_______________________________________________
 72
    65
 73
     2
 40
0.000000000000002
 49
0.000000000000001
 74
     0
 49
0.000000000000001
 74
     0
  0
ENDTAB
  0
TABLE
  2
LAYER
  5
2
102
{ACAD_XDICTIONARY
360
688
102
}
330
0
100
AcDbSymbolTable
 70
     6
  0
LAYER
  5
10
102
{ACAD_XDICTIONARY
360
785
102
}
330
2
100
AcDbSymbolTableRecord
100
AcDbLayerTableRecord
  2
0
 70
     0
 62
     7
  6
Continuous
370
    -3
390
F
  0
LAYER
  5
14A
330
2
100
AcDbSymbolTableRecord
100
AcDbLayerTableRecord
  2
Defpoints
 70
     0
 62
     7
  6
Continuous
290
     0
370
    -3
390
F
  0
LAYER
  5
7F9
330
2
100
AcDbSymbolTableRecord
100
AcDbLayerTableRecord
  2
PV0001_6
 70
     0
 62
     7
  6
Continuous
370
    -3
390
F
  0
LAYER
  5
F54
330
2
100
AcDbSymbolTableRecord
100
AcDbLayerTableRecord
  2
FO0001_1
 70
     0
 62
     7
  6
Continuous
370
    -3
390
F
  0
LAYER
  5
FBF
330
2
100
AcDbSymbolTableRecord
100
AcDbLayerTableRecord
  2
TP1791_6
 70
     0
 62
     7
  6
Continuous
370
    -3
390
F
  0
LAYER
  5
110C
330
2
100
AcDbSymbolTableRecord
100
AcDbLayerTableRecord
  2
RH0901_6
 70
     0
 62
     7
  6
Continuous
370
    -3
390
F
  0
ENDTAB
  0
TABLE
  2
STYLE
  5
3
330
0
100
AcDbSymbolTable
 70
     3
  0
STYLE
  5
11
330
3
100
AcDbSymbolTableRecord
100
AcDbTextStyleTableRecord
  2
Standard
 70
     0
 40
0.0
 41
0.8
 50
0.0
 71
     0
 42
2.5
  3
romans.shx
  4
extfont2.shx
  0
STYLE
  5
77F
330
3
100
AcDbSymbolTableRecord
100
AcDbTextStyleTableRecord
  2

 70
     1
 40
0.0
 41
1.0
 50
0.0
 71
     0
 42
2.5
  3
ltypeshp.shx
  4

  0
STYLE
  5
783
330
3
100
AcDbSymbolTableRecord
100
AcDbTextStyleTableRecord
  2
STD
 70
     0
 40
0.0
 41
0.6
 50
0.0
 71
     0
 42
2.5
  3
monotxt.shx
  4
extfont2.shx
  0
ENDTAB
  0
TABLE
  2
VIEW
  5
6
330
0
100
AcDbSymbolTable
 70
     0
  0
ENDTAB
  0
TABLE
  2
UCS
  5
7
330
0
100
AcDbSymbolTable
 70
     0
  0
ENDTAB
  0
TABLE
  2
APPID
  5
9
330
0
100
AcDbSymbolTable
 70
    22
  0
APPID
  5
12
330
9
100
AcDbSymbolTableRecord
100
AcDbRegAppTableRecord
  2
ACAD
 70
     0
  0
APPID
  5
9E
330
9
100
AcDbSymbolTableRecord
100
AcDbRegAppTableRecord
  2
ACAD_PSEXT
 70
     0
  0
APPID
  5
15A
330
9
100
AcDbSymbolTableRecord
100
AcDbRegAppTableRecord
  2
ACAD_DSTYLE_DIMTEXT_FILL
 70
     0
  0
APPID
  5
15B
330
9
100
AcDbSymbolTableRecord
100
AcDbRegAppTableRecord
  2
ACAD_DSTYLE_DIMEXT_LENGTH
 70
     0
  0
APPID
  5
15C
330
9
100
AcDbSymbolTableRecord
100
AcDbRegAppTableRecord
  2
ACAD_DSTYLE_DIMEXT_ENABLED
 70
     0
  0
APPID
  5
15D
330
9
100
AcDbSymbolTableRecord
100
AcDbRegAppTableRecord
  2
ACAD_DSTYLE_DIM_LINETYPE
 70
     0
  0
APPID
  5
15E
330
9
100
AcDbSymbolTableRecord
100
AcDbRegAppTableRecord
  2
ACAD_DSTYLE_DIM_EXT1_LINETYPE
 70
     0
  0
APPID
  5
15F
330
9
100
AcDbSymbolTableRecord
100
AcDbRegAppTableRecord
  2
ACAD_DSTYLE_DIM_EXT2_LINETYPE
 70
     0
  0
APPID
  5
160
330
9
100
AcDbSymbolTableRecord
100
AcDbRegAppTableRecord
  2
ACAD_DSTYLE_DIMJOGGED_JOGANGLE_SYMBOL
 70
     0
  0
APPID
  5
161
330
9
100
AcDbSymbolTableRecord
100
AcDbRegAppTableRecord
  2
ACAD_DSTYLE_DIMARC_LENGTH_SYMBOL
 70
     0
  0
APPID
  5
162
330
9
100
AcDbSymbolTableRecord
100
AcDbRegAppTableRecord
  2
ACAD_MLEADERVER
 70
     0
  0
APPID
  5
163
330
9
100
AcDbSymbolTableRecord
100
AcDbRegAppTableRecord
  2
AcAecLayerStandard
 70
     0
  0
APPID
  5
164
330
9
100
AcDbSymbolTableRecord
100
AcDbRegAppTableRecord
  2
ACAD_DSTYLE_DIMJAG
 70
     0
  0
APPID
  5
165
330
9
100
AcDbSymbolTableRecord
100
AcDbRegAppTableRecord
  2
ACAD_DSTYLE_DIMTALN
 70
     0
  0
APPID
  5
166
330
9
100
AcDbSymbolTableRecord
100
AcDbRegAppTableRecord
  2
DIMEXPLODE
 70
     0
  0
APPID
  5
41A
330
9
100
AcDbSymbolTableRecord
100
AcDbRegAppTableRecord
  2
AcadAnnoPO
 70
     0
  0
APPID
  5
7AC
330
9
100
AcDbSymbolTableRecord
100
AcDbRegAppTableRecord
  2
AcadAnnotative
 70
     0
  0
APPID
  5
7C9
330
9
100
AcDbSymbolTableRecord
100
AcDbRegAppTableRecord
  2
ACAD_EXEMPT_FROM_CAD_STANDARDS
 70
     0
  0
APPID
  5
861
330
9
100
AcDbSymbolTableRecord
100
AcDbRegAppTableRecord
  2
DEKIMAS
 70
     0
  0
APPID
  5
160F
330
9
100
AcDbSymbolTableRecord
100
AcDbRegAppTableRecord
  2
ASKOBJSC
 70
     0
  0
APPID
  5
1610
330
9
100
AcDbSymbolTableRecord
100
AcDbRegAppTableRecord
  2
ASKDWGSC
 70
     0
  0
APPID
  5
1712
330
9
100
AcDbSymbolTableRecord
100
AcDbRegAppTableRecord
  2
ACAD_NAV_VCDISPLAY
 70
     0
  0
ENDTAB
  0
TABLE
  2
DIMSTYLE
  5
A
330
0
100
AcDbSymbolTable
 70
     6
100
AcDbDimStyleTable
 71
     3
340
159
340
110D
340
BB2
  0
DIMSTYLE
105
159
102
{ACAD_REACTORS
330
7FA
330
864
330
8D1
330
938
330
99F
330
9EA
330
A2D
330
A9E
330
AE1
330
B24
330
B6F
330
C05
330
C48
330
FC0
330
100F
330
1054
330
1154
330
1197
330
1208
330
124B
330
128E
330
12D9
330
131C
330
135F
102
}
330
A
100
AcDbSymbolTableRecord
100
AcDbDimStyleTableRecord
  2
ASKSTANDARD
 70
     0
 40
5.999999821186071
 41
3.0
 42
1.0
 43
8.0
 44
1.0
 48
0.000000001
 73
     0
 74
     0
 77
     3
 78
     9
 79
     2
140
3.0
141
0.0
143
0.0005
146
0.5
147
1.0
172
     1
176
     4
177
     4
178
     4
179
     2
271
     2
272
     2
289
     0
340
783
341
71F
342
71F
371
     9
372
     9
1001
ACAD_DSTYLE_DIMJAG
1070
   388
1040
1.5
1001
ACAD_DSTYLE_DIMTALN
1070
   392
1070
     0
1001
ACAD_DSTYLE_DIMEXT_LENGTH
1070
   378
1040
2.0
1001
ACAD_DSTYLE_DIMJOGGED_JOGANGLE_SYMBOL
1070
   384
1040
1.570796326794896
  0
DIMSTYLE
105
7AA
330
A
100
AcDbSymbolTableRecord
100
AcDbDimStyleTableRecord
  2
Standard
 70
     0
340
11
  0
DIMSTYLE
105
7F8
330
A
100
AcDbSymbolTableRecord
100
AcDbDimStyleTableRecord
  2
SYMBOL
 70
     0
 40
5.999999821186071
 41
3.0
 42
1.0
 43
8.0
 44
1.0
 48
0.000000001
 73
     0
 74
     0
 77
     3
 78
     9
 79
     2
140
3.0
141
0.0
143
0.0005
146
0.5
147
1.0
172
     1
176
     4
177
     4
178
     4
179
     2
271
     2
272
     2
289
     0
340
783
341
71F
342
71F
371
     9
372
     9
1001
ACAD_DSTYLE_DIMJAG
1070
   388
1040
1.5
1001
ACAD_DSTYLE_DIMTALN
1070
   392
1070
     0
1001
ACAD_DSTYLE_DIMEXT_LENGTH
1070
   378
1040
2.0
1001
ACAD_DSTYLE_DIMJOGGED_JOGANGLE_SYMBOL
1070
   384
1040
1.570796326794896
  0
DIMSTYLE
105
BB2
102
{ACAD_REACTORS
330
7FA
330
864
330
8D1
330
938
330
99F
330
9EA
330
A2D
330
A9E
330
AE1
330
B24
330
B6F
330
BB3
102
}
330
A
100
AcDbSymbolTableRecord
100
AcDbDimStyleTableRecord
  2
ASKSTANDARDORG94P99
 70
     0
 40
5.999999821186071
 41
3.0
 42
1.0
 43
8.0
 44
1.0
 48
0.000000001
 73
     0
 74
     0
 77
     3
 78
     9
 79
     2
140
3.0
141
0.0
143
0.0005
144
94.98959456995011
146
0.5
147
1.0
172
     1
176
     4
177
     4
178
     4
179
     2
271
     2
272
     2
289
     0
340
783
341
71F
342
71F
371
     9
372
     9
1001
ACAD_DSTYLE_DIMJAG
1070
   388
1040
1.5
1001
ACAD_DSTYLE_DIMTALN
1070
   392
1070
     0
1001
ACAD_DSTYLE_DIMEXT_LENGTH
1070
   378
1040
2.0
1001
ACAD_DSTYLE_DIMJOGGED_JOGANGLE_SYMBOL
1070
   384
1040
1.570796326794896
  0
DIMSTYLE
105
F53
102
{ACAD_REACTORS
330
7FA
330
864
330
8D1
330
938
330
99F
330
9EA
330
A2D
330
A9E
330
AE1
330
B24
330
B6F
330
C05
330
C48
102
}
330
A
100
AcDbSymbolTableRecord
100
AcDbDimStyleTableRecord
  2
ASKSTANDARDFO0P16667
 70
     0
 40
5.999999821186071
 41
3.0
 42
1.0
 43
8.0
 44
1.0
 48
0.000000001
 73
     0
 74
     0
 77
     3
 78
     9
 79
     2
140
3.0
141
0.0
143
0.0005
144
0.16667
146
0.5
147
1.0
172
     1
176
     4
177
     4
178
     4
179
     2
271
     2
272
     2
289
     0
340
783
341
71F
342
71F
371
     9
372
     9
1001
ACAD_DSTYLE_DIMJAG
1070
   388
1040
1.5
1001
ACAD_DSTYLE_DIMTALN
1070
   392
1070
     0
1001
ACAD_DSTYLE_DIMEXT_LENGTH
1070
   378
1040
2.0
1001
ACAD_DSTYLE_DIMJOGGED_JOGANGLE_SYMBOL
1070
   384
1040
1.570796326794896
  0
DIMSTYLE
105
110D
102
{ACAD_REACTORS
330
7FA
330
864
330
8D1
330
938
330
99F
330
9EA
330
A2D
330
A9E
330
AE1
330
B24
330
B6F
330
C05
330
C48
330
FC0
330
100F
330
1054
330
110E
102
}
330
A
100
AcDbSymbolTableRecord
100
AcDbDimStyleTableRecord
  2
ASKSTANDARDORG106P35
 70
     0
 40
5.999999821186071
 41
3.0
 42
1.0
 43
8.0
 44
1.0
 48
0.000000001
 73
     0
 74
     0
 77
     3
 78
     9
 79
     2
140
3.0
141
0.0
143
0.0005
144
106.3506564695733
146
0.5
147
1.0
172
     1
176
     4
177
     4
178
     4
179
     2
271
     2
272
     2
289
     0
340
783
341
71F
342
71F
371
     9
372
     9
1001
ACAD_DSTYLE_DIMJAG
1070
   388
1040
1.5
1001
ACAD_DSTYLE_DIMTALN
1070
   392
1070
     0
1001
ACAD_DSTYLE_DIMEXT_LENGTH
1070
   378
1040
2.0
1001
ACAD_DSTYLE_DIMJOGGED_JOGANGLE_SYMBOL
1070
   384
1040
1.570796326794896
  0
ENDTAB
  0
TABLE
  2
BLOCK_RECORD
  5
1
330
0
100
AcDbSymbolTable
 70
    29
  0
BLOCK_RECORD
  5
1F
102
{ACAD_XDICTIONARY
360
318
102
}
330
1
100
AcDbSymbolTableRecord
100
AcDbBlockTableRecord
  2
*Model_Space
340
22
  0
BLOCK_RECORD
  5
D2
330
1
100
AcDbSymbolTableRecord
100
AcDbBlockTableRecord
  2
*Paper_Space
340
D3
  0
BLOCK_RECORD
  5
D6
330
1
100
AcDbSymbolTableRecord
100
AcDbBlockTableRecord
  2
*Paper_Space0
340
D7
  0
BLOCK_RECORD
  5
71F
330
1
100
AcDbSymbolTableRecord
100
AcDbBlockTableRecord
  2
_Open30
340
0
102
{BLKREFS
331
165E
331
165F
331
1666
331
1667
331
166F
331
1670
331
1678
331
167E
331
167F
331
1687
331
1688
331
168F
331
1694
331
1699
331
169F
331
16A5
331
16A6
331
16B0
331
16B1
331
16B8
331
16B9
331
16C1
331
16C2
331
16C9
331
16CA
331
16D2
331
16D3
331
16DB
331
16DC
331
16E4
331
16E5
331
1615
331
1616
331
1632
331
1633
331
1639
331
163A
331
1642
331
1643
331
164D
331
164E
331
1655
331
1656
102
}
  0
BLOCK_RECORD
  5
7FB
330
1
100
AcDbSymbolTableRecord
100
AcDbBlockTableRecord
  2
*D2
340
0
  0
BLOCK_RECORD
  5
865
330
1
100
AcDbSymbolTableRecord
100
AcDbBlockTableRecord
  2
*D3
340
0
  0
BLOCK_RECORD
  5
88C
330
1
100
AcDbSymbolTableRecord
100
AcDbBlockTableRecord
  2
_DotSmall
340
0
102
{BLKREFS
331
161E
331
161F
331
1627
331
1628
102
}
  0
BLOCK_RECORD
  5
8D2
330
1
100
AcDbSymbolTableRecord
100
AcDbBlockTableRecord
  2
*D5
340
0
  0
BLOCK_RECORD
  5
939
330
1
100
AcDbSymbolTableRecord
100
AcDbBlockTableRecord
  2
*D6
340
0
  0
BLOCK_RECORD
  5
9A0
330
1
100
AcDbSymbolTableRecord
100
AcDbBlockTableRecord
  2
*D7
340
0
  0
BLOCK_RECORD
  5
9EB
330
1
100
AcDbSymbolTableRecord
100
AcDbBlockTableRecord
  2
*D8
340
0
  0
BLOCK_RECORD
  5
A2E
330
1
100
AcDbSymbolTableRecord
100
AcDbBlockTableRecord
  2
*D9
340
0
  0
BLOCK_RECORD
  5
A9F
330
1
100
AcDbSymbolTableRecord
100
AcDbBlockTableRecord
  2
*D10
340
0
  0
BLOCK_RECORD
  5
AE2
330
1
100
AcDbSymbolTableRecord
100
AcDbBlockTableRecord
  2
*D11
340
0
  0
BLOCK_RECORD
  5
B25
330
1
100
AcDbSymbolTableRecord
100
AcDbBlockTableRecord
  2
*D12
340
0
  0
BLOCK_RECORD
  5
B70
330
1
100
AcDbSymbolTableRecord
100
AcDbBlockTableRecord
  2
*D13
340
0
  0
BLOCK_RECORD
  5
BB4
330
1
100
AcDbSymbolTableRecord
100
AcDbBlockTableRecord
  2
*D14
340
0
  0
BLOCK_RECORD
  5
C06
330
1
100
AcDbSymbolTableRecord
100
AcDbBlockTableRecord
  2
*D15
340
0
  0
BLOCK_RECORD
  5
C49
330
1
100
AcDbSymbolTableRecord
100
AcDbBlockTableRecord
  2
*D16
340
0
  0
BLOCK_RECORD
  5
FC1
330
1
100
AcDbSymbolTableRecord
100
AcDbBlockTableRecord
  2
*D17
340
0
  0
BLOCK_RECORD
  5
1010
330
1
100
AcDbSymbolTableRecord
100
AcDbBlockTableRecord
  2
*D18
340
0
  0
BLOCK_RECORD
  5
1055
330
1
100
AcDbSymbolTableRecord
100
AcDbBlockTableRecord
  2
*D19
340
0
  0
BLOCK_RECORD
  5
110F
330
1
100
AcDbSymbolTableRecord
100
AcDbBlockTableRecord
  2
*D20
340
0
  0
BLOCK_RECORD
  5
1155
330
1
100
AcDbSymbolTableRecord
100
AcDbBlockTableRecord
  2
*D21
340
0
  0
BLOCK_RECORD
  5
1198
330
1
100
AcDbSymbolTableRecord
100
AcDbBlockTableRecord
  2
*D22
340
0
  0
BLOCK_RECORD
  5
1209
330
1
100
AcDbSymbolTableRecord
100
AcDbBlockTableRecord
  2
*D23
340
0
  0
BLOCK_RECORD
  5
124C
330
1
100
AcDbSymbolTableRecord
100
AcDbBlockTableRecord
  2
*D24
340
0
  0
BLOCK_RECORD
  5
128F
330
1
100
AcDbSymbolTableRecord
100
AcDbBlockTableRecord
  2
*D25
340
0
  0
BLOCK_RECORD
  5
12DA
330
1
100
AcDbSymbolTableRecord
100
AcDbBlockTableRecord
  2
*D26
340
0
  0
BLOCK_RECORD
  5
131D
330
1
100
AcDbSymbolTableRecord
100
AcDbBlockTableRecord
  2
*D27
340
0
  0
BLOCK_RECORD
  5
1360
330
1
100
AcDbSymbolTableRecord
100
AcDbBlockTableRecord
  2
*D28
340
0
  0
ENDTAB
  0
ENDSEC
  0
SECTION
  2
BLOCKS
  0
BLOCK
  5
20
330
1F
100
AcDbEntity
  8
0
100
AcDbBlockBegin
  2
*Model_Space
 70
     0
 10
0.0
 20
0.0
 30
0.0
  3
*Model_Space
  1

  0
ENDBLK
  5
21
330
1F
100
AcDbEntity
  8
0
100
AcDbBlockEnd
  0
BLOCK
  5
D4
330
D2
100
AcDbEntity
 67
     1
  8
0
100
AcDbBlockBegin
  2
*Paper_Space
 70
     0
 10
0.0
 20
0.0
 30
0.0
  3
*Paper_Space
  1

  0
ENDBLK
  5
D5
330
D2
100
AcDbEntity
 67
     1
  8
0
100
AcDbBlockEnd
  0
BLOCK
  5
D8
330
D6
100
AcDbEntity
 67
     1
  8
0
100
AcDbBlockBegin
  2
*Paper_Space0
 70
     0
 10
0.0
 20
0.0
 30
0.0
  3
*Paper_Space0
  1

  0
ENDBLK
  5
D9
330
D6
100
AcDbEntity
 67
     1
  8
0
100
AcDbBlockEnd
  0
BLOCK
  5
723
330
71F
100
AcDbEntity
  8
0
100
AcDbBlockBegin
  2
_Open30
 70
     0
 10
0.0
 20
0.0
 30
0.0
  3
_Open30
  1

  0
LINE
  5
720
330
71F
100
AcDbEntity
  8
0
  6
ByBlock
 62
     0
370
    -2
100
AcDbLine
 10
-1.0
 20
0.26794919
 30
0.0
 11
0.0
 21
0.0
 31
0.0
  0
LINE
  5
721
330
71F
100
AcDbEntity
  8
0
  6
ByBlock
 62
     0
370
    -2
100
AcDbLine
 10
0.0
 20
0.0
 30
0.0
 11
-1.0
 21
-0.26794919
 31
0.0
  0
LINE
  5
722
330
71F
100
AcDbEntity
  8
0
  6
ByBlock
 62
     0
370
    -2
100
AcDbLine
 10
0.0
 20
0.0
 30
0.0
 11
-1.0
 21
0.0
 31
0.0
  0
ENDBLK
  5
724
330
71F
100
AcDbEntity
  8
0
100
AcDbBlockEnd
  0
BLOCK
  5
7FC
330
7FB
100
AcDbEntity
  8
0
 62
     7
100
AcDbBlockBegin
  2
*D2
 70
     1
 10
0.0
 20
0.0
 30
0.0
  3
*D2
  1

  0
LINE
  5
1611
330
7FB
100
AcDbEntity
  8
PV0001_6
  6
Continuous
 62
     4
370
     9
100
AcDbLine
 10
1180.330281874752
 20
506.8164621972519
 30
0.0
 11
1162.332069573574
 21
507.0701049574815
 31
0.0
  0
LINE
  5
1612
330
7FB
100
AcDbEntity
  8
PV0001_6
  6
Continuous
 62
     4
370
     9
100
AcDbLine
 10
1219.326408616698
 20
506.2669028821613
 30
0.0
 11
1237.324620917876
 21
506.0132601219317
 31
0.0
  0
MTEXT
  5
1613
330
7FB
100
AcDbEntity
  8
PV0001_6
  6
Continuous
 62
     4
100
AcDbMText
 10
1238.567513193109
 20
520.9972334614266
 30
0.0
 40
17.99999946355821
 41
0.0
 71
     5
 72
     1
  1
\A1;3
  7
STD
 11
0.9999007131981464
 21
-0.0140912648771523
 31
0.0
 73
     1
 44
1.0
1001
ACAD
1000
MTEXTBEGIN
1070
    73
1070
     1
1070
    44
1040
1.0
1070
    74
1070
     0
1000
MTEXTEND
  0
LINE
  5
1614
330
7FB
100
AcDbEntity
  8
PV0001_6
  6
Continuous
 62
     4
370
     9
100
AcDbLine
 10
1198.32849417593
 20
506.5628194370223
 30
0.0
 11
1201.32819631552
 21
506.5205456423909
 31
0.0
  0
INSERT
  5
1615
330
7FB
100
AcDbEntity
  8
PV0001_6
  6
Continuous
 62
     4
370
     9
100
AcDbBlockReference
  2
_Open30
 10
1198.32849417593
 20
506.5628194370223
 30
0.0
 41
17.99999946355821
 42
17.99999946355821
 43
17.99999946355821
 50
359.1926032730818
  0
INSERT
  5
1616
330
7FB
100
AcDbEntity
  8
PV0001_6
  6
Continuous
 62
     4
370
     9
100
AcDbBlockReference
  2
_Open30
 10
1201.32819631552
 20
506.5205456423909
 30
0.0
 41
17.99999946355821
 42
17.99999946355821
 43
17.99999946355821
 50
179.1926032730817
  0
POINT
  5
1617
330
7FB
100
AcDbEntity
  8
Defpoints
  6
Continuous
 62
     0
100
AcDbPoint
 10
1198.32849417593
 20
506.5628194370248
 30
0.0
  0
POINT
  5
1618
330
7FB
100
AcDbEntity
  8
Defpoints
  6
Continuous
 62
     0
100
AcDbPoint
 10
1201.32819631552
 20
506.5205456423848
 30
0.0
  0
POINT
  5
1619
330
7FB
100
AcDbEntity
  8
Defpoints
  6
Continuous
 62
     0
100
AcDbPoint
 10
1201.32819631552
 20
506.5205456423909
 30
0.0
  0
ENDBLK
  5
7FD
330
7FB
100
AcDbEntity
  8
0
 62
     7
100
AcDbBlockEnd
  0
BLOCK
  5
866
330
865
100
AcDbEntity
  8
0
 62
     7
100
AcDbBlockBegin
  2
*D3
 70
     1
 10
0.0
 20
0.0
 30
0.0
  3
*D3
  1

  0
LINE
  5
161A
330
865
100
AcDbEntity
  8
PV0001_6
  6
Continuous
 62
     4
370
     9
100
AcDbLine
 10
1228.37943822938
 20
377.3756946899348
 30
0.0
 11
1210.379438765822
 21
377.3756946899348
 31
0.0
  0
LINE
  5
161B
330
865
100
AcDbEntity
  8
PV0001_6
  6
Continuous
 62
     4
370
     9
100
AcDbLine
 10
1231.360311673411
 20
377.3756946899348
 30
0.0
 11
1249.360311136969
 21
377.3756946899348
 31
0.0
  0
MTEXT
  5
161C
330
865
100
AcDbEntity
  8
PV0001_6
  6
Continuous
 62
     4
100
AcDbMText
 10
1253.067122271781
 20
392.3756942429
 30
0.0
 40
17.99999946355821
 41
0.0
 71
     5
 72
     1
  1
\A1;3
  7
STD
 73
     1
 44
1.0
1001
ACAD
1000
MTEXTBEGIN
1070
    73
1070
     1
1070
    44
1040
1.0
1070
    74
1070
     0
1000
MTEXTEND
  0
LINE
  5
161D
330
865
100
AcDbEntity
  8
PV0001_6
  6
Continuous
 62
     4
370
     9
100
AcDbLine
 10
1228.37943822938
 20
377.3756946899348
 30
0.0
 11
1231.360311673411
 21
377.3756946899348
 31
0.0
  0
INSERT
  5
161E
330
865
100
AcDbEntity
  8
PV0001_6
  6
Continuous
 62
     4
370
     9
100
AcDbBlockReference
  2
_DotSmall
 10
1228.37943822938
 20
377.3756946899348
 30
0.0
 41
17.99999946355821
 42
17.99999946355821
 43
17.99999946355821
  0
INSERT
  5
161F
330
865
100
AcDbEntity
  8
PV0001_6
  6
Continuous
 62
     4
370
     9
100
AcDbBlockReference
  2
_DotSmall
 10
1231.360311673411
 20
377.3756946899348
 30
0.0
 41
17.99999946355821
 42
17.99999946355821
 43
17.99999946355821
 50
180.0
  0
POINT
  5
1620
330
865
100
AcDbEntity
  8
Defpoints
  6
Continuous
 62
     0
100
AcDbPoint
 10
1228.37943822938
 20
377.3756946899348
 30
0.0
  0
POINT
  5
1621
330
865
100
AcDbEntity
  8
Defpoints
  6
Continuous
 62
     0
100
AcDbPoint
 10
1231.360311673411
 20
377.3756946899348
 30
0.0
  0
POINT
  5
1622
330
865
100
AcDbEntity
  8
Defpoints
  6
Continuous
 62
     0
100
AcDbPoint
 10
1231.360311673411
 20
377.3756946899348
 30
0.0
  0
ENDBLK
  5
867
330
865
100
AcDbEntity
  8
0
 62
     7
100
AcDbBlockEnd
  0
BLOCK
  5
88E
330
88C
100
AcDbEntity
  8
0
 62
     7
100
AcDbBlockBegin
  2
_DotSmall
 70
     0
 10
0.0
 20
0.0
 30
0.0
  3
_DotSmall
  1

  0
LWPOLYLINE
  5
88D
330
88C
100
AcDbEntity
  8
0
  6
ByBlock
 62
     0
100
AcDbPolyline
 90
        2
 70
     1
 43
0.5
 10
-0.0625
 20
0.0
 42
1.0
 10
0.0625
 20
0.0
 42
1.0
  0
ENDBLK
  5
88F
330
88C
100
AcDbEntity
  8
0
 62
     7
100
AcDbBlockEnd
  0
BLOCK
  5
8D3
330
8D2
100
AcDbEntity
  8
0
 62
     7
100
AcDbBlockBegin
  2
*D5
 70
     1
 10
0.0
 20
0.0
 30
0.0
  3
*D5
  1

  0
LINE
  5
1623
330
8D2
100
AcDbEntity
  8
PV0001_6
  6
Continuous
 62
     4
370
     9
100
AcDbLine
 10
1234.1353991745
 20
643.9222718258548
 30
0.0
 11
1216.135399710942
 21
643.9222718258548
 31
0.0
  0
LINE
  5
1624
330
8D2
100
AcDbEntity
  8
PV0001_6
  6
Continuous
 62
     4
370
     9
100
AcDbLine
 10
1245.1353991745
 20
643.9222718258548
 30
0.0
 11
1263.135398638058
 21
643.9222718258548
 31
0.0
  0
MTEXT
  5
1625
330
8D2
100
AcDbEntity
  8
PV0001_6
  6
Continuous
 62
     4
100
AcDbMText
 10
1266.390137875281
 20
658.92227137882
 30
0.0
 40
17.99999946355821
 41
0.0
 71
     5
 72
     1
  1
\A1;11
  7
STD
 73
     1
 44
1.0
1001
ACAD
1000
MTEXTBEGIN
1070
    73
1070
     1
1070
    44
1040
1.0
1070
    74
1070
     0
1000
MTEXTEND
  0
LINE
  5
1626
330
8D2
100
AcDbEntity
  8
PV0001_6
  6
Continuous
 62
     4
370
     9
100
AcDbLine
 10
1234.1353991745
 20
643.9222718258548
 30
0.0
 11
1245.1353991745
 21
643.9222718258548
 31
0.0
  0
INSERT
  5
1627
330
8D2
100
AcDbEntity
  8
PV0001_6
  6
Continuous
 62
     4
370
     9
100
AcDbBlockReference
  2
_DotSmall
 10
1234.1353991745
 20
643.9222718258548
 30
0.0
 41
17.99999946355821
 42
17.99999946355821
 43
17.99999946355821
  0
INSERT
  5
1628
330
8D2
100
AcDbEntity
  8
PV0001_6
  6
Continuous
 62
     4
370
     9
100
AcDbBlockReference
  2
_DotSmall
 10
1245.1353991745
 20
643.9222718258548
 30
0.0
 41
17.99999946355821
 42
17.99999946355821
 43
17.99999946355821
 50
180.0
  0
POINT
  5
1629
330
8D2
100
AcDbEntity
  8
Defpoints
  6
Continuous
 62
     0
100
AcDbPoint
 10
1234.1353991745
 20
643.9222718258548
 30
0.0
  0
POINT
  5
162A
330
8D2
100
AcDbEntity
  8
Defpoints
  6
Continuous
 62
     0
100
AcDbPoint
 10
1245.1353991745
 20
643.9222718258548
 30
0.0
  0
POINT
  5
162B
330
8D2
100
AcDbEntity
  8
Defpoints
  6
Continuous
 62
     0
100
AcDbPoint
 10
1245.1353991745
 20
643.9222718258548
 30
0.0
  0
ENDBLK
  5
8D4
330
8D2
100
AcDbEntity
  8
0
 62
     7
100
AcDbBlockEnd
  0
BLOCK
  5
93A
330
939
100
AcDbEntity
  8
0
 62
     7
100
AcDbBlockBegin
  2
*D6
 70
     1
 10
0.0
 20
0.0
 30
0.0
  3
*D6
  1

  0
LINE
  5
162C
330
939
100
AcDbEntity
  8
PV0001_6
  6
Continuous
 62
     4
370
     9
100
AcDbLine
 10
1206.749471832807
 20
326.1180877683949
 30
0.0
 11
1329.52074752345
 21
326.1180877683949
 31
0.0
  0
LINE
  5
162D
330
939
100
AcDbEntity
  8
PV0001_6
  6
Continuous
 62
     4
370
     9
100
AcDbLine
 10
1177.766718340427
 20
296.1180877683948
 30
0.0
 11
1329.52074752345
 21
296.1180877683948
 31
0.0
  0
LINE
  5
162E
330
939
100
AcDbEntity
  8
PV0001_6
  6
Continuous
 62
     4
370
     9
100
AcDbLine
 10
1315.804747523451
 20
344.118087231953
 30
0.0
 11
1315.804747523451
 21
362.1180866955113
 31
0.0
  0
LINE
  5
162F
330
939
100
AcDbEntity
  8
PV0001_6
  6
Continuous
 62
     4
370
     9
100
AcDbLine
 10
1315.804747523451
 20
278.1180883048366
 30
0.0
 11
1315.804747523451
 21
260.1180888412784
 31
0.0
  0
MTEXT
  5
1630
330
939
100
AcDbEntity
  8
PV0001_6
  6
Continuous
 62
     4
100
AcDbMText
 10
1300.804747970486
 20
258.7880885299218
 30
0.0
 40
17.99999946355821
 41
0.0
 71
     5
 72
     1
  1
\A1;30
  7
STD
 11
0.0000000000000001
 21
1.0
 31
0.0
 73
     1
 44
1.0
1001
ACAD
1000
MTEXTBEGIN
1070
    73
1070
     1
1070
    44
1040
1.0
1070
    74
1070
     0
1000
MTEXTEND
  0
LINE
  5
1631
330
939
100
AcDbEntity
  8
PV0001_6
  6
Continuous
 62
     4
370
     9
100
AcDbLine
 10
1315.804747523451
 20
326.1180877683949
 30
0.0
 11
1315.804747523451
 21
296.1180877683948
 31
0.0
  0
INSERT
  5
1632
330
939
100
AcDbEntity
  8
PV0001_6
  6
Continuous
 62
     4
370
     9
100
AcDbBlockReference
  2
_Open30
 10
1315.804747523451
 20
326.1180877683949
 30
0.0
 41
17.99999946355821
 42
17.99999946355821
 43
17.99999946355821
 50
270.0
  0
INSERT
  5
1633
330
939
100
AcDbEntity
  8
PV0001_6
  6
Continuous
 62
     4
370
     9
100
AcDbBlockReference
  2
_Open30
 10
1315.804747523451
 20
296.1180877683948
 30
0.0
 41
17.99999946355821
 42
17.99999946355821
 43
17.99999946355821
 50
90.0
  0
POINT
  5
1634
330
939
100
AcDbEntity
  8
Defpoints
  6
Continuous
 62
     0
100
AcDbPoint
 10
1200.74947201162
 20
326.1180877683949
 30
0.0
  0
POINT
  5
1635
330
939
100
AcDbEntity
  8
Defpoints
  6
Continuous
 62
     0
100
AcDbPoint
 10
1171.76671851924
 20
296.1180877683948
 30
0.0
  0
POINT
  5
1636
330
939
100
AcDbEntity
  8
Defpoints
  6
Continuous
 62
     0
100
AcDbPoint
 10
1315.804747523451
 20
296.1180877683948
 30
0.0
  0
ENDBLK
  5
93B
330
939
100
AcDbEntity
  8
0
 62
     7
100
AcDbBlockEnd
  0
BLOCK
  5
9A1
330
9A0
100
AcDbEntity
  8
0
 62
     7
100
AcDbBlockBegin
  2
*D7
 70
     1
 10
0.0
 20
0.0
 30
0.0
  3
*D7
  1

  0
LINE
  5
1637
330
9A0
100
AcDbEntity
  8
PV0001_6
  6
Continuous
 62
     4
370
     9
100
AcDbLine
 10
1218.105360812226
 20
696.1180877683848
 30
0.0
 11
1329.520747523451
 21
696.1180877683847
 31
0.0
  0
LINE
  5
1638
330
9A0
100
AcDbEntity
  8
PV0001_6
  6
Continuous
 62
     4
370
     9
100
AcDbLine
 10
1315.804747523451
 20
344.118087231953
 30
0.0
 11
1315.804747523451
 21
678.1180883048265
 31
0.0
  0
INSERT
  5
1639
330
9A0
100
AcDbEntity
  8
PV0001_6
  6
Continuous
 62
     4
370
     9
100
AcDbBlockReference
  2
_Open30
 10
1315.804747523451
 20
326.1180877683949
 30
0.0
 41
17.99999946355821
 42
17.99999946355821
 43
17.99999946355821
 50
270.0
  0
INSERT
  5
163A
330
9A0
100
AcDbEntity
  8
PV0001_6
  6
Continuous
 62
     4
370
     9
100
AcDbBlockReference
  2
_Open30
 10
1315.804747523451
 20
696.1180877683847
 30
0.0
 41
17.99999946355821
 42
17.99999946355821
 43
17.99999946355821
 50
90.0
  0
MTEXT
  5
163B
330
9A0
100
AcDbEntity
  8
PV0001_6
  6
Continuous
 62
     4
100
AcDbMText
 10
1300.804747970486
 20
511.1180877683948
 30
0.0
 40
17.99999946355821
 41
0.0
 71
     5
 72
     1
  1
\A1;370
  7
STD
 11
0.0000000000000001
 21
1.0
 31
0.0
 73
     1
 44
1.0
1001
ACAD
1000
MTEXTBEGIN
1070
    73
1070
     1
1070
    44
1040
1.0
1070
    74
1070
     0
1000
MTEXTEND
  0
POINT
  5
163C
330
9A0
100
AcDbEntity
  8
Defpoints
  6
Continuous
 62
     0
100
AcDbPoint
 10
1200.74947201162
 20
326.1180877683949
 30
0.0
  0
POINT
  5
163D
330
9A0
100
AcDbEntity
  8
Defpoints
  6
Continuous
 62
     0
100
AcDbPoint
 10
1212.10536099104
 20
696.1180877683848
 30
0.0
  0
POINT
  5
163E
330
9A0
100
AcDbEntity
  8
Defpoints
  6
Continuous
 62
     0
100
AcDbPoint
 10
1315.804747523451
 20
696.1180877683847
 30
0.0
  0
ENDBLK
  5
9A2
330
9A0
100
AcDbEntity
  8
0
 62
     7
100
AcDbBlockEnd
  0
BLOCK
  5
9EC
330
9EB
100
AcDbEntity
  8
0
 62
     7
100
AcDbBlockBegin
  2
*D8
 70
     1
 10
0.0
 20
0.0
 30
0.0
  3
*D8
  1

  0
LINE
  5
163F
330
9EB
100
AcDbEntity
  8
PV0001_6
  6
Continuous
 62
     4
370
     9
100
AcDbLine
 10
1261.714416324977
 20
716.1180877683948
 30
0.0
 11
1369.896664618351
 21
716.1180877683947
 31
0.0
  0
LINE
  5
1640
330
9EB
100
AcDbEntity
  8
PV0001_6
  6
Continuous
 62
     4
370
     9
100
AcDbLine
 10
1177.766718340427
 20
296.1180877683948
 30
0.0
 11
1369.896664618351
 21
296.1180877683948
 31
0.0
  0
LINE
  5
1641
330
9EB
100
AcDbEntity
  8
PV0001_6
  6
Continuous
 62
     4
370
     9
100
AcDbLine
 10
1356.180664618351
 20
698.1180883048365
 30
0.0
 11
1356.18066461835
 21
314.1180872319531
 31
0.0
  0
INSERT
  5
1642
330
9EB
100
AcDbEntity
  8
PV0001_6
  6
Continuous
 62
     4
370
     9
100
AcDbBlockReference
  2
_Open30
 10
1356.180664618351
 20
716.1180877683947
 30
0.0
 41
17.99999946355821
 42
17.99999946355821
 43
17.99999946355821
 50
90.0
  0
INSERT
  5
1643
330
9EB
100
AcDbEntity
  8
PV0001_6
  6
Continuous
 62
     4
370
     9
100
AcDbBlockReference
  2
_Open30
 10
1356.18066461835
 20
296.1180877683948
 30
0.0
 41
17.99999946355821
 42
17.99999946355821
 43
17.99999946355821
 50
270.0
  0
MTEXT
  5
1644
330
9EB
100
AcDbEntity
  8
PV0001_6
  6
Continuous
 62
     4
100
AcDbMText
 10
1341.180665065385
 20
506.1180877683948
 30
0.0
 40
17.99999946355821
 41
0.0
 71
     5
 72
     1
  1
\A1;420
  7
STD
 11
0.0000000000000001
 21
1.0
 31
0.0
 73
     1
 44
1.0
1001
ACAD
1000
MTEXTBEGIN
1070
    73
1070
     1
1070
    44
1040
1.0
1070
    74
1070
     0
1000
MTEXTEND
  0
POINT
  5
1645
330
9EB
100
AcDbEntity
  8
Defpoints
  6
Continuous
 62
     0
100
AcDbPoint
 10
1255.714416503791
 20
716.1180877683948
 30
0.0
  0
POINT
  5
1646
330
9EB
100
AcDbEntity
  8
Defpoints
  6
Continuous
 62
     0
100
AcDbPoint
 10
1171.76671851924
 20
296.1180877683948
 30
0.0
  0
POINT
  5
1647
330
9EB
100
AcDbEntity
  8
Defpoints
  6
Continuous
 62
     0
100
AcDbPoint
 10
1356.18066461835
 20
296.1180877683948
 30
0.0
  0
ENDBLK
  5
9ED
330
9EB
100
AcDbEntity
  8
0
 62
     7
100
AcDbBlockEnd
  0
BLOCK
  5
A2F
330
A2E
100
AcDbEntity
  8
0
 62
     7
100
AcDbBlockBegin
  2
*D9
 70
     1
 10
0.0
 20
0.0
 30
0.0
  3
*D9
  1

  0
LINE
  5
1648
330
A2E
100
AcDbEntity
  8
PV0001_6
  6
Continuous
 62
     4
370
     9
100
AcDbLine
 10
1261.714416324977
 20
746.1180877683948
 30
0.0
 11
1369.896664618351
 21
746.1180877683947
 31
0.0
  0
LINE
  5
1649
330
A2E
100
AcDbEntity
  8
PV0001_6
  6
Continuous
 62
     4
370
     9
100
AcDbLine
 10
1356.180664618351
 20
698.1180883048365
 30
0.0
 11
1356.180664618351
 21
680.1180888412783
 31
0.0
  0
LINE
  5
164A
330
A2E
100
AcDbEntity
  8
PV0001_6
  6
Continuous
 62
     4
370
     9
100
AcDbLine
 10
1356.180664618351
 20
764.1180872319529
 30
0.0
 11
1356.180664618351
 21
782.1180866955111
 31
0.0
  0
MTEXT
  5
164B
330
A2E
100
AcDbEntity
  8
PV0001_6
  6
Continuous
 62
     4
100
AcDbMText
 10
1341.180665065385
 20
781.5698282974249
 30
0.0
 40
17.99999946355821
 41
0.0
 71
     5
 72
     1
  1
\A1;30
  7
STD
 11
0.0000000000000001
 21
1.0
 31
0.0
 73
     1
 44
1.0
1001
ACAD
1000
MTEXTBEGIN
1070
    73
1070
     1
1070
    44
1040
1.0
1070
    74
1070
     0
1000
MTEXTEND
  0
LINE
  5
164C
330
A2E
100
AcDbEntity
  8
PV0001_6
  6
Continuous
 62
     4
370
     9
100
AcDbLine
 10
1356.180664618351
 20
716.1180877683947
 30
0.0
 11
1356.180664618351
 21
746.1180877683947
 31
0.0
  0
INSERT
  5
164D
330
A2E
100
AcDbEntity
  8
PV0001_6
  6
Continuous
 62
     4
370
     9
100
AcDbBlockReference
  2
_Open30
 10
1356.180664618351
 20
716.1180877683947
 30
0.0
 41
17.99999946355821
 42
17.99999946355821
 43
17.99999946355821
 50
90.0
  0
INSERT
  5
164E
330
A2E
100
AcDbEntity
  8
PV0001_6
  6
Continuous
 62
     4
370
     9
100
AcDbBlockReference
  2
_Open30
 10
1356.180664618351
 20
746.1180877683947
 30
0.0
 41
17.99999946355821
 42
17.99999946355821
 43
17.99999946355821
 50
270.0
  0
POINT
  5
164F
330
A2E
100
AcDbEntity
  8
Defpoints
  6
Continuous
 62
     0
100
AcDbPoint
 10
1255.714416503791
 20
716.1180877683948
 30
0.0
  0
POINT
  5
1650
330
A2E
100
AcDbEntity
  8
Defpoints
  6
Continuous
 62
     0
100
AcDbPoint
 10
1255.714416503791
 20
746.1180877683948
 30
0.0
  0
POINT
  5
1651
330
A2E
100
AcDbEntity
  8
Defpoints
  6
Continuous
 62
     0
100
AcDbPoint
 10
1356.180664618351
 20
746.1180877683947
 30
0.0
  0
ENDBLK
  5
A30
330
A2E
100
AcDbEntity
  8
0
 62
     7
100
AcDbBlockEnd
  0
BLOCK
  5
AA0
330
A9F
100
AcDbEntity
  8
0
 62
     7
100
AcDbBlockBegin
  2
*D10
 70
     1
 10
0.0
 20
0.0
 30
0.0
  3
*D10
  1

  0
LINE
  5
1652
330
A9F
100
AcDbEntity
  8
PV0001_6
  6
Continuous
 62
     4
370
     9
100
AcDbLine
 10
1261.714416324977
 20
746.1180877683948
 30
0.0
 11
1420.896357839231
 21
746.1180877683947
 31
0.0
  0
LINE
  5
1653
330
A9F
100
AcDbEntity
  8
PV0001_6
  6
Continuous
 62
     4
370
     9
100
AcDbLine
 10
1177.766718340427
 20
296.1180877683948
 30
0.0
 11
1420.89635783923
 21
296.1180877683948
 31
0.0
  0
LINE
  5
1654
330
A9F
100
AcDbEntity
  8
PV0001_6
  6
Continuous
 62
     4
370
     9
100
AcDbLine
 10
1407.180357839231
 20
728.1180883048365
 30
0.0
 11
1407.18035783923
 21
314.1180872319531
 31
0.0
  0
INSERT
  5
1655
330
A9F
100
AcDbEntity
  8
PV0001_6
  6
Continuous
 62
     4
370
     9
100
AcDbBlockReference
  2
_Open30
 10
1407.180357839231
 20
746.1180877683947
 30
0.0
 41
17.99999946355821
 42
17.99999946355821
 43
17.99999946355821
 50
90.0
  0
INSERT
  5
1656
330
A9F
100
AcDbEntity
  8
PV0001_6
  6
Continuous
 62
     4
370
     9
100
AcDbBlockReference
  2
_Open30
 10
1407.18035783923
 20
296.1180877683948
 30
0.0
 41
17.99999946355821
 42
17.99999946355821
 43
17.99999946355821
 50
270.0
  0
MTEXT
  5
1657
330
A9F
100
AcDbEntity
  8
PV0001_6
  6
Continuous
 62
     4
100
AcDbMText
 10
1392.180358286265
 20
521.1180877683948
 30
0.0
 40
17.99999946355821
 41
0.0
 71
     5
 72
     1
  1
\A1;450
  7
STD
 11
0.0000000000000001
 21
1.0
 31
0.0
 73
     1
 44
1.0
1001
ACAD
1000
MTEXTBEGIN
1070
    73
1070
     1
1070
    44
1040
1.0
1070
    74
1070
     0
1000
MTEXTEND
  0
POINT
  5
1658
330
A9F
100
AcDbEntity
  8
Defpoints
  6
Continuous
 62
     0
100
AcDbPoint
 10
1255.714416503791
 20
746.1180877683948
 30
0.0
  0
POINT
  5
1659
330
A9F
100
AcDbEntity
  8
Defpoints
  6
Continuous
 62
     0
100
AcDbPoint
 10
1171.76671851924
 20
296.1180877683948
 30
0.0
  0
POINT
  5
165A
330
A9F
100
AcDbEntity
  8
Defpoints
  6
Continuous
 62
     0
100
AcDbPoint
 10
1407.18035783923
 20
296.1180877683948
 30
0.0
  0
ENDBLK
  5
AA1
330
A9F
100
AcDbEntity
  8
0
 62
     7
100
AcDbBlockEnd
  0
BLOCK
  5
AE3
330
AE2
100
AcDbEntity
  8
0
 62
     7
100
AcDbBlockBegin
  2
*D11
 70
     1
 10
0.0
 20
0.0
 30
0.0
  3
*D11
  1

  0
LINE
  5
165B
330
AE2
100
AcDbEntity
  8
PV0001_6
  6
Continuous
 62
     4
370
     9
100
AcDbLine
 10
875.7144165037907
 20
255.1246497479488
 30
0.0
 11
875.7144165037907
 21
229.9486565615918
 31
0.0
  0
LINE
  5
165C
330
AE2
100
AcDbEntity
  8
PV0001_6
  6
Continuous
 62
     4
370
     9
100
AcDbLine
 10
679.7144165037906
 20
266.9836348202738
 30
0.0
 11
679.7144165037906
 21
229.9486565615918
 31
0.0
  0
LINE
  5
165D
330
AE2
100
AcDbEntity
  8
PV0001_6
  6
Continuous
 62
     4
370
     9
100
AcDbLine
 10
857.7144170402323
 20
243.6646565615919
 30
0.0
 11
697.7144159673488
 21
243.6646565615919
 31
0.0
  0
INSERT
  5
165E
330
AE2
100
AcDbEntity
  8
PV0001_6
  6
Continuous
 62
     4
370
     9
100
AcDbBlockReference
  2
_Open30
 10
875.7144165037907
 20
243.6646565615919
 30
0.0
 41
17.99999946355821
 42
17.99999946355821
 43
17.99999946355821
  0
INSERT
  5
165F
330
AE2
100
AcDbEntity
  8
PV0001_6
  6
Continuous
 62
     4
370
     9
100
AcDbBlockReference
  2
_Open30
 10
679.7144165037906
 20
243.6646565615919
 30
0.0
 41
17.99999946355821
 42
17.99999946355821
 43
17.99999946355821
 50
180.0
  0
MTEXT
  5
1660
330
AE2
100
AcDbEntity
  8
PV0001_6
  6
Continuous
 62
     4
100
AcDbMText
 10
777.7144165037906
 20
258.664656114557
 30
0.0
 40
17.99999946355821
 41
0.0
 71
     5
 72
     1
  1
\A1;196
  7
STD
 73
     1
 44
1.0
1001
ACAD
1000
MTEXTBEGIN
1070
    73
1070
     1
1070
    44
1040
1.0
1070
    74
1070
     0
1000
MTEXTEND
  0
POINT
  5
1661
330
AE2
100
AcDbEntity
  8
Defpoints
  6
Continuous
 62
     0
100
AcDbPoint
 10
875.7144165037907
 20
261.1246495691348
 30
0.0
  0
POINT
  5
1662
330
AE2
100
AcDbEntity
  8
Defpoints
  6
Continuous
 62
     0
100
AcDbPoint
 10
679.7144165037906
 20
272.9836346414598
 30
0.0
  0
POINT
  5
1663
330
AE2
100
AcDbEntity
  8
Defpoints
  6
Continuous
 62
     0
100
AcDbPoint
 10
679.7144165037906
 20
243.6646565615919
 30
0.0
  0
ENDBLK
  5
AE4
330
AE2
100
AcDbEntity
  8
0
 62
     7
100
AcDbBlockEnd
  0
BLOCK
  5
B26
330
B25
100
AcDbEntity
  8
0
 62
     7
100
AcDbBlockBegin
  2
*D12
 70
     1
 10
0.0
 20
0.0
 30
0.0
  3
*D12
  1

  0
LINE
  5
1664
330
B25
100
AcDbEntity
  8
PV0001_6
  6
Continuous
 62
     4
370
     9
100
AcDbLine
 10
1071.71441650378
 20
266.9836348202738
 30
0.0
 11
1071.71441650378
 21
229.9486565615918
 31
0.0
  0
LINE
  5
1665
330
B25
100
AcDbEntity
  8
PV0001_6
  6
Continuous
 62
     4
370
     9
100
AcDbLine
 10
893.7144159673488
 20
243.6646565615919
 30
0.0
 11
1053.714417040222
 21
243.6646565615919
 31
0.0
  0
INSERT
  5
1666
330
B25
100
AcDbEntity
  8
PV0001_6
  6
Continuous
 62
     4
370
     9
100
AcDbBlockReference
  2
_Open30
 10
875.7144165037907
 20
243.6646565615919
 30
0.0
 41
17.99999946355821
 42
17.99999946355821
 43
17.99999946355821
 50
180.0
  0
INSERT
  5
1667
330
B25
100
AcDbEntity
  8
PV0001_6
  6
Continuous
 62
     4
370
     9
100
AcDbBlockReference
  2
_Open30
 10
1071.71441650378
 20
243.6646565615919
 30
0.0
 41
17.99999946355821
 42
17.99999946355821
 43
17.99999946355821
  0
MTEXT
  5
1668
330
B25
100
AcDbEntity
  8
PV0001_6
  6
Continuous
 62
     4
100
AcDbMText
 10
973.7144165037905
 20
258.664656114557
 30
0.0
 40
17.99999946355821
 41
0.0
 71
     5
 72
     1
  1
\A1;196
  7
STD
 73
     1
 44
1.0
1001
ACAD
1000
MTEXTBEGIN
1070
    73
1070
     1
1070
    44
1040
1.0
1070
    74
1070
     0
1000
MTEXTEND
  0
POINT
  5
1669
330
B25
100
AcDbEntity
  8
Defpoints
  6
Continuous
 62
     0
100
AcDbPoint
 10
875.7144165037907
 20
261.1246495691348
 30
0.0
  0
POINT
  5
166A
330
B25
100
AcDbEntity
  8
Defpoints
  6
Continuous
 62
     0
100
AcDbPoint
 10
1071.71441650378
 20
272.9836346414598
 30
0.0
  0
POINT
  5
166B
330
B25
100
AcDbEntity
  8
Defpoints
  6
Continuous
 62
     0
100
AcDbPoint
 10
1071.71441650378
 20
243.6646565615919
 30
0.0
  0
ENDBLK
  5
B27
330
B25
100
AcDbEntity
  8
0
 62
     7
100
AcDbBlockEnd
  0
BLOCK
  5
B71
330
B70
100
AcDbEntity
  8
0
 62
     7
100
AcDbBlockBegin
  2
*D13
 70
     1
 10
0.0
 20
0.0
 30
0.0
  3
*D13
  1

  0
LINE
  5
166C
330
B70
100
AcDbEntity
  8
PV0001_6
  6
Continuous
 62
     4
370
     9
100
AcDbLine
 10
550.7144165037906
 20
290.1180879472088
 30
0.0
 11
550.7144165037906
 21
176.6700244933948
 31
0.0
  0
LINE
  5
166D
330
B70
100
AcDbEntity
  8
PV0001_6
  6
Continuous
 62
     4
370
     9
100
AcDbLine
 10
1200.714416503781
 20
290.1180879472088
 30
0.0
 11
1200.714416503781
 21
176.6700244933948
 31
0.0
  0
LINE
  5
166E
330
B70
100
AcDbEntity
  8
PV0001_6
  6
Continuous
 62
     4
370
     9
100
AcDbLine
 10
568.7144159673488
 20
190.3860244933948
 30
0.0
 11
1182.714417040222
 21
190.3860244933948
 31
0.0
  0
INSERT
  5
166F
330
B70
100
AcDbEntity
  8
PV0001_6
  6
Continuous
 62
     4
370
     9
100
AcDbBlockReference
  2
_Open30
 10
550.7144165037906
 20
190.3860244933948
 30
0.0
 41
17.99999946355821
 42
17.99999946355821
 43
17.99999946355821
 50
180.0
  0
INSERT
  5
1670
330
B70
100
AcDbEntity
  8
PV0001_6
  6
Continuous
 62
     4
370
     9
100
AcDbBlockReference
  2
_Open30
 10
1200.714416503781
 20
190.3860244933948
 30
0.0
 41
17.99999946355821
 42
17.99999946355821
 43
17.99999946355821
  0
MTEXT
  5
1671
330
B70
100
AcDbEntity
  8
PV0001_6
  6
Continuous
 62
     4
100
AcDbMText
 10
875.7144165037907
 20
205.38602404636
 30
0.0
 40
17.99999946355821
 41
0.0
 71
     5
 72
     1
  1
\A1;650
  7
STD
 73
     1
 44
1.0
1001
ACAD
1000
MTEXTBEGIN
1070
    73
1070
     1
1070
    44
1040
1.0
1070
    74
1070
     0
1000
MTEXTEND
  0
POINT
  5
1672
330
B70
100
AcDbEntity
  8
Defpoints
  6
Continuous
 62
     0
100
AcDbPoint
 10
550.7144165037906
 20
296.1180877683948
 30
0.0
  0
POINT
  5
1673
330
B70
100
AcDbEntity
  8
Defpoints
  6
Continuous
 62
     0
100
AcDbPoint
 10
1200.714416503781
 20
296.1180877683948
 30
0.0
  0
POINT
  5
1674
330
B70
100
AcDbEntity
  8
Defpoints
  6
Continuous
 62
     0
100
AcDbPoint
 10
1200.714416503781
 20
190.3860244933948
 30
0.0
  0
ENDBLK
  5
B72
330
B70
100
AcDbEntity
  8
0
 62
     7
100
AcDbBlockEnd
  0
BLOCK
  5
BB5
330
BB4
100
AcDbEntity
  8
0
 62
     7
100
AcDbBlockBegin
  2
*D14
 70
     1
 10
0.0
 20
0.0
 30
0.0
  3
*D14
  1

  0
LINE
  5
1675
330
BB4
100
AcDbEntity
  8
PV0001_6
  6
Continuous
 62
     4
370
     9
100
AcDbLine
 10
493.66252922622
 20
262.7910726338517
 30
0.0
 11
541.0106150976826
 21
297.6565076408775
 31
0.0
  0
MTEXT
  5
1676
330
BB4
100
AcDbEntity
  8
PV0001_6
  6
Continuous
 62
     4
100
AcDbMText
 10
501.1951725369759
 20
286.9658372973766
 30
0.0
 40
17.99999946355821
 41
0.0
 71
     5
 72
     1
  1
\A1;R30
  7
STD
 11
0.8052395796351259
 21
0.5929495926206929
 31
0.0
 73
     1
 44
1.0
1001
ACAD
1000
MTEXTBEGIN
1070
    73
1070
     1
1070
    44
1040
1.0
1070
    74
1070
     0
1000
MTEXTEND
  0
LINE
  5
1677
330
BB4
100
AcDbEntity
  8
PV0001_6
  6
Continuous
 62
     4
370
     9
100
AcDbLine
 10
555.7592411374206
 20
308.5168677413339
 30
0.0
 11
555.5049270991506
 21
308.3295999899671
 31
0.0
  0
INSERT
  5
1678
330
BB4
100
AcDbEntity
  8
PV0001_6
  6
Continuous
 62
     4
370
     9
100
AcDbBlockReference
  2
_Open30
 10
555.5049270991506
 20
308.3295999899671
 30
0.0
 41
17.99999946355821
 42
17.99999946355821
 43
17.99999946355821
 50
36.36660082425454
  0
POINT
  5
1679
330
BB4
100
AcDbEntity
  8
Defpoints
  6
Continuous
 62
     0
100
AcDbPoint
 10
555.5049270991506
 20
308.3295999899671
 30
0.0
  0
POINT
  5
167A
330
BB4
100
AcDbEntity
  8
Defpoints
  6
Continuous
 62
     0
100
AcDbPoint
 10
555.7592411374206
 20
308.5168677413339
 30
0.0
  0
ENDBLK
  5
BB6
330
BB4
100
AcDbEntity
  8
0
 62
     7
100
AcDbBlockEnd
  0
BLOCK
  5
C07
330
C06
100
AcDbEntity
  8
0
 62
     7
100
AcDbBlockBegin
  2
*D15
 70
     1
 10
0.0
 20
0.0
 30
0.0
  3
*D15
  1

  0
LINE
  5
167B
330
C06
100
AcDbEntity
  8
PV0001_6
  6
Continuous
 62
     4
370
     9
100
AcDbLine
 10
535.7144165037906
 20
722.1180875895809
 30
0.0
 11
535.7144165037906
 21
832.4894940297348
 31
0.0
  0
LINE
  5
167C
330
C06
100
AcDbEntity
  8
PV0001_6
  6
Continuous
 62
     4
370
     9
100
AcDbLine
 10
1215.714416503781
 20
725.4180875895809
 30
0.0
 11
1215.714416503781
 21
832.4894940297348
 31
0.0
  0
LINE
  5
167D
330
C06
100
AcDbEntity
  8
PV0001_6
  6
Continuous
 62
     4
370
     9
100
AcDbLine
 10
553.7144159673488
 20
818.7734940297348
 30
0.0
 11
1197.714417040222
 21
818.7734940297348
 31
0.0
  0
INSERT
  5
167E
330
C06
100
AcDbEntity
  8
PV0001_6
  6
Continuous
 62
     4
370
     9
100
AcDbBlockReference
  2
_Open30
 10
535.7144165037906
 20
818.7734940297348
 30
0.0
 41
17.99999946355821
 42
17.99999946355821
 43
17.99999946355821
 50
180.0
  0
INSERT
  5
167F
330
C06
100
AcDbEntity
  8
PV0001_6
  6
Continuous
 62
     4
370
     9
100
AcDbBlockReference
  2
_Open30
 10
1215.714416503781
 20
818.7734940297348
 30
0.0
 41
17.99999946355821
 42
17.99999946355821
 43
17.99999946355821
  0
MTEXT
  5
1680
330
C06
100
AcDbEntity
  8
PV0001_6
  6
Continuous
 62
     4
100
AcDbMText
 10
875.7144165037907
 20
833.7734935826999
 30
0.0
 40
17.99999946355821
 41
0.0
 71
     5
 72
     1
  1
\A1;680
  7
STD
 73
     1
 44
1.0
1001
ACAD
1000
MTEXTBEGIN
1070
    73
1070
     1
1070
    44
1040
1.0
1070
    74
1070
     0
1000
MTEXTEND
  0
POINT
  5
1681
330
C06
100
AcDbEntity
  8
Defpoints
  6
Continuous
 62
     0
100
AcDbPoint
 10
535.7144165037906
 20
716.1180877683948
 30
0.0
  0
POINT
  5
1682
330
C06
100
AcDbEntity
  8
Defpoints
  6
Continuous
 62
     0
100
AcDbPoint
 10
1215.714416503781
 20
719.4180877683947
 30
0.0
  0
POINT
  5
1683
330
C06
100
AcDbEntity
  8
Defpoints
  6
Continuous
 62
     0
100
AcDbPoint
 10
1215.714416503781
 20
818.7734940297348
 30
0.0
  0
ENDBLK
  5
C08
330
C06
100
AcDbEntity
  8
0
 62
     7
100
AcDbBlockEnd
  0
BLOCK
  5
C4A
330
C49
100
AcDbEntity
  8
0
 62
     7
100
AcDbBlockBegin
  2
*D16
 70
     1
 10
0.0
 20
0.0
 30
0.0
  3
*D16
  1

  0
LINE
  5
1684
330
C49
100
AcDbEntity
  8
PV0001_6
  6
Continuous
 62
     4
370
     9
100
AcDbLine
 10
495.7144165037906
 20
752.1180875895809
 30
0.0
 11
495.7144165037906
 21
875.9396852990848
 31
0.0
  0
LINE
  5
1685
330
C49
100
AcDbEntity
  8
PV0001_6
  6
Continuous
 62
     4
370
     9
100
AcDbLine
 10
1255.714416503791
 20
752.1180875895809
 30
0.0
 11
1255.714416503791
 21
875.9396852990848
 31
0.0
  0
LINE
  5
1686
330
C49
100
AcDbEntity
  8
PV0001_6
  6
Continuous
 62
     4
370
     9
100
AcDbLine
 10
513.7144159673488
 20
862.2236852990848
 30
0.0
 11
1237.714417040232
 21
862.2236852990848
 31
0.0
  0
INSERT
  5
1687
330
C49
100
AcDbEntity
  8
PV0001_6
  6
Continuous
 62
     4
370
     9
100
AcDbBlockReference
  2
_Open30
 10
495.7144165037906
 20
862.2236852990848
 30
0.0
 41
17.99999946355821
 42
17.99999946355821
 43
17.99999946355821
 50
180.0
  0
INSERT
  5
1688
330
C49
100
AcDbEntity
  8
PV0001_6
  6
Continuous
 62
     4
370
     9
100
AcDbBlockReference
  2
_Open30
 10
1255.714416503791
 20
862.2236852990848
 30
0.0
 41
17.99999946355821
 42
17.99999946355821
 43
17.99999946355821
  0
MTEXT
  5
1689
330
C49
100
AcDbEntity
  8
PV0001_6
  6
Continuous
 62
     4
100
AcDbMText
 10
875.7144165037907
 20
877.2236848520501
 30
0.0
 40
17.99999946355821
 41
0.0
 71
     5
 72
     1
  1
\A1;760
  7
STD
 73
     1
 44
1.0
1001
ACAD
1000
MTEXTBEGIN
1070
    73
1070
     1
1070
    44
1040
1.0
1070
    74
1070
     0
1000
MTEXTEND
  0
POINT
  5
168A
330
C49
100
AcDbEntity
  8
Defpoints
  6
Continuous
 62
     0
100
AcDbPoint
 10
495.7144165037906
 20
746.1180877683948
 30
0.0
  0
POINT
  5
168B
330
C49
100
AcDbEntity
  8
Defpoints
  6
Continuous
 62
     0
100
AcDbPoint
 10
1255.714416503791
 20
746.1180877683948
 30
0.0
  0
POINT
  5
168C
330
C49
100
AcDbEntity
  8
Defpoints
  6
Continuous
 62
     0
100
AcDbPoint
 10
1255.714416503791
 20
862.2236852990848
 30
0.0
  0
ENDBLK
  5
C4B
330
C49
100
AcDbEntity
  8
0
 62
     7
100
AcDbBlockEnd
  0
BLOCK
  5
FC2
330
FC1
100
AcDbEntity
  8
0
 62
     7
100
AcDbBlockBegin
  2
*D17
 70
     1
 10
0.0
 20
0.0
 30
0.0
  3
*D17
  1

  0
LINE
  5
168D
330
FC1
100
AcDbEntity
  8
TP1791_6
  6
Continuous
 62
     4
370
     9
100
AcDbLine
 10
1137.621820827056
 20
1374.275491919861
 30
0.0
 11
1179.199698338764
 21
1415.853369397457
 31
0.0
  0
MTEXT
  5
168E
330
FC1
100
AcDbEntity
  8
TP1791_6
  6
Continuous
 62
     4
100
AcDbMText
 10
1141.440197341935
 20
1399.307071226299
 30
0.0
 40
17.99999946355821
 41
0.0
 71
     5
 72
     1
  1
\A1;R30
  7
STD
 11
0.7071067814766194
 21
0.7071067808964758
 31
0.0
 73
     1
 44
1.0
1001
ACAD
1000
MTEXTBEGIN
1070
    73
1070
     1
1070
    44
1040
1.0
1070
    74
1070
     0
1000
MTEXTEND
  0
INSERT
  5
168F
330
FC1
100
AcDbEntity
  8
TP1791_6
  6
Continuous
 62
     4
370
     9
100
AcDbBlockReference
  2
_Open30
 10
1191.927620026022
 20
1428.581291074272
 30
0.0
 41
17.99999946355821
 42
17.99999946355821
 43
17.99999946355821
 50
44.99999997649593
  0
POINT
  5
1690
330
FC1
100
AcDbEntity
  8
Defpoints
  6
Continuous
 62
     0
100
AcDbPoint
 10
1191.927620026022
 20
1428.581291074272
 30
0.0
  0
POINT
  5
1691
330
FC1
100
AcDbEntity
  8
Defpoints
  6
Continuous
 62
     0
100
AcDbPoint
 10
1170.71441658173
 20
1407.368087647384
 30
0.0
  0
ENDBLK
  5
FC3
330
FC1
100
AcDbEntity
  8
0
 62
     7
100
AcDbBlockEnd
  0
BLOCK
  5
1011
330
1010
100
AcDbEntity
  8
0
 62
     7
100
AcDbBlockBegin
  2
*D18
 70
     1
 10
0.0
 20
0.0
 30
0.0
  3
*D18
  1

  0
LINE
  5
1692
330
1010
100
AcDbEntity
  8
TP1791_6
  6
Continuous
 62
     4
370
     9
100
AcDbLine
 10
601.7751780751723
 20
1045.928849522475
 30
0.0
 11
557.2291346616387
 21
1001.382806145486
 31
0.0
  0
MTEXT
  5
1693
330
1010
100
AcDbEntity
  8
TP1791_6
  6
Continuous
 62
     4
100
AcDbMText
 10
576.7435987656015
 20
1042.110473028131
 30
0.0
 40
17.99999946355821
 41
0.0
 71
     5
 72
     1
  1
\A1;R30
  7
STD
 11
0.7071067814765987
 21
0.7071067808964964
 31
0.0
 73
     1
 44
1.0
1001
ACAD
1000
MTEXTBEGIN
1070
    73
1070
     1
1070
    44
1040
1.0
1070
    74
1070
     0
1000
MTEXTEND
  0
INSERT
  5
1694
330
1010
100
AcDbEntity
  8
TP1791_6
  6
Continuous
 62
     4
370
     9
100
AcDbBlockReference
  2
_Open30
 10
544.5012129743814
 20
988.6548844686709
 30
0.0
 41
17.99999946355821
 42
17.99999946355821
 43
17.99999946355821
 50
224.9999999764976
  0
POINT
  5
1695
330
1010
100
AcDbEntity
  8
Defpoints
  6
Continuous
 62
     0
100
AcDbPoint
 10
544.5012129743814
 20
988.6548844686709
 30
0.0
  0
POINT
  5
1696
330
1010
100
AcDbEntity
  8
Defpoints
  6
Continuous
 62
     0
100
AcDbPoint
 10
565.7144164186728
 20
1009.868087895559
 30
0.0
  0
ENDBLK
  5
1012
330
1010
100
AcDbEntity
  8
0
 62
     7
100
AcDbBlockEnd
  0
BLOCK
  5
1056
330
1055
100
AcDbEntity
  8
0
 62
     7
100
AcDbBlockBegin
  2
*D19
 70
     1
 10
0.0
 20
0.0
 30
0.0
  3
*D19
  1

  0
LINE
  5
1697
330
1055
100
AcDbEntity
  8
TP1791_6
  6
Continuous
 62
     4
370
     9
100
AcDbLine
 10
1153.931476654903
 20
1046.651027433126
 30
0.0
 11
1225.412901593593
 21
975.1696024357924
 31
0.0
  0
MTEXT
  5
1698
330
1055
100
AcDbEntity
  8
TP1791_6
  6
Continuous
 62
     4
100
AcDbMText
 10
1178.963055961341
 20
1042.832650918247
 30
0.0
 40
17.99999946355821
 41
0.0
 71
     5
 72
     1
  1
\A1;R60
  7
STD
 11
0.7071067808964906
 21
-0.7071067814766046
 31
0.0
 73
     1
 44
1.0
1001
ACAD
1000
MTEXTBEGIN
1070
    73
1070
     1
1070
    44
1040
1.0
1070
    74
1070
     0
1000
MTEXTEND
  0
INSERT
  5
1699
330
1055
100
AcDbEntity
  8
TP1791_6
  6
Continuous
 62
     4
370
     9
100
AcDbBlockReference
  2
_Open30
 10
1238.140823270408
 20
962.4416807485351
 30
0.0
 41
17.99999946355821
 42
17.99999946355821
 43
17.99999946355821
 50
314.9999999764971
  0
POINT
  5
169A
330
1055
100
AcDbEntity
  8
Defpoints
  6
Continuous
 62
     0
100
AcDbPoint
 10
1238.140823270408
 20
962.4416807485351
 30
0.0
  0
POINT
  5
169B
330
1055
100
AcDbEntity
  8
Defpoints
  6
Continuous
 62
     0
100
AcDbPoint
 10
1195.714416416612
 20
1004.868087637139
 30
0.0
  0
ENDBLK
  5
1057
330
1055
100
AcDbEntity
  8
0
 62
     7
100
AcDbBlockEnd
  0
BLOCK
  5
1110
330
110F
100
AcDbEntity
  8
0
 62
     7
100
AcDbBlockBegin
  2
*D20
 70
     1
 10
0.0
 20
0.0
 30
0.0
  3
*D20
  1

  0
LINE
  5
169C
330
110F
100
AcDbEntity
  8
RH0901_6
  6
Continuous
 62
     4
370
     9
100
AcDbLine
 10
2187.63913037366
 20
944.9102808736984
 30
0.0
 11
2139.679296493002
 21
991.8341189306095
 31
0.0
  0
MTEXT
  5
169D
330
110F
100
AcDbEntity
  8
RH0901_6
  6
Continuous
 62
     4
100
AcDbMText
 10
2183.547688215276
 20
969.8986794388025
 30
0.0
 40
17.99999946355821
 41
0.0
 71
     5
 72
     1
  1
\A1;R30
  7
STD
 11
0.7147847840878021
 21
-0.6993444876715297
 31
0.0
 73
     1
 44
1.0
1001
ACAD
1000
MTEXTBEGIN
1070
    73
1070
     1
1070
    44
1040
1.0
1070
    74
1070
     0
1000
MTEXTEND
  0
LINE
  5
169E
330
110F
100
AcDbEntity
  8
RH0901_6
  6
Continuous
 62
     4
370
     9
100
AcDbLine
 10
2126.6115401925
 20
1004.619594416988
 30
0.0
 11
2126.813170762862
 21
1004.422319333539
 31
0.0
  0
INSERT
  5
169F
330
110F
100
AcDbEntity
  8
RH0901_6
  6
Continuous
 62
     4
370
     9
100
AcDbBlockReference
  2
_Open30
 10
2126.813170762862
 20
1004.422319333539
 30
0.0
 41
17.99999946355821
 42
17.99999946355821
 43
17.99999946355821
 50
135.6255642139832
  0
POINT
  5
16A0
330
110F
100
AcDbEntity
  8
Defpoints
  6
Continuous
 62
     0
100
AcDbPoint
 10
2126.813170762862
 20
1004.422319333539
 30
0.0
  0
POINT
  5
16A1
330
110F
100
AcDbEntity
  8
Defpoints
  6
Continuous
 62
     0
100
AcDbPoint
 10
2126.6115401925
 20
1004.619594416988
 30
0.0
  0
ENDBLK
  5
1111
330
110F
100
AcDbEntity
  8
0
 62
     7
100
AcDbBlockEnd
  0
BLOCK
  5
1156
330
1155
100
AcDbEntity
  8
0
 62
     7
100
AcDbBlockBegin
  2
*D21
 70
     1
 10
0.0
 20
0.0
 30
0.0
  3
*D21
  1

  0
LINE
  5
16A2
330
1155
100
AcDbEntity
  8
RH0901_6
  6
Continuous
 62
     4
370
     9
100
AcDbLine
 10
1715.714294490599
 20
938.8680878610752
 30
0.0
 11
1715.714294504298
 21
872.072702471844
 31
0.0
  0
LINE
  5
16A3
330
1155
100
AcDbEntity
  8
RH0901_6
  6
Continuous
 62
     4
370
     9
100
AcDbLine
 10
2135.714294473929
 20
1020.144118320879
 30
0.0
 11
2135.714294504297
 21
872.0727025579822
 31
0.0
  0
LINE
  5
16A4
330
1155
100
AcDbEntity
  8
RH0901_6
  6
Continuous
 62
     4
370
     9
100
AcDbLine
 10
1733.714293965044
 20
885.7887024755356
 30
0.0
 11
2117.714295037926
 21
885.7887025542906
 31
0.0
  0
INSERT
  5
16A5
330
1155
100
AcDbEntity
  8
RH0901_6
  6
Continuous
 62
     4
370
     9
100
AcDbBlockReference
  2
_Open30
 10
1715.714294501486
 20
885.788702471844
 30
0.0
 41
17.99999946355821
 42
17.99999946355821
 43
17.99999946355821
 50
180.0000000117508
  0
INSERT
  5
16A6
330
1155
100
AcDbEntity
  8
RH0901_6
  6
Continuous
 62
     4
370
     9
100
AcDbBlockReference
  2
_Open30
 10
2135.714294501484
 20
885.7887025579824
 30
0.0
 41
17.99999946355821
 42
17.99999946355821
 43
17.99999946355821
 50
0.0000000117508519
  0
MTEXT
  5
16A7
330
1155
100
AcDbEntity
  8
RH0901_6
  6
Continuous
 62
     4
100
AcDbMText
 10
1925.71429449841
 20
900.7887020678783
 30
0.0
 40
17.99999946355821
 41
0.0
 71
     5
 72
     1
  1
\A1;420
  7
STD
 73
     1
 44
1.0
1001
ACAD
1000
MTEXTBEGIN
1070
    73
1070
     1
1070
    44
1040
1.0
1070
    74
1070
     0
1000
MTEXTEND
  0
POINT
  5
16A8
330
1155
100
AcDbEntity
  8
Defpoints
  6
Continuous
 62
     0
100
AcDbPoint
 10
1715.714294489369
 20
944.8680876822614
 30
0.0
  0
POINT
  5
16A9
330
1155
100
AcDbEntity
  8
Defpoints
  6
Continuous
 62
     0
100
AcDbPoint
 10
2135.714294472699
 20
1026.144118142065
 30
0.0
  0
POINT
  5
16AA
330
1155
100
AcDbEntity
  8
Defpoints
  6
Continuous
 62
     0
100
AcDbPoint
 10
2135.714294501484
 20
885.7887025579824
 30
0.0
  0
ENDBLK
  5
1157
330
1155
100
AcDbEntity
  8
0
 62
     7
100
AcDbBlockEnd
  0
BLOCK
  5
1199
330
1198
100
AcDbEntity
  8
0
 62
     7
100
AcDbBlockBegin
  2
*D22
 70
     1
 10
0.0
 20
0.0
 30
0.0
  3
*D22
  1

  0
LINE
  5
16AB
330
1198
100
AcDbEntity
  8
RH0901_6
  6
Continuous
 62
     4
370
     9
100
AcDbLine
 10
1685.714294490599
 20
938.8680878549221
 30
0.0
 11
1685.714294504299
 21
872.0727024656886
 31
0.0
  0
LINE
  5
16AC
330
1198
100
AcDbEntity
  8
RH0901_6
  6
Continuous
 62
     4
370
     9
100
AcDbLine
 10
1667.714295037927
 20
885.7887024619969
 30
0.0
 11
1649.714295574369
 21
885.7887024583053
 31
0.0
  0
LINE
  5
16AD
330
1198
100
AcDbEntity
  8
RH0901_6
  6
Continuous
 62
     4
370
     9
100
AcDbLine
 10
1733.714293965044
 20
885.788702475533
 30
0.0
 11
1751.714293428602
 21
885.7887024792246
 31
0.0
  0
MTEXT
  5
16AE
330
1198
100
AcDbEntity
  8
RH0901_6
  6
Continuous
 62
     4
100
AcDbMText
 10
1648.60678730597
 20
900.7887020110425
 30
0.0
 40
17.99999946355821
 41
0.0
 71
     5
 72
     1
  1
\A1;30
  7
STD
 73
     1
 44
1.0
1001
ACAD
1000
MTEXTBEGIN
1070
    73
1070
     1
1070
    44
1040
1.0
1070
    74
1070
     0
1000
MTEXTEND
  0
LINE
  5
16AF
330
1198
100
AcDbEntity
  8
RH0901_6
  6
Continuous
 62
     4
370
     9
100
AcDbLine
 10
1685.714294501486
 20
885.7887024656886
 30
0.0
 11
1715.714294501486
 21
885.7887024718413
 31
0.0
  0
INSERT
  5
16B0
330
1198
100
AcDbEntity
  8
RH0901_6
  6
Continuous
 62
     4
370
     9
100
AcDbBlockReference
  2
_Open30
 10
1685.714294501486
 20
885.7887024656886
 30
0.0
 41
17.99999946355821
 42
17.99999946355821
 43
17.99999946355821
 50
0.0000000117508403
  0
INSERT
  5
16B1
330
1198
100
AcDbEntity
  8
RH0901_6
  6
Continuous
 62
     4
370
     9
100
AcDbBlockReference
  2
_Open30
 10
1715.714294501486
 20
885.7887024718413
 30
0.0
 41
17.99999946355821
 42
17.99999946355821
 43
17.99999946355821
 50
180.0000000117508
  0
POINT
  5
16B2
330
1198
100
AcDbEntity
  8
Defpoints
  6
Continuous
 62
     0
100
AcDbPoint
 10
1685.714294489369
 20
944.8680876761082
 30
0.0
  0
POINT
  5
16B3
330
1198
100
AcDbEntity
  8
Defpoints
  6
Continuous
 62
     0
100
AcDbPoint
 10
1715.714294489369
 20
944.8680876822614
 30
0.0
  0
POINT
  5
16B4
330
1198
100
AcDbEntity
  8
Defpoints
  6
Continuous
 62
     0
100
AcDbPoint
 10
1715.714294501486
 20
885.7887024718413
 30
0.0
  0
ENDBLK
  5
119A
330
1198
100
AcDbEntity
  8
0
 62
     7
100
AcDbBlockEnd
  0
BLOCK
  5
120A
330
1209
100
AcDbEntity
  8
0
 62
     7
100
AcDbBlockBegin
  2
*D23
 70
     1
 10
0.0
 20
0.0
 30
0.0
  3
*D23
  1

  0
LINE
  5
16B5
330
1209
100
AcDbEntity
  8
RH0901_6
  6
Continuous
 62
     4
370
     9
100
AcDbLine
 10
1685.714294490599
 20
938.8680878549221
 30
0.0
 11
1685.714294513238
 21
828.4855501915911
 31
0.0
  0
LINE
  5
16B6
330
1209
100
AcDbEntity
  8
RH0901_6
  6
Continuous
 62
     4
370
     9
100
AcDbLine
 10
2135.714294473929
 20
1020.144118320879
 30
0.0
 11
2135.714294513237
 21
828.4855502838821
 31
0.0
  0
LINE
  5
16B7
330
1209
100
AcDbEntity
  8
RH0901_6
  6
Continuous
 62
     4
370
     9
100
AcDbLine
 10
1703.714293973983
 20
842.2015501952827
 30
0.0
 11
2117.714295046866
 21
842.2015502801905
 31
0.0
  0
INSERT
  5
16B8
330
1209
100
AcDbEntity
  8
RH0901_6
  6
Continuous
 62
     4
370
     9
100
AcDbBlockReference
  2
_Open30
 10
1685.714294510425
 20
842.2015501915911
 30
0.0
 41
17.99999946355821
 42
17.99999946355821
 43
17.99999946355821
 50
180.0000000117508
  0
INSERT
  5
16B9
330
1209
100
AcDbEntity
  8
RH0901_6
  6
Continuous
 62
     4
370
     9
100
AcDbBlockReference
  2
_Open30
 10
2135.714294510424
 20
842.2015502838821
 30
0.0
 41
17.99999946355821
 42
17.99999946355821
 43
17.99999946355821
 50
0.0000000117508519
  0
MTEXT
  5
16BA
330
1209
100
AcDbEntity
  8
RH0901_6
  6
Continuous
 62
     4
100
AcDbMText
 10
1910.71429450735
 20
857.2015497907019
 30
0.0
 40
17.99999946355821
 41
0.0
 71
     5
 72
     1
  1
\A1;450
  7
STD
 73
     1
 44
1.0
1001
ACAD
1000
MTEXTBEGIN
1070
    73
1070
     1
1070
    44
1040
1.0
1070
    74
1070
     0
1000
MTEXTEND
  0
POINT
  5
16BB
330
1209
100
AcDbEntity
  8
Defpoints
  6
Continuous
 62
     0
100
AcDbPoint
 10
1685.714294489369
 20
944.8680876761082
 30
0.0
  0
POINT
  5
16BC
330
1209
100
AcDbEntity
  8
Defpoints
  6
Continuous
 62
     0
100
AcDbPoint
 10
2135.714294472699
 20
1026.144118142065
 30
0.0
  0
POINT
  5
16BD
330
1209
100
AcDbEntity
  8
Defpoints
  6
Continuous
 62
     0
100
AcDbPoint
 10
2135.714294510424
 20
842.2015502838821
 30
0.0
  0
ENDBLK
  5
120B
330
1209
100
AcDbEntity
  8
0
 62
     7
100
AcDbBlockEnd
  0
BLOCK
  5
124D
330
124C
100
AcDbEntity
  8
0
 62
     7
100
AcDbBlockBegin
  2
*D24
 70
     1
 10
0.0
 20
0.0
 30
0.0
  3
*D24
  1

  0
LINE
  5
16BE
330
124C
100
AcDbEntity
  8
RH0901_6
  6
Continuous
 62
     4
370
     9
100
AcDbLine
 10
2176.707732433824
 20
1315.368087775572
 30
0.0
 11
2239.369327750009
 21
1315.368087775572
 31
0.0
  0
LINE
  5
16BF
330
124C
100
AcDbEntity
  8
RH0901_6
  6
Continuous
 62
     4
370
     9
100
AcDbLine
 10
2176.707732453924
 20
1217.368087775572
 30
0.0
 11
2239.369327750009
 21
1217.368087775572
 31
0.0
  0
LINE
  5
16C0
330
124C
100
AcDbEntity
  8
RH0901_6
  6
Continuous
 62
     4
370
     9
100
AcDbLine
 10
2225.653327750016
 20
1297.368088312014
 30
0.0
 11
2225.653327750016
 21
1235.36808723913
 31
0.0
  0
INSERT
  5
16C1
330
124C
100
AcDbEntity
  8
RH0901_6
  6
Continuous
 62
     4
370
     9
100
AcDbBlockReference
  2
_Open30
 10
2225.653327750016
 20
1315.368087775572
 30
0.0
 41
17.99999946355821
 42
17.99999946355821
 43
17.99999946355821
 50
90.0
  0
INSERT
  5
16C2
330
124C
100
AcDbEntity
  8
RH0901_6
  6
Continuous
 62
     4
370
     9
100
AcDbBlockReference
  2
_Open30
 10
2225.653327750016
 20
1217.368087775572
 30
0.0
 41
17.99999946355821
 42
17.99999946355821
 43
17.99999946355821
 50
270.0
  0
MTEXT
  5
16C3
330
124C
100
AcDbEntity
  8
RH0901_6
  6
Continuous
 62
     4
100
AcDbMText
 10
2210.65332819705
 20
1266.368087786841
 30
0.0
 40
17.99999946355821
 41
0.0
 71
     5
 72
     1
  1
\A1;98
  7
STD
 11
0.0000000000000001
 21
1.0
 31
0.0
 73
     1
 44
1.0
1001
ACAD
1000
MTEXTBEGIN
1070
    73
1070
     1
1070
    44
1040
1.0
1070
    74
1070
     0
1000
MTEXTEND
  0
POINT
  5
16C4
330
124C
100
AcDbEntity
  8
Defpoints
  6
Continuous
 62
     0
100
AcDbPoint
 10
2170.707732612638
 20
1315.368087775572
 30
0.0
  0
POINT
  5
16C5
330
124C
100
AcDbEntity
  8
Defpoints
  6
Continuous
 62
     0
100
AcDbPoint
 10
2170.707732632738
 20
1217.368087775572
 30
0.0
  0
POINT
  5
16C6
330
124C
100
AcDbEntity
  8
Defpoints
  6
Continuous
 62
     0
100
AcDbPoint
 10
2225.653327750016
 20
1217.368087775572
 30
0.0
  0
ENDBLK
  5
124E
330
124C
100
AcDbEntity
  8
0
 62
     7
100
AcDbBlockEnd
  0
BLOCK
  5
1290
330
128F
100
AcDbEntity
  8
0
 62
     7
100
AcDbBlockBegin
  2
*D25
 70
     1
 10
0.0
 20
0.0
 30
0.0
  3
*D25
  1

  0
LINE
  5
16C7
330
128F
100
AcDbEntity
  8
RH0901_6
  6
Continuous
 62
     4
370
     9
100
AcDbLine
 10
2176.707732474024
 20
1119.368087775572
 30
0.0
 11
2239.369327770109
 21
1119.368087775572
 31
0.0
  0
LINE
  5
16C8
330
128F
100
AcDbEntity
  8
RH0901_6
  6
Continuous
 62
     4
370
     9
100
AcDbLine
 10
2225.653327770116
 20
1199.368088312014
 30
0.0
 11
2225.653327770116
 21
1137.36808723913
 31
0.0
  0
INSERT
  5
16C9
330
128F
100
AcDbEntity
  8
RH0901_6
  6
Continuous
 62
     4
370
     9
100
AcDbBlockReference
  2
_Open30
 10
2225.653327770116
 20
1217.368087775572
 30
0.0
 41
17.99999946355821
 42
17.99999946355821
 43
17.99999946355821
 50
90.0
  0
INSERT
  5
16CA
330
128F
100
AcDbEntity
  8
RH0901_6
  6
Continuous
 62
     4
370
     9
100
AcDbBlockReference
  2
_Open30
 10
2225.653327770116
 20
1119.368087775572
 30
0.0
 41
17.99999946355821
 42
17.99999946355821
 43
17.99999946355821
 50
270.0
  0
MTEXT
  5
16CB
330
128F
100
AcDbEntity
  8
RH0901_6
  6
Continuous
 62
     4
100
AcDbMText
 10
2210.65332821715
 20
1168.368087786842
 30
0.0
 40
17.99999946355821
 41
0.0
 71
     5
 72
     1
  1
\A1;98
  7
STD
 11
0.0000000000000001
 21
1.0
 31
0.0
 73
     1
 44
1.0
1001
ACAD
1000
MTEXTBEGIN
1070
    73
1070
     1
1070
    44
1040
1.0
1070
    74
1070
     0
1000
MTEXTEND
  0
POINT
  5
16CC
330
128F
100
AcDbEntity
  8
Defpoints
  6
Continuous
 62
     0
100
AcDbPoint
 10
2170.707732632738
 20
1217.368087775572
 30
0.0
  0
POINT
  5
16CD
330
128F
100
AcDbEntity
  8
Defpoints
  6
Continuous
 62
     0
100
AcDbPoint
 10
2170.707732652839
 20
1119.368087775572
 30
0.0
  0
POINT
  5
16CE
330
128F
100
AcDbEntity
  8
Defpoints
  6
Continuous
 62
     0
100
AcDbPoint
 10
2225.653327770116
 20
1119.368087775572
 30
0.0
  0
ENDBLK
  5
1291
330
128F
100
AcDbEntity
  8
0
 62
     7
100
AcDbBlockEnd
  0
BLOCK
  5
12DB
330
12DA
100
AcDbEntity
  8
0
 62
     7
100
AcDbBlockBegin
  2
*D26
 70
     1
 10
0.0
 20
0.0
 30
0.0
  3
*D26
  1

  0
LINE
  5
16CF
330
12DA
100
AcDbEntity
  8
RH0901_6
  6
Continuous
 62
     4
370
     9
100
AcDbLine
 10
2141.714294209542
 20
1437.368087768395
 30
0.0
 11
2298.634901337608
 21
1437.368087768395
 31
0.0
  0
LINE
  5
16D0
330
12DA
100
AcDbEntity
  8
RH0901_6
  6
Continuous
 62
     4
370
     9
100
AcDbLine
 10
2141.714294299787
 20
997.3680877683948
 30
0.0
 11
2298.634901337608
 21
997.3680877683948
 31
0.0
  0
LINE
  5
16D1
330
12DA
100
AcDbEntity
  8
RH0901_6
  6
Continuous
 62
     4
370
     9
100
AcDbLine
 10
2284.918901337609
 20
1419.368088304836
 30
0.0
 11
2284.918901337608
 21
1015.368087231953
 31
0.0
  0
INSERT
  5
16D2
330
12DA
100
AcDbEntity
  8
RH0901_6
  6
Continuous
 62
     4
370
     9
100
AcDbBlockReference
  2
_Open30
 10
2284.918901337609
 20
1437.368087768395
 30
0.0
 41
17.99999946355821
 42
17.99999946355821
 43
17.99999946355821
 50
90.0
  0
INSERT
  5
16D3
330
12DA
100
AcDbEntity
  8
RH0901_6
  6
Continuous
 62
     4
370
     9
100
AcDbBlockReference
  2
_Open30
 10
2284.918901337608
 20
997.3680877683948
 30
0.0
 41
17.99999946355821
 42
17.99999946355821
 43
17.99999946355821
 50
270.0
  0
MTEXT
  5
16D4
330
12DA
100
AcDbEntity
  8
RH0901_6
  6
Continuous
 62
     4
100
AcDbMText
 10
2269.918901784643
 20
1217.368087798997
 30
0.0
 40
17.99999946355821
 41
0.0
 71
     5
 72
     1
  1
\A1;440
  7
STD
 11
0.0000000000000001
 21
1.0
 31
0.0
 73
     1
 44
1.0
1001
ACAD
1000
MTEXTBEGIN
1070
    73
1070
     1
1070
    44
1040
1.0
1070
    74
1070
     0
1000
MTEXTEND
  0
POINT
  5
16D5
330
12DA
100
AcDbEntity
  8
Defpoints
  6
Continuous
 62
     0
100
AcDbPoint
 10
2135.714294388356
 20
1437.368087768395
 30
0.0
  0
POINT
  5
16D6
330
12DA
100
AcDbEntity
  8
Defpoints
  6
Continuous
 62
     0
100
AcDbPoint
 10
2135.714294478601
 20
997.3680877683948
 30
0.0
  0
POINT
  5
16D7
330
12DA
100
AcDbEntity
  8
Defpoints
  6
Continuous
 62
     0
100
AcDbPoint
 10
2284.918901337608
 20
997.3680877683948
 30
0.0
  0
ENDBLK
  5
12DC
330
12DA
100
AcDbEntity
  8
0
 62
     7
100
AcDbBlockEnd
  0
BLOCK
  5
131E
330
131D
100
AcDbEntity
  8
0
 62
     7
100
AcDbBlockBegin
  2
*D27
 70
     1
 10
0.0
 20
0.0
 30
0.0
  3
*D27
  1

  0
LINE
  5
16D8
330
131D
100
AcDbEntity
  8
RH0901_6
  6
Continuous
 62
     4
370
     9
100
AcDbLine
 10
1709.71429456358
 20
1454.868087682251
 30
0.0
 11
1568.539333552608
 21
1454.868087682251
 31
0.0
  0
LINE
  5
16D9
330
131D
100
AcDbEntity
  8
RH0901_6
  6
Continuous
 62
     4
370
     9
100
AcDbLine
 10
1709.714294661004
 20
979.8680876822514
 30
0.0
 11
1568.539333552608
 21
979.8680876822514
 31
0.0
  0
LINE
  5
16DA
330
131D
100
AcDbEntity
  8
RH0901_6
  6
Continuous
 62
     4
370
     9
100
AcDbLine
 10
1582.255333552608
 20
1436.868088218693
 30
0.0
 11
1582.255333552608
 21
997.8680871458095
 31
0.0
  0
INSERT
  5
16DB
330
131D
100
AcDbEntity
  8
RH0901_6
  6
Continuous
 62
     4
370
     9
100
AcDbBlockReference
  2
_Open30
 10
1582.255333552608
 20
1454.868087682251
 30
0.0
 41
17.99999946355821
 42
17.99999946355821
 43
17.99999946355821
 50
90.0
  0
INSERT
  5
16DC
330
131D
100
AcDbEntity
  8
RH0901_6
  6
Continuous
 62
     4
370
     9
100
AcDbBlockReference
  2
_Open30
 10
1582.255333552608
 20
979.8680876822514
 30
0.0
 41
17.99999946355821
 42
17.99999946355821
 43
17.99999946355821
 50
270.0
  0
MTEXT
  5
16DD
330
131D
100
AcDbEntity
  8
RH0901_6
  6
Continuous
 62
     4
100
AcDbMText
 10
1567.255333999643
 20
1217.368087654878
 30
0.0
 40
17.99999946355821
 41
0.0
 71
     5
 72
     1
  1
\A1;475
  7
STD
 11
0.0000000000000001
 21
1.0
 31
0.0
 73
     1
 44
1.0
1001
ACAD
1000
MTEXTBEGIN
1070
    73
1070
     1
1070
    44
1040
1.0
1070
    74
1070
     0
1000
MTEXTEND
  0
POINT
  5
16DE
330
131D
100
AcDbEntity
  8
Defpoints
  6
Continuous
 62
     0
100
AcDbPoint
 10
1715.714294384766
 20
1454.868087682251
 30
0.0
  0
POINT
  5
16DF
330
131D
100
AcDbEntity
  8
Defpoints
  6
Continuous
 62
     0
100
AcDbPoint
 10
1715.71429448219
 20
979.8680876822514
 30
0.0
  0
POINT
  5
16E0
330
131D
100
AcDbEntity
  8
Defpoints
  6
Continuous
 62
     0
100
AcDbPoint
 10
1582.255333552608
 20
979.8680876822514
 30
0.0
  0
ENDBLK
  5
131F
330
131D
100
AcDbEntity
  8
0
 62
     7
100
AcDbBlockEnd
  0
BLOCK
  5
1361
330
1360
100
AcDbEntity
  8
0
 62
     7
100
AcDbBlockBegin
  2
*D28
 70
     1
 10
0.0
 20
0.0
 30
0.0
  3
*D28
  1

  0
LINE
  5
16E1
330
1360
100
AcDbEntity
  8
RH0901_6
  6
Continuous
 62
     4
370
     9
100
AcDbLine
 10
1679.714294556401
 20
1489.868087676088
 30
0.0
 11
1529.556717897858
 21
1489.868087676088
 31
0.0
  0
LINE
  5
16E2
330
1360
100
AcDbEntity
  8
RH0901_6
  6
Continuous
 62
     4
370
     9
100
AcDbLine
 10
1679.714294668183
 20
944.8680876761082
 30
0.0
 11
1529.556717897858
 21
944.8680876761082
 31
0.0
  0
LINE
  5
16E3
330
1360
100
AcDbEntity
  8
RH0901_6
  6
Continuous
 62
     4
370
     9
100
AcDbLine
 10
1543.272717897858
 20
1471.86808821253
 30
0.0
 11
1543.272717897858
 21
962.8680871396664
 31
0.0
  0
INSERT
  5
16E4
330
1360
100
AcDbEntity
  8
RH0901_6
  6
Continuous
 62
     4
370
     9
100
AcDbBlockReference
  2
_Open30
 10
1543.272717897858
 20
1489.868087676088
 30
0.0
 41
17.99999946355821
 42
17.99999946355821
 43
17.99999946355821
 50
90.0
  0
INSERT
  5
16E5
330
1360
100
AcDbEntity
  8
RH0901_6
  6
Continuous
 62
     4
370
     9
100
AcDbBlockReference
  2
_Open30
 10
1543.272717897858
 20
944.8680876761082
 30
0.0
 41
17.99999946355821
 42
17.99999946355821
 43
17.99999946355821
 50
270.0
  0
MTEXT
  5
16E6
330
1360
100
AcDbEntity
  8
RH0901_6
  6
Continuous
 62
     4
100
AcDbMText
 10
1528.272718344893
 20
1217.368087646883
 30
0.0
 40
17.99999946355821
 41
0.0
 71
     5
 72
     1
  1
\A1;545
  7
STD
 11
0.0000000000000001
 21
1.0
 31
0.0
 73
     1
 44
1.0
1001
ACAD
1000
MTEXTBEGIN
1070
    73
1070
     1
1070
    44
1040
1.0
1070
    74
1070
     0
1000
MTEXTEND
  0
POINT
  5
16E7
330
1360
100
AcDbEntity
  8
Defpoints
  6
Continuous
 62
     0
100
AcDbPoint
 10
1685.714294377588
 20
1489.868087676088
 30
0.0
  0
POINT
  5
16E8
330
1360
100
AcDbEntity
  8
Defpoints
  6
Continuous
 62
     0
100
AcDbPoint
 10
1685.714294489369
 20
944.8680876761082
 30
0.0
  0
POINT
  5
16E9
330
1360
100
AcDbEntity
  8
Defpoints
  6
Continuous
 62
     0
100
AcDbPoint
 10
1543.272717897858
 20
944.8680876761082
 30
0.0
  0
ENDBLK
  5
1362
330
1360
100
AcDbEntity
  8
0
 62
     7
100
AcDbBlockEnd
  0
ENDSEC
  0
SECTION
  2
ENTITIES
  0
DIMENSION
  5
7FA
330
1F
100
AcDbEntity
  8
PV0001_6
  6
Continuous
 62
     7
100
AcDbDimension
  2
*D2
 10
1201.32819631552
 20
506.5205456423909
 30
0.0
 11
1238.356144226251
 21
505.9987232104449
 31
0.0
 70
   160
  1
<>
 71
     5
 42
2.999999999995452
  3
ASKSTANDARD
100
AcDbAlignedDimension
 13
1198.328494175931
 23
506.5628194370248
 33
0.0
 14
1201.32819631552
 24
506.5205456423848
 34
0.0
 50
359.1926032730818
100
AcDbRotatedDimension
1001
ACAD
1000
DSTYLE
1002
{
1070
    40
1040
5.999999821186071
1070
   284
1070
     8
1070
   140
1040
3.0
1070
   271
1070
     0
1070
   173
1070
     1
1070
   343
1005
71F
1070
   344
1005
71F
1070
    75
1070
     1
1070
    76
1070
     1
1070
   279
1070
     1
1002
}
  0
LINE
  5
862
330
1F
100
AcDbEntity
  8
PV0001_6
  6
Continuous
 62
     4
100
AcDbLine
 10
1198.78584507521
 20
326.1180877683949
 30
0.0
 11
1236.29837452159
 21
391.0916946899348
 31
0.0
1001
DEKIMAS
1000
eﾖd^J
1040
0.0
1001
DIMEXPLODE
1070
     1
  0
LINE
  5
863
330
1F
100
AcDbEntity
  8
PV0001_6
  6
Continuous
 62
     4
100
AcDbLine
 10
1201.76671851924
 20
326.1180877683949
 30
0.0
 11
1239.27924796561
 21
391.0916946899348
 31
0.0
1001
DEKIMAS
1000
eﾖd^J
1040
0.0
1001
DIMEXPLODE
1070
     1
  0
DIMENSION
  5
864
330
1F
100
AcDbEntity
  8
PV0001_6
  6
Continuous
 62
     7
100
AcDbDimension
  2
*D3
 10
1231.360311673411
 20
377.3756946899348
 30
0.0
 11
1253.067122271781
 21
377.3756946899348
 31
0.0
 70
   160
  1
3
 71
     5
 42
2.980873444030066
  3
ASKSTANDARD
100
AcDbAlignedDimension
 13
1228.37943822938
 23
377.3756946899348
 33
0.0
 14
1231.360311673411
 24
377.3756946899348
 34
0.0
100
AcDbRotatedDimension
1001
ACAD
1000
DSTYLE
1002
{
1070
    40
1040
5.999999821186071
1070
   284
1070
     8
1070
   140
1040
3.0
1070
   271
1070
     0
1070
   173
1070
     1
1070
   343
1005
88C
1070
   344
1005
88C
1070
    75
1070
     1
1070
    76
1070
     1
1070
   279
1070
     1
1002
}
  0
LINE
  5
8CF
330
1F
100
AcDbEntity
  8
PV0001_6
  6
Continuous
 62
     4
100
AcDbLine
 10
1204.0001307895
 20
696.1180877683848
 30
0.0
 11
1242.054335466701
 21
630.2062718258548
 31
0.0
1001
DEKIMAS
1000
257607)^M^J　　寸法値：2.980873^M^JA^\慾W^F怖
1040
0.0
1001
DIMEXPLODE
1070
     1
  0
LINE
  5
8D0
330
1F
100
AcDbEntity
  8
PV0001_6
  6
Continuous
 62
     4
100
AcDbLine
 10
1215.000130789501
 20
696.1180877683848
 30
0.0
 11
1253.0543354667
 21
630.2062718258548
 31
0.0
1001
DEKIMAS
1000
257607)^M^J　　寸法値：2.980873^M^JA^\慾W^F怖
1040
0.0
1001
DIMEXPLODE
1070
     1
  0
DIMENSION
  5
8D1
330
1F
100
AcDbEntity
  8
PV0001_6
  6
Continuous
 62
     7
100
AcDbDimension
  2
*D5
 10
1245.1353991745
 20
643.9222718258548
 30
0.0
 11
1266.390137875281
 21
643.9222718258548
 31
0.0
 70
   160
  1
11
 71
     5
 42
11.0
  3
ASKSTANDARD
100
AcDbAlignedDimension
 13
1234.1353991745
 23
643.9222718258548
 33
0.0
 14
1245.1353991745
 24
643.9222718258548
 34
0.0
100
AcDbRotatedDimension
1001
ACAD
1000
DSTYLE
1002
{
1070
    40
1040
5.999999821186071
1070
   284
1070
     8
1070
   140
1040
3.0
1070
   271
1070
     0
1070
   173
1070
     1
1070
   343
1005
88C
1070
   344
1005
88C
1070
    75
1070
     1
1070
    76
1070
     1
1070
   279
1070
     1
1002
}
  0
DIMENSION
  5
938
330
1F
100
AcDbEntity
  8
PV0001_6
  6
Continuous
 62
     7
100
AcDbDimension
  2
*D6
 10
1315.804747523451
 20
296.1180877683948
 30
0.0
 11
1315.804747523451
 21
258.7880885299218
 31
0.0
 70
   160
  1
<>
 71
     5
 42
30.0
  3
ASKSTANDARD
100
AcDbAlignedDimension
 13
1200.74947201162
 23
326.1180877683949
 33
0.0
 14
1171.76671851924
 24
296.1180877683948
 34
0.0
 50
90.0
100
AcDbRotatedDimension
1001
ACAD
1000
DSTYLE
1002
{
1070
    44
1040
2.2860000681281
1070
    40
1040
5.999999821186071
1070
   284
1070
     8
1070
   140
1040
3.0
1070
   271
1070
     0
1070
   173
1070
     1
1070
   343
1005
71F
1070
   344
1005
71F
1070
   279
1070
     1
1002
}
  0
DIMENSION
  5
99F
330
1F
100
AcDbEntity
  8
PV0001_6
  6
Continuous
 62
     7
100
AcDbDimension
  2
*D7
 10
1315.804747523451
 20
696.1180877683847
 30
0.0
 11
1315.804747523451
 21
511.1180877683948
 31
0.0
 70
   160
  1
<>
 71
     5
 42
369.9999999999899
  3
ASKSTANDARD
100
AcDbAlignedDimension
 13
1200.74947201162
 23
326.1180877683949
 33
0.0
 14
1212.10536099104
 24
696.1180877683848
 34
0.0
 50
90.0
100
AcDbRotatedDimension
1001
ACAD
1000
DSTYLE
1002
{
1070
    44
1040
2.2860000681281
1070
    40
1040
5.999999821186071
1070
   284
1070
     8
1070
   140
1040
3.0
1070
   271
1070
     0
1070
   173
1070
     1
1070
   343
1005
71F
1070
   344
1005
71F
1070
    75
1070
     1
1002
}
  0
DIMENSION
  5
9EA
330
1F
100
AcDbEntity
  8
PV0001_6
  6
Continuous
 62
     7
100
AcDbDimension
  2
*D8
 10
1356.18066461835
 20
296.1180877683948
 30
0.0
 11
1356.18066461835
 21
506.1180877683948
 31
0.0
 70
   160
  1
<>
 71
     5
 42
419.9999999999999
  3
ASKSTANDARD
100
AcDbAlignedDimension
 13
1255.714416503791
 23
716.1180877683948
 33
0.0
 14
1171.76671851924
 24
296.1180877683948
 34
0.0
 50
90.0
100
AcDbRotatedDimension
1001
ACAD
1000
DSTYLE
1002
{
1070
    44
1040
2.28600006812811
1070
    40
1040
5.999999821186071
1070
   284
1070
     8
1070
   140
1040
3.0
1070
   271
1070
     0
1070
   173
1070
     1
1070
   343
1005
71F
1070
   344
1005
71F
1002
}
  0
DIMENSION
  5
A2D
330
1F
100
AcDbEntity
  8
PV0001_6
  6
Continuous
 62
     7
100
AcDbDimension
  2
*D9
 10
1356.180664618351
 20
746.1180877683947
 30
0.0
 11
1356.18066461835
 21
781.5698282974249
 31
0.0
 70
   160
  1
<>
 71
     5
 42
30.0
  3
ASKSTANDARD
100
AcDbAlignedDimension
 13
1255.714416503791
 23
716.1180877683948
 33
0.0
 14
1255.714416503791
 24
746.1180877683948
 34
0.0
 50
90.0
100
AcDbRotatedDimension
1001
ACAD
1000
DSTYLE
1002
{
1070
    44
1040
2.28600006812811
1070
    40
1040
5.999999821186071
1070
   284
1070
     8
1070
   140
1040
3.0
1070
   271
1070
     0
1070
   173
1070
     1
1070
   343
1005
71F
1070
   344
1005
71F
1070
    75
1070
     1
1070
   279
1070
     1
1002
}
  0
DIMENSION
  5
A9E
330
1F
100
AcDbEntity
  8
PV0001_6
  6
Continuous
 62
     7
100
AcDbDimension
  2
*D10
 10
1407.18035783923
 20
296.1180877683948
 30
0.0
 11
1407.18035783923
 21
521.1180877683948
 31
0.0
 70
   160
  1
<>
 71
     5
 42
449.9999999999999
  3
ASKSTANDARD
100
AcDbAlignedDimension
 13
1255.714416503791
 23
746.1180877683948
 33
0.0
 14
1171.76671851924
 24
296.1180877683948
 34
0.0
 50
90.0
100
AcDbRotatedDimension
1001
ACAD
1000
DSTYLE
1002
{
1070
    44
1040
2.28600006812811
1070
    40
1040
5.999999821186071
1070
   284
1070
     8
1070
   140
1040
3.0
1070
   271
1070
     0
1070
   173
1070
     1
1070
   343
1005
71F
1070
   344
1005
71F
1002
}
  0
DIMENSION
  5
AE1
330
1F
100
AcDbEntity
  8
PV0001_6
  6
Continuous
 62
     7
100
AcDbDimension
  2
*D11
 10
679.7144165037906
 20
243.6646565615919
 30
0.0
 11
777.7144165037906
 21
243.6646565615919
 31
0.0
 70
   160
  1
<>
 71
     5
 42
196.0
  3
ASKSTANDARD
100
AcDbAlignedDimension
 13
875.7144165037907
 23
261.1246495691348
 33
0.0
 14
679.7144165037906
 24
272.9836346414598
 34
0.0
100
AcDbRotatedDimension
1001
ACAD
1000
DSTYLE
1002
{
1070
    44
1040
2.286000068128108
1070
    40
1040
5.999999821186071
1070
   284
1070
     8
1070
   140
1040
3.0
1070
   271
1070
     0
1070
   173
1070
     1
1070
   343
1005
71F
1070
   344
1005
71F
1002
}
  0
DIMENSION
  5
B24
330
1F
100
AcDbEntity
  8
PV0001_6
  6
Continuous
 62
     7
100
AcDbDimension
  2
*D12
 10
1071.71441650378
 20
243.6646565615919
 30
0.0
 11
973.7144165037905
 21
243.6646565615919
 31
0.0
 70
   160
  1
<>
 71
     5
 42
195.9999999999901
  3
ASKSTANDARD
100
AcDbAlignedDimension
 13
875.7144165037907
 23
261.1246495691348
 33
0.0
 14
1071.71441650378
 24
272.9836346414598
 34
0.0
100
AcDbRotatedDimension
1001
ACAD
1000
DSTYLE
1002
{
1070
    44
1040
2.286000068128108
1070
    40
1040
5.999999821186071
1070
   284
1070
     8
1070
   140
1040
3.0
1070
   271
1070
     0
1070
   173
1070
     1
1070
   343
1005
71F
1070
   344
1005
71F
1070
    75
1070
     1
1002
}
  0
DIMENSION
  5
B6F
330
1F
100
AcDbEntity
  8
PV0001_6
  6
Continuous
 62
     7
100
AcDbDimension
  2
*D13
 10
1200.714416503781
 20
190.3860244933948
 30
0.0
 11
875.7144165037907
 21
190.3860244933948
 31
0.0
 70
   160
  1
<>
 71
     5
 42
649.9999999999901
  3
ASKSTANDARD
100
AcDbAlignedDimension
 13
550.7144165037906
 23
296.1180877683948
 33
0.0
 14
1200.714416503781
 24
296.1180877683948
 34
0.0
100
AcDbRotatedDimension
1001
ACAD
1000
DSTYLE
1002
{
1070
    44
1040
2.286000068128108
1070
    40
1040
5.999999821186071
1070
   284
1070
     8
1070
   140
1040
3.0
1070
   271
1070
     0
1070
   173
1070
     1
1070
   343
1005
71F
1070
   344
1005
71F
1002
}
  0
DIMENSION
  5
BB3
330
1F
100
AcDbEntity
  8
PV0001_6
  6
Continuous
 62
     7
100
AcDbDimension
  2
*D14
 10
555.7592411374206
 20
308.5168677413339
 30
0.0
 11
501.1951725369759
 21
286.9658372973766
 31
0.0
 70
    36
  1
<>
 71
     5
 42
29.99999999957913
  3
ASKSTANDARDORG94P99
100
AcDbRadialDimension
 15
555.5049270991506
 25
308.3295999899671
 35
0.0
 40
0.0
1001
ACAD
1000
DSTYLE
1002
{
1070
    40
1040
5.999999821186071
1070
   284
1070
     8
1070
   140
1040
3.0
1070
   271
1070
     0
1070
    45
1040
0.1
1070
     3
1000
R<>
1070
   173
1070
     1
1070
   343
1005
71F
1070
   344
1005
71F
1070
   279
1070
     1
1002
}
  0
DIMENSION
  5
C05
330
1F
100
AcDbEntity
  8
PV0001_6
  6
Continuous
 62
     7
100
AcDbDimension
  2
*D15
 10
1215.714416503781
 20
818.7734940297348
 30
0.0
 11
875.7144165037907
 21
818.7734940297348
 31
0.0
 70
   160
  1
<>
 71
     5
 42
679.9999999999901
  3
ASKSTANDARD
100
AcDbAlignedDimension
 13
535.7144165037906
 23
716.1180877683948
 33
0.0
 14
1215.714416503781
 24
719.4180877683947
 34
0.0
100
AcDbRotatedDimension
1001
ACAD
1000
DSTYLE
1002
{
1070
    44
1040
2.28600006812811
1070
    40
1040
5.999999821186071
1070
   284
1070
     8
1070
   140
1040
3.0
1070
   271
1070
     0
1070
   173
1070
     1
1070
   343
1005
71F
1070
   344
1005
71F
1002
}
  0
DIMENSION
  5
C48
330
1F
100
AcDbEntity
  8
PV0001_6
  6
Continuous
 62
     7
100
AcDbDimension
  2
*D16
 10
1255.714416503791
 20
862.2236852990848
 30
0.0
 11
875.7144165037907
 21
862.2236852990848
 31
0.0
 70
   160
  1
<>
 71
     5
 42
760.0000000000001
  3
ASKSTANDARD
100
AcDbAlignedDimension
 13
495.7144165037906
 23
746.1180877683948
 33
0.0
 14
1255.714416503791
 24
746.1180877683948
 34
0.0
100
AcDbRotatedDimension
1001
ACAD
1000
DSTYLE
1002
{
1070
    44
1040
2.28600006812811
1070
    40
1040
5.999999821186071
1070
   284
1070
     8
1070
   140
1040
3.0
1070
   271
1070
     0
1070
   173
1070
     1
1070
   343
1005
71F
1070
   344
1005
71F
1002
}
  0
POINT
  5
C8B
330
1F
100
AcDbEntity
  8
PV0001_6
  6
Continuous
 62
     4
100
AcDbPoint
 10
550.7144165037906
 20
296.1180877683948
 30
0.0
  0
POINT
  5
C8C
330
1F
100
AcDbEntity
  8
PV0001_6
  6
Continuous
 62
     4
100
AcDbPoint
 10
550.7144165037906
 20
296.1180877683948
 30
0.0
  0
POINT
  5
C8D
330
1F
100
AcDbEntity
  8
PV0001_6
  6
Continuous
 62
     4
100
AcDbPoint
 10
553.8867233282606
 20
299.4180877683949
 30
0.0
  0
POINT
  5
C8E
330
1F
100
AcDbEntity
  8
PV0001_6
  6
Continuous
 62
     4
100
AcDbPoint
 10
535.7144165037906
 20
746.1180877683948
 30
0.0
  0
POINT
  5
C8F
330
1F
100
AcDbEntity
  8
PV0001_6
  6
Continuous
 62
     4
100
AcDbPoint
 10
535.7144165037906
 20
716.1180877683948
 30
0.0
  0
POINT
  5
C90
330
1F
100
AcDbEntity
  8
PV0001_6
  6
Continuous
 62
     4
100
AcDbPoint
 10
550.7144165037906
 20
296.1180877683948
 30
0.0
  0
POINT
  5
C91
330
1F
100
AcDbEntity
  8
PV0001_6
  6
Continuous
 62
     4
100
AcDbPoint
 10
535.7144165037906
 20
716.1180877683948
 30
0.0
  0
POINT
  5
C92
330
1F
100
AcDbEntity
  8
PV0001_6
  6
Continuous
 62
     4
100
AcDbPoint
 10
535.7144165037906
 20
716.1180877683948
 30
0.0
  0
POINT
  5
C93
330
1F
100
AcDbEntity
  8
PV0001_6
  6
Continuous
 62
     4
100
AcDbPoint
 10
499.0144165037906
 20
719.4180877683947
 30
0.0
  0
POINT
  5
C94
330
1F
100
AcDbEntity
  8
PV0001_6
  6
Continuous
 62
     4
100
AcDbPoint
 10
699.7144165037906
 20
676.1180877683948
 30
0.0
  0
POINT
  5
C95
330
1F
100
AcDbEntity
  8
PV0001_6
  6
Continuous
 62
     4
100
AcDbPoint
 10
679.7144165037906
 20
676.1180877683948
 30
0.0
  0
POINT
  5
C96
330
1F
100
AcDbEntity
  8
PV0001_6
  6
Continuous
 62
     4
100
AcDbPoint
 10
777.7144165037906
 20
365.1180877683949
 30
0.0
  0
POINT
  5
C97
330
1F
100
AcDbEntity
  8
PV0001_6
  6
Continuous
 62
     4
100
AcDbPoint
 10
594.8625399160206
 20
326.1180877683949
 30
0.0
  0
POINT
  5
C98
330
1F
100
AcDbEntity
  8
PV0001_6
  6
Continuous
 62
     4
100
AcDbPoint
 10
1198.78584507521
 20
326.1180877683949
 30
0.0
  0
POINT
  5
C99
330
1F
100
AcDbEntity
  8
PV0001_6
  6
Continuous
 62
     4
100
AcDbPoint
 10
1201.785845075211
 20
326.1180877683949
 30
0.0
  0
POINT
  5
C9A
330
1F
100
AcDbEntity
  8
PV0001_6
  6
Continuous
 62
     4
100
AcDbPoint
 10
1204.0001307895
 20
696.1180877683848
 30
0.0
  0
POINT
  5
C9B
330
1F
100
AcDbEntity
  8
PV0001_6
  6
Continuous
 62
     4
100
AcDbPoint
 10
1215.000130789501
 20
696.1180877683848
 30
0.0
  0
POINT
  5
C9C
330
1F
100
AcDbEntity
  8
PV0001_6
  6
Continuous
 62
     4
100
AcDbPoint
 10
1204.0001307895
 20
696.1180877683848
 30
0.0
  0
POINT
  5
C9D
330
1F
100
AcDbEntity
  8
PV0001_6
  6
Continuous
 62
     4
100
AcDbPoint
 10
1215.000130789501
 20
696.1180877683848
 30
0.0
  0
POINT
  5
C9E
330
1F
100
AcDbEntity
  8
PV0001_6
  6
Continuous
 62
     4
100
AcDbPoint
 10
1201.76671851924
 20
326.1180877683949
 30
0.0
  0
POINT
  5
C9F
330
1F
100
AcDbEntity
  8
PV0001_6
  6
Continuous
 62
     4
100
AcDbPoint
 10
1195.743269192951
 20
323.1180877683948
 30
0.0
  0
POINT
  5
CA0
330
1F
100
AcDbEntity
  8
PV0001_6
  6
Continuous
 62
     4
100
AcDbPoint
 10
1201.042110891801
 20
699.1180877683848
 30
0.0
  0
POINT
  5
CA1
330
1F
100
AcDbEntity
  8
PV0001_6
  6
Continuous
 62
     4
100
AcDbPoint
 10
1211.99788342201
 20
699.1180877683848
 30
0.0
  0
POINT
  5
CA2
330
1F
100
AcDbEntity
  8
PV0001_6
  6
Continuous
 62
     4
100
AcDbPoint
 10
1200.714416503781
 20
296.1180877683948
 30
0.0
  0
POINT
  5
CA3
330
1F
100
AcDbEntity
  8
PV0001_6
  6
Continuous
 62
     4
100
AcDbPoint
 10
1215.714416503781
 20
719.4180877683947
 30
0.0
  0
POINT
  5
CA4
330
1F
100
AcDbEntity
  8
PV0001_6
  6
Continuous
 62
     4
100
AcDbPoint
 10
875.7144165037907
 20
296.1180877683948
 30
0.0
  0
LINE
  5
CA5
330
1F
100
AcDbEntity
  8
PV0001_6
  6
Continuous
 62
     7
100
AcDbLine
 10
579.6621144883406
 20
296.1180877683948
 30
0.0
 11
875.7144165037907
 21
296.1180877683948
 31
0.0
1001
DEKIMAS
1000
実線（中）
1040
0.25
1001
DIMEXPLODE
1070
     0
  0
LINE
  5
CA6
330
1F
100
AcDbEntity
  8
PV0001_6
  6
CENTER2
 62
     1
100
AcDbLine
 10
875.7144165037907
 20
797.8530315667149
 30
0.0
 11
875.7144165037907
 21
261.1246495691348
 31
0.0
1001
DEKIMAS
1000
一点鎖線（細）
1040
0.15
1001
DIMEXPLODE
1070
     0
  0
LINE
  5
CA7
330
1F
100
AcDbEntity
  8
PV0001_6
  6
Continuous
 62
     7
100
AcDbLine
 10
495.7144165037906
 20
716.1180877683948
 30
0.0
 11
495.7144165037906
 21
746.1180877683948
 31
0.0
1001
DEKIMAS
1000
実線（中）
1040
0.25
1001
DIMEXPLODE
1070
     0
  0
LINE
  5
CA8
330
1F
100
AcDbEntity
  8
PV0001_6
  6
HIDDEN2
 62
     4
100
AcDbLine
 10
579.7609269662906
 20
299.4180877683949
 30
0.0
 11
875.7144165037907
 21
299.4180877683949
 31
0.0
1001
DEKIMAS
1000
破線（細）
1040
0.15
1001
DIMEXPLODE
1070
     0
  0
LINE
  5
CA9
330
1F
100
AcDbEntity
  8
PV0001_6
  6
Continuous
 62
     7
100
AcDbLine
 10
495.7144165037906
 20
746.1180877683948
 30
0.0
 11
875.7144165037907
 21
746.1180877683948
 31
0.0
1001
DEKIMAS
1000
実線（中）
1040
0.25
1001
DIMEXPLODE
1070
     0
  0
LINE
  5
CAA
330
1F
100
AcDbEntity
  8
PV0001_6
  6
Continuous
 62
     7
100
AcDbLine
 10
495.7144165037906
 20
716.1180877683948
 30
0.0
 11
875.7144165037907
 21
716.1180877683948
 31
0.0
1001
DEKIMAS
1000
実線（中）
1040
0.25
1001
DIMEXPLODE
1070
     0
  0
LINE
  5
CAB
330
1F
100
AcDbEntity
  8
PV0001_6
  6
Continuous
 62
     7
100
AcDbLine
 10
549.6812288579206
 20
325.0473418530219
 30
0.0
 11
536.2310103267307
 21
701.6534607260748
 31
0.0
1001
DEKIMAS
1000
実線（中）
1040
0.25
1001
DIMEXPLODE
1070
     0
  0
LINE
  5
CAC
330
1F
100
AcDbEntity
  8
PV0001_6
  6
HIDDEN2
 62
     4
100
AcDbLine
 10
552.9791262772605
 20
325.1651239037129
 30
0.0
 11
539.5289077460806
 21
701.7712427767649
 31
0.0
1001
DEKIMAS
1000
破線（細）
1040
0.15
1001
DIMEXPLODE
1070
     0
  0
LINE
  5
CAD
330
1F
100
AcDbEntity
  8
PV0001_6
  6
HIDDEN2
 62
     4
 48
0.5
100
AcDbLine
 10
499.0144165037906
 20
729.4180877683948
 30
0.0
 11
499.0144165037906
 21
746.1180877683948
 31
0.0
1001
DEKIMAS
1000
破線（細）
1040
0.15
1001
DIMEXPLODE
1070
     0
  0
LINE
  5
CAE
330
1F
100
AcDbEntity
  8
PV0001_6
  6
HIDDEN2
 62
     4
 48
0.5
100
AcDbLine
 10
509.0144165037906
 20
719.4180877683947
 30
0.0
 11
521.2405675115205
 21
719.4180877683947
 31
0.0
1001
DEKIMAS
1000
破線（細）
1040
0.15
1001
DIMEXPLODE
1070
     0
  0
LINE
  5
CAF
330
1F
100
AcDbEntity
  8
PV0001_6
  6
Continuous
 62
     7
100
AcDbLine
 10
618.8860397738906
 20
326.1180877683949
 30
0.0
 11
875.7144165037907
 21
326.1180877683949
 31
0.0
1001
DEKIMAS
1000
実線（中）
1040
0.25
1001
DIMEXPLODE
1070
     0
  0
LINE
  5
CB0
330
1F
100
AcDbEntity
  8
PV0001_6
  6
CENTER2
 62
     1
100
AcDbLine
 10
679.7144165037906
 20
708.5092130756148
 30
0.0
 11
679.7144165037906
 21
272.9836346414598
 31
0.0
1001
DEKIMAS
1000
一点鎖線（細）
1040
0.15
1001
DIMEXPLODE
1070
     0
  0
LINE
  5
CB1
330
1F
100
AcDbEntity
  8
PV0001_6
  6
Continuous
 62
     7
100
AcDbLine
 10
699.3830670374006
 20
679.7435789333149
 30
0.0
 11
758.0457659701906
 21
361.4925966034649
 31
0.0
1001
DEKIMAS
1000
実線（中）
1040
0.25
1001
DIMEXPLODE
1070
     0
  0
LINE
  5
CB2
330
1F
100
AcDbEntity
  8
PV0001_6
  6
Continuous
 62
     7
100
AcDbLine
 10
856.0457659701876
 20
679.7435789333149
 30
0.0
 11
797.3830670373946
 21
361.4925966034649
 31
0.0
1001
DEKIMAS
1000
実線（中）
1040
0.25
1001
DIMEXPLODE
1070
     0
  0
LINE
  5
CB3
330
1F
100
AcDbEntity
  8
PV0001_6
  6
Continuous
 62
     7
100
AcDbLine
 10
660.0457659701906
 20
679.7435789333149
 30
0.0
 11
599.2173892402907
 21
349.7435789333239
 31
0.0
1001
DEKIMAS
1000
実線（中）
1040
0.25
1001
DIMEXPLODE
1070
     0
  0
LINE
  5
CB4
330
1F
100
AcDbEntity
  8
PV0001_6
  6
Continuous
 62
     7
100
AcDbLine
 10
727.7144165037906
 20
706.1180877683948
 30
0.0
 11
727.7144165037906
 21
676.1180877683948
 31
0.0
1001
DEKIMAS
1000
実線（中）
1040
0.25
1001
DIMEXPLODE
1070
     0
  0
LINE
  5
CB5
330
1F
100
AcDbEntity
  8
PV0001_6
  6
Continuous
 62
     7
100
AcDbLine
 10
827.7144165037906
 20
706.1180877683948
 30
0.0
 11
827.7144165037906
 21
676.1180877683948
 31
0.0
1001
DEKIMAS
1000
実線（中）
1040
0.25
1001
DIMEXPLODE
1070
     0
  0
LINE
  5
CB6
330
1F
100
AcDbEntity
  8
PV0001_6
  6
Continuous
 62
     7
100
AcDbLine
 10
727.7144165037906
 20
706.1180877683948
 30
0.0
 11
827.7144165037906
 21
706.1180877683948
 31
0.0
1001
DEKIMAS
1000
実線（中）
1040
0.25
1001
DIMEXPLODE
1070
     0
  0
LINE
  5
CB7
330
1F
100
AcDbEntity
  8
PV0001_6
  6
Continuous
 62
     7
100
AcDbLine
 10
727.7144165037906
 20
676.1180877683948
 30
0.0
 11
827.7144165037906
 21
676.1180877683948
 31
0.0
1001
DEKIMAS
1000
実線（中）
1040
0.25
1001
DIMEXPLODE
1070
     0
  0
LINE
  5
CB8
330
1F
100
AcDbEntity
  8
PV0001_6
  6
Continuous
 62
     7
100
AcDbLine
 10
1255.714416503791
 20
746.1180877683948
 30
0.0
 11
875.7144165037907
 21
746.1180877683948
 31
0.0
1001
DEKIMAS
1000
実線（中）
1040
0.25
1001
DIMEXPLODE
1070
     0
  0
LINE
  5
CB9
330
1F
100
AcDbEntity
  8
PV0001_6
  6
Continuous
 62
     7
100
AcDbLine
 10
1171.76671851924
 20
296.1180877683948
 30
0.0
 11
875.7144165037907
 21
296.1180877683948
 31
0.0
1001
DEKIMAS
1000
実線（中）
1040
0.25
1001
DIMEXPLODE
1070
     0
  0
LINE
  5
CBA
330
1F
100
AcDbEntity
  8
PV0001_6
  6
Continuous
 62
     7
 48
0.5
100
AcDbLine
 10
1171.667906041291
 20
299.4180877683949
 30
0.0
 11
1159.807441421761
 21
299.4180877683949
 31
0.0
1001
DEKIMAS
1000
実線（中）
1040
0.25
1001
DIMEXPLODE
1070
     0
  0
LINE
  5
CBB
330
1F
100
AcDbEntity
  8
PV0001_6
  6
Continuous
 62
     7
100
AcDbLine
 10
895.3830670373935
 20
679.7435789333149
 30
0.0
 11
954.0457659701866
 21
361.4925966034649
 31
0.0
1001
DEKIMAS
1000
実線（中）
1040
0.25
1001
DIMEXPLODE
1070
     0
  0
LINE
  5
CBC
330
1F
100
AcDbEntity
  8
PV0001_6
  6
Continuous
 62
     7
 48
0.5
100
AcDbLine
 10
1255.714416503791
 20
716.1180877683948
 30
0.0
 11
1230.18826549606
 21
716.1180877683948
 31
0.0
1001
DEKIMAS
1000
実線（中）
1040
0.25
1001
DIMEXPLODE
1070
     0
  0
LINE
  5
CBD
330
1F
100
AcDbEntity
  8
PV0001_6
  6
Continuous
 62
     7
100
AcDbLine
 10
1255.714416503791
 20
716.1180877683948
 30
0.0
 11
1255.714416503791
 21
746.1180877683948
 31
0.0
1001
DEKIMAS
1000
実線（中）
1040
0.25
1001
DIMEXPLODE
1070
     0
  0
LINE
  5
CBE
330
1F
100
AcDbEntity
  8
PV0001_6
  6
Continuous
 62
     7
 48
0.5
100
AcDbLine
 10
1215.103449554091
 20
699.0110131768548
 30
0.0
 11
1215.19782268085
 21
701.6534607260748
 31
0.0
1001
DEKIMAS
1000
実線（中）
1040
0.25
1001
DIMEXPLODE
1070
     0
  0
LINE
  5
CBF
330
1F
100
AcDbEntity
  8
PV0001_6
  6
Continuous
 62
     7
100
AcDbLine
 10
1091.38306703739
 20
679.7435789333149
 30
0.0
 11
1152.211443767291
 21
349.7435789333239
 31
0.0
1001
DEKIMAS
1000
実線（中）
1040
0.25
1001
DIMEXPLODE
1070
     0
  0
LINE
  5
CC0
330
1F
100
AcDbEntity
  8
PV0001_6
  6
Continuous
 62
     7
100
AcDbLine
 10
1052.04576597018
 20
679.7435789333149
 30
0.0
 11
993.3830670373906
 21
361.4925966034649
 31
0.0
1001
DEKIMAS
1000
実線（中）
1040
0.25
1001
DIMEXPLODE
1070
     0
  0
LINE
  5
CC1
330
1F
100
AcDbEntity
  8
PV0001_6
  6
Continuous
 62
     7
100
AcDbLine
 10
1132.54279323369
 20
326.1180877683949
 30
0.0
 11
875.7144165037907
 21
326.1180877683949
 31
0.0
1001
DEKIMAS
1000
実線（中）
1040
0.25
1001
DIMEXPLODE
1070
     0
  0
LINE
  5
CC2
330
1F
100
AcDbEntity
  8
PV0001_6
  6
CENTER2
 62
     1
100
AcDbLine
 10
1071.71441650378
 20
708.5092130756148
 30
0.0
 11
1071.71441650378
 21
272.9836346414598
 31
0.0
1001
DEKIMAS
1000
一点鎖線（細）
1040
0.15
1001
DIMEXPLODE
1070
     0
  0
LINE
  5
CC3
330
1F
100
AcDbEntity
  8
PV0001_6
  6
Continuous
 62
     7
100
AcDbLine
 10
1242.41441650379
 20
719.4180877683947
 30
0.0
 11
1159.807441421761
 21
719.4180877683947
 31
0.0
1001
DEKIMAS
1000
実線（中）
1040
0.25
1001
DIMEXPLODE
1070
     0
  0
LINE
  5
CC4
330
1F
100
AcDbEntity
  8
PV0001_6
  6
Continuous
 62
     7
 48
0.5
100
AcDbLine
 10
1252.41441650379
 20
729.4180877683948
 30
0.0
 11
1252.41441650379
 21
746.1180877683948
 31
0.0
1001
DEKIMAS
1000
実線（中）
1040
0.25
1001
DIMEXPLODE
1070
     0
  0
LINE
  5
CC5
330
1F
100
AcDbEntity
  8
PV0001_6
  6
zigzag
 62
     4
100
AcDbLine
 10
1159.807441421761
 20
746.1180877683948
 30
0.0
 11
1159.807441421761
 21
296.1180877683948
 31
0.0
1001
DEKIMAS
1000
破断線（中）
1040
0.25
1001
DIMEXPLODE
1070
     0
  0
LINE
  5
CC6
330
1F
100
AcDbEntity
  8
PV0001_6
  6
Continuous
 62
     7
100
AcDbLine
 10
1159.807441421761
 20
716.1180877683948
 30
0.0
 11
875.7144165037907
 21
716.1180877683948
 31
0.0
1001
DEKIMAS
1000
実線（中）
1040
0.25
1001
DIMEXPLODE
1070
     0
  0
LINE
  5
CC7
330
1F
100
AcDbEntity
  8
PV0001_6
  6
Continuous
 62
     7
 48
0.5
100
AcDbLine
 10
1204.0001307895
 20
696.1180877683848
 30
0.0
 11
1212.10536099104
 21
696.1180877683848
 31
0.0
1001
DEKIMAS
1000
実線（中）
1040
0.25
1001
DIMEXPLODE
1070
     0
  0
LINE
  5
CC8
330
1F
100
AcDbEntity
  8
PV0001_6
  6
Continuous
 62
     7
 48
0.5
100
AcDbLine
 10
1198.78584507521
 20
326.1180877683949
 30
0.0
 11
1200.74947201162
 21
326.1180877683949
 31
0.0
1001
DEKIMAS
1000
実線（中）
1040
0.25
1001
DIMEXPLODE
1070
     0
  0
LINE
  5
CC9
330
1F
100
AcDbEntity
  8
PV0001_6
  6
Continuous
 62
     7
100
AcDbLine
 10
1204.0001307895
 20
696.1180877683848
 30
0.0
 11
1198.78584507521
 21
326.1180877683949
 31
0.0
1001
DEKIMAS
1000
実線（中）
1040
0.25
1001
DIMEXPLODE
1070
     0
  0
LINE
  5
CCA
330
1F
100
AcDbEntity
  8
PV0001_6
  6
HIDDEN2
 62
     4
100
AcDbLine
 10
1159.807441421761
 20
299.4180877683949
 30
0.0
 11
875.7144165037907
 21
299.4180877683949
 31
0.0
1001
DEKIMAS
1000
破線（細）
1040
0.15
1001
DIMEXPLODE
1070
     0
  0
LINE
  5
CCB
330
1F
100
AcDbEntity
  8
PV0001_6
  6
Continuous
 62
     7
100
AcDbLine
 10
1201.0004286499
 20
696.1603615630248
 30
0.0
 11
1195.77185168806
 21
325.1462702981489
 31
0.0
1001
DEKIMAS
1000
実線（中）
1040
0.25
1001
DIMEXPLODE
1070
     0
  0
LINE
  5
CCC
330
1F
100
AcDbEntity
  8
PV0001_6
  6
Continuous
 62
     7
100
AcDbLine
 10
1201.747604149661
 20
325.0473418530219
 30
0.0
 11
1215.103449554091
 21
699.0110131768548
 31
0.0
1001
DEKIMAS
1000
実線（中）
1040
0.25
1001
DIMEXPLODE
1070
     0
  0
LINE
  5
CCD
330
1F
100
AcDbEntity
  8
PV0001_6
  6
Continuous
 62
     7
 48
0.5
100
AcDbLine
 10
1204.0001307895
 20
699.1180877683848
 30
0.0
 11
1209.888265496061
 21
699.1180877683848
 31
0.0
1001
DEKIMAS
1000
実線（中）
1040
0.25
1001
DIMEXPLODE
1070
     0
  0
ARC
  5
CCE
330
1F
100
AcDbEntity
  8
PV0001_6
  6
Continuous
 62
     7
100
AcDbCircle
 10
579.6621144883406
 20
326.1180877683949
 30
0.0
 40
30.0
100
AcDbArc
 50
182.0454084888863
 51
270.0
1001
DEKIMAS
1000
実線（中）
1040
0.25
1001
DIMEXPLODE
1070
     0
  0
ARC
  5
CCF
330
1F
100
AcDbEntity
  8
PV0001_6
  6
HIDDEN2
 62
     4
100
AcDbCircle
 10
579.6621144883406
 20
326.1180877683949
 30
0.0
 40
26.7
100
AcDbArc
 50
182.0454084888863
 51
270.0
1001
DEKIMAS
1000
破線（細）
1040
0.15
1001
DIMEXPLODE
1070
     0
  0
ARC
  5
CD0
330
1F
100
AcDbEntity
  8
PV0001_6
  6
Continuous
 62
     7
 48
0.5
100
AcDbCircle
 10
521.2405675115205
 20
701.1180877683948
 30
0.0
 40
15.0
100
AcDbArc
 50
2.045408488886297
 51
90.0
1001
DEKIMAS
1000
実線（中）
1040
0.25
1001
DIMEXPLODE
1070
     0
  0
ARC
  5
CD1
330
1F
100
AcDbEntity
  8
PV0001_6
  6
HIDDEN2
 62
     4
 48
0.5
100
AcDbCircle
 10
521.2405675115205
 20
701.1180877683948
 30
0.0
 40
18.3
100
AcDbArc
 50
2.045408488886297
 51
90.0
1001
DEKIMAS
1000
破線（細）
1040
0.15
1001
DIMEXPLODE
1070
     0
  0
ARC
  5
CD2
330
1F
100
AcDbEntity
  8
PV0001_6
  6
HIDDEN2
 62
     4
 48
0.5
100
AcDbCircle
 10
509.0144165037906
 20
729.4180877683948
 30
0.0
 40
10.0
100
AcDbArc
 50
180.0
 51
270.0
1001
DEKIMAS
1000
破線（細）
1040
0.15
1001
DIMEXPLODE
1070
     0
  0
ARC
  5
CD3
330
1F
100
AcDbEntity
  8
PV0001_6
  6
Continuous
 62
     7
100
AcDbCircle
 10
679.7144165037906
 20
676.1180877683948
 30
0.0
 40
20.0
100
AcDbArc
 50
10.44400801867665
 51
169.5559919813233
1001
DEKIMAS
1000
実線（中）
1040
0.25
1001
DIMEXPLODE
1070
     0
  0
ARC
  5
CD4
330
1F
100
AcDbEntity
  8
PV0001_6
  6
Continuous
 62
     7
100
AcDbCircle
 10
777.7144165037906
 20
365.1180877683949
 30
0.0
 40
20.0
100
AcDbArc
 50
190.4440050316854
 51
349.5559949683145
1001
DEKIMAS
1000
実線（中）
1040
0.25
1001
DIMEXPLODE
1070
     0
  0
ARC
  5
CD5
330
1F
100
AcDbEntity
  8
PV0001_6
  6
Continuous
 62
     7
100
AcDbCircle
 10
875.7144165037907
 20
676.1180877683948
 30
0.0
 40
20.0
100
AcDbArc
 50
10.44400195748259
 51
169.5559949683145
1001
DEKIMAS
1000
実線（中）
1040
0.25
1001
DIMEXPLODE
1070
     0
  0
ARC
  5
CD6
330
1F
100
AcDbEntity
  8
PV0001_6
  6
Continuous
 62
     7
100
AcDbCircle
 10
618.8860397738906
 20
346.1180877683948
 30
0.0
 40
20.0
100
AcDbArc
 50
169.5559919813233
 51
270.0
1001
DEKIMAS
1000
実線（中）
1040
0.25
1001
DIMEXPLODE
1070
     0
  0
ARC
  5
CD7
330
1F
100
AcDbEntity
  8
PV0001_6
  6
Continuous
 62
     7
100
AcDbCircle
 10
1171.76671851924
 20
326.1180877683949
 30
0.0
 40
26.7
100
AcDbArc
 50
270.0
 51
351.1866265301121
1001
DEKIMAS
1000
実線（中）
1040
0.25
1001
DIMEXPLODE
1070
     0
  0
ARC
  5
CD8
330
1F
100
AcDbEntity
  8
PV0001_6
  6
Continuous
 62
     7
100
AcDbCircle
 10
1171.76671851924
 20
326.1180877683949
 30
0.0
 40
30.0
100
AcDbArc
 50
270.0
 51
358.0238917142838
1001
DEKIMAS
1000
実線（中）
1040
0.25
1001
DIMEXPLODE
1070
     0
  0
ARC
  5
CD9
330
1F
100
AcDbEntity
  8
PV0001_6
  6
Continuous
 62
     7
100
AcDbCircle
 10
1132.54279323369
 20
346.1180877683948
 30
0.0
 40
20.0
100
AcDbArc
 50
270.0
 51
10.44400801867665
1001
DEKIMAS
1000
実線（中）
1040
0.25
1001
DIMEXPLODE
1070
     0
  0
ARC
  5
CDA
330
1F
100
AcDbEntity
  8
PV0001_6
  6
Continuous
 62
     7
100
AcDbCircle
 10
973.7144165037905
 20
365.1180877683949
 30
0.0
 40
20.0
100
AcDbArc
 50
190.4440050316854
 51
349.5559949683145
1001
DEKIMAS
1000
実線（中）
1040
0.25
1001
DIMEXPLODE
1070
     0
  0
ARC
  5
CDB
330
1F
100
AcDbEntity
  8
PV0001_6
  6
Continuous
 62
     7
100
AcDbCircle
 10
1071.71441650378
 20
676.1180877683948
 30
0.0
 40
20.0
100
AcDbArc
 50
10.44400801867665
 51
169.5559919813233
1001
DEKIMAS
1000
実線（中）
1040
0.25
1001
DIMEXPLODE
1070
     0
  0
ARC
  5
CDC
330
1F
100
AcDbEntity
  8
PV0001_6
  6
Continuous
 62
     7
 48
0.5
100
AcDbCircle
 10
1230.18826549606
 20
701.1180877683948
 30
0.0
 40
15.0
100
AcDbArc
 50
90.0
 51
177.9545915111137
1001
DEKIMAS
1000
実線（中）
1040
0.25
1001
DIMEXPLODE
1070
     0
  0
ARC
  5
CDD
330
1F
100
AcDbEntity
  8
PV0001_6
  6
Continuous
 62
     7
 48
0.5
100
AcDbCircle
 10
1230.18826549606
 20
701.1180877683948
 30
0.0
 40
18.3
100
AcDbArc
 50
90.0
 51
180.0
1001
DEKIMAS
1000
実線（中）
1040
0.25
1001
DIMEXPLODE
1070
     0
  0
ARC
  5
CDE
330
1F
100
AcDbEntity
  8
PV0001_6
  6
Continuous
 62
     7
 48
0.5
100
AcDbCircle
 10
1242.41441650379
 20
729.4180877683948
 30
0.0
 40
10.0
100
AcDbArc
 50
270.0
 51
0.0
1001
DEKIMAS
1000
実線（中）
1040
0.25
1001
DIMEXPLODE
1070
     0
  0
ARC
  5
CDF
330
1F
100
AcDbEntity
  8
PV0001_6
  6
Continuous
 62
     7
 48
0.5
100
AcDbCircle
 10
1212.10536099104
 20
699.1180877683848
 30
0.0
 40
3.0
100
AcDbArc
 50
270.0
 51
357.9545915111137
1001
DEKIMAS
1000
実線（中）
1040
0.25
1001
DIMEXPLODE
1070
     0
  0
ARC
  5
CE0
330
1F
100
AcDbEntity
  8
PV0001_6
  6
Continuous
 62
     7
 48
0.5
100
AcDbCircle
 10
1200.74947201162
 20
325.1180877683948
 30
0.0
 40
1.0
100
AcDbArc
 50
358.0238917142838
 51
90.0
1001
DEKIMAS
1000
実線（中）
1040
0.25
1001
DIMEXPLODE
1070
     0
  0
ARC
  5
CE1
330
1F
100
AcDbEntity
  8
PV0001_6
  6
Continuous
 62
     7
 48
0.5
100
AcDbCircle
 10
1197.77165311446
 20
325.1180877683948
 30
0.0
 40
2.0
100
AcDbArc
 50
179.1926032730818
 51
258.2995765997365
1001
DEKIMAS
1000
実線（中）
1040
0.25
1001
DIMEXPLODE
1070
     0
  0
ARC
  5
CE2
330
1F
100
AcDbEntity
  8
PV0001_6
  6
Continuous
 62
     7
 48
0.5
100
AcDbCircle
 10
1197.16326951983
 20
322.1804238322388
 30
0.0
 40
1.0
100
AcDbArc
 50
351.1866265301121
 51
78.29957659973643
1001
DEKIMAS
1000
実線（中）
1040
0.25
1001
DIMEXPLODE
1070
     0
  0
ARC
  5
CE3
330
1F
100
AcDbEntity
  8
PV0001_6
  6
Continuous
 62
     7
 48
0.5
100
AcDbCircle
 10
1204.0001307895
 20
696.1180877683848
 30
0.0
 40
3.0
100
AcDbArc
 50
90.0
 51
179.1926032730818
1001
DEKIMAS
1000
実線（中）
1040
0.25
1001
DIMEXPLODE
1070
     0
  0
ARC
  5
CE4
330
1F
100
AcDbEntity
  8
PV0001_6
  6
Continuous
 62
     7
 48
0.5
100
AcDbCircle
 10
1209.888265496061
 20
701.1180877683948
 30
0.0
 40
2.0
100
AcDbArc
 50
270.0
 51
0.0
1001
DEKIMAS
1000
実線（中）
1040
0.25
1001
DIMEXPLODE
1070
     0
  0
MTEXT
  5
CE5
330
1F
100
AcDbEntity
  8
PV0001_6
  6
Continuous
 62
     4
100
AcDbMText
 10
731.6076074432128
 20
691.7599376109048
 30
0.0
 40
21.0
 41
0.0
 71
     4
 72
     5
  1
\T1.40;\W0.60;Ｋ－１２０
  7
STD
 73
     1
 44
1.0
1001
DEKIMAS
1040
0.15
1001
ACAD
1000
MTEXTBEGIN
1070
    73
1070
     1
1070
    44
1040
1.0
1070
    74
1070
     0
1000
MTEXTEND
  0
HATCH
  5
CE6
330
1F
100
AcDbEntity
  8
PV0001_6
  6
Continuous
 62
     4
100
AcDbHatch
 10
0.0
 20
0.0
 30
0.0
210
0.0
220
0.0
230
1.0
  2
SOLID
 70
     1
 71
     0
 91
        1
 92
        1
 93
       25
 72
     1
 10
1252.41441650379
 20
746.1180877683948
 11
1252.41441650379
 21
729.4180877683948
 72
     2
 10
1242.41441650379
 20
729.4180877683948
 40
10.0
 50
360.0
 51
450.0000012547834
 73
     0
 72
     1
 10
1242.41441628478
 20
719.4180877683947
 11
1230.18826549606
 21
719.4180877683947
 72
     2
 10
1230.18826549606
 20
701.1180877683948
 40
18.3
 50
90.00000000000019
 51
180.0000000000004
 73
     1
 72
     2
 10
1209.888265496061
 20
701.1180877683948
 40
2.0
 50
360.0
 51
450.0000000000002
 73
     0
 72
     1
 10
1209.888265496061
 20
699.1180877683848
 11
1204.000130789501
 21
699.1180877683848
 72
     2
 10
1204.0001307895
 20
696.1180877683848
 40
3.0
 50
90.00000000000019
 51
179.1926032730849
 73
     1
 72
     1
 10
1201.0004286499
 20
696.1603615630248
 11
1195.77185168332
 21
325.1462699614188
 72
     2
 10
1197.77165311446
 20
325.1180877683948
 40
2.0
 50
179.1926129206285
 51
258.2995765997365
 73
     1
 72
     2
 10
1197.16326951983
 20
322.1804238322388
 40
1.0
 50
281.700423400264
 51
368.8133734698844
 73
     0
 72
     2
 10
1171.76671851924
 20
326.1180877683949
 40
26.7
 50
368.8133734698844
 51
450.0000000000002
 73
     0
 72
     1
 10
1171.76671851924
 20
299.4180877683949
 11
1159.80744142176
 21
299.4180877683949
 72
     1
 10
1159.807441421761
 20
299.4180877683949
 11
1159.807441421761
 21
296.1180877683948
 72
     1
 10
1159.807441421761
 20
296.1180877683948
 11
1171.766718519241
 21
296.1180877683948
 72
     2
 10
1171.76671851924
 20
326.1180877683949
 40
30.0
 50
-90.00000000000019
 51
-1.976108285716857
 73
     1
 72
     2
 10
1200.74947201162
 20
325.1180877683948
 40
1.0
 50
-1.976108285716857
 51
90.00000000000019
 73
     1
 72
     1
 10
1200.74947201162
 20
326.1180877683949
 11
1198.78584507521
 21
326.1180877683949
 72
     1
 10
1198.78584507521
 20
326.1180877683949
 11
1204.0001307895
 21
696.1180877683848
 72
     1
 10
1204.0001307895
 20
696.1180877683848
 11
1212.105360991041
 21
696.1180877683848
 72
     2
 10
1212.10536099104
 20
699.1180877683848
 40
3.0
 50
-90.00000000000019
 51
-2.045408488885854
 73
     1
 72
     1
 10
1215.103449554091
 20
699.0110131768548
 11
1215.197822680851
 21
701.6534607260748
 72
     2
 10
1230.18826549606
 20
701.1180877683948
 40
15.0
 50
182.0454084888855
 51
269.9999999999998
 73
     0
 72
     1
 10
1230.18826549606
 20
716.1180877683948
 11
1255.714416503791
 21
716.1180877683948
 72
     1
 10
1255.714416503791
 20
716.1180877683948
 11
1255.714416503791
 21
746.1180877683948
 72
     1
 10
1255.714416503791
 20
746.1180877683948
 11
1252.414416503791
 21
746.1180877683948
 97
        0
 75
     0
 76
     1
 98
        1
 10
875.7144165037907
 20
296.1180877683948
  0
POINT
  5
F55
330
1F
100
AcDbEntity
  8
FO0001_1
  6
Continuous
 62
     4
100
AcDbPoint
 10
1266.000196067917
 20
897.0000486245769
 30
0.0
1001
ASKOBJSC
1000
1/1
1001
ASKDWGSC
1040
6.0
  0
POINT
  5
F56
330
1F
100
AcDbEntity
  8
FO0001_1
  6
Continuous
 62
     4
100
AcDbPoint
 10
1266.000196067917
 20
897.0000486245769
 30
0.0
1001
ASKOBJSC
1000
1/1
1001
ASKDWGSC
1040
6.0
  0
POINT
  5
F57
330
1F
100
AcDbEntity
  8
FO0001_1
  6
Continuous
 62
     4
100
AcDbPoint
 10
1869.000315426205
 20
255.000044869543
 30
0.0
1001
ASKOBJSC
1000
1/1
1001
ASKDWGSC
1040
6.0
  0
POINT
  5
F58
330
1F
100
AcDbEntity
  8
FO0001_1
  6
Continuous
 62
     4
100
AcDbPoint
 10
1791.000317750786
 20
255.000044869543
 30
0.0
1001
ASKOBJSC
1000
1/1
1001
ASKDWGSC
1040
6.0
  0
POINT
  5
F59
330
1F
100
AcDbEntity
  8
FO0001_1
  6
Continuous
 62
     4
100
AcDbPoint
 10
1713.000320075373
 20
255.000044869543
 30
0.0
1001
ASKOBJSC
1000
1/1
1001
ASKDWGSC
1040
6.0
  0
POINT
  5
F5A
330
1F
100
AcDbEntity
  8
FO0001_1
  6
Continuous
 62
     4
100
AcDbPoint
 10
1907.181466632038
 20
204.5459753282696
 30
0.0
1001
ASKOBJSC
1000
1/1
1001
ASKDWGSC
1040
6.0
  0
POINT
  5
F5B
330
1F
100
AcDbEntity
  8
FO0001_1
  6
Continuous
 62
     4
100
AcDbPoint
 10
1935.819252643806
 20
185.454117987095
 30
0.0
1001
ASKOBJSC
1000
1/1
1001
ASKDWGSC
1040
6.0
  0
POINT
  5
F5C
330
1F
100
AcDbEntity
  8
FO0001_1
  6
Continuous
 62
     4
100
AcDbPoint
 10
1765.500318510751
 20
195.0000466576823
 30
0.0
1001
ASKOBJSC
1000
1/1
1001
ASKDWGSC
1040
6.0
  0
POINT
  5
F5D
330
1F
100
AcDbEntity
  8
FO0001_1
  6
Continuous
 62
     4
100
AcDbPoint
 10
1947.000313101624
 20
255.000044869543
 30
0.0
1001
ASKOBJSC
1000
1/1
1001
ASKDWGSC
1040
6.0
  0
POINT
  5
F5E
330
1F
100
AcDbEntity
  8
FO0001_1
  6
Continuous
 62
     4
100
AcDbPoint
 10
2055.000126777499
 20
195.0000466576823
 30
0.0
1001
ASKOBJSC
1000
1/1
1001
ASKDWGSC
1040
6.0
  0
POINT
  5
F5F
330
1F
100
AcDbEntity
  8
FO0001_1
  6
Continuous
 62
     4
100
AcDbPoint
 10
2055.000126777499
 20
255.000044869543
 30
0.0
1001
ASKOBJSC
1000
1/1
1001
ASKDWGSC
1040
6.0
  0
POINT
  5
F60
330
1F
100
AcDbEntity
  8
FO0001_1
  6
Continuous
 62
     4
100
AcDbPoint
 10
1776.000318197827
 20
453.0001076332307
 30
0.0
1001
ASKOBJSC
1000
1/1
1001
ASKDWGSC
1040
6.0
  0
POINT
  5
F61
330
1F
100
AcDbEntity
  8
FO0001_1
  6
Continuous
 62
     4
100
AcDbPoint
 10
2151.000123916476
 20
453.0001076332307
 30
0.0
1001
ASKOBJSC
1000
1/1
1001
ASKDWGSC
1040
6.0
  0
POINT
  5
F62
330
1F
100
AcDbEntity
  8
FO0001_1
  6
Continuous
 62
     4
100
AcDbPoint
 10
2037.000127313941
 20
453.0001076332307
 30
0.0
1001
ASKOBJSC
1000
1/1
1001
ASKDWGSC
1040
6.0
  0
POINT
  5
F63
330
1F
100
AcDbEntity
  8
FO0001_1
  6
Continuous
 62
     4
100
AcDbPoint
 10
1710.00032016478
 20
453.0001076332307
 30
0.0
1001
ASKOBJSC
1000
1/1
1001
ASKDWGSC
1040
6.0
  0
POINT
  5
F64
330
1F
100
AcDbEntity
  8
FO0001_1
  6
Continuous
 62
     4
100
AcDbPoint
 10
1971.000312386368
 20
453.0001076332307
 30
0.0
1001
ASKOBJSC
1000
1/1
1001
ASKDWGSC
1040
6.0
  0
POINT
  5
F65
330
1F
100
AcDbEntity
  8
FO0001_1
  6
Continuous
 62
     4
100
AcDbPoint
 10
2213.999938933455
 20
453.0001076332307
 30
0.0
1001
ASKOBJSC
1000
1/1
1001
ASKDWGSC
1040
6.0
  0
POINT
  5
F66
330
1F
100
AcDbEntity
  8
FO0001_1
  6
Continuous
 62
     4
100
AcDbPoint
 10
1866.000315515612
 20
352.5000877401824
 30
0.0
1001
ASKOBJSC
1000
1/1
1001
ASKDWGSC
1040
6.0
  0
POINT
  5
F67
330
1F
100
AcDbEntity
  8
FO0001_1
  6
Continuous
 62
     4
100
AcDbPoint
 10
2373.000300405835
 20
122.7513000315682
 30
0.0
1001
ASKOBJSC
1000
1/1
1001
ASKDWGSC
1040
6.0
  0
POINT
  5
F68
330
1F
100
AcDbEntity
  8
FO0001_1
  6
Continuous
 62
     4
100
AcDbPoint
 10
2046.00012704572
 20
127.5000486693423
 30
0.0
1001
ASKOBJSC
1000
1/1
1001
ASKDWGSC
1040
6.0
  0
POINT
  5
F69
330
1F
100
AcDbEntity
  8
FO0001_1
  6
Continuous
 62
     4
100
AcDbPoint
 10
2531.999929456317
 20
0.0000066927693751
 30
0.0
1001
ASKOBJSC
1000
1/1
1001
ASKDWGSC
1040
6.0
  0
POINT
  5
F6A
330
1F
100
AcDbEntity
  8
FO0001_1
  6
Continuous
 62
     4
100
AcDbPoint
 10
126.0000927134996
 20
1664.999911295518
 30
0.0
1001
ASKOBJSC
1000
1/1
1001
ASKDWGSC
1040
6.0
  0
POINT
  5
F6B
330
1F
100
AcDbEntity
  8
FO0001_1
  6
Continuous
 62
     4
100
AcDbPoint
 10
126.0000927134996
 20
1664.999911295518
 30
0.0
1001
ASKOBJSC
1000
1/1
1001
ASKDWGSC
1040
6.0
  0
POINT
  5
F6C
330
1F
100
AcDbEntity
  8
FO0001_1
  6
Continuous
 62
     4
100
AcDbPoint
 10
699.0001786335645
 20
1645.499911876663
 30
0.0
1001
ASKOBJSC
1000
1/1
1001
ASKDWGSC
1040
6.0
  0
POINT
  5
F6D
330
1F
100
AcDbEntity
  8
FO0001_1
  6
Continuous
 62
     4
100
AcDbPoint
 10
699.0000870808274
 20
1645.499911876663
 30
0.0
1001
ASKOBJSC
1000
1/1
1001
ASKDWGSC
1040
6.0
  0
POINT
  5
F6E
330
1F
100
AcDbEntity
  8
FO0001_1
  6
Continuous
 62
     4
100
AcDbPoint
 10
699.0001786335645
 20
1609.499912949546
 30
0.0
1001
ASKOBJSC
1000
1/1
1001
ASKDWGSC
1040
6.0
  0
POINT
  5
F6F
330
1F
100
AcDbEntity
  8
FO0001_1
  6
Continuous
 62
     4
100
AcDbPoint
 10
699.0000870808274
 20
1609.499912949546
 30
0.0
1001
ASKOBJSC
1000
1/1
1001
ASKDWGSC
1040
6.0
  0
LINE
  5
F70
330
1F
100
AcDbEntity
  8
FO0001_1
  6
Continuous
 62
     4
100
AcDbLine
 10
6.000142066116836
 20
1787.999907629832
 30
0.0
 11
6.000142066116836
 21
1727.999909417971
 31
0.0
1001
DEKIMAS
1000
実線（細）
1040
0.15
1001
DIMEXPLODE
1070
     0
1001
ASKOBJSC
1000
1/1
1001
ASKDWGSC
1040
6.0
  0
LINE
  5
F71
330
1F
100
AcDbEntity
  8
FO0001_1
  6
Continuous
 62
     4
100
AcDbLine
 10
2525.999929635131
 20
1787.999907629832
 30
0.0
 11
2525.999929635131
 21
1727.999909417971
 31
0.0
1001
DEKIMAS
1000
実線（細）
1040
0.15
1001
DIMEXPLODE
1070
     0
1001
ASKOBJSC
1000
1/1
1001
ASKDWGSC
1040
6.0
  0
LINE
  5
F72
330
1F
100
AcDbEntity
  8
FO0001_1
  6
Continuous
 62
     4
100
AcDbLine
 10
6.000142066116836
 20
1787.999999182569
 30
0.0
 11
66.00009450163895
 21
1787.999999182569
 31
0.0
1001
DEKIMAS
1000
実線（細）
1040
0.15
1001
DIMEXPLODE
1070
     0
1001
ASKOBJSC
1000
1/1
1001
ASKDWGSC
1040
6.0
  0
LINE
  5
F73
330
1F
100
AcDbEntity
  8
FO0001_1
  6
Continuous
 62
     4
100
AcDbLine
 10
6.000142066116836
 20
6.00000651395544
 30
0.0
 11
66.00009450163895
 21
6.00000651395544
 31
0.0
1001
DEKIMAS
1000
実線（細）
1040
0.15
1001
DIMEXPLODE
1070
     0
1001
ASKOBJSC
1000
1/1
1001
ASKDWGSC
1040
6.0
  0
LINE
  5
F74
330
1F
100
AcDbEntity
  8
FO0001_1
  6
Continuous
 62
     2
100
AcDbLine
 10
1674.000321237664
 20
390.0001095107766
 30
0.0
 11
1674.000321237664
 21
90.00004978692937
 31
0.0
1001
DEKIMAS
1000
実線（太）
1040
0.5
1001
DIMEXPLODE
1070
     0
1001
ASKOBJSC
1000
1/1
1001
ASKDWGSC
1040
6.0
  0
LINE
  5
F75
330
1F
100
AcDbEntity
  8
FO0001_1
  6
Continuous
 62
     2
100
AcDbLine
 10
1674.000321237664
 20
390.0001095107766
 30
0.0
 11
2405.99993321141
 21
390.0001095107766
 31
0.0
1001
DEKIMAS
1000
実線（太）
1040
0.5
1001
DIMEXPLODE
1070
     0
1001
ASKOBJSC
1000
1/1
1001
ASKDWGSC
1040
6.0
  0
LINE
  5
F76
330
1F
100
AcDbEntity
  8
FO0001_1
  6
Continuous
 62
     4
100
AcDbLine
 10
1674.000321237664
 20
315.0000430814009
 30
0.0
 11
2405.99993321141
 21
315.0000430814009
 31
0.0
1001
DEKIMAS
1000
実線（細）
1040
0.15
1001
DIMEXPLODE
1070
     0
1001
ASKOBJSC
1000
1/1
1001
ASKDWGSC
1040
6.0
  0
LINE
  5
F77
330
1F
100
AcDbEntity
  8
FO0001_1
  6
Continuous
 62
     4
100
AcDbLine
 10
1674.000321237664
 20
165.000047551752
 30
0.0
 11
2405.99993321141
 21
165.000047551752
 31
0.0
1001
DEKIMAS
1000
実線（細）
1040
0.15
1001
DIMEXPLODE
1070
     0
1001
ASKOBJSC
1000
1/1
1001
ASKDWGSC
1040
6.0
  0
LINE
  5
F78
330
1F
100
AcDbEntity
  8
FO0001_1
  6
Continuous
 62
     4
100
AcDbLine
 10
1830.000316588496
 20
390.0001095107766
 30
0.0
 11
1830.000316588496
 21
165.000047551752
 31
0.0
1001
DEKIMAS
1000
実線（細）
1040
0.15
1001
DIMEXPLODE
1070
     0
1001
ASKOBJSC
1000
1/1
1001
ASKDWGSC
1040
6.0
  0
LINE
  5
F79
330
1F
100
AcDbEntity
  8
FO0001_1
  6
Continuous
 62
     4
100
AcDbLine
 10
1752.000318913082
 20
315.0000430814009
 30
0.0
 11
1752.000318913082
 21
225.0000457636127
 31
0.0
1001
DEKIMAS
1000
実線（細）
1040
0.15
1001
DIMEXPLODE
1070
     0
1001
ASKOBJSC
1000
1/1
1001
ASKDWGSC
1040
6.0
  0
LINE
  5
F7A
330
1F
100
AcDbEntity
  8
FO0001_1
  6
Continuous
 62
     4
100
AcDbLine
 10
1674.000321237664
 20
285.0000439754706
 30
0.0
 11
1986.000311939333
 21
285.0000439754706
 31
0.0
1001
DEKIMAS
1000
実線（細）
1040
0.15
1001
DIMEXPLODE
1070
     0
1001
ASKOBJSC
1000
1/1
1001
ASKDWGSC
1040
6.0
  0
LINE
  5
F7B
330
1F
100
AcDbEntity
  8
FO0001_1
  6
Continuous
 62
     4
100
AcDbLine
 10
1674.000321237664
 20
225.0000457636127
 30
0.0
 11
1986.000311939333
 21
225.0000457636127
 31
0.0
1001
DEKIMAS
1000
実線（細）
1040
0.15
1001
DIMEXPLODE
1070
     0
1001
ASKOBJSC
1000
1/1
1001
ASKDWGSC
1040
6.0
  0
LINE
  5
F7C
330
1F
100
AcDbEntity
  8
FO0001_1
  6
Continuous
 62
     4
100
AcDbLine
 10
1701.000320433001
 20
225.0000457636127
 30
0.0
 11
1701.000320433001
 21
165.000047551752
 31
0.0
1001
DEKIMAS
1000
実線（細）
1040
0.15
1001
DIMEXPLODE
1070
     0
1001
ASKOBJSC
1000
1/1
1001
ASKDWGSC
1040
6.0
  0
LINE
  5
F7D
330
1F
100
AcDbEntity
  8
FO0001_1
  6
Continuous
 62
     4
100
AcDbLine
 10
1857.000315783833
 20
225.0000457636127
 30
0.0
 11
1857.000315783833
 21
165.000047551752
 31
0.0
1001
DEKIMAS
1000
実線（細）
1040
0.15
1001
DIMEXPLODE
1070
     0
1001
ASKOBJSC
1000
1/1
1001
ASKDWGSC
1040
6.0
  0
LINE
  5
F7E
330
1F
100
AcDbEntity
  8
FO0001_1
  6
Continuous
 62
     4
100
AcDbLine
 10
1986.000311939333
 20
315.0000430814009
 30
0.0
 11
1986.000311939333
 21
90.00004978692937
 31
0.0
1001
DEKIMAS
1000
実線（細）
1040
0.15
1001
DIMEXPLODE
1070
     0
1001
ASKOBJSC
1000
1/1
1001
ASKDWGSC
1040
6.0
  0
LINE
  5
F7F
330
1F
100
AcDbEntity
  8
FO0001_1
  6
Continuous
 62
     4
100
AcDbLine
 10
1908.000314263915
 20
315.0000430814009
 30
0.0
 11
1908.000314263915
 21
225.0000457636127
 31
0.0
1001
DEKIMAS
1000
実線（細）
1040
0.15
1001
DIMEXPLODE
1070
     0
1001
ASKOBJSC
1000
1/1
1001
ASKDWGSC
1040
6.0
  0
LINE
  5
F80
330
1F
100
AcDbEntity
  8
FO0001_1
  6
Continuous
 62
     4
100
AcDbLine
 10
2019.000127850383
 20
315.0000430814009
 30
0.0
 11
2019.000127850383
 21
90.00004978692937
 31
0.0
1001
DEKIMAS
1000
実線（細）
1040
0.15
1001
DIMEXPLODE
1070
     0
1001
ASKOBJSC
1000
1/1
1001
ASKDWGSC
1040
6.0
  0
LINE
  5
F81
330
1F
100
AcDbEntity
  8
FO0001_1
  6
Continuous
 62
     4
100
AcDbLine
 10
1674.000321237664
 20
432.0001082590795
 30
0.0
 11
1674.000321237664
 21
390.0001095107766
 31
0.0
1001
DEKIMAS
1000
実線（細）
1040
0.15
1001
DIMEXPLODE
1070
     0
1001
ASKOBJSC
1000
1/1
1001
ASKDWGSC
1040
6.0
  0
LINE
  5
F82
330
1F
100
AcDbEntity
  8
FO0001_1
  6
Continuous
 62
     4
100
AcDbLine
 10
1674.000321237664
 20
432.0001082590795
 30
0.0
 11
2405.99993321141
 21
432.0001082590795
 31
0.0
1001
DEKIMAS
1000
実線（細）
1040
0.15
1001
DIMEXPLODE
1070
     0
1001
ASKOBJSC
1000
1/1
1001
ASKDWGSC
1040
6.0
  0
LINE
  5
F83
330
1F
100
AcDbEntity
  8
FO0001_1
  6
Continuous
 62
     2
100
AcDbLine
 10
126.0000927134996
 20
1703.999910133227
 30
0.0
 11
126.0000927134996
 21
90.00004978692937
 31
0.0
1001
DEKIMAS
1000
実線（太）
1040
0.5
1001
DIMEXPLODE
1070
     0
1001
ASKOBJSC
1000
1/1
1001
ASKDWGSC
1040
6.0
  0
LINE
  5
F84
330
1F
100
AcDbEntity
  8
FO0001_1
  6
Continuous
 62
     2
100
AcDbLine
 10
2405.99993321141
 20
1703.999910133227
 30
0.0
 11
2405.99993321141
 21
90.00004978692937
 31
0.0
1001
DEKIMAS
1000
実線（太）
1040
0.5
1001
DIMEXPLODE
1070
     0
1001
ASKOBJSC
1000
1/1
1001
ASKDWGSC
1040
6.0
  0
LINE
  5
F85
330
1F
100
AcDbEntity
  8
FO0001_1
  6
Continuous
 62
     2
100
AcDbLine
 10
126.0000927134996
 20
1703.999910133227
 30
0.0
 11
2405.99993321141
 21
1703.999910133227
 31
0.0
1001
DEKIMAS
1000
実線（太）
1040
0.5
1001
DIMEXPLODE
1070
     0
1001
ASKOBJSC
1000
1/1
1001
ASKDWGSC
1040
6.0
  0
LINE
  5
F86
330
1F
100
AcDbEntity
  8
FO0001_1
  6
Continuous
 62
     2
100
AcDbLine
 10
126.0000927134996
 20
90.00004978692937
 30
0.0
 11
2405.99993321141
 21
90.00004978692937
 31
0.0
1001
DEKIMAS
1000
実線（太）
1040
0.5
1001
DIMEXPLODE
1070
     0
1001
ASKOBJSC
1000
1/1
1001
ASKDWGSC
1040
6.0
  0
LINE
  5
F87
330
1F
100
AcDbEntity
  8
FO0001_1
  6
Continuous
 62
     4
100
AcDbLine
 10
660.0001797958551
 20
1703.999910133227
 30
0.0
 11
660.0001797958551
 21
1664.999911295518
 31
0.0
1001
DEKIMAS
1000
実線（細）
1040
0.15
1001
DIMEXPLODE
1070
     0
1001
ASKOBJSC
1000
1/1
1001
ASKDWGSC
1040
6.0
  0
LINE
  5
F88
330
1F
100
AcDbEntity
  8
FO0001_1
  6
Continuous
 62
     4
100
AcDbLine
 10
582.0001606627987
 20
1703.999910133227
 30
0.0
 11
582.0001606627987
 21
1664.999911295518
 31
0.0
1001
DEKIMAS
1000
実線（細）
1040
0.15
1001
DIMEXPLODE
1070
     0
1001
ASKOBJSC
1000
1/1
1001
ASKDWGSC
1040
6.0
  0
LINE
  5
F89
330
1F
100
AcDbEntity
  8
FO0001_1
  6
Continuous
 62
     4
100
AcDbLine
 10
483.000162182709
 20
1703.999910133227
 30
0.0
 11
483.000162182709
 21
1664.999911295518
 31
0.0
1001
DEKIMAS
1000
実線（細）
1040
0.15
1001
DIMEXPLODE
1070
     0
1001
ASKOBJSC
1000
1/1
1001
ASKDWGSC
1040
6.0
  0
LINE
  5
F8A
330
1F
100
AcDbEntity
  8
FO0001_1
  6
Continuous
 62
     4
100
AcDbLine
 10
207.00015896405
 20
1703.999910133227
 30
0.0
 11
207.00015896405
 21
1664.999911295518
 31
0.0
1001
DEKIMAS
1000
実線（細）
1040
0.15
1001
DIMEXPLODE
1070
     0
1001
ASKOBJSC
1000
1/1
1001
ASKDWGSC
1040
6.0
  0
LINE
  5
F8B
330
1F
100
AcDbEntity
  8
FO0001_1
  6
Continuous
 62
     4
100
AcDbLine
 10
1902.408454717286
 20
175.9080670220448
 30
0.0
 11
1940.59222137272
 21
214.0918304588288
 31
0.0
1001
DEKIMAS
1000
実線（細）
1040
0.15
1001
DIMEXPLODE
1070
     0
1001
ASKOBJSC
1000
1/1
1001
ASKDWGSC
1040
6.0
  0
LINE
  5
F8C
330
1F
100
AcDbEntity
  8
FO0001_1
  6
Continuous
 62
     7
100
AcDbLine
 10
2351.999934820735
 20
110.6270633323504
 30
0.0
 11
2393.999933569038
 21
110.6270633323504
 31
0.0
1001
DEKIMAS
1000
実線（中）
1040
0.25
1001
DIMEXPLODE
1070
     0
1001
ASKOBJSC
1000
1/1
1001
ASKDWGSC
1040
6.0
  0
LINE
  5
F8D
330
1F
100
AcDbEntity
  8
FO0001_1
  6
Continuous
 62
     7
100
AcDbLine
 10
2352.000584851415
 20
110.6267333264925
 30
0.0
 11
2373.000586385808
 21
146.9997979542283
 31
0.0
1001
DEKIMAS
1000
実線（中）
1040
0.25
1001
DIMEXPLODE
1070
     0
1001
ASKOBJSC
1000
1/1
1001
ASKDWGSC
1040
6.0
  0
LINE
  5
F8E
330
1F
100
AcDbEntity
  8
FO0001_1
  6
Continuous
 62
     7
100
AcDbLine
 10
2373.000242933096
 20
147.0000915500898
 30
0.0
 11
2394.000244467489
 21
110.6270269223535
 31
0.0
1001
DEKIMAS
1000
実線（中）
1040
0.25
1001
DIMEXPLODE
1070
     0
1001
ASKOBJSC
1000
1/1
1001
ASKDWGSC
1040
6.0
  0
LINE
  5
F8F
330
1F
100
AcDbEntity
  8
FO0001_1
  6
Continuous
 62
     4
100
AcDbLine
 10
6.000142066116836
 20
66.0000505021851
 30
0.0
 11
6.000142066116836
 21
6.00000651395544
 31
0.0
1001
DEKIMAS
1000
実線（細）
1040
0.15
1001
DIMEXPLODE
1070
     0
1001
ASKOBJSC
1000
1/1
1001
ASKDWGSC
1040
6.0
  0
LINE
  5
F90
330
1F
100
AcDbEntity
  8
FO0001_1
  6
Continuous
 62
     4
100
AcDbLine
 10
2465.999931423271
 20
1787.999999182569
 30
0.0
 11
2525.999929635131
 21
1787.999999182569
 31
0.0
1001
DEKIMAS
1000
実線（細）
1040
0.15
1001
DIMEXPLODE
1070
     0
1001
ASKOBJSC
1000
1/1
1001
ASKDWGSC
1040
6.0
  0
LINE
  5
F91
330
1F
100
AcDbEntity
  8
FO0001_1
  6
Continuous
 62
     4
100
AcDbLine
 10
2525.999929635131
 20
66.0000505021851
 30
0.0
 11
2525.999929635131
 21
6.00000651395544
 31
0.0
1001
DEKIMAS
1000
実線（細）
1040
0.15
1001
DIMEXPLODE
1070
     0
1001
ASKOBJSC
1000
1/1
1001
ASKDWGSC
1040
6.0
  0
LINE
  5
F92
330
1F
100
AcDbEntity
  8
FO0001_1
  6
Continuous
 62
     4
100
AcDbLine
 10
2465.999931423271
 20
6.00000651395544
 30
0.0
 11
2525.999929635131
 21
6.00000651395544
 31
0.0
1001
DEKIMAS
1000
実線（細）
1040
0.15
1001
DIMEXPLODE
1070
     0
1001
ASKOBJSC
1000
1/1
1001
ASKDWGSC
1040
6.0
  0
LINE
  5
F93
330
1F
100
AcDbEntity
  8
FO0001_1
  6
Continuous
 62
     4
100
AcDbLine
 10
1746.000319091896
 20
432.0001082590795
 30
0.0
 11
1746.000319091896
 21
390.0001095107766
 31
0.0
1001
DEKIMAS
1000
実線（細）
1040
0.15
1001
DIMEXPLODE
1070
     0
1001
ASKOBJSC
1000
1/1
1001
ASKDWGSC
1040
6.0
  0
LINE
  5
F94
330
1F
100
AcDbEntity
  8
FO0001_1
  6
Continuous
 62
     4
100
AcDbLine
 10
1926.000313727473
 20
432.0001082590795
 30
0.0
 11
1926.000313727473
 21
390.0001095107766
 31
0.0
1001
DEKIMAS
1000
実線（細）
1040
0.15
1001
DIMEXPLODE
1070
     0
1001
ASKOBJSC
1000
1/1
1001
ASKDWGSC
1040
6.0
  0
LINE
  5
F95
330
1F
100
AcDbEntity
  8
FO0001_1
  6
Continuous
 62
     4
100
AcDbLine
 10
2016.00012793979
 20
432.0001082590795
 30
0.0
 11
2016.00012793979
 21
390.0001095107766
 31
0.0
1001
DEKIMAS
1000
実線（細）
1040
0.15
1001
DIMEXPLODE
1070
     0
1001
ASKOBJSC
1000
1/1
1001
ASKDWGSC
1040
6.0
  0
LINE
  5
F96
330
1F
100
AcDbEntity
  8
FO0001_1
  6
Continuous
 62
     4
100
AcDbLine
 10
2106.000125257581
 20
432.0001082590795
 30
0.0
 11
2106.000125257581
 21
390.0001095107766
 31
0.0
1001
DEKIMAS
1000
実線（細）
1040
0.15
1001
DIMEXPLODE
1070
     0
1001
ASKOBJSC
1000
1/1
1001
ASKDWGSC
1040
6.0
  0
LINE
  5
F97
330
1F
100
AcDbEntity
  8
FO0001_1
  6
Continuous
 62
     4
100
AcDbLine
 10
2196.000122575372
 20
432.0001082590795
 30
0.0
 11
2196.000122575372
 21
390.0001095107766
 31
0.0
1001
DEKIMAS
1000
実線（細）
1040
0.15
1001
DIMEXPLODE
1070
     0
1001
ASKOBJSC
1000
1/1
1001
ASKDWGSC
1040
6.0
  0
LINE
  5
F98
330
1F
100
AcDbEntity
  8
FO0001_1
  6
Continuous
 62
     4
100
AcDbLine
 10
126.0000927134996
 20
1664.999911295518
 30
0.0
 11
660.0001797958551
 21
1664.999911295518
 31
0.0
1001
DEKIMAS
1000
実線（細）
1040
0.15
1001
DIMEXPLODE
1070
     0
1001
ASKOBJSC
1000
1/1
1001
ASKDWGSC
1040
6.0
  0
LINE
  5
F99
330
1F
100
AcDbEntity
  8
FO0001_1
  6
Continuous
 62
     4
100
AcDbLine
 10
1699.593649112869
 20
519.124873656375
 30
0.0
 11
2106.289010527552
 21
519.124873656375
 31
0.0
1001
DEKIMAS
1000
実線（細）
1040
0.15
1001
DIMEXPLODE
1070
     0
1001
ASKOBJSC
1000
1/1
1001
ASKDWGSC
1040
6.0
  0
MTEXT
  5
F9A
330
1F
100
AcDbEntity
  8
FO0001_1
  6
Continuous
 62
     4
100
AcDbMText
 10
168.1413412406317
 20
1684.499910714372
 30
0.0
 40
14.99999955296518
 41
0.0
 71
     5
 72
     5
  1
\T1.40;\W0.60;記　号
  7
STD
 73
     1
 44
1.0
1001
DEKIMAS
1040
0.15
1001
ASKOBJSC
1000
1/1
1001
ASKDWGSC
1040
6.0
1001
ACAD
1000
MTEXTBEGIN
1070
    73
1070
     1
1070
    44
1040
1.0
1070
    74
1070
     0
1000
MTEXTEND
  0
MTEXT
  5
F9B
330
1F
100
AcDbEntity
  8
FO0001_1
  6
Continuous
 62
     4
100
AcDbMText
 10
347.241404567574
 20
1684.499910714372
 30
0.0
 40
14.99999955296518
 41
0.0
 71
     5
 72
     5
  1
\T1.40;\W0.60;来　　　　　　　　　　　歴
  7
STD
 73
     1
 44
1.0
1001
DEKIMAS
1040
0.15
1001
ASKOBJSC
1000
1/1
1001
ASKDWGSC
1040
6.0
1001
ACAD
1000
MTEXTBEGIN
1070
    73
1070
     1
1070
    44
1040
1.0
1070
    74
1070
     0
1000
MTEXTEND
  0
MTEXT
  5
F9C
330
1F
100
AcDbEntity
  8
FO0001_1
  6
Continuous
 62
     4
100
AcDbMText
 10
533.6613961507854
 20
1684.499910714372
 30
0.0
 40
14.99999955296518
 41
0.0
 71
     5
 72
     5
  1
\T1.40;\W0.60;年　月　日
  7
STD
 73
     1
 44
1.0
1001
DEKIMAS
1040
0.15
1001
ASKOBJSC
1000
1/1
1001
ASKDWGSC
1040
6.0
1001
ACAD
1000
MTEXTBEGIN
1070
    73
1070
     1
1070
    44
1040
1.0
1070
    74
1070
     0
1000
MTEXTEND
  0
MTEXT
  5
F9D
330
1F
100
AcDbEntity
  8
FO0001_1
  6
Continuous
 62
     4
100
AcDbMText
 10
622.6414192481783
 20
1684.499910714372
 30
0.0
 40
14.99999955296518
 41
0.0
 71
     5
 72
     5
  1
\T1.40;\W0.60;記　入
  7
STD
 73
     1
 44
1.0
1001
DEKIMAS
1040
0.15
1001
ASKOBJSC
1000
1/1
1001
ASKDWGSC
1040
6.0
1001
ACAD
1000
MTEXTBEGIN
1070
    73
1070
     1
1070
    44
1040
1.0
1070
    74
1070
     0
1000
MTEXTEND
  0
MTEXT
  5
F9E
330
1F
100
AcDbEntity
  8
FO0001_1
  6
Continuous
 62
     4
100
AcDbMText
 10
1711.969819917257
 20
411.0001088849283
 30
0.0
 40
17.99999946355821
 41
0.0
 71
     5
 72
     5
  1
\T1.40;\W0.60;品　番
  7
STD
 73
     1
 44
1.0
1001
DEKIMAS
1040
0.15
1001
ASKOBJSC
1000
1/1
1001
ASKDWGSC
1040
6.0
1001
ACAD
1000
MTEXTBEGIN
1070
    73
1070
     1
1070
    44
1040
1.0
1070
    74
1070
     0
1000
MTEXTEND
  0
MTEXT
  5
F9F
330
1F
100
AcDbEntity
  8
FO0001_1
  6
Continuous
 62
     4
100
AcDbMText
 10
1838.257816153576
 20
411.0001088849283
 30
0.0
 40
17.99999946355821
 41
0.0
 71
     5
 72
     5
  1
\T1.40;\W0.60;名　　　　　称
  7
STD
 73
     1
 44
1.0
1001
DEKIMAS
1040
0.15
1001
ASKOBJSC
1000
1/1
1001
ASKDWGSC
1040
6.0
1001
ACAD
1000
MTEXTBEGIN
1070
    73
1070
     1
1070
    44
1040
1.0
1070
    74
1070
     0
1000
MTEXTEND
  0
MTEXT
  5
FA0
330
1F
100
AcDbEntity
  8
FO0001_1
  6
Continuous
 62
     4
100
AcDbMText
 10
2062.969626351162
 20
411.0001088849283
 30
0.0
 40
17.99999946355821
 41
0.0
 71
     5
 72
     5
  1
\T1.40;\W0.60;材　質
  7
STD
 73
     1
 44
1.0
1001
DEKIMAS
1040
0.15
1001
ASKOBJSC
1000
1/1
1001
ASKDWGSC
1040
6.0
1001
ACAD
1000
MTEXTBEGIN
1070
    73
1070
     1
1070
    44
1040
1.0
1070
    74
1070
     0
1000
MTEXTEND
  0
MTEXT
  5
FA1
330
1F
100
AcDbEntity
  8
FO0001_1
  6
Continuous
 62
     4
100
AcDbMText
 10
2152.969623668954
 20
411.0001088849283
 30
0.0
 40
17.99999946355821
 41
0.0
 71
     5
 72
     5
  1
\T1.40;\W0.60;個　数
  7
STD
 73
     1
 44
1.0
1001
DEKIMAS
1040
0.15
1001
ASKOBJSC
1000
1/1
1001
ASKDWGSC
1040
6.0
1001
ACAD
1000
MTEXTBEGIN
1070
    73
1070
     1
1070
    44
1040
1.0
1070
    74
1070
     0
1000
MTEXTEND
  0
MTEXT
  5
FA2
330
1F
100
AcDbEntity
  8
FO0001_1
  6
Continuous
 62
     4
100
AcDbMText
 10
2303.298578940465
 20
411.0001088849283
 30
0.0
 40
17.99999946355821
 41
0.0
 71
     5
 72
     5
  1
\T1.40;\W0.60;摘　　　　　　　要
  7
STD
 73
     1
 44
1.0
1001
DEKIMAS
1040
0.15
1001
ASKOBJSC
1000
1/1
1001
ASKDWGSC
1040
6.0
1001
ACAD
1000
MTEXTBEGIN
1070
    73
1070
     1
1070
    44
1040
1.0
1070
    74
1070
     0
1000
MTEXTEND
  0
MTEXT
  5
FA3
330
1F
100
AcDbEntity
  8
FO0001_1
  6
Continuous
 62
     4
100
AcDbMText
 10
1754.818318696539
 20
352.5000877401824
 30
0.0
 40
23.99999928474429
 41
0.0
 71
     5
 72
     5
  1
\T1.40;\W0.60;納　入　先
  7
STD
 73
     1
 44
1.0
1001
DEKIMAS
1040
0.15
1001
ASKOBJSC
1000
1/1
1001
ASKDWGSC
1040
6.0
1001
ACAD
1000
MTEXTBEGIN
1070
    73
1070
     1
1070
    44
1040
1.0
1070
    74
1070
     0
1000
MTEXTEND
  0
MTEXT
  5
FA4
330
1F
100
AcDbEntity
  8
FO0001_1
  6
Continuous
 62
     4
100
AcDbMText
 10
1833.259622028012
 20
127.5000486693423
 30
0.0
 40
23.99999928474429
 41
0.0
 71
     5
 72
     5
  1
\T1.40;\W0.46;ス　イ　コ　－　株　式　会　社
  7
STD
 73
     1
 44
1.0
1001
DEKIMAS
1040
0.15
1001
ASKOBJSC
1000
1/1
1001
ASKDWGSC
1040
6.0
1001
ACAD
1000
MTEXTBEGIN
1070
    73
1070
     1
1070
    44
1040
1.0
1070
    74
1070
     0
1000
MTEXTEND
  0
MTEXT
  5
FA5
330
1F
100
AcDbEntity
  8
FO0001_1
  6
Continuous
 62
     4
100
AcDbMText
 10
1845.021566102681
 20
180.0000471047171
 30
0.0
 40
14.99999955296518
 41
0.0
 71
     5
 72
     5
  1
\T1.40;\W0.60;度
  7
STD
 73
     1
 44
1.0
1001
DEKIMAS
1040
0.15
1001
ASKOBJSC
1000
1/1
1001
ASKDWGSC
1040
6.0
1001
ACAD
1000
MTEXTBEGIN
1070
    73
1070
     1
1070
    44
1040
1.0
1070
    74
1070
     0
1000
MTEXTEND
  0
MTEXT
  5
FA6
330
1F
100
AcDbEntity
  8
FO0001_1
  6
Continuous
 62
     4
100
AcDbMText
 10
1714.641569988313
 20
300.0000435284357
 30
0.0
 40
14.99999955296518
 41
0.0
 71
     5
 72
     5
  1
\T1.40;\W0.60;設　計
  7
STD
 73
     1
 44
1.0
1001
DEKIMAS
1040
0.15
1001
ASKOBJSC
1000
1/1
1001
ASKDWGSC
1040
6.0
1001
ACAD
1000
MTEXTBEGIN
1070
    73
1070
     1
1070
    44
1040
1.0
1070
    74
1070
     0
1000
MTEXTEND
  0
MTEXT
  5
FA7
330
1F
100
AcDbEntity
  8
FO0001_1
  6
Continuous
 62
     4
100
AcDbMText
 10
1792.341567672667
 20
300.0000435284357
 30
0.0
 40
14.99999955296518
 41
0.0
 71
     5
 72
     5
  1
\T1.40;\W0.60;製　図
  7
STD
 73
     1
 44
1.0
1001
DEKIMAS
1040
0.15
1001
ASKOBJSC
1000
1/1
1001
ASKDWGSC
1040
6.0
1001
ACAD
1000
MTEXTBEGIN
1070
    73
1070
     1
1070
    44
1040
1.0
1070
    74
1070
     0
1000
MTEXTEND
  0
MTEXT
  5
FA8
330
1F
100
AcDbEntity
  8
FO0001_1
  6
Continuous
 62
     4
100
AcDbMText
 10
1870.341565348087
 20
300.0000435284357
 30
0.0
 40
14.99999955296518
 41
0.0
 71
     5
 72
     5
  1
\T1.40;\W0.60;検　図
  7
STD
 73
     1
 44
1.0
1001
DEKIMAS
1040
0.15
1001
ASKOBJSC
1000
1/1
1001
ASKDWGSC
1040
6.0
1001
ACAD
1000
MTEXTBEGIN
1070
    73
1070
     1
1070
    44
1040
1.0
1070
    74
1070
     0
1000
MTEXTEND
  0
MTEXT
  5
FA9
330
1F
100
AcDbEntity
  8
FO0001_1
  6
Continuous
 62
     4
100
AcDbMText
 10
1948.641563014564
 20
300.0000435284357
 30
0.0
 40
14.99999955296518
 41
0.0
 71
     5
 72
     5
  1
\T1.40;\W0.60;承　認
  7
STD
 73
     1
 44
1.0
1001
DEKIMAS
1040
0.15
1001
ASKOBJSC
1000
1/1
1001
ASKDWGSC
1040
6.0
1001
ACAD
1000
MTEXTBEGIN
1070
    73
1070
     1
1070
    44
1040
1.0
1070
    74
1070
     0
1000
MTEXTEND
  0
MTEXT
  5
FAA
330
1F
100
AcDbEntity
  8
FO0001_1
  6
Continuous
 62
     4
100
AcDbMText
 10
2004.325811204364
 20
202.5000464341649
 30
0.0
 40
17.99999946355821
 41
0.0
 71
     5
 72
     5
  1
\T1.40;\W0.60;称
  7
STD
 73
     1
 44
1.0
1001
DEKIMAS
1040
0.15
1001
ASKOBJSC
1000
1/1
1001
ASKDWGSC
1040
6.0
1001
ACAD
1000
MTEXTBEGIN
1070
    73
1070
     1
1070
    44
1040
1.0
1070
    74
1070
     0
1000
MTEXTEND
  0
MTEXT
  5
FAB
330
1F
100
AcDbEntity
  8
FO0001_1
  6
Continuous
 62
     4
100
AcDbMText
 10
2003.605811225821
 20
146.2500481105487
 30
0.0
 40
17.99999946355821
 41
0.0
 71
     5
 72
     5
  1
\T1.40;\W0.60;図
  7
STD
 73
     1
 44
1.0
1001
DEKIMAS
1040
0.15
1001
ASKOBJSC
1000
1/1
1001
ASKDWGSC
1040
6.0
1001
ACAD
1000
MTEXTBEGIN
1070
    73
1070
     1
1070
    44
1040
1.0
1070
    74
1070
     0
1000
MTEXTEND
  0
MTEXT
  5
FAC
330
1F
100
AcDbEntity
  8
FO0001_1
  6
Continuous
 62
     4
100
AcDbMText
 10
2004.325811204364
 20
108.7500492281358
 30
0.0
 40
17.99999946355821
 41
0.0
 71
     5
 72
     5
  1
\T1.40;\W0.60;番
  7
STD
 73
     1
 44
1.0
1001
DEKIMAS
1040
0.15
1001
ASKOBJSC
1000
1/1
1001
ASKDWGSC
1040
6.0
1001
ACAD
1000
MTEXTBEGIN
1070
    73
1070
     1
1070
    44
1040
1.0
1070
    74
1070
     0
1000
MTEXTEND
  0
MTEXT
  5
FAD
330
1F
100
AcDbEntity
  8
FO0001_1
  6
Continuous
 62
     4
100
AcDbMText
 10
2003.965811215092
 20
277.5000441989912
 30
0.0
 40
17.99999946355821
 41
0.0
 71
     5
 72
     5
  1
\T1.40;\W0.60;名
  7
STD
 73
     1
 44
1.0
1001
DEKIMAS
1040
0.15
1001
ASKOBJSC
1000
1/1
1001
ASKDWGSC
1040
6.0
1001
ACAD
1000
MTEXTBEGIN
1070
    73
1070
     1
1070
    44
1040
1.0
1070
    74
1070
     0
1000
MTEXTEND
  0
MTEXT
  5
FAE
330
1F
100
AcDbEntity
  8
FO0001_1
  6
Continuous
 62
     4
100
AcDbMText
 10
1845.021565923867
 20
210.0000462106475
 30
0.0
 40
14.99999955296518
 41
0.0
 71
     5
 72
     5
  1
\T1.40;\W0.60;尺
  7
STD
 73
     1
 44
1.0
1001
DEKIMAS
1040
0.15
1001
ASKOBJSC
1000
1/1
1001
ASKDWGSC
1040
6.0
1001
ACAD
1000
MTEXTBEGIN
1070
    73
1070
     1
1070
    44
1040
1.0
1070
    74
1070
     0
1000
MTEXTEND
  0
MTEXT
  5
FAF
330
1F
100
AcDbEntity
  8
FO0001_1
  6
Continuous
 62
     4
100
AcDbMText
 10
1688.237320568274
 20
195.0000466576823
 30
0.0
 40
11.99999964237214
 41
0.0
 71
     5
 72
     5
  1
\T1.40;\W0.60;月
  7
STD
 73
     1
 44
1.0
1001
DEKIMAS
1040
0.15
1001
ASKOBJSC
1000
1/1
1001
ASKDWGSC
1040
6.0
1001
ACAD
1000
MTEXTBEGIN
1070
    73
1070
     1
1070
    44
1040
1.0
1070
    74
1070
     0
1000
MTEXTEND
  0
MTEXT
  5
FB0
330
1F
100
AcDbEntity
  8
FO0001_1
  6
Continuous
 62
     4
100
AcDbMText
 10
1687.757320582579
 20
175.200028937222
 30
0.0
 40
11.99999964237214
 41
0.0
 71
     5
 72
     5
  1
\T1.40;\W0.60;日
  7
STD
 73
     1
 44
1.0
1001
DEKIMAS
1040
0.15
1001
ASKOBJSC
1000
1/1
1001
ASKDWGSC
1040
6.0
1001
ACAD
1000
MTEXTBEGIN
1070
    73
1070
     1
1070
    44
1040
1.0
1070
    74
1070
     0
1000
MTEXTEND
  0
MTEXT
  5
FB1
330
1F
100
AcDbEntity
  8
FO0001_1
  6
Continuous
 62
     4
100
AcDbMText
 10
1688.717320553969
 20
185.0999920210868
 30
0.0
 40
11.99999964237214
 41
0.0
 71
     5
 72
     5
  1
\T1.40;\W0.60;・
  7
STD
 73
     1
 44
1.0
1001
DEKIMAS
1040
0.15
1001
ASKOBJSC
1000
1/1
1001
ASKDWGSC
1040
6.0
1001
ACAD
1000
MTEXTBEGIN
1070
    73
1070
     1
1070
    44
1040
1.0
1070
    74
1070
     0
1000
MTEXTEND
  0
MTEXT
  5
FB2
330
1F
100
AcDbEntity
  8
FO0001_1
  6
Continuous
 62
     4
100
AcDbMText
 10
1688.717320553969
 20
204.9001012942783
 30
0.0
 40
11.99999964237214
 41
0.0
 71
     5
 72
     5
  1
\T1.40;\W0.60;・
  7
STD
 73
     1
 44
1.0
1001
DEKIMAS
1040
0.15
1001
ASKOBJSC
1000
1/1
1001
ASKDWGSC
1040
6.0
1001
ACAD
1000
MTEXTBEGIN
1070
    73
1070
     1
1070
    44
1040
1.0
1070
    74
1070
     0
1000
MTEXTEND
  0
MTEXT
  5
FB3
330
1F
100
AcDbEntity
  8
FO0001_1
  6
Continuous
 62
     4
100
AcDbMText
 10
1688.717320553969
 20
214.799972825411
 30
0.0
 40
11.99999964237214
 41
0.0
 71
     5
 72
     5
  1
\T1.40;\W0.60;年
  7
STD
 73
     1
 44
1.0
1001
DEKIMAS
1040
0.15
1001
ASKOBJSC
1000
1/1
1001
ASKDWGSC
1040
6.0
1001
ACAD
1000
MTEXTBEGIN
1070
    73
1070
     1
1070
    44
1040
1.0
1070
    74
1070
     0
1000
MTEXTEND
  0
MTEXT
  5
FB4
330
1F
100
AcDbEntity
  8
FO0001_1
  6
Continuous
 62
     4
100
AcDbMText
 10
1972.969812138845
 20
411.0001088849283
 30
0.0
 40
17.99999946355821
 41
0.0
 71
     5
 72
     5
  1
\T1.40;\W0.60;サイズ
  7
STD
 73
     1
 44
1.0
1001
DEKIMAS
1040
0.15
1001
ASKOBJSC
1000
1/1
1001
ASKDWGSC
1040
6.0
1001
ACAD
1000
MTEXTBEGIN
1070
    73
1070
     1
1070
    44
1040
1.0
1070
    74
1070
     0
1000
MTEXTEND
  0
MTEXT
  5
FB5
330
1F
100
AcDbEntity
  8
FO0001_1
  6
Continuous
 62
     4
100
AcDbMText
 10
1932.390252725971
 20
185.454117987095
 30
0.0
 40
19.19999942779543
 41
0.0
 71
     4
 72
     5
  1
\T1.40;\W0.60;６
  7
STD
 73
     1
 44
1.0
1001
DEKIMAS
1040
0.15
1001
ASKOBJSC
1000
1/1
1001
ASKDWGSC
1040
6.0
1001
ACAD
1000
MTEXTBEGIN
1070
    73
1070
     1
1070
    44
1040
1.0
1070
    74
1070
     0
1000
MTEXTEND
  0
MTEXT
  5
FB6
330
1F
100
AcDbEntity
  8
FO0001_1
  6
Continuous
 62
     4
100
AcDbMText
 10
1903.752466714203
 20
204.5459753282696
 30
0.0
 40
19.19999942779543
 41
0.0
 71
     4
 72
     5
  1
\T1.40;\W0.60;１
  7
STD
 73
     1
 44
1.0
1001
DEKIMAS
1040
0.15
1001
ASKOBJSC
1000
1/1
1001
ASKDWGSC
1040
6.0
1001
ACAD
1000
MTEXTBEGIN
1070
    73
1070
     1
1070
    44
1040
1.0
1070
    74
1070
     0
1000
MTEXTEND
  0
MTEXT
  5
FB7
330
1F
100
AcDbEntity
  8
FO0001_1
  6
Continuous
 62
     4
100
AcDbMText
 10
2133.261086573758
 20
276.073011770817
 30
0.0
 40
29.99999910593036
 41
0.0
 71
     4
 72
     5
  1
\T1.40;\W0.60;Ｋ－１２０
  7
STD
 73
     1
 44
1.0
1001
DEKIMAS
1040
0.15
1001
ASKOBJSC
1000
1/1
1001
ASKDWGSC
1040
6.0
1001
ACAD
1000
MTEXTBEGIN
1070
    73
1070
     1
1070
    44
1040
1.0
1070
    74
1070
     0
1000
MTEXTEND
  0
MTEXT
  5
FB8
330
1F
100
AcDbEntity
  8
FO0001_1
  6
Continuous
 62
     4
100
AcDbMText
 10
2133.541421038063
 20
204.9309545648432
 30
0.0
 40
29.99999910593036
 41
0.0
 71
     4
 72
     5
  1
\T1.40;\W0.60;製　品　図
  7
STD
 73
     1
 44
1.0
1001
DEKIMAS
1040
0.15
1001
ASKOBJSC
1000
1/1
1001
ASKDWGSC
1040
6.0
1001
ACAD
1000
MTEXTBEGIN
1070
    73
1070
     1
1070
    44
1040
1.0
1070
    74
1070
     0
1000
MTEXTEND
  0
MTEXT
  5
FB9
330
1F
100
AcDbEntity
  8
FO0001_1
  6
Continuous
 62
     4
100
AcDbMText
 10
2044.503191566349
 20
126.9148057622158
 30
0.0
 40
29.99999910593036
 41
0.0
 71
     4
 72
     5
  1
\T1.40;\W0.60;ＡＫ００１２－Ｓ０１
  7
STD
 73
     1
 44
1.0
1001
DEKIMAS
1040
0.15
1001
ASKOBJSC
1000
1/1
1001
ASKDWGSC
1040
6.0
1001
ACAD
1000
MTEXTBEGIN
1070
    73
1070
     1
1070
    44
1040
1.0
1070
    74
1070
     0
1000
MTEXTEND
  0
MTEXT
  5
FBA
330
1F
100
AcDbEntity
  8
FO0001_1
  6
Continuous
 62
     4
100
AcDbMText
 10
1707.778688525229
 20
194.0036325028074
 30
0.0
 40
17.99999946355821
 41
0.0
 71
     4
 72
     5
  1
\T1.40;\W0.46;Ｈ１４．２．１６
  7
STD
 73
     1
 44
1.0
1001
DEKIMAS
1040
0.15
1001
ASKOBJSC
1000
1/1
1001
ASKDWGSC
1040
6.0
1001
ACAD
1000
MTEXTBEGIN
1070
    73
1070
     1
1070
    44
1040
1.0
1070
    74
1070
     0
1000
MTEXTEND
  0
MTEXT
  5
FBB
330
1F
100
AcDbEntity
  8
FO0001_1
  6
Continuous
 62
     4
100
AcDbMText
 10
1700.909311954695
 20
256.1989279373936
 30
0.0
 40
19.19999942779543
 41
0.0
 71
     4
 72
     5
  1
\T1.40;\W0.56;山崎
  7
STD
 73
     1
 44
1.0
1001
DEKIMAS
1040
0.15
1001
ASKOBJSC
1000
1/1
1001
ASKDWGSC
1040
6.0
1001
ACAD
1000
MTEXTBEGIN
1070
    73
1070
     1
1070
    44
1040
1.0
1070
    74
1070
     0
1000
MTEXTEND
  0
MTEXT
  5
FBC
330
1F
100
AcDbEntity
  8
FO0001_1
  6
Continuous
 62
     4
100
AcDbMText
 10
1724.738165189179
 20
580.422048190663
 30
0.0
 40
19.19999942779543
 41
0.0
 71
     4
 72
     5
  1
\T1.40;\W0.60;　　　２．材質はポリエチレンとする。
  7
STD
 73
     1
 44
1.0
1001
DEKIMAS
1040
0.15
1001
ASKOBJSC
1000
1/1
1001
ASKDWGSC
1040
6.0
1001
ACAD
1000
MTEXTBEGIN
1070
    73
1070
     1
1070
    44
1040
1.0
1070
    74
1070
     0
1000
MTEXTEND
  0
MTEXT
  5
FBD
330
1F
100
AcDbEntity
  8
FO0001_1
  6
Continuous
 62
     4
100
AcDbMText
 10
1724.738165189179
 20
538.4220494423605
 30
0.0
 40
19.19999942779543
 41
0.0
 71
     4
 72
     5
  1
\T1.40;\W0.60;注記　１．寸法公差は\U+00B1１．５％とする。
  7
STD
 73
     1
 44
1.0
1001
DEKIMAS
1040
0.15
1001
ASKOBJSC
1000
1/1
1001
ASKDWGSC
1040
6.0
1001
ACAD
1000
MTEXTBEGIN
1070
    73
1070
     1
1070
    44
1040
1.0
1070
    74
1070
     0
1000
MTEXTEND
  0
MTEXT
  5
FBE
330
1F
100
AcDbEntity
  8
FO0001_1
  6
Continuous
 62
     4
100
AcDbMText
 10
1778.909309630114
 20
256.1989279373936
 30
0.0
 40
19.19999942779543
 41
0.0
 71
     4
 72
     5
  1
\T1.40;\W0.56;山崎
  7
STD
 73
     1
 44
1.0
1001
DEKIMAS
1040
0.15
1001
ASKOBJSC
1000
1/1
1001
ASKDWGSC
1040
6.0
1001
ACAD
1000
MTEXTBEGIN
1070
    73
1070
     1
1070
    44
1040
1.0
1070
    74
1070
     0
1000
MTEXTEND
  0
DIMENSION
  5
FC0
330
1F
100
AcDbEntity
  8
TP1791_6
  6
Continuous
 62
     7
100
AcDbDimension
  2
*D17
 10
1170.71441658173
 20
1407.368087647384
 30
0.0
 11
1152.046798739281
 21
1388.700469820251
 31
0.0
 70
   164
  1
<>
 71
     5
 42
29.9999999999909
  3
ASKSTANDARD
100
AcDbRadialDimension
 15
1191.927620026022
 25
1428.581291074272
 35
0.0
 40
0.0
1001
ACAD
1000
DSTYLE
1002
{
1070
    40
1040
5.999999821186071
1070
   284
1070
     8
1070
   140
1040
3.0
1070
   271
1070
     0
1070
    45
1040
0.1
1070
     3
1000
R<>
1070
   173
1070
     1
1070
   343
1005
71F
1070
   344
1005
71F
1070
   279
1070
     1
1002
}
  0
DIMENSION
  5
100F
330
1F
100
AcDbEntity
  8
TP1791_6
  6
Continuous
 62
     7
100
AcDbDimension
  2
*D18
 10
565.7144164186728
 20
1009.868087895559
 30
0.0
 11
587.3502001629475
 21
1031.503871622084
 31
0.0
 70
   164
  1
<>
 71
     5
 42
29.99999999999068
  3
ASKSTANDARD
100
AcDbRadialDimension
 15
544.5012129743814
 25
988.6548844686709
 35
0.0
 40
0.0
1001
ACAD
1000
DSTYLE
1002
{
1070
    40
1040
5.999999821186071
1070
   284
1070
     8
1070
   140
1040
3.0
1070
   271
1070
     0
1070
    45
1040
0.1
1070
     3
1000
R<>
1070
   173
1070
     1
1070
   343
1005
71F
1070
   344
1005
71F
1070
   279
1070
     1
1002
}
  0
DIMENSION
  5
1054
330
1F
100
AcDbEntity
  8
TP1791_6
  6
Continuous
 62
     7
100
AcDbDimension
  2
*D19
 10
1195.714416416612
 20
1004.868087637139
 30
0.0
 11
1168.356454555294
 21
1032.226049520901
 31
0.0
 70
   164
  1
<>
 71
     5
 42
60.00000000001046
  3
ASKSTANDARD
100
AcDbRadialDimension
 15
1238.140823270408
 25
962.4416807485351
 35
0.0
 40
0.0
1001
ACAD
1000
DSTYLE
1002
{
1070
    40
1040
5.999999821186071
1070
   284
1070
     8
1070
   140
1040
3.0
1070
   271
1070
     0
1070
    45
1040
0.1
1070
     3
1000
R<>
1070
   173
1070
     1
1070
   343
1005
71F
1070
   344
1005
71F
1070
   279
1070
     1
1002
}
  0
POINT
  5
1090
330
1F
100
AcDbEntity
  8
TP1791_6
  6
Continuous
 62
     4
100
AcDbPoint
 10
1200.714416594026
 20
1437.368087635068
 30
0.0
 50
179.9999999764969
  0
POINT
  5
1091
330
1F
100
AcDbEntity
  8
TP1791_6
  6
Continuous
 62
     4
100
AcDbPoint
 10
1215.714416601205
 20
1454.868087628924
 30
0.0
 50
179.9999999764969
  0
POINT
  5
1092
330
1F
100
AcDbEntity
  8
TP1791_6
  6
Continuous
 62
     4
100
AcDbPoint
 10
1255.714416615572
 20
1489.868087612506
 30
0.0
 50
179.9999999764969
  0
POINT
  5
1093
330
1F
100
AcDbEntity
  8
TP1791_6
  6
Continuous
 62
     4
100
AcDbPoint
 10
535.7144166012147
 20
1454.868087907865
 30
0.0
 50
179.9999999764969
  0
POINT
  5
1094
330
1F
100
AcDbEntity
  8
TP1791_6
  6
Continuous
 62
     4
100
AcDbPoint
 10
495.714416615572
 20
1489.868087924263
 30
0.0
 50
179.9999999764969
  0
POINT
  5
1095
330
1F
100
AcDbEntity
  8
TP1791_6
  6
Continuous
 62
     4
100
AcDbPoint
 10
550.7144165940363
 20
1437.368087901702
 30
0.0
 50
179.9999999764969
  0
POINT
  5
1096
330
1F
100
AcDbEntity
  8
TP1791_6
  6
Continuous
 62
     4
100
AcDbPoint
 10
1215.714416406356
 20
979.8680876289244
 30
0.0
 50
179.9999999764969
  0
POINT
  5
1097
330
1F
100
AcDbEntity
  8
TP1791_6
  6
Continuous
 62
     4
100
AcDbPoint
 10
550.7144164135452
 20
997.3680879017122
 30
0.0
 50
179.9999999764969
  0
POINT
  5
1098
330
1F
100
AcDbEntity
  8
TP1791_6
  6
Continuous
 62
     4
100
AcDbPoint
 10
495.7144163920093
 20
944.8680879242735
 30
0.0
 50
179.9999999764969
  0
POINT
  5
1099
330
1F
100
AcDbEntity
  8
TP1791_6
  6
Continuous
 62
     4
100
AcDbPoint
 10
535.7144164063665
 20
979.8680879078652
 30
0.0
 50
179.9999999764969
  0
POINT
  5
109A
330
1F
100
AcDbEntity
  8
TP1791_6
  6
Continuous
 62
     4
100
AcDbPoint
 10
1255.714416392009
 20
944.8680876125163
 30
0.0
 50
179.9999999764969
  0
POINT
  5
109B
330
1F
100
AcDbEntity
  8
TP1791_6
  6
Continuous
 62
     4
100
AcDbPoint
 10
1200.714416413535
 20
997.3680876350776
 30
0.0
 50
179.9999999764969
  0
LINE
  5
109C
330
1F
100
AcDbEntity
  8
TP1791_6
  6
CENTER2
 62
     1
100
AcDbLine
 10
875.714416376965
 20
908.1935165697949
 30
0.0
 11
875.7144165037907
 21
1217.368087768395
 31
0.0
1001
DEKIMAS
1000
一点鎖線（細）
1040
0.15
1001
DIMEXPLODE
1070
     0
  0
LINE
  5
109D
330
1F
100
AcDbEntity
  8
TP1791_6
  6
CENTER2
 62
     1
100
AcDbLine
 10
875.7144165037907
 20
1217.368087768395
 30
0.0
 11
460.8265652489706
 21
1217.368087938585
 31
0.0
1001
DEKIMAS
1000
一点鎖線（細）
1040
0.15
1001
DIMEXPLODE
1070
     0
  0
LINE
  5
109E
330
1F
100
AcDbEntity
  8
TP1791_6
  6
CENTER2
 62
     1
100
AcDbLine
 10
875.7144165037907
 20
1217.368087768395
 30
0.0
 11
1290.60227729535
 21
1217.368087598205
 31
0.0
1001
DEKIMAS
1000
一点鎖線（細）
1040
0.15
1001
DIMEXPLODE
1070
     0
  0
LINE
  5
109F
330
1F
100
AcDbEntity
  8
TP1791_6
  6
CENTER2
 62
     1
100
AcDbLine
 10
875.7144166306161
 20
1526.542697113965
 30
0.0
 11
875.7144165037907
 21
1217.368087768395
 31
0.0
1001
DEKIMAS
1000
一点鎖線（細）
1040
0.15
1001
DIMEXPLODE
1070
     0
  0
LINE
  5
10A0
330
1F
100
AcDbEntity
  8
TP1791_6
  6
Continuous
 62
     7
100
AcDbLine
 10
875.7144165940362
 20
1437.368087768385
 30
0.0
 11
1170.714416594026
 21
1437.368087647374
 31
0.0
1001
DEKIMAS
1000
実線（中）
1040
0.25
1001
DIMEXPLODE
1070
     0
  0
LINE
  5
10A1
330
1F
100
AcDbEntity
  8
TP1791_6
  6
Continuous
 62
     7
100
AcDbLine
 10
1200.71441658172
 20
1407.368087635068
 30
0.0
 11
1200.714416503781
 21
1217.368087635078
 31
0.0
1001
DEKIMAS
1000
実線（中）
1040
0.25
1001
DIMEXPLODE
1070
     0
  0
LINE
  5
10A2
330
1F
100
AcDbEntity
  8
TP1791_6
  6
Continuous
 62
     7
100
AcDbLine
 10
875.714416601215
 20
1454.868087768395
 30
0.0
 11
1185.714416601205
 21
1454.86808764123
 31
0.0
1001
DEKIMAS
1000
実線（中）
1040
0.25
1001
DIMEXPLODE
1070
     0
  0
LINE
  5
10A3
330
1F
100
AcDbEntity
  8
TP1791_6
  6
Continuous
 62
     7
100
AcDbLine
 10
1215.714416588898
 20
1424.868087628924
 30
0.0
 11
1215.714416503781
 21
1217.368087628924
 31
0.0
1001
DEKIMAS
1000
実線（中）
1040
0.25
1001
DIMEXPLODE
1070
     0
  0
LINE
  5
10A4
330
1F
100
AcDbEntity
  8
TP1791_6
  6
Continuous
 62
     7
100
AcDbLine
 10
1255.714416590959
 20
1429.868087612506
 30
0.0
 11
1255.714416503791
 21
1217.368087612516
 31
0.0
1001
DEKIMAS
1000
実線（中）
1040
0.25
1001
DIMEXPLODE
1070
     0
  0
LINE
  5
10A5
330
1F
100
AcDbEntity
  8
TP1791_6
  6
Continuous
 62
     7
100
AcDbLine
 10
875.714416615572
 20
1489.868087768385
 30
0.0
 11
1195.714416615562
 21
1489.868087637118
 31
0.0
1001
DEKIMAS
1000
実線（中）
1040
0.25
1001
DIMEXPLODE
1070
     0
  0
LINE
  5
10A6
330
1F
100
AcDbEntity
  8
TP1791_6
  6
Continuous
 62
     7
100
AcDbLine
 10
1252.41441659096
 20
1429.86808761386
 30
0.0
 11
1252.41441650379
 21
1217.36808761387
 31
0.0
1001
DEKIMAS
1000
実線（中）
1040
0.25
1001
DIMEXPLODE
1070
     0
  0
LINE
  5
10A7
330
1F
100
AcDbEntity
  8
TP1791_6
  6
Continuous
 62
     7
100
AcDbLine
 10
875.7144166142184
 20
1486.568087768395
 30
0.0
 11
1195.714416614208
 21
1486.568087637128
 31
0.0
1001
DEKIMAS
1000
実線（中）
1040
0.25
1001
DIMEXPLODE
1070
     0
  0
LINE
  5
10A8
330
1F
100
AcDbEntity
  8
TP1791_6
  6
Continuous
 62
     7
100
AcDbLine
 10
875.714416601215
 20
1454.868087768395
 30
0.0
 11
565.7144166012147
 21
1454.868087895559
 31
0.0
1001
DEKIMAS
1000
実線（中）
1040
0.25
1001
DIMEXPLODE
1070
     0
  0
LINE
  5
10A9
330
1F
100
AcDbEntity
  8
TP1791_6
  6
Continuous
 62
     7
100
AcDbLine
 10
535.7144165889086
 20
1424.868087907865
 30
0.0
 11
535.7144165037907
 21
1217.368087907865
 31
0.0
1001
DEKIMAS
1000
実線（中）
1040
0.25
1001
DIMEXPLODE
1070
     0
  0
LINE
  5
10AA
330
1F
100
AcDbEntity
  8
TP1791_6
  6
Continuous
 62
     7
100
AcDbLine
 10
875.7144166142184
 20
1486.568087768395
 30
0.0
 11
555.7144166142184
 21
1486.568087899661
 31
0.0
1001
DEKIMAS
1000
実線（中）
1040
0.25
1001
DIMEXPLODE
1070
     0
  0
LINE
  5
10AB
330
1F
100
AcDbEntity
  8
TP1791_6
  6
Continuous
 62
     7
100
AcDbLine
 10
499.0144165909596
 20
1429.868087922909
 30
0.0
 11
499.0144165037906
 21
1217.36808792292
 31
0.0
1001
DEKIMAS
1000
実線（中）
1040
0.25
1001
DIMEXPLODE
1070
     0
  0
LINE
  5
10AC
330
1F
100
AcDbEntity
  8
TP1791_6
  6
Continuous
 62
     7
100
AcDbLine
 10
875.714416615572
 20
1489.868087768385
 30
0.0
 11
555.7144166155721
 21
1489.868087899651
 31
0.0
1001
DEKIMAS
1000
実線（中）
1040
0.25
1001
DIMEXPLODE
1070
     0
  0
LINE
  5
10AD
330
1F
100
AcDbEntity
  8
TP1791_6
  6
Continuous
 62
     7
100
AcDbLine
 10
495.7144165909596
 20
1429.868087924263
 30
0.0
 11
495.7144165037907
 21
1217.368087924273
 31
0.0
1001
DEKIMAS
1000
実線（中）
1040
0.25
1001
DIMEXPLODE
1070
     0
  0
LINE
  5
10AE
330
1F
100
AcDbEntity
  8
TP1791_6
  6
Continuous
 62
     7
100
AcDbLine
 10
875.7144165940362
 20
1437.368087768385
 30
0.0
 11
580.7144165940362
 21
1437.368087889396
 31
0.0
1001
DEKIMAS
1000
実線（中）
1040
0.25
1001
DIMEXPLODE
1070
     0
  0
LINE
  5
10AF
330
1F
100
AcDbEntity
  8
TP1791_6
  6
Continuous
 62
     7
100
AcDbLine
 10
550.71441658173
 20
1407.368087901702
 30
0.0
 11
550.7144165037907
 21
1217.368087901712
 31
0.0
1001
DEKIMAS
1000
実線（中）
1040
0.25
1001
DIMEXPLODE
1070
     0
  0
LINE
  5
10B0
330
1F
100
AcDbEntity
  8
TP1791_6
  6
Continuous
 62
     7
100
AcDbLine
 10
875.7144164063666
 20
979.8680877683947
 30
0.0
 11
1185.714416406356
 21
979.8680876412307
 31
0.0
1001
DEKIMAS
1000
実線（中）
1040
0.25
1001
DIMEXPLODE
1070
     0
  0
LINE
  5
10B1
330
1F
100
AcDbEntity
  8
TP1791_6
  6
Continuous
 62
     7
100
AcDbLine
 10
1215.714416418663
 20
1009.868087628924
 30
0.0
 11
1215.714416503781
 21
1217.368087628924
 31
0.0
1001
DEKIMAS
1000
実線（中）
1040
0.25
1001
DIMEXPLODE
1070
     0
  0
LINE
  5
10B2
330
1F
100
AcDbEntity
  8
TP1791_6
  6
Continuous
 62
     7
100
AcDbLine
 10
875.7144163933631
 20
948.1680877683947
 30
0.0
 11
1195.714416393353
 21
948.1680876371285
 31
0.0
1001
DEKIMAS
1000
実線（中）
1040
0.25
1001
DIMEXPLODE
1070
     0
  0
LINE
  5
10B3
330
1F
100
AcDbEntity
  8
TP1791_6
  6
Continuous
 62
     7
100
AcDbLine
 10
1252.414416416622
 20
1004.86808761387
 30
0.0
 11
1252.41441650379
 21
1217.36808761387
 31
0.0
1001
DEKIMAS
1000
実線（中）
1040
0.25
1001
DIMEXPLODE
1070
     0
  0
LINE
  5
10B4
330
1F
100
AcDbEntity
  8
TP1791_6
  6
Continuous
 62
     7
100
AcDbLine
 10
875.7144163920093
 20
944.8680877683948
 30
0.0
 11
1195.714416391999
 21
944.8680876371286
 31
0.0
1001
DEKIMAS
1000
実線（中）
1040
0.25
1001
DIMEXPLODE
1070
     0
  0
LINE
  5
10B5
330
1F
100
AcDbEntity
  8
TP1791_6
  6
Continuous
 62
     7
100
AcDbLine
 10
1255.714416416621
 20
1004.868087612516
 30
0.0
 11
1255.714416503791
 21
1217.368087612516
 31
0.0
1001
DEKIMAS
1000
実線（中）
1040
0.25
1001
DIMEXPLODE
1070
     0
  0
LINE
  5
10B6
330
1F
100
AcDbEntity
  8
TP1791_6
  6
Continuous
 62
     7
100
AcDbLine
 10
550.7144164258513
 20
1027.368087901712
 30
0.0
 11
550.7144165037907
 21
1217.368087901712
 31
0.0
1001
DEKIMAS
1000
実線（中）
1040
0.25
1001
DIMEXPLODE
1070
     0
  0
LINE
  5
10B7
330
1F
100
AcDbEntity
  8
TP1791_6
  6
Continuous
 62
     7
100
AcDbLine
 10
875.7144164135452
 20
997.3680877683948
 30
0.0
 11
580.7144164135451
 21
997.3680878894057
 31
0.0
1001
DEKIMAS
1000
実線（中）
1040
0.25
1001
DIMEXPLODE
1070
     0
  0
LINE
  5
10B8
330
1F
100
AcDbEntity
  8
TP1791_6
  6
Continuous
 62
     7
100
AcDbLine
 10
495.7144164166217
 20
1004.868087924273
 30
0.0
 11
495.7144165037907
 21
1217.368087924273
 31
0.0
1001
DEKIMAS
1000
実線（中）
1040
0.25
1001
DIMEXPLODE
1070
     0
  0
LINE
  5
10B9
330
1F
100
AcDbEntity
  8
TP1791_6
  6
Continuous
 62
     7
100
AcDbLine
 10
875.7144163920093
 20
944.8680877683948
 30
0.0
 11
555.7144163920092
 21
944.868087899661
 31
0.0
1001
DEKIMAS
1000
実線（中）
1040
0.25
1001
DIMEXPLODE
1070
     0
  0
LINE
  5
10BA
330
1F
100
AcDbEntity
  8
TP1791_6
  6
Continuous
 62
     7
100
AcDbLine
 10
499.0144164166216
 20
1004.86808792292
 30
0.0
 11
499.0144165037906
 21
1217.36808792292
 31
0.0
1001
DEKIMAS
1000
実線（中）
1040
0.25
1001
DIMEXPLODE
1070
     0
  0
LINE
  5
10BB
330
1F
100
AcDbEntity
  8
TP1791_6
  6
Continuous
 62
     7
100
AcDbLine
 10
875.7144163933631
 20
948.1680877683947
 30
0.0
 11
555.7144163933629
 21
948.1680878996611
 31
0.0
1001
DEKIMAS
1000
実線（中）
1040
0.25
1001
DIMEXPLODE
1070
     0
  0
LINE
  5
10BC
330
1F
100
AcDbEntity
  8
TP1791_6
  6
Continuous
 62
     7
100
AcDbLine
 10
535.7144164186727
 20
1009.868087907865
 30
0.0
 11
535.7144165037907
 21
1217.368087907865
 31
0.0
1001
DEKIMAS
1000
実線（中）
1040
0.25
1001
DIMEXPLODE
1070
     0
  0
LINE
  5
10BD
330
1F
100
AcDbEntity
  8
TP1791_6
  6
Continuous
 62
     7
100
AcDbLine
 10
875.7144164063666
 20
979.8680877683947
 30
0.0
 11
565.7144164063665
 21
979.868087895559
 31
0.0
1001
DEKIMAS
1000
実線（中）
1040
0.25
1001
DIMEXPLODE
1070
     0
  0
LINE
  5
10BE
330
1F
100
AcDbEntity
  8
TP1791_6
  6
Continuous
 62
     7
100
AcDbLine
 10
875.7144164135452
 20
997.3680877683948
 30
0.0
 11
1170.714416413535
 21
997.3680876473839
 31
0.0
1001
DEKIMAS
1000
実線（中）
1040
0.25
1001
DIMEXPLODE
1070
     0
  0
LINE
  5
10BF
330
1F
100
AcDbEntity
  8
TP1791_6
  6
Continuous
 62
     7
100
AcDbLine
 10
1200.714416425841
 20
1027.368087635077
 30
0.0
 11
1200.714416503781
 21
1217.368087635078
 31
0.0
1001
DEKIMAS
1000
実線（中）
1040
0.25
1001
DIMEXPLODE
1070
     0
  0
ARC
  5
10C0
330
1F
100
AcDbEntity
  8
TP1791_6
  6
Continuous
 62
     7
100
AcDbCircle
 10
1170.71441658172
 20
1407.368087647374
 30
0.0
 40
30.0
100
AcDbArc
 50
359.9999999764983
 51
89.9999999764983
1001
DEKIMAS
1000
実線（中）
1040
0.25
1001
DIMEXPLODE
1070
     0
  0
ARC
  5
10C1
330
1F
100
AcDbEntity
  8
TP1791_6
  6
Continuous
 62
     7
100
AcDbCircle
 10
1185.714416588898
 20
1424.868087641231
 30
0.0
 40
30.0
100
AcDbArc
 50
359.9999999764983
 51
89.9999999764983
1001
DEKIMAS
1000
実線（中）
1040
0.25
1001
DIMEXPLODE
1070
     0
  0
ARC
  5
10C2
330
1F
100
AcDbEntity
  8
TP1791_6
  6
Continuous
 62
     7
100
AcDbCircle
 10
1195.714416590959
 20
1429.868087637118
 30
0.0
 40
60.0
100
AcDbArc
 50
359.9999999764983
 51
89.9999999764983
1001
DEKIMAS
1000
実線（中）
1040
0.25
1001
DIMEXPLODE
1070
     0
  0
ARC
  5
10C3
330
1F
100
AcDbEntity
  8
TP1791_6
  6
Continuous
 62
     7
100
AcDbCircle
 10
1195.714416590959
 20
1429.868087637118
 30
0.0
 40
56.7
100
AcDbArc
 50
359.9999999764983
 51
89.9999999764983
1001
DEKIMAS
1000
実線（中）
1040
0.25
1001
DIMEXPLODE
1070
     0
  0
ARC
  5
10C4
330
1F
100
AcDbEntity
  8
TP1791_6
  6
Continuous
 62
     7
100
AcDbCircle
 10
565.7144165889086
 20
1424.868087895559
 30
0.0
 40
30.0
100
AcDbArc
 50
89.9999999764983
 51
179.9999999764983
1001
DEKIMAS
1000
実線（中）
1040
0.25
1001
DIMEXPLODE
1070
     0
  0
ARC
  5
10C5
330
1F
100
AcDbEntity
  8
TP1791_6
  6
Continuous
 62
     7
100
AcDbCircle
 10
555.7144165909597
 20
1429.868087899651
 30
0.0
 40
56.7
100
AcDbArc
 50
89.9999999764983
 51
179.9999999764983
1001
DEKIMAS
1000
実線（中）
1040
0.25
1001
DIMEXPLODE
1070
     0
  0
ARC
  5
10C6
330
1F
100
AcDbEntity
  8
TP1791_6
  6
Continuous
 62
     7
100
AcDbCircle
 10
580.71441658173
 20
1407.368087889396
 30
0.0
 40
30.0
100
AcDbArc
 50
89.9999999764983
 51
179.9999999764983
1001
DEKIMAS
1000
実線（中）
1040
0.25
1001
DIMEXPLODE
1070
     0
  0
ARC
  5
10C7
330
1F
100
AcDbEntity
  8
TP1791_6
  6
Continuous
 62
     7
100
AcDbCircle
 10
555.7144165909597
 20
1429.868087899651
 30
0.0
 40
60.0
100
AcDbArc
 50
89.9999999764983
 51
179.9999999764983
1001
DEKIMAS
1000
実線（中）
1040
0.25
1001
DIMEXPLODE
1070
     0
  0
ARC
  5
10C8
330
1F
100
AcDbEntity
  8
TP1791_6
  6
Continuous
 62
     7
100
AcDbCircle
 10
1185.714416418663
 20
1009.868087641231
 30
0.0
 40
30.0
100
AcDbArc
 50
269.9999999764983
 51
359.9999999764983
1001
DEKIMAS
1000
実線（中）
1040
0.25
1001
DIMEXPLODE
1070
     0
  0
ARC
  5
10C9
330
1F
100
AcDbEntity
  8
TP1791_6
  6
Continuous
 62
     7
100
AcDbCircle
 10
1195.714416416621
 20
1004.868087637128
 30
0.0
 40
56.7
100
AcDbArc
 50
269.9999999764983
 51
359.9999999764983
1001
DEKIMAS
1000
実線（中）
1040
0.25
1001
DIMEXPLODE
1070
     0
  0
ARC
  5
10CA
330
1F
100
AcDbEntity
  8
TP1791_6
  6
Continuous
 62
     7
100
AcDbCircle
 10
555.7144164166216
 20
1004.868087899661
 30
0.0
 40
60.0
100
AcDbArc
 50
179.9999999764983
 51
269.9999999764983
1001
DEKIMAS
1000
実線（中）
1040
0.25
1001
DIMEXPLODE
1070
     0
  0
ARC
  5
10CB
330
1F
100
AcDbEntity
  8
TP1791_6
  6
Continuous
 62
     7
100
AcDbCircle
 10
580.7144164258513
 20
1027.368087889406
 30
0.0
 40
30.0
100
AcDbArc
 50
179.9999999764983
 51
269.9999999764983
1001
DEKIMAS
1000
実線（中）
1040
0.25
1001
DIMEXPLODE
1070
     0
  0
ARC
  5
10CC
330
1F
100
AcDbEntity
  8
TP1791_6
  6
Continuous
 62
     7
100
AcDbCircle
 10
555.7144164166216
 20
1004.868087899661
 30
0.0
 40
56.7
100
AcDbArc
 50
179.9999999764983
 51
269.9999999764983
1001
DEKIMAS
1000
実線（中）
1040
0.25
1001
DIMEXPLODE
1070
     0
  0
ARC
  5
10CD
330
1F
100
AcDbEntity
  8
TP1791_6
  6
Continuous
 62
     7
100
AcDbCircle
 10
565.7144164186727
 20
1009.868087895559
 30
0.0
 40
30.0
100
AcDbArc
 50
179.9999999764983
 51
269.9999999764983
1001
DEKIMAS
1000
実線（中）
1040
0.25
1001
DIMEXPLODE
1070
     0
  0
ARC
  5
10CE
330
1F
100
AcDbEntity
  8
TP1791_6
  6
Continuous
 62
     7
100
AcDbCircle
 10
1170.714416425841
 20
1027.368087647384
 30
0.0
 40
30.0
100
AcDbArc
 50
269.9999999764983
 51
359.9999999764983
1001
DEKIMAS
1000
実線（中）
1040
0.25
1001
DIMEXPLODE
1070
     0
  0
ARC
  5
10CF
330
1F
100
AcDbEntity
  8
TP1791_6
  6
Continuous
 62
     7
100
AcDbCircle
 10
1195.714416416621
 20
1004.868087637128
 30
0.0
 40
60.0
100
AcDbArc
 50
269.9999999764983
 51
359.9999999764983
1001
DEKIMAS
1000
実線（中）
1040
0.25
1001
DIMEXPLODE
1070
     0
  0
DIMENSION
  5
110E
330
1F
100
AcDbEntity
  8
RH0901_6
  6
Continuous
 62
     7
100
AcDbDimension
  2
*D20
 10
2126.6115401925
 20
1004.619594416988
 30
0.0
 11
2173.057521212834
 21
959.1769079970191
 31
0.0
 70
   164
  1
<>
 71
     5
 42
29.99999999957388
  3
ASKSTANDARDORG106P35
100
AcDbRadialDimension
 15
2126.813170762862
 25
1004.422319333539
 35
0.0
 40
0.0
1001
ACAD
1000
DSTYLE
1002
{
1070
    40
1040
5.999999821186071
1070
   284
1070
     8
1070
   140
1040
3.0
1070
   271
1070
     0
1070
    45
1040
0.1
1070
     3
1000
R<>
1070
   173
1070
     1
1070
   343
1005
71F
1070
   344
1005
71F
1070
   279
1070
     1
1002
}
  0
DIMENSION
  5
1154
330
1F
100
AcDbEntity
  8
RH0901_6
  6
Continuous
 62
     7
100
AcDbDimension
  2
*D21
 10
2135.714294501484
 20
885.7887025579824
 30
0.0
 11
1925.714294501486
 21
885.7887025149132
 31
0.0
 70
   160
  1
<>
 71
     5
 42
419.9999999999988
  3
ASKSTANDARD
100
AcDbAlignedDimension
 13
1715.714294489369
 23
944.8680876822614
 33
0.0
 14
2135.714294472699
 24
1026.144118142065
 34
0.0
 50
180.0000000117508
100
AcDbRotatedDimension
1001
ACAD
1000
DSTYLE
1002
{
1070
    44
1040
2.28600006812811
1070
    40
1040
5.999999821186071
1070
   284
1070
     8
1070
   140
1040
3.0
1070
   271
1070
     0
1070
   173
1070
     1
1070
   343
1005
71F
1070
   344
1005
71F
1002
}
  0
DIMENSION
  5
1197
330
1F
100
AcDbEntity
  8
RH0901_6
  6
Continuous
 62
     7
100
AcDbDimension
  2
*D22
 10
1715.714294501486
 20
885.7887024718413
 30
0.0
 11
1648.606787309046
 21
885.7887024580772
 31
0.0
 70
   160
  1
<>
 71
     5
 42
30.0
  3
ASKSTANDARD
100
AcDbAlignedDimension
 13
1685.714294489369
 23
944.8680876761082
 33
0.0
 14
1715.714294489369
 24
944.8680876822614
 34
0.0
 50
180.0000000117508
100
AcDbRotatedDimension
1001
ACAD
1000
DSTYLE
1002
{
1070
    44
1040
2.28600006812811
1070
    40
1040
5.999999821186071
1070
   284
1070
     8
1070
   140
1040
3.0
1070
   271
1070
     0
1070
   173
1070
     1
1070
   343
1005
71F
1070
   344
1005
71F
1070
    76
1070
     1
1070
   279
1070
     1
1002
}
  0
DIMENSION
  5
1208
330
1F
100
AcDbEntity
  8
RH0901_6
  6
Continuous
 62
     7
100
AcDbDimension
  2
*D23
 10
2135.714294510424
 20
842.2015502838821
 30
0.0
 11
1910.714294510426
 21
842.2015502377366
 31
0.0
 70
   160
  1
<>
 71
     5
 42
449.9999999999988
  3
ASKSTANDARD
100
AcDbAlignedDimension
 13
1685.714294489369
 23
944.8680876761082
 33
0.0
 14
2135.714294472699
 24
1026.144118142065
 34
0.0
 50
180.0000000117508
100
AcDbRotatedDimension
1001
ACAD
1000
DSTYLE
1002
{
1070
    44
1040
2.28600006812811
1070
    40
1040
5.999999821186071
1070
   284
1070
     8
1070
   140
1040
3.0
1070
   271
1070
     0
1070
   173
1070
     1
1070
   343
1005
71F
1070
   344
1005
71F
1002
}
  0
DIMENSION
  5
124B
330
1F
100
AcDbEntity
  8
RH0901_6
  6
Continuous
 62
     7
100
AcDbDimension
  2
*D24
 10
2225.653327750016
 20
1217.368087775572
 30
0.0
 11
2225.653327750015
 21
1266.368087786841
 31
0.0
 70
   160
  1
<>
 71
     5
 42
98.0
  3
ASKSTANDARD
100
AcDbAlignedDimension
 13
2170.707732612638
 23
1315.368087775572
 33
0.0
 14
2170.707732632738
 24
1217.368087775572
 34
0.0
 50
90.00000001175086
100
AcDbRotatedDimension
1001
ACAD
1000
DSTYLE
1002
{
1070
    44
1040
2.286000068126942
1070
    40
1040
5.999999821186071
1070
   284
1070
     8
1070
   140
1040
3.0
1070
   271
1070
     0
1070
   173
1070
     1
1070
   343
1005
71F
1070
   344
1005
71F
1002
}
  0
DIMENSION
  5
128E
330
1F
100
AcDbEntity
  8
RH0901_6
  6
Continuous
 62
     7
100
AcDbDimension
  2
*D25
 10
2225.653327770116
 20
1119.368087775572
 30
0.0
 11
2225.653327770115
 21
1168.368087786842
 31
0.0
 70
   160
  1
<>
 71
     5
 42
98.0
  3
ASKSTANDARD
100
AcDbAlignedDimension
 13
2170.707732632738
 23
1217.368087775572
 33
0.0
 14
2170.707732652839
 24
1119.368087775572
 34
0.0
 50
90.00000001175086
100
AcDbRotatedDimension
1001
ACAD
1000
DSTYLE
1002
{
1070
    44
1040
2.286000068126942
1070
    40
1040
5.999999821186071
1070
   284
1070
     8
1070
   140
1040
3.0
1070
   271
1070
     0
1070
   173
1070
     1
1070
   343
1005
71F
1070
   344
1005
71F
1070
    75
1070
     1
1002
}
  0
DIMENSION
  5
12D9
330
1F
100
AcDbEntity
  8
RH0901_6
  6
Continuous
 62
     7
100
AcDbDimension
  2
*D26
 10
2284.918901337608
 20
997.3680877683948
 30
0.0
 11
2284.918901337608
 21
1217.368087798997
 31
0.0
 70
   160
  1
<>
 71
     5
 42
440.0
  3
ASKSTANDARD
100
AcDbAlignedDimension
 13
2135.714294388356
 23
1437.368087768395
 33
0.0
 14
2135.714294478601
 24
997.3680877683948
 34
0.0
 50
90.00000001175086
100
AcDbRotatedDimension
1001
ACAD
1000
DSTYLE
1002
{
1070
    44
1040
2.28600006812811
1070
    40
1040
5.999999821186071
1070
   284
1070
     8
1070
   140
1040
3.0
1070
   271
1070
     0
1070
   173
1070
     1
1070
   343
1005
71F
1070
   344
1005
71F
1002
}
  0
DIMENSION
  5
131C
330
1F
100
AcDbEntity
  8
RH0901_6
  6
Continuous
 62
     7
100
AcDbDimension
  2
*D27
 10
1582.255333552608
 20
979.8680876822514
 30
0.0
 11
1582.255333552608
 21
1217.368087654878
 31
0.0
 70
   160
  1
<>
 71
     5
 42
475.0
  3
ASKSTANDARD
100
AcDbAlignedDimension
 13
1715.714294384766
 23
1454.868087682251
 33
0.0
 14
1715.71429448219
 24
979.8680876822514
 34
0.0
 50
90.00000001175086
100
AcDbRotatedDimension
1001
ACAD
1000
DSTYLE
1002
{
1070
    44
1040
2.28600006812811
1070
    40
1040
5.999999821186071
1070
   284
1070
     8
1070
   140
1040
3.0
1070
   271
1070
     0
1070
   173
1070
     1
1070
   343
1005
71F
1070
   344
1005
71F
1002
}
  0
DIMENSION
  5
135F
330
1F
100
AcDbEntity
  8
RH0901_6
  6
Continuous
 62
     7
100
AcDbDimension
  2
*D28
 10
1543.272717897858
 20
944.8680876761082
 30
0.0
 11
1543.272717897858
 21
1217.368087646883
 31
0.0
 70
   160
  1
<>
 71
     5
 42
544.9999999999801
  3
ASKSTANDARD
100
AcDbAlignedDimension
 13
1685.714294377588
 23
1489.868087676088
 33
0.0
 14
1685.714294489369
 24
944.8680876761082
 34
0.0
 50
90.00000001175086
100
AcDbRotatedDimension
1001
ACAD
1000
DSTYLE
1002
{
1070
    44
1040
2.28600006812811
1070
    40
1040
5.999999821186071
1070
   284
1070
     8
1070
   140
1040
3.0
1070
   271
1070
     0
1070
   173
1070
     1
1070
   343
1005
71F
1070
   344
1005
71F
1002
}
  0
POINT
  5
13A2
330
1F
100
AcDbEntity
  8
RH0901_6
  6
Continuous
 62
     4
100
AcDbPoint
 10
2135.714294388356
 20
1437.368087768385
 30
0.0
 50
90.00000001175157
  0
POINT
  5
13A3
330
1F
100
AcDbEntity
  8
RH0901_6
  6
Continuous
 62
     4
100
AcDbPoint
 10
1715.714294384766
 20
1454.868087682251
 30
0.0
 50
90.00000001175157
  0
POINT
  5
13A4
330
1F
100
AcDbEntity
  8
RH0901_6
  6
Continuous
 62
     4
100
AcDbPoint
 10
2135.714294388356
 20
1437.368087768395
 30
0.0
 50
90.00000001175157
  0
POINT
  5
13A5
330
1F
100
AcDbEntity
  8
RH0901_6
  6
Continuous
 62
     4
100
AcDbPoint
 10
1715.714294384766
 20
1454.868087682251
 30
0.0
 50
90.00000001175157
  0
POINT
  5
13A6
330
1F
100
AcDbEntity
  8
RH0901_6
  6
Continuous
 62
     4
100
AcDbPoint
 10
1712.714294378203
 20
1486.868087681626
 30
0.0
 50
90.00000001175157
  0
POINT
  5
13A7
330
1F
100
AcDbEntity
  8
RH0901_6
  6
Continuous
 62
     4
100
AcDbPoint
 10
2135.714294413378
 20
1315.368087768395
 30
0.0
 50
90.00000001175157
  0
POINT
  5
13A8
330
1F
100
AcDbEntity
  8
RH0901_6
  6
Continuous
 62
     4
100
AcDbPoint
 10
2135.714294478601
 20
997.3680877684047
 30
0.0
 50
90.00000001175157
  0
POINT
  5
13A9
330
1F
100
AcDbEntity
  8
RH0901_6
  6
Continuous
 62
     4
100
AcDbPoint
 10
1715.71429448219
 20
979.8680876822514
 30
0.0
 50
90.00000001175157
  0
POINT
  5
13AA
330
1F
100
AcDbEntity
  8
RH0901_6
  6
Continuous
 62
     4
100
AcDbPoint
 10
1715.71429448219
 20
979.8680876822514
 30
0.0
 50
90.00000001175157
  0
POINT
  5
13AB
330
1F
100
AcDbEntity
  8
RH0901_6
  6
Continuous
 62
     4
100
AcDbPoint
 10
2135.714294478601
 20
997.3680877683948
 30
0.0
 50
90.00000001175157
  0
POINT
  5
13AC
330
1F
100
AcDbEntity
  8
RH0901_6
  6
Continuous
 62
     4
100
AcDbPoint
 10
1712.714294488754
 20
947.8680876816461
 30
0.0
 50
90.00000001175157
  0
POINT
  5
13AD
330
1F
100
AcDbEntity
  8
RH0901_6
  6
Continuous
 62
     4
100
AcDbPoint
 10
2135.714294453578
 20
1119.368087768395
 30
0.0
 50
90.00000001175157
  0
POINT
  5
13AE
330
1F
100
AcDbEntity
  8
RH0901_6
  6
Continuous
 62
     4
100
AcDbPoint
 10
2105.714294478858
 20
996.1180877622416
 30
0.0
 50
90.00000001175157
  0
POINT
  5
13AF
330
1F
100
AcDbEntity
  8
RH0901_6
  6
Continuous
 62
     4
100
AcDbPoint
 10
2105.714294478242
 20
999.1180877622417
 30
0.0
 50
90.00000001175157
  0
POINT
  5
13B0
330
1F
100
AcDbEntity
  8
RH0901_6
  6
Continuous
 62
     4
100
AcDbPoint
 10
1735.714294482029
 20
980.7014210196935
 30
0.0
 50
90.00000001175157
  0
POINT
  5
13B1
330
1F
100
AcDbEntity
  8
RH0901_6
  6
Continuous
 62
     4
100
AcDbPoint
 10
1735.714294479773
 20
991.7014210196935
 30
0.0
 50
90.00000001175157
  0
POINT
  5
13B2
330
1F
100
AcDbEntity
  8
RH0901_6
  6
Continuous
 62
     4
100
AcDbPoint
 10
1735.714294482029
 20
980.7014210196935
 30
0.0
 50
90.00000001175157
  0
POINT
  5
13B3
330
1F
100
AcDbEntity
  8
RH0901_6
  6
Continuous
 62
     4
100
AcDbPoint
 10
1732.71429447917
 20
994.6418885291581
 30
0.0
 50
90.00000001175157
  0
POINT
  5
13B4
330
1F
100
AcDbEntity
  8
RH0901_6
  6
Continuous
 62
     4
100
AcDbPoint
 10
1732.714294481439
 20
983.5790240564382
 30
0.0
 50
90.00000001175157
  0
POINT
  5
13B5
330
1F
100
AcDbEntity
  8
RH0901_6
  6
Continuous
 62
     4
100
AcDbPoint
 10
2105.714294478858
 20
996.1180877622416
 30
0.0
 50
90.00000001175157
  0
POINT
  5
13B6
330
1F
100
AcDbEntity
  8
RH0901_6
  6
Continuous
 62
     4
100
AcDbPoint
 10
2108.714294478202
 20
999.3113024065271
 30
0.0
 50
90.00000001175157
  0
POINT
  5
13B7
330
1F
100
AcDbEntity
  8
RH0901_6
  6
Continuous
 62
     4
100
AcDbPoint
 10
2108.714294477614
 20
1002.178825543217
 30
0.0
 50
90.00000001175157
  0
POINT
  5
13B8
330
1F
100
AcDbEntity
  8
RH0901_6
  6
Continuous
 62
     4
100
AcDbPoint
 10
2108.714294477614
 20
1002.178825543217
 30
0.0
 50
90.00000001175157
  0
LINE
  5
13B9
330
1F
100
AcDbEntity
  8
RH0901_6
  6
Continuous
 62
     7
100
AcDbLine
 10
2135.714294394258
 20
1408.592057394725
 30
0.0
 11
2135.714294433478
 21
1217.368087768395
 31
0.0
1001
DEKIMAS
1000
実線（中）
1040
0.25
1001
DIMEXPLODE
1070
     0
  0
LINE
  5
13BA
330
1F
100
AcDbEntity
  8
RH0901_6
  6
CENTER2
 62
     1
100
AcDbLine
 10
1597.434004477838
 20
1217.368087657991
 30
0.0
 11
2170.707732632738
 21
1217.368087775572
 31
0.0
1001
DEKIMAS
1000
一点鎖線（細）
1040
0.15
1001
DIMEXPLODE
1070
     0
  0
LINE
  5
13BB
330
1F
100
AcDbEntity
  8
RH0901_6
  6
Continuous
 62
     7
100
AcDbLine
 10
1715.714294377588
 20
1489.868087682241
 30
0.0
 11
1715.714294433478
 21
1217.368087682251
 31
0.0
1001
DEKIMAS
1000
実線（中）
1040
0.25
1001
DIMEXPLODE
1070
     0
  0
LINE
  5
13BC
330
1F
100
AcDbEntity
  8
RH0901_6
  6
Continuous
 62
     7
100
AcDbLine
 10
1685.714294377588
 20
1489.868087676088
 30
0.0
 11
1685.714294433478
 21
1217.368087676098
 31
0.0
1001
DEKIMAS
1000
実線（中）
1040
0.25
1001
DIMEXPLODE
1070
     0
  0
LINE
  5
13BD
330
1F
100
AcDbEntity
  8
RH0901_6
  6
Continuous
 62
     7
100
AcDbLine
 10
1685.714294377588
 20
1489.868087676088
 30
0.0
 11
1715.714294377588
 21
1489.868087682241
 31
0.0
1001
DEKIMAS
1000
実線（中）
1040
0.25
1001
DIMEXPLODE
1070
     0
  0
LINE
  5
13BE
330
1F
100
AcDbEntity
  8
RH0901_6
  6
Continuous
 62
     7
100
AcDbLine
 10
1730.089836214209
 20
1454.26910677564
 30
0.0
 11
2106.963210729476
 21
1438.566049581598
 31
0.0
1001
DEKIMAS
1000
実線（中）
1040
0.25
1001
DIMEXPLODE
1070
     0
  0
LINE
  5
13BF
330
1F
100
AcDbEntity
  8
RH0901_6
  6
HIDDEN2
 62
     4
100
AcDbLine
 10
2132.714294394258
 20
1408.592057394109
 30
0.0
 11
2132.714294433478
 21
1217.368087767779
 31
0.0
1001
DEKIMAS
1000
破線（細）
1040
0.15
1001
DIMEXPLODE
1070
     0
  0
LINE
  5
13C0
330
1F
100
AcDbEntity
  8
RH0901_6
  6
HIDDEN2
 62
     4
100
AcDbLine
 10
1729.964942105123
 20
1451.271707659484
 30
0.0
 11
2106.838319095953
 21
1435.568650362302
 31
0.0
1001
DEKIMAS
1000
破線（細）
1040
0.15
1001
DIMEXPLODE
1070
     0
  0
LINE
  5
13C1
330
1F
100
AcDbEntity
  8
RH0901_6
  6
HIDDEN2
 62
     4
 48
0.5
100
AcDbLine
 10
1712.714294381279
 20
1471.868087681626
 30
0.0
 11
1712.714294381815
 21
1469.256102868466
 31
0.0
1001
DEKIMAS
1000
破線（細）
1040
0.15
1001
DIMEXPLODE
1070
     0
  0
LINE
  5
13C2
330
1F
100
AcDbEntity
  8
RH0901_6
  6
HIDDEN2
 62
     4
 48
0.5
100
AcDbLine
 10
1685.714294378203
 20
1486.868087676088
 30
0.0
 11
1697.714294378203
 21
1486.868087678549
 31
0.0
1001
DEKIMAS
1000
破線（細）
1040
0.15
1001
DIMEXPLODE
1070
     0
  0
LINE
  5
13C3
330
1F
100
AcDbEntity
  8
RH0901_6
  6
CENTER2
 62
     1
100
AcDbLine
 10
1723.000296046698
 20
1315.368087683746
 30
0.0
 11
2170.707732612638
 21
1315.368087775572
 31
0.0
1001
DEKIMAS
1000
一点鎖線（細）
1040
0.15
1001
DIMEXPLODE
1070
     0
  0
LINE
  5
13C4
330
1F
100
AcDbEntity
  8
RH0901_6
  6
Continuous
 62
     7
100
AcDbLine
 10
2105.714294400902
 20
1376.196464492142
 30
0.0
 11
2105.714294433478
 21
1217.368087762241
 31
0.0
1001
DEKIMAS
1000
実線（中）
1040
0.25
1001
DIMEXPLODE
1070
     0
  0
LINE
  5
13C5
330
1F
100
AcDbEntity
  8
RH0901_6
  6
Continuous
 62
     7
100
AcDbLine
 10
1752.088803244424
 20
1335.036738223312
 30
0.0
 11
2082.088803231939
 21
1395.865115020896
 31
0.0
1001
DEKIMAS
1000
実線（中）
1040
0.25
1001
DIMEXPLODE
1070
     0
  0
LINE
  5
13C6
330
1F
100
AcDbEntity
  8
RH0901_6
  6
Continuous
 62
     7
100
AcDbLine
 10
1752.088803252492
 20
1295.699437156108
 30
0.0
 11
2070.339785594375
 21
1237.036738288589
 31
0.0
1001
DEKIMAS
1000
実線（中）
1040
0.25
1001
DIMEXPLODE
1070
     0
  0
LINE
  5
13C7
330
1F
100
AcDbEntity
  8
RH0901_6
  6
Continuous
 62
     7
 48
0.5
100
AcDbLine
 10
2132.714294472699
 20
1026.144118141449
 30
0.0
 11
2132.714294471977
 21
1029.665397307099
 31
0.0
1001
DEKIMAS
1000
実線（中）
1040
0.25
1001
DIMEXPLODE
1070
     0
  0
LINE
  5
13C8
330
1F
100
AcDbEntity
  8
RH0901_6
  6
Continuous
 62
     7
 48
0.5
100
AcDbLine
 10
1730.089836311387
 20
980.4670685947598
 30
0.0
 11
1735.714294482029
 21
980.7014210196935
 31
0.0
1001
DEKIMAS
1000
実線（中）
1040
0.25
1001
DIMEXPLODE
1070
     0
  0
LINE
  5
13C9
330
1F
100
AcDbEntity
  8
RH0901_6
  6
Continuous
 62
     7
100
AcDbLine
 10
2135.714294472699
 20
1026.144118142065
 30
0.0
 11
2135.714294433478
 21
1217.368087768395
 31
0.0
1001
DEKIMAS
1000
実線（中）
1040
0.25
1001
DIMEXPLODE
1070
     0
  0
LINE
  5
13CA
330
1F
100
AcDbEntity
  8
RH0901_6
  6
Continuous
 62
     7
100
AcDbLine
 10
1685.714294489369
 20
944.8680876761082
 30
0.0
 11
1685.714294433478
 21
1217.368087676098
 31
0.0
1001
DEKIMAS
1000
実線（中）
1040
0.25
1001
DIMEXPLODE
1070
     0
  0
LINE
  5
13CB
330
1F
100
AcDbEntity
  8
RH0901_6
  6
Continuous
 62
     7
100
AcDbLine
 10
1752.088803284624
 20
1139.036738223316
 30
0.0
 11
2070.339785602444
 21
1197.699437221383
 31
0.0
1001
DEKIMAS
1000
実線（中）
1040
0.25
1001
DIMEXPLODE
1070
     0
  0
LINE
  5
13CC
330
1F
100
AcDbEntity
  8
RH0901_6
  6
CENTER2
 62
     1
100
AcDbLine
 10
1723.000296086898
 20
1119.368087683745
 30
0.0
 11
2170.707732652839
 21
1119.368087775572
 31
0.0
1001
DEKIMAS
1000
一点鎖線（細）
1040
0.15
1001
DIMEXPLODE
1070
     0
  0
LINE
  5
13CD
330
1F
100
AcDbEntity
  8
RH0901_6
  6
Continuous
 62
     7
 48
0.5
100
AcDbLine
 10
1729.964942201072
 20
983.4644677108641
 30
0.0
 11
1730.797555570875
 21
983.499159934775
 31
0.0
1001
DEKIMAS
1000
実線（中）
1040
0.25
1001
DIMEXPLODE
1070
     0
  0
LINE
  5
13CE
330
1F
100
AcDbEntity
  8
RH0901_6
  6
Continuous
 62
     7
 48
0.5
100
AcDbLine
 10
1685.714294488754
 20
947.8680876761082
 30
0.0
 11
1697.714294488753
 21
947.8680876785695
 31
0.0
1001
DEKIMAS
1000
実線（中）
1040
0.25
1001
DIMEXPLODE
1070
     0
  0
LINE
  5
13CF
330
1F
100
AcDbEntity
  8
RH0901_6
  6
Continuous
 62
     7
100
AcDbLine
 10
1685.714294489369
 20
944.8680876761082
 30
0.0
 11
1715.714294489369
 21
944.8680876822614
 31
0.0
1001
DEKIMAS
1000
実線（中）
1040
0.25
1001
DIMEXPLODE
1070
     0
  0
LINE
  5
13D0
330
1F
100
AcDbEntity
  8
RH0901_6
  6
Continuous
 62
     7
 48
0.5
100
AcDbLine
 10
1715.714294489369
 20
944.8680876822614
 30
0.0
 11
1715.714294485141
 21
965.4800724954213
 31
0.0
1001
DEKIMAS
1000
実線（中）
1040
0.25
1001
DIMEXPLODE
1070
     0
  0
LINE
  5
13D1
330
1F
100
AcDbEntity
  8
RH0901_6
  6
Continuous
 62
     7
 48
0.5
100
AcDbLine
 10
1712.714294485676
 20
962.868087681646
 30
0.0
 11
1712.714294485141
 21
965.480072494806
 31
0.0
1001
DEKIMAS
1000
実線（中）
1040
0.25
1001
DIMEXPLODE
1070
     0
  0
LINE
  5
13D2
330
1F
100
AcDbEntity
  8
RH0901_6
  6
Continuous
 62
     7
100
AcDbLine
 10
1752.088803292692
 20
1099.699437156112
 30
0.0
 11
2082.08880330516
 21
1038.871060493896
 31
0.0
1001
DEKIMAS
1000
実線（中）
1040
0.25
1001
DIMEXPLODE
1070
     0
  0
LINE
  5
13D3
330
1F
100
AcDbEntity
  8
RH0901_6
  6
Continuous
 62
     7
100
AcDbLine
 10
2105.714294466054
 20
1058.539711032342
 30
0.0
 11
2105.714294433478
 21
1217.368087762241
 31
0.0
1001
DEKIMAS
1000
実線（中）
1040
0.25
1001
DIMEXPLODE
1070
     0
  0
LINE
  5
13D4
330
1F
100
AcDbEntity
  8
RH0901_6
  6
zigzag
 62
     4
100
AcDbLine
 10
1685.714294471977
 20
1029.665397215418
 30
0.0
 11
2135.714294471977
 21
1029.665397307715
 31
0.0
1001
DEKIMAS
1000
破断線（中）
1040
0.25
1001
DIMEXPLODE
1070
     0
  0
LINE
  5
13D5
330
1F
100
AcDbEntity
  8
RH0901_6
  6
HIDDEN2
 62
     4
100
AcDbLine
 10
2132.714294471977
 20
1029.665397307099
 30
0.0
 11
2132.714294433478
 21
1217.368087767779
 31
0.0
1001
DEKIMAS
1000
破線（細）
1040
0.15
1001
DIMEXPLODE
1070
     0
  0
LINE
  5
13D6
330
1F
100
AcDbEntity
  8
RH0901_6
  6
Continuous
 62
     7
 48
0.5
100
AcDbLine
 10
1735.714294481439
 20
983.5790240570533
 30
0.0
 11
1735.714294479773
 21
991.7014210196935
 31
0.0
1001
DEKIMAS
1000
実線（中）
1040
0.25
1001
DIMEXPLODE
1070
     0
  0
LINE
  5
13D7
330
1F
100
AcDbEntity
  8
RH0901_6
  6
Continuous
 62
     7
100
AcDbLine
 10
1735.714294479773
 20
991.7014210196935
 30
0.0
 11
2105.714294478242
 21
999.1180877622417
 31
0.0
1001
DEKIMAS
1000
実線（中）
1040
0.25
1001
DIMEXPLODE
1070
     0
  0
LINE
  5
13D8
330
1F
100
AcDbEntity
  8
RH0901_6
  6
Continuous
 62
     7
 48
0.5
100
AcDbLine
 10
2105.714294478242
 20
999.1180877622417
 30
0.0
 11
2105.714294478644
 21
997.1606221080318
 31
0.0
1001
DEKIMAS
1000
実線（中）
1040
0.25
1001
DIMEXPLODE
1070
     0
  0
LINE
  5
13D9
330
1F
100
AcDbEntity
  8
RH0901_6
  6
Continuous
 62
     7
100
AcDbLine
 10
1735.714294482029
 20
980.7014210196935
 30
0.0
 11
2106.963210820213
 21
996.1701259433979
 31
0.0
1001
DEKIMAS
1000
実線（中）
1040
0.25
1001
DIMEXPLODE
1070
     0
  0
LINE
  5
13DA
330
1F
100
AcDbEntity
  8
RH0901_6
  6
Continuous
 62
     7
100
AcDbLine
 10
1735.654171421638
 20
994.7008184955011
 30
0.0
 11
2107.694253458449
 21
1002.158378774828
 31
0.0
1001
DEKIMAS
1000
実線（中）
1040
0.25
1001
DIMEXPLODE
1070
     0
  0
LINE
  5
13DB
330
1F
100
AcDbEntity
  8
RH0901_6
  6
Continuous
 62
     7
 48
0.5
100
AcDbLine
 10
1732.714294481046
 20
985.4974260813481
 30
0.0
 11
1732.714294479773
 21
991.7014210190782
 31
0.0
1001
DEKIMAS
1000
実線（中）
1040
0.25
1001
DIMEXPLODE
1070
     0
  0
LINE
  5
13DC
330
1F
100
AcDbEntity
  8
RH0901_6
  6
Continuous
 62
     7
 48
0.5
100
AcDbLine
 10
2108.714294477823
 20
1001.158579616427
 30
0.0
 11
2108.714294477968
 21
1000.453652979197
 31
0.0
1001
DEKIMAS
1000
実線（中）
1040
0.25
1001
DIMEXPLODE
1070
     0
  0
LINE
  5
13DD
330
1F
100
AcDbEntity
  8
RH0901_6
  6
Continuous
 62
     7
100
AcDbLine
 10
1712.714294485141
 20
965.480072494806
 30
0.0
 11
1712.714294471977
 21
1029.665397220956
 31
0.0
1001
DEKIMAS
1000
実線（中）
1040
0.25
1001
DIMEXPLODE
1070
     0
  0
LINE
  5
13DE
330
1F
100
AcDbEntity
  8
RH0901_6
  6
Continuous
 62
     7
100
AcDbLine
 10
1715.714294471976
 20
1029.665397221571
 30
0.0
 11
1715.714294433478
 21
1217.368087682251
 31
0.0
1001
DEKIMAS
1000
実線（中）
1040
0.25
1001
DIMEXPLODE
1070
     0
  0
ARC
  5
13DF
330
1F
100
AcDbEntity
  8
RH0901_6
  6
Continuous
 62
     7
100
AcDbCircle
 10
2105.714294394258
 20
1408.592057388571
 30
0.0
 40
30.0
100
AcDbArc
 50
0.0000000117508519
 51
87.61405598135619
1001
DEKIMAS
1000
実線（中）
1040
0.25
1001
DIMEXPLODE
1070
     0
  0
ARC
  5
13E0
330
1F
100
AcDbEntity
  8
RH0901_6
  6
HIDDEN2
 62
     4
100
AcDbCircle
 10
2105.714294394258
 20
1408.592057388571
 30
0.0
 40
27.0
100
AcDbArc
 50
0.0000000117508519
 51
87.61405598135619
1001
DEKIMAS
1000
破線（細）
1040
0.15
1001
DIMEXPLODE
1070
     0
  0
ARC
  5
13E1
330
1F
100
AcDbEntity
  8
RH0901_6
  6
Continuous
 62
     7
 48
0.5
100
AcDbCircle
 10
1730.714294381815
 20
1469.256102872158
 30
0.0
 40
15.0
100
AcDbArc
 50
180.0000000117508
 51
267.6140559813562
1001
DEKIMAS
1000
実線（中）
1040
0.25
1001
DIMEXPLODE
1070
     0
  0
ARC
  5
13E2
330
1F
100
AcDbEntity
  8
RH0901_6
  6
HIDDEN2
 62
     4
 48
0.5
100
AcDbCircle
 10
1730.714294381815
 20
1469.256102872158
 30
0.0
 40
18.0
100
AcDbArc
 50
180.0000000117508
 51
267.6140559813562
1001
DEKIMAS
1000
破線（細）
1040
0.15
1001
DIMEXPLODE
1070
     0
  0
ARC
  5
13E3
330
1F
100
AcDbEntity
  8
RH0901_6
  6
HIDDEN2
 62
     4
 48
0.5
100
AcDbCircle
 10
1697.714294381279
 20
1471.868087678549
 30
0.0
 40
15.0
100
AcDbArc
 50
0.0000000117508519
 51
90.00000001175086
1001
DEKIMAS
1000
破線（細）
1040
0.15
1001
DIMEXPLODE
1070
     0
  0
ARC
  5
13E4
330
1F
100
AcDbEntity
  8
RH0901_6
  6
Continuous
 62
     7
100
AcDbCircle
 10
1755.714294413388
 20
1315.368087690455
 30
0.0
 40
20.0
100
AcDbArc
 50
100.4440080304407
 51
259.5559919930863
1001
DEKIMAS
1000
実線（中）
1040
0.25
1001
DIMEXPLODE
1070
     0
  0
ARC
  5
13E5
330
1F
100
AcDbEntity
  8
RH0901_6
  6
Continuous
 62
     7
100
AcDbCircle
 10
2085.714294400903
 20
1376.196464488039
 30
0.0
 40
20.0
100
AcDbArc
 50
0.0000000117508519
 51
100.4440080304407
1001
DEKIMAS
1000
実線（中）
1040
0.25
1001
DIMEXPLODE
1070
     0
  0
ARC
  5
13E6
330
1F
100
AcDbEntity
  8
RH0901_6
  6
Continuous
 62
     7
 48
0.5
100
AcDbCircle
 10
2066.714294433478
 20
1217.368087754242
 30
0.0
 40
20.0
100
AcDbArc
 50
0.0000000117508519
 51
79.55599498007744
1001
DEKIMAS
1000
実線（中）
1040
0.25
1001
DIMEXPLODE
1070
     0
  0
ARC
  5
13E7
330
1F
100
AcDbEntity
  8
RH0901_6
  6
Continuous
 62
     7
 48
0.5
100
AcDbCircle
 10
1730.714294485141
 20
965.480072498498
 30
0.0
 40
15.0
100
AcDbArc
 50
92.38594404213976
 51
180.0000000117508
1001
DEKIMAS
1000
実線（中）
1040
0.25
1001
DIMEXPLODE
1070
     0
  0
ARC
  5
13E8
330
1F
100
AcDbEntity
  8
RH0901_6
  6
Continuous
 62
     7
100
AcDbCircle
 10
2105.714294472699
 20
1026.144118135911
 30
0.0
 40
27.0
100
AcDbArc
 50
278.8498827263111
 51
0.0000000117508519
1001
DEKIMAS
1000
実線（中）
1040
0.25
1001
DIMEXPLODE
1070
     0
  0
ARC
  5
13E9
330
1F
100
AcDbEntity
  8
RH0901_6
  6
Continuous
 62
     7
 48
0.5
100
AcDbCircle
 10
2066.714294433478
 20
1217.368087754242
 30
0.0
 40
20.0
100
AcDbArc
 50
280.4440050434484
 51
0.0000000117508519
1001
DEKIMAS
1000
実線（中）
1040
0.25
1001
DIMEXPLODE
1070
     0
  0
ARC
  5
13EA
330
1F
100
AcDbEntity
  8
RH0901_6
  6
Continuous
 62
     7
100
AcDbCircle
 10
2105.714294472699
 20
1026.144118135911
 30
0.0
 40
30.0
100
AcDbArc
 50
272.3859440421398
 51
0.0000000117508519
1001
DEKIMAS
1000
実線（中）
1040
0.25
1001
DIMEXPLODE
1070
     0
  0
ARC
  5
13EB
330
1F
100
AcDbEntity
  8
RH0901_6
  6
Continuous
 62
     7
 48
0.5
100
AcDbCircle
 10
1730.714294485141
 20
965.480072498498
 30
0.0
 40
18.0
100
AcDbArc
 50
92.38594404213976
 51
180.0000000117508
1001
DEKIMAS
1000
実線（中）
1040
0.25
1001
DIMEXPLODE
1070
     0
  0
ARC
  5
13EC
330
1F
100
AcDbEntity
  8
RH0901_6
  6
Continuous
 62
     7
 48
0.5
100
AcDbCircle
 10
1697.714294485677
 20
962.8680876785695
 30
0.0
 40
15.0
100
AcDbArc
 50
270.0000000117508
 51
0.0000000117508519
1001
DEKIMAS
1000
実線（中）
1040
0.25
1001
DIMEXPLODE
1070
     0
  0
ARC
  5
13ED
330
1F
100
AcDbEntity
  8
RH0901_6
  6
Continuous
 62
     7
100
AcDbCircle
 10
1755.714294453589
 20
1119.368087690455
 30
0.0
 40
20.0
100
AcDbArc
 50
100.4440080304407
 51
259.5559919930863
1001
DEKIMAS
1000
実線（中）
1040
0.25
1001
DIMEXPLODE
1070
     0
  0
ARC
  5
13EE
330
1F
100
AcDbEntity
  8
RH0901_6
  6
Continuous
 62
     7
100
AcDbCircle
 10
2085.714294466056
 20
1058.539711028239
 30
0.0
 40
20.0
100
AcDbArc
 50
259.5559919930863
 51
0.0000000117508519
1001
DEKIMAS
1000
実線（中）
1040
0.25
1001
DIMEXPLODE
1070
     0
  0
ARC
  5
13EF
330
1F
100
AcDbEntity
  8
RH0901_6
  6
Continuous
 62
     7
 48
0.5
100
AcDbCircle
 10
1732.714294481439
 20
983.5790240564382
 30
0.0
 40
3.0
100
AcDbArc
 50
272.3859440421398
 51
0.0000000117508519
1001
DEKIMAS
1000
実線（中）
1040
0.25
1001
DIMEXPLODE
1070
     0
  0
ARC
  5
13F0
330
1F
100
AcDbEntity
  8
RH0901_6
  6
Continuous
 62
     7
 48
0.5
100
AcDbCircle
 10
1735.714294479773
 20
991.7014210196935
 30
0.0
 40
3.0
100
AcDbArc
 50
91.14834270661878
 51
180.0000000117508
1001
DEKIMAS
1000
実線（中）
1040
0.25
1001
DIMEXPLODE
1070
     0
  0
ARC
  5
13F1
330
1F
100
AcDbEntity
  8
RH0901_6
  6
Continuous
 62
     7
 48
0.5
100
AcDbCircle
 10
1730.714294481036
 20
985.4974260809379
 30
0.0
 40
2.0
100
AcDbArc
 50
272.3859440421398
 51
0.0000000117508519
1001
DEKIMAS
1000
実線（中）
1040
0.25
1001
DIMEXPLODE
1070
     0
  0
ARC
  5
13F2
330
1F
100
AcDbEntity
  8
RH0901_6
  6
Continuous
 62
     7
 48
0.5
100
AcDbCircle
 10
2106.714294478645
 20
997.1606221082367
 30
0.0
 40
1.0
100
AcDbArc
 50
180.0000000117508
 51
272.3859440421398
1001
DEKIMAS
1000
実線（中）
1040
0.25
1001
DIMEXPLODE
1070
     0
  0
ARC
  5
13F3
330
1F
100
AcDbEntity
  8
RH0901_6
  6
Continuous
 62
     7
 48
0.5
100
AcDbCircle
 10
2109.714294477969
 20
1000.453652979402
 30
0.0
 40
1.0
100
AcDbArc
 50
180.0000000117508
 51
278.8498831101917
1001
DEKIMAS
1000
実線（中）
1040
0.25
1001
DIMEXPLODE
1070
     0
  0
ARC
  5
13F4
330
1F
100
AcDbEntity
  8
RH0901_6
  6
Continuous
 62
     7
 48
0.5
100
AcDbCircle
 10
2107.714294477823
 20
1001.158579616222
 30
0.0
 40
1.0
100
AcDbArc
 50
0.0000000117508519
 51
91.14834270661878
1001
DEKIMAS
1000
実線（中）
1040
0.25
1001
DIMEXPLODE
1070
     0
  0
HATCH
  5
13F5
330
1F
100
AcDbEntity
  8
RH0901_6
  6
Continuous
 62
     4
100
AcDbHatch
 10
0.0
 20
0.0
 30
0.0
210
0.0
220
0.0
230
1.0
  2
SOLID
 70
     1
 71
     0
 91
        1
 92
        1
 93
       28
 72
     1
 10
1715.714294489369
 20
944.8680876822614
 11
1685.714294489369
 21
944.8680876761082
 72
     1
 10
1685.714294489369
 20
944.8680876761082
 11
1685.714294488754
 21
947.8680876761082
 72
     1
 10
1685.714294488754
 20
947.8680876761082
 11
1697.714294488753
 21
947.8680876785693
 72
     2
 10
1697.714294485677
 20
962.8680876785695
 40
15.0
 50
270.000000011752
 51
360.0000000117522
 73
     1
 72
     1
 10
1712.714294485676
 20
962.868087681646
 11
1712.714294485141
 21
965.480072494806
 72
     2
 10
1730.714294485141
 20
965.480072498498
 40
18.0
 50
179.9999999882482
 51
267.6140647755935
 73
     0
 72
     1
 10
1729.964947444412
 20
983.4644679293342
 11
1730.797555570876
 21
983.499159934775
 72
     2
 10
1730.714294481036
 20
985.4974260809379
 40
2.0
 50
-87.61405595785936
 51
0.0000000117513608
 73
     1
 72
     1
 10
1732.714294481046
 20
985.4974260813481
 11
1732.714294479773
 21
991.701421019078
 72
     2
 10
1735.714294479773
 20
991.7014210196935
 40
3.0
 50
179.9999999882482
 51
268.8516572933731
 73
     0
 72
     1
 10
1735.654171421638
 20
994.7008184955011
 11
2107.694253626796
 21
1002.158378778198
 72
     2
 10
2107.714294477823
 20
1001.158579616222
 40
1.0
 50
268.8516669409338
 51
359.9999999882486
 73
     0
 72
     1
 10
2108.714294477823
 20
1001.158579616427
 11
2108.714294477968
 21
1000.453652979197
 72
     2
 10
2109.714294477969
 20
1000.453652979402
 40
1.0
 50
180.0000000117518
 51
278.8498934748395
 73
     1
 72
     2
 10
2105.714294472699
 20
1026.144118135911
 40
27.0
 50
-81.15011650594288
 51
0.0000000117513608
 73
     1
 72
     1
 10
2132.714294472699
 20
1026.144118141449
 11
2132.714294471977
 21
1029.665397307099
 72
     1
 10
2132.714294471977
 20
1029.665397307099
 11
2135.714294471977
 21
1029.665397307715
 72
     1
 10
2135.714294471977
 20
1029.665397307715
 11
2135.714294472699
 21
1026.144118142065
 72
     2
 10
2105.714294472699
 20
1026.144118135911
 40
30.0
 50
359.9999999882486
 51
447.6140559578594
 73
     0
 72
     1
 10
2106.963210820213
 20
996.1701259433979
 11
2106.755924855325
 21
996.1614890281454
 72
     2
 10
2106.714294478645
 20
997.1606221082367
 40
1.0
 50
87.61406560541933
 51
179.9999999882482
 73
     0
 72
     1
 10
2105.714294478644
 20
997.1606221080318
 11
2105.714294478242
 21
999.1180877622417
 72
     1
 10
2105.714294478242
 20
999.1180877622417
 11
1735.714294479773
 21
991.7014210196933
 72
     1
 10
1735.714294479773
 20
991.7014210196935
 11
1735.714294481439
 21
983.5790240570535
 72
     2
 10
1732.714294481439
 20
983.5790240564382
 40
3.0
 50
359.9999999882486
 51
447.6140559578594
 73
     0
 72
     1
 10
1732.839186116184
 20
980.5816248371938
 11
1730.089834713417
 21
980.46706852818
 72
     2
 10
1730.714294485141
 20
965.480072498498
 40
15.0
 50
92.38595015124623
 51
180.0000000117518
 73
     1
 72
     1
 10
1715.714294485141
 20
965.4800724954213
 11
1715.714294489369
 21
944.8680876822614
 97
        0
 75
     0
 76
     1
 98
        1
 10
2135.714294433478
 20
1217.368087768395
  0
ENDSEC
  0
SECTION
  2
OBJECTS
  0
DICTIONARY
  5
C
330
0
100
AcDbDictionary
281
     1
  3
ACAD_2007HEADERVARS_RT
350
1716
  3
ACAD_CIP_PREVIOUS_PRODUCT_INFO
350
1709
  3
ACAD_COLOR
350
6B
  3
ACAD_DETAILVIEWSTYLE
350
1701
  3
ACAD_GROUP
350
D
  3
ACAD_IMAGE_VARS
350
731
  3
ACAD_LAYOUT
350
1A
  3
ACAD_MATERIAL
350
6A
  3
ACAD_MLEADERSTYLE
350
402
  3
ACAD_MLINESTYLE
350
17
  3
ACAD_PLOTSETTINGS
350
19
  3
ACAD_PLOTSTYLENAME
350
E
  3
ACAD_SCALELIST
350
3E0
  3
ACAD_SECTIONVIEWSTYLE
350
16FF
  3
ACAD_TABLESTYLE
350
7E
  3
ACAD_VISUALSTYLE
350
F2
  3
ACDB_RECOMPOSE_DATA
350
1714
  3
AcDbVariableDictionary
350
5E
  3
ASKSYSVAR
350
6E7
  3
DWGPROPS
350
1715
  3
SAKAE_DICT
350
160D
  0
DICTIONARY
  5
688
330
2
100
AcDbDictionary
280
     1
281
     1
  3
ACAD_LAYERFILTERS
360
771
  3
ACLYDICTIONARY
360
770
  0
DICTIONARY
  5
785
330
10
100
AcDbDictionary
280
     1
281
     1
  3
ADSK_XREC_LAYER_RECONCILED
360
7F6
  0
DICTIONARY
  5
318
330
1F
100
AcDbDictionary
280
     1
281
     1
  0
DICTIONARY
  5
1716
102
{ACAD_REACTORS
330
C
102
}
330
C
100
AcDbDictionary
281
     1
  3
DIMFXL
350
1717
  3
DIMJOGANG
350
1718
  0
XRECORD
  5
1709
102
{ACAD_REACTORS
330
C
102
}
330
C
100
AcDbXrecord
280
     1
300
AMECH_PP
300
2013
300
AMECH_PP_F_S
  0
DICTIONARY
  5
6B
102
{ACAD_REACTORS
330
C
102
}
330
C
100
AcDbDictionary
281
     1
  0
DICTIONARY
  5
1701
102
{ACAD_REACTORS
330
C
102
}
330
C
100
AcDbDictionary
281
     1
  3
Metric50
350
1702
  0
DICTIONARY
  5
D
102
{ACAD_REACTORS
330
C
102
}
330
C
100
AcDbDictionary
281
     1
  0
RASTERVARIABLES
  5
731
102
{ACAD_REACTORS
330
C
102
}
330
C
100
AcDbRasterVariables
 90
        0
 70
     3
 71
     1
 72
     1
  0
DICTIONARY
  5
1A
102
{ACAD_REACTORS
330
C
102
}
330
C
100
AcDbDictionary
281
     1
  3
Model
350
22
  3
レイアウト1
350
D3
  3
レイアウト2
350
D7
  0
DICTIONARY
  5
6A
102
{ACAD_REACTORS
330
C
102
}
330
C
100
AcDbDictionary
281
     1
  3
ByBlock
350
F0
  3
ByLayer
350
EF
  3
Global
350
F1
  0
DICTIONARY
  5
402
102
{ACAD_REACTORS
330
C
102
}
330
C
100
AcDbDictionary
281
     1
  3
Standard
350
403
  0
DICTIONARY
  5
17
102
{ACAD_REACTORS
330
C
102
}
330
C
100
AcDbDictionary
281
     1
  3
Standard
350
18
  0
DICTIONARY
  5
19
102
{ACAD_REACTORS
330
C
102
}
330
C
100
AcDbDictionary
281
     1
  0
ACDBDICTIONARYWDFLT
  5
E
102
{ACAD_REACTORS
330
C
102
}
330
C
100
AcDbDictionary
281
     1
  3
Normal
350
F
100
AcDbDictionaryWithDefault
340
F
  0
DICTIONARY
  5
3E0
102
{ACAD_REACTORS
330
C
102
}
330
C
100
AcDbDictionary
281
     1
  3
A0
350
3E1
  3
A1
350
3E2
  3
A2
350
3E3
  3
A3
350
3E4
  3
A4
350
3E5
  3
A5
350
3E6
  3
A6
350
3E7
  3
A7
350
3E8
  3
A8
350
3E9
  3
A9
350
3EA
  3
B0
350
3EB
  3
B1
350
3EC
  3
B2
350
3ED
  3
B3
350
3EE
  3
B4
350
3EF
  3
B5
350
3F0
  3
B6
350
3F1
  3
B7
350
3F2
  3
B8
350
3F3
  3
B9
350
3F4
  3
C0
350
3F5
  3
C1
350
3F6
  3
C2
350
3F7
  3
C3
350
3F8
  3
C4
350
3F9
  3
C5
350
3FA
  3
C6
350
3FB
  3
C7
350
3FC
  3
C8
350
3FD
  3
C9
350
3FE
  3
D0
350
3FF
  3
D1
350
400
  3
D2
350
401
  0
DICTIONARY
  5
16FF
102
{ACAD_REACTORS
330
C
102
}
330
C
100
AcDbDictionary
281
     1
  3
Metric50
350
1700
  0
DICTIONARY
  5
7E
102
{ACAD_REACTORS
330
C
102
}
330
C
100
AcDbDictionary
281
     1
  3
Standard
350
7F
  0
DICTIONARY
  5
F2
102
{ACAD_REACTORS
330
C
102
}
330
C
100
AcDbDictionary
281
     1
  3
2dWireframe
350
F8
  3
3D Hidden
350
FA
  3
3dWireframe
350
F9
  3
Basic
350
F7
  3
Brighten
350
FE
  3
ColorChange
350
102
  3
Conceptual
350
FB
  3
Dim
350
FD
  3
EdgeColorOff
350
16FE
  3
Facepattern
350
101
  3
Flat
350
F3
  3
FlatWithEdges
350
F4
  3
Gouraud
350
F5
  3
GouraudWithEdges
350
F6
  3
Hidden
350
16F6
  3
JitterOff
350
16FC
  3
Linepattern
350
100
  3
OverhangOff
350
16FD
  3
Realistic
350
FC
  3
Shaded
350
16FB
  3
Shaded with edges
350
16FA
  3
Shades of Gray
350
16F7
  3
Sketchy
350
16F8
  3
Thicken
350
FF
  3
Wireframe
350
16F5
  3
X-Ray
350
16F9
  0
XRECORD
  5
1714
102
{ACAD_REACTORS
330
C
102
}
330
C
100
AcDbXrecord
280
     1
 90
        1
330
7F
  0
DICTIONARY
  5
5E
102
{ACAD_REACTORS
330
C
102
}
330
C
100
AcDbDictionary
281
     1
  3
CANNOSCALE
350
678
  3
CMLEADERSTYLE
350
676
  3
CTABLESTYLE
350
84
  3
CVIEWDETAILSTYLE
350
170A
  3
CVIEWSECTIONSTYLE
350
170B
  3
DIMASSOC
350
5F
  3
HIDETEXT
350
63
  3
INDEXCTL
350
170D
  3
LIGHTINGUNITS
350
679
  3
MSLTSCALE
350
677
  3
PSOLHEIGHT
350
1711
  3
PSOLWIDTH
350
1710
  3
SOLIDHIST
350
170F
  3
SORTENTS
350
170C
  3
XCLIPFRAME
350
170E
  0
DICTIONARY
  5
6E7
102
{ACAD_REACTORS
330
C
102
}
330
C
100
AcDbDictionary
281
     1
  3
ASK_SUMMARY
350
6E8
  3
ASKCURSC
350
7D3
  0
XRECORD
  5
1715
102
{ACAD_REACTORS
330
C
102
}
330
C
100
AcDbXrecord
280
     1
  1
DWGPROPS COOKIE
  2

  3

  4

  6

  7

  8
Administrator
  9

300
=
301
=
302
=
303
=
304
=
305
=
306
=
307
=
308
=
309
=
 40
0.2113155902777778
 41
2454497.602825139
 42
2456276.810410336
  1

 90
        0
  0
DICTIONARY
  5
160D
102
{ACAD_REACTORS
330
C
102
}
330
C
100
AcDbDictionary
281
     1
  3
XREC1
350
160E
  0
DICTIONARY
  5
771
102
{ACAD_REACTORS
330
688
102
}
330
688
100
AcDbDictionary
281
     1
  0
DICTIONARY
  5
770
102
{ACAD_REACTORS
330
688
102
}
330
688
100
AcDbDictionary
281
     1
1001
ACAD
1000
<All
  0
XRECORD
  5
7F6
102
{ACAD_REACTORS
330
785
102
}
330
785
100
AcDbXrecord
280
     1
290
     1
  0
XRECORD
  5
1717
102
{ACAD_REACTORS
330
1716
102
}
330
1716
100
AcDbXrecord
280
     1
 40
2.0
  0
XRECORD
  5
1718
102
{ACAD_REACTORS
330
1716
102
}
330
1716
100
AcDbXrecord
280
     1
 40
1.570796326794896
  0
ACDBDETAILVIEWSTYLE
  5
1702
102
{ACAD_REACTORS
330
1701
102
}
330
1701
100
AcDbModelDocViewStyle
 70
     0
  3
Metric50
290
     0
100
AcDbDetailViewStyle
 70
     0
 71
     0
 90
        3
 71
     1
340
11
 40
5.0
340
0
 40
5.0
300

 40
0.0
280
     1
 71
     2
340
16
 90
       25
 71
     3
340
11
 40
5.0
 90
        0
 40
15.0
 90
        1
300
%<\AcVar ViewDetailId>% (%<\AcVar ViewScale \f "%sn">%)
 71
     4
340
16
 90
       25
340
16
 90
       25
280
     0
  0
LAYOUT
  5
22
102
{ACAD_XDICTIONARY
360
1719
102
}
102
{ACAD_REACTORS
330
1A
102
}
330
1A
100
AcDbPlotSettings
  1

  2
none_device
  4
ISO_A4_(210.00_x_297.00_MM)
  6

 40
7.5
 41
20.0
 42
7.5
 43
20.0
 44
210.0
 45
297.0
 46
0.0
 47
59.55357142857143
 48
0.0
 49
0.0
140
0.0
141
0.0
142
1.0
143
2.153846153846153
 70
 11956
 72
     1
 73
     0
 74
     2
  7
C:\Documents and Settings\tomiya\Application Data\Autodesk\AutoCAD Mechanical 2008\R17.1\jpn\Plot Styles\SUIKO.ctb
 75
     0
147
0.4642857142857144
148
0.0
149
0.0
100
AcDbLayout
  1
Model
 70
     1
 71
     0
 10
0.0
 20
0.0
 11
12.0
 21
9.0
 12
0.0
 22
0.0
 32
0.0
 14
0.0
 24
0.0
 34
0.0
 15
0.0
 25
0.0
 35
0.0
146
0.0
 13
0.0
 23
0.0
 33
0.0
 16
1.0
 26
0.0
 36
0.0
 17
0.0
 27
1.0
 37
0.0
 76
     0
330
1F
331
ED
1001
ACAD_PSEXT
1000
なし
1000
なし
1000
適切ではありません
1000
新しいプロッタ環境設定名を選択しない限り、レイアウトは印刷されません。
1070
     0
  0
LAYOUT
  5
D3
102
{ACAD_XDICTIONARY
360
171C
102
}
102
{ACAD_REACTORS
330
1A
102
}
330
1A
100
AcDbPlotSettings
  1

  2
C:\Documents and Settings\basas\Application Data\Autodesk\AutoCAD 2005\R16.1\enu\plotters\Default Windows System Printer.pc3
  4

  6

 40
0.0
 41
0.0
 42
0.0
 43
0.0
 44
0.0
 45
0.0
 46
0.0
 47
0.0
 48
0.0
 49
0.0
140
0.0
141
0.0
142
1.0
143
1.0
 70
   688
 72
     0
 73
     0
 74
     5
  7
C:\Documents and Settings\tomiya\Application Data\Autodesk\AutoCAD Mechanical 2008\R17.1\jpn\Plot Styles\SUIKO.ctb
 75
    16
147
1.0
148
0.0
149
0.0
100
AcDbLayout
  1
レイアウト1
 70
     1
 71
     1
 10
0.0
 20
0.0
 11
12.0
 21
9.0
 12
0.0
 22
0.0
 32
0.0
 14
0.0
 24
0.0
 34
0.0
 15
0.0
 25
0.0
 35
0.0
146
0.0
 13
0.0
 23
0.0
 33
0.0
 16
1.0
 26
0.0
 36
0.0
 17
0.0
 27
1.0
 37
0.0
 76
     0
330
D2
  0
LAYOUT
  5
D7
102
{ACAD_XDICTIONARY
360
171E
102
}
102
{ACAD_REACTORS
330
1A
102
}
330
1A
100
AcDbPlotSettings
  1

  2
C:\Documents and Settings\basas\Application Data\Autodesk\AutoCAD 2005\R16.1\enu\plotters\Default Windows System Printer.pc3
  4

  6

 40
0.0
 41
0.0
 42
0.0
 43
0.0
 44
0.0
 45
0.0
 46
0.0
 47
0.0
 48
0.0
 49
0.0
140
0.0
141
0.0
142
1.0
143
1.0
 70
   688
 72
     0
 73
     0
 74
     5
  7
C:\Documents and Settings\tomiya\Application Data\Autodesk\AutoCAD Mechanical 2008\R17.1\jpn\Plot Styles\SUIKO.ctb
 75
    16
147
1.0
148
0.0
149
0.0
100
AcDbLayout
  1
レイアウト2
 70
     1
 71
     2
 10
0.0
 20
0.0
 11
12.0
 21
9.0
 12
0.0
 22
0.0
 32
0.0
 14
0.0
 24
0.0
 34
0.0
 15
0.0
 25
0.0
 35
0.0
146
0.0
 13
0.0
 23
0.0
 33
0.0
 16
1.0
 26
0.0
 36
0.0
 17
0.0
 27
1.0
 37
0.0
 76
     0
330
D6
  0
MATERIAL
  5
F0
102
{ACAD_XDICTIONARY
360
1722
102
}
102
{ACAD_REACTORS
330
6A
102
}
330
6A
100
AcDbMaterial
  1
ByBlock
 73
     1
 78
     1
172
     1
176
     1
270
     1
274
     1
  0
MATERIAL
  5
EF
102
{ACAD_XDICTIONARY
360
1720
102
}
102
{ACAD_REACTORS
330
6A
102
}
330
6A
100
AcDbMaterial
  1
ByLayer
 73
     1
 78
     1
172
     1
176
     1
270
     1
274
     1
  0
MATERIAL
  5
F1
102
{ACAD_XDICTIONARY
360
1724
102
}
102
{ACAD_REACTORS
330
6A
102
}
330
6A
100
AcDbMaterial
  1
Global
 73
     1
 78
     1
172
     1
176
     1
270
     1
274
     1
  0
MLEADERSTYLE
  5
403
102
{ACAD_REACTORS
330
402
102
}
330
402
100
AcDbMLeaderStyle
170
     2
171
     1
172
     0
 90
        2
 40
0.0
 41
0.0
173
     1
 91
-1056964608
340
14
 92
       -2
290
     1
 42
2.0
291
     1
 43
0.36
  3
Standard
 44
4.0
300

342
11
174
     1
178
     6
175
     1
176
     0
 93
-1056964608
 45
4.0
292
     0
297
     0
 46
4.0
 94
-1056964608
 47
1.0
 49
1.0
140
1.0
293
     1
141
0.0
294
     1
177
     0
142
1.0
295
     0
296
     0
143
0.125
1001
ACAD_MLEADERVER
1070
     2
  0
MLINESTYLE
  5
18
102
{ACAD_REACTORS
330
17
102
}
330
17
100
AcDbMlineStyle
  2
STANDARD
 70
     0
  3

 62
   256
 51
90.0
 52
90.0
 71
     2
 49
0.5
 62
   256
  6
BYLAYER
 49
-0.5
 62
   256
  6
BYLAYER
  0
ACDBPLACEHOLDER
  5
F
102
{ACAD_REACTORS
330
E
102
}
330
E
  0
SCALE
  5
3E1
102
{ACAD_REACTORS
330
3E0
102
}
330
3E0
100
AcDbScale
 70
     0
300
1:1
140
1.0
141
1.0
290
     1
  0
SCALE
  5
3E2
102
{ACAD_REACTORS
330
3E0
102
}
330
3E0
100
AcDbScale
 70
     0
300
1:2
140
1.0
141
2.0
290
     0
  0
SCALE
  5
3E3
102
{ACAD_REACTORS
330
3E0
102
}
330
3E0
100
AcDbScale
 70
     0
300
1:4
140
1.0
141
4.0
290
     0
  0
SCALE
  5
3E4
102
{ACAD_REACTORS
330
3E0
102
}
330
3E0
100
AcDbScale
 70
     0
300
1:5
140
1.0
141
5.0
290
     0
  0
SCALE
  5
3E5
102
{ACAD_REACTORS
330
3E0
102
}
330
3E0
100
AcDbScale
 70
     0
300
1:8
140
1.0
141
8.0
290
     0
  0
SCALE
  5
3E6
102
{ACAD_REACTORS
330
3E0
102
}
330
3E0
100
AcDbScale
 70
     0
300
1:10
140
1.0
141
10.0
290
     0
  0
SCALE
  5
3E7
102
{ACAD_REACTORS
330
3E0
102
}
330
3E0
100
AcDbScale
 70
     0
300
1:16
140
1.0
141
16.0
290
     0
  0
SCALE
  5
3E8
102
{ACAD_REACTORS
330
3E0
102
}
330
3E0
100
AcDbScale
 70
     0
300
1:20
140
1.0
141
20.0
290
     0
  0
SCALE
  5
3E9
102
{ACAD_REACTORS
330
3E0
102
}
330
3E0
100
AcDbScale
 70
     0
300
1:30
140
1.0
141
30.0
290
     0
  0
SCALE
  5
3EA
102
{ACAD_REACTORS
330
3E0
102
}
330
3E0
100
AcDbScale
 70
     0
300
1:40
140
1.0
141
40.0
290
     0
  0
SCALE
  5
3EB
102
{ACAD_REACTORS
330
3E0
102
}
330
3E0
100
AcDbScale
 70
     0
300
1:50
140
1.0
141
50.0
290
     0
  0
SCALE
  5
3EC
102
{ACAD_REACTORS
330
3E0
102
}
330
3E0
100
AcDbScale
 70
     0
300
1:100
140
1.0
141
100.0
290
     0
  0
SCALE
  5
3ED
102
{ACAD_REACTORS
330
3E0
102
}
330
3E0
100
AcDbScale
 70
     0
300
2:1
140
2.0
141
1.0
290
     0
  0
SCALE
  5
3EE
102
{ACAD_REACTORS
330
3E0
102
}
330
3E0
100
AcDbScale
 70
     0
300
4:1
140
4.0
141
1.0
290
     0
  0
SCALE
  5
3EF
102
{ACAD_REACTORS
330
3E0
102
}
330
3E0
100
AcDbScale
 70
     0
300
8:1
140
8.0
141
1.0
290
     0
  0
SCALE
  5
3F0
102
{ACAD_REACTORS
330
3E0
102
}
330
3E0
100
AcDbScale
 70
     0
300
10:1
140
10.0
141
1.0
290
     0
  0
SCALE
  5
3F1
102
{ACAD_REACTORS
330
3E0
102
}
330
3E0
100
AcDbScale
 70
     0
300
100:1
140
100.0
141
1.0
290
     0
  0
SCALE
  5
3F2
102
{ACAD_REACTORS
330
3E0
102
}
330
3E0
100
AcDbScale
 70
     0
300
1/128" = 1'-0"
140
0.0078125
141
12.0
290
     0
  0
SCALE
  5
3F3
102
{ACAD_REACTORS
330
3E0
102
}
330
3E0
100
AcDbScale
 70
     0
300
1/64" = 1'-0"
140
0.015625
141
12.0
290
     0
  0
SCALE
  5
3F4
102
{ACAD_REACTORS
330
3E0
102
}
330
3E0
100
AcDbScale
 70
     0
300
1/32" = 1'-0"
140
0.03125
141
12.0
290
     0
  0
SCALE
  5
3F5
102
{ACAD_REACTORS
330
3E0
102
}
330
3E0
100
AcDbScale
 70
     0
300
1/16" = 1'-0"
140
0.0625
141
12.0
290
     0
  0
SCALE
  5
3F6
102
{ACAD_REACTORS
330
3E0
102
}
330
3E0
100
AcDbScale
 70
     0
300
3/32" = 1'-0"
140
0.09375
141
12.0
290
     0
  0
SCALE
  5
3F7
102
{ACAD_REACTORS
330
3E0
102
}
330
3E0
100
AcDbScale
 70
     0
300
1/8" = 1'-0"
140
0.125
141
12.0
290
     0
  0
SCALE
  5
3F8
102
{ACAD_REACTORS
330
3E0
102
}
330
3E0
100
AcDbScale
 70
     0
300
3/16" = 1'-0"
140
0.1875
141
12.0
290
     0
  0
SCALE
  5
3F9
102
{ACAD_REACTORS
330
3E0
102
}
330
3E0
100
AcDbScale
 70
     0
300
1/4" = 1'-0"
140
0.25
141
12.0
290
     0
  0
SCALE
  5
3FA
102
{ACAD_REACTORS
330
3E0
102
}
330
3E0
100
AcDbScale
 70
     0
300
3/8" = 1'-0"
140
0.375
141
12.0
290
     0
  0
SCALE
  5
3FB
102
{ACAD_REACTORS
330
3E0
102
}
330
3E0
100
AcDbScale
 70
     0
300
1/2" = 1'-0"
140
0.5
141
12.0
290
     0
  0
SCALE
  5
3FC
102
{ACAD_REACTORS
330
3E0
102
}
330
3E0
100
AcDbScale
 70
     0
300
3/4" = 1'-0"
140
0.75
141
12.0
290
     0
  0
SCALE
  5
3FD
102
{ACAD_REACTORS
330
3E0
102
}
330
3E0
100
AcDbScale
 70
     0
300
1" = 1'-0"
140
1.0
141
12.0
290
     0
  0
SCALE
  5
3FE
102
{ACAD_REACTORS
330
3E0
102
}
330
3E0
100
AcDbScale
 70
     0
300
1-1/2" = 1'-0"
140
1.5
141
12.0
290
     0
  0
SCALE
  5
3FF
102
{ACAD_REACTORS
330
3E0
102
}
330
3E0
100
AcDbScale
 70
     0
300
3" = 1'-0"
140
3.0
141
12.0
290
     0
  0
SCALE
  5
400
102
{ACAD_REACTORS
330
3E0
102
}
330
3E0
100
AcDbScale
 70
     0
300
6" = 1'-0"
140
6.0
141
12.0
290
     0
  0
SCALE
  5
401
102
{ACAD_REACTORS
330
3E0
102
}
330
3E0
100
AcDbScale
 70
     0
300
1'-0" = 1'-0"
140
12.0
141
12.0
290
     0
  0
ACDBSECTIONVIEWSTYLE
  5
1700
102
{ACAD_REACTORS
330
16FF
102
}
330
16FF
100
AcDbModelDocViewStyle
 70
     0
  3
Metric50
290
     0
100
AcDbSectionViewStyle
 70
     0
 71
     0
 90
      102
 71
     1
340
11
 40
5.0
340
0
340
0
 40
5.0
300
I, O, Q, S, X, Z
 40
10.0
 90
        0
 40
2.5
 90
        0
 71
     2
340
16
 90
       25
340
16
 90
       50
 40
5.0
 40
2.5
 40
5.0
 71
     3
340
11
 40
5.0
 90
        0
 40
15.0
 90
        1
300
%<\AcVar ViewSectionStartId>%-%<\AcVar ViewSectionEndId>% (%<\AcVar ViewScale \f "%sn">%)
 71
     4
300
ANSI31
 40
1.0
 90
        0
290
     0
290
     0
 90
        6
 40
0.0
 40
1.570796326794896
 40
0.2617993877991494
 40
1.308996938995747
 40
-0.2617993877991494
 40
1.832595714594046
  0
TABLESTYLE
  5
7F
102
{ACAD_XDICTIONARY
360
673
102
}
102
{ACAD_REACTORS
330
7E
102
}
330
7E
100
AcDbTableStyle
  3
Standard
 70
     0
 71
     0
 40
1.5
 41
1.5
280
     0
281
     0
  7
Standard
140
4.5
170
     2
 62
     0
 63
     7
283
     0
274
    -2
284
     1
 64
     0
275
    -2
285
     1
 65
     0
276
    -2
286
     1
 66
     0
277
    -2
287
     1
 67
     0
278
    -2
288
     1
 68
     0
279
    -2
289
     1
 69
     0
  7
Standard
140
6.0
170
     5
 62
     0
 63
     7
283
     0
274
    -2
284
     1
 64
     0
275
    -2
285
     1
 65
     0
276
    -2
286
     1
 66
     0
277
    -2
287
     1
 67
     0
278
    -2
288
     1
 68
     0
279
    -2
289
     1
 69
     0
  7
Standard
140
4.5
170
     5
 62
     0
 63
     7
283
     0
274
    -2
284
     1
 64
     0
275
    -2
285
     1
 65
     0
276
    -2
286
     1
 66
     0
277
    -2
287
     1
 67
     0
278
    -2
288
     1
 68
     0
279
    -2
289
     1
 69
     0
  0
VISUALSTYLE
  5
F8
102
{ACAD_XDICTIONARY
360
1730
102
}
102
{ACAD_REACTORS
330
F2
102
}
330
F2
100
AcDbVisualStyle
  2
2dWireframe
 70
     4
 71
     0
 72
     2
 73
     1
 90
        0
 40
-0.6
 41
-30.0
 62
     5
 63
     7
 74
     1
 91
        4
 64
     7
 65
   257
 75
     1
175
     1
 42
1.0
 92
        0
 66
   257
 43
1.0
 76
     1
 77
     6
 78
     2
 67
     7
 79
     5
170
     0
171
     0
290
     0
174
     0
 93
        1
 44
0.0
173
     0
291
     0
 45
0.0
1001
ACAD
1000
AcDbSavedByObjectVersion
1070
     0
  0
VISUALSTYLE
  5
FA
102
{ACAD_XDICTIONARY
360
1734
102
}
102
{ACAD_REACTORS
330
F2
102
}
330
F2
100
AcDbVisualStyle
  2
3D Hidden
 70
     6
 71
     1
 72
     2
 73
     2
 90
        0
 40
-0.6
 41
-30.0
 62
     5
 63
     7
 74
     2
 91
        2
 64
     7
 65
   257
 75
     2
175
     1
 42
40.0
 92
        0
 66
   257
 43
1.0
 76
     1
 77
     6
 78
     2
 67
     7
 79
     3
170
     0
171
     0
290
     0
174
     0
 93
        1
 44
0.0
173
     0
291
     0
 45
0.0
1001
ACAD
1000
AcDbSavedByObjectVersion
1070
     0
  0
VISUALSTYLE
  5
F9
102
{ACAD_XDICTIONARY
360
1732
102
}
102
{ACAD_REACTORS
330
F2
102
}
330
F2
100
AcDbVisualStyle
  2
3dWireframe
 70
     5
 71
     0
 72
     2
 73
     1
 90
        0
 40
-0.6
 41
-30.0
 62
     5
 63
     7
 74
     1
 91
        4
 64
     7
 65
   257
 75
     1
175
     1
 42
1.0
 92
        0
 66
   257
 43
1.0
 76
     1
 77
     6
 78
     2
 67
     7
 79
     5
170
     0
171
     0
290
     0
174
     0
 93
        1
 44
0.0
173
     0
291
     0
 45
0.0
1001
ACAD
1000
AcDbSavedByObjectVersion
1070
     0
  0
VISUALSTYLE
  5
F7
102
{ACAD_XDICTIONARY
360
172E
102
}
102
{ACAD_REACTORS
330
F2
102
}
330
F2
100
AcDbVisualStyle
  2
Basic
 70
     7
 71
     1
 72
     0
 73
     1
 90
        0
 40
-0.6
 41
-30.0
 62
     5
 63
     7
 74
     0
 91
        4
 64
     7
 65
   257
 75
     1
175
     1
 42
1.0
 92
        8
 66
     7
 43
1.0
 76
     1
 77
     6
 78
     2
 67
     7
 79
     5
170
     0
171
     0
290
     0
174
     0
 93
        1
 44
0.0
173
     0
291
     1
 45
0.0
1001
ACAD
1000
AcDbSavedByObjectVersion
1070
     0
  0
VISUALSTYLE
  5
FE
102
{ACAD_XDICTIONARY
360
173C
102
}
102
{ACAD_REACTORS
330
F2
102
}
330
F2
100
AcDbVisualStyle
  2
Brighten
 70
    12
 71
     2
 72
     2
 73
     1
 90
        0
 40
-0.6
 41
-30.0
 62
     5
 63
     7
 74
     1
 91
        4
 64
     7
 65
   257
 75
     1
175
     1
 42
1.0
 92
        8
 66
     7
 43
1.0
 76
     1
 77
     6
 78
     2
 67
     7
 79
     5
170
     0
171
     0
290
     0
174
     0
 93
        1
 44
50.0
173
     0
291
     1
 45
0.0
1001
ACAD
1000
AcDbSavedByObjectVersion
1070
     0
  0
VISUALSTYLE
  5
102
102
{ACAD_XDICTIONARY
360
1744
102
}
102
{ACAD_REACTORS
330
F2
102
}
330
F2
100
AcDbVisualStyle
  2
ColorChange
 70
    16
 71
     2
 72
     2
 73
     3
 90
        0
 40
-0.6
 41
-30.0
 62
     5
 63
     8
 74
     1
 91
        4
 64
     7
 65
   257
 75
     1
175
     1
 42
1.0
 92
        8
 66
     8
 43
1.0
 76
     1
 77
     6
 78
     2
 67
     7
 79
     5
170
     0
171
     0
290
     0
174
     0
 93
        1
 44
0.0
173
     0
291
     1
 45
0.0
1001
ACAD
1000
AcDbSavedByObjectVersion
1070
     0
  0
VISUALSTYLE
  5
FB
102
{ACAD_XDICTIONARY
360
1736
102
}
102
{ACAD_REACTORS
330
F2
102
}
330
F2
100
AcDbVisualStyle
  2
Conceptual
 70
     9
 71
     3
 72
     2
 73
     1
 90
        0
 40
-0.6
 41
-30.0
 62
     5
 63
     7
 74
     2
 91
        2
 64
     7
 65
   257
 75
     1
175
     1
 42
40.0
 92
        8
 66
     7
 43
1.0
 76
     1
 77
     6
 78
     2
 67
     7
 79
     3
170
     0
171
     0
290
     0
174
     0
 93
        1
 44
0.0
173
     0
291
     0
 45
0.0
1001
ACAD
1000
AcDbSavedByObjectVersion
1070
     0
  0
VISUALSTYLE
  5
FD
102
{ACAD_XDICTIONARY
360
173A
102
}
102
{ACAD_REACTORS
330
F2
102
}
330
F2
100
AcDbVisualStyle
  2
Dim
 70
    11
 71
     2
 72
     2
 73
     1
 90
        0
 40
-0.6
 41
-30.0
 62
     5
 63
     7
 74
     1
 91
        4
 64
     7
 65
   257
 75
     1
175
     1
 42
1.0
 92
        8
 66
     7
 43
1.0
 76
     1
 77
     6
 78
     2
 67
     7
 79
     5
170
     0
171
     0
290
     0
174
     0
 93
        1
 44
-50.0
173
     0
291
     1
 45
0.0
1001
ACAD
1000
AcDbSavedByObjectVersion
1070
     0
  0
VISUALSTYLE
  5
16FE
102
{ACAD_XDICTIONARY
360
1759
102
}
102
{ACAD_REACTORS
330
F2
102
}
330
F2
100
AcDbVisualStyle
  2
EdgeColorOff
 70
    22
 71
     2
 72
     2
 73
     0
 90
        0
 40
-0.6
 41
-30.0
 62
     5
 63
     7
 74
     1
 91
        4
 64
     7
 65
   257
 75
     1
175
     1
 42
1.0
 92
        8
 66
     7
 43
1.0
 76
     1
 77
     6
 78
     2
 67
     7
 79
     5
170
     0
171
     0
290
     0
174
     0
 93
        1
 44
0.0
173
     0
291
     1
 45
0.0
1001
ACAD
1000
AcDbSavedByObjectVersion
1070
     0
  0
VISUALSTYLE
  5
101
102
{ACAD_XDICTIONARY
360
1742
102
}
102
{ACAD_REACTORS
330
F2
102
}
330
F2
100
AcDbVisualStyle
  2
Facepattern
 70
    15
 71
     2
 72
     2
 73
     1
 90
        0
 40
-0.6
 41
-30.0
 62
     5
 63
     7
 74
     1
 91
        4
 64
     7
 65
   257
 75
     1
175
     1
 42
1.0
 92
        8
 66
     7
 43
1.0
 76
     1
 77
     6
 78
     2
 67
     7
 79
     5
170
     0
171
     0
290
     0
174
     0
 93
        1
 44
0.0
173
     0
291
     1
 45
0.0
1001
ACAD
1000
AcDbSavedByObjectVersion
1070
     0
  0
VISUALSTYLE
  5
F3
102
{ACAD_XDICTIONARY
360
1726
102
}
102
{ACAD_REACTORS
330
F2
102
}
330
F2
100
AcDbVisualStyle
  2
Flat
 70
     0
 71
     2
 72
     1
 73
     1
 90
        2
 40
-0.6
 41
30.0
 62
     5
 63
     7
 74
     0
 91
        4
 64
     7
 65
   257
 75
     1
175
     1
 42
1.0
 92
        8
 66
     7
 43
1.0
 76
     1
 77
     6
 78
     2
 67
     7
 79
     5
170
     0
171
     0
290
     0
174
     0
 93
       13
 44
0.0
173
     0
291
     1
 45
0.0
1001
ACAD
1000
AcDbSavedByObjectVersion
1070
     0
  0
VISUALSTYLE
  5
F4
102
{ACAD_XDICTIONARY
360
1728
102
}
102
{ACAD_REACTORS
330
F2
102
}
330
F2
100
AcDbVisualStyle
  2
FlatWithEdges
 70
     1
 71
     2
 72
     1
 73
     1
 90
        2
 40
-0.6
 41
30.0
 62
     5
 63
     7
 74
     1
 91
        4
 64
     7
 65
   257
 75
     1
175
     1
 42
1.0
 92
        0
 66
   257
 43
1.0
 76
     1
 77
     6
 78
     2
 67
     7
 79
     5
170
     0
171
     0
290
     0
174
     0
 93
       13
 44
0.0
173
     0
291
     1
 45
0.0
1001
ACAD
1000
AcDbSavedByObjectVersion
1070
     0
  0
VISUALSTYLE
  5
F5
102
{ACAD_XDICTIONARY
360
172A
102
}
102
{ACAD_REACTORS
330
F2
102
}
330
F2
100
AcDbVisualStyle
  2
Gouraud
 70
     2
 71
     2
 72
     2
 73
     1
 90
        2
 40
-0.6
 41
30.0
 62
     5
 63
     7
 74
     0
 91
        4
 64
     7
 65
   257
 75
     1
175
     1
 42
1.0
 92
        0
 66
     7
 43
1.0
 76
     1
 77
     6
 78
     2
 67
     7
 79
     5
170
     0
171
     0
290
     0
174
     0
 93
       13
 44
0.0
173
     0
291
     1
 45
0.0
1001
ACAD
1000
AcDbSavedByObjectVersion
1070
     0
  0
VISUALSTYLE
  5
F6
102
{ACAD_XDICTIONARY
360
172C
102
}
102
{ACAD_REACTORS
330
F2
102
}
330
F2
100
AcDbVisualStyle
  2
GouraudWithEdges
 70
     3
 71
     2
 72
     2
 73
     1
 90
        2
 40
-0.6
 41
30.0
 62
     5
 63
     7
 74
     1
 91
        4
 64
     7
 65
   257
 75
     1
175
     1
 42
1.0
 92
        0
 66
   257
 43
1.0
 76
     1
 77
     6
 78
     2
 67
     7
 79
     5
170
     0
171
     0
290
     0
174
     0
 93
       13
 44
0.0
173
     0
291
     1
 45
0.0
1001
ACAD
1000
AcDbSavedByObjectVersion
1070
     0
  0
VISUALSTYLE
  5
16F6
102
{ACAD_XDICTIONARY
360
1749
102
}
102
{ACAD_REACTORS
330
F2
102
}
330
F2
100
AcDbVisualStyle
  2
Hidden
 70
     6
 71
     1
 72
     2
 73
     2
 90
        0
 40
-0.6
 41
-30.0
 62
     5
 63
     7
 74
     2
 91
        2
 64
     7
 65
   257
 75
     2
175
     1
 42
40.0
 92
        0
 66
   257
 43
1.0
 76
     1
 77
     6
 78
     2
 67
     7
 79
     3
170
     0
171
     0
290
     0
174
     0
 93
        1
 44
0.0
173
     0
291
     0
 45
0.0
1001
ACAD
1000
AcDbSavedByObjectVersion
1070
     0
  0
VISUALSTYLE
  5
16FC
102
{ACAD_XDICTIONARY
360
1755
102
}
102
{ACAD_REACTORS
330
F2
102
}
330
F2
100
AcDbVisualStyle
  2
JitterOff
 70
    20
 71
     2
 72
     2
 73
     0
 90
        0
 40
-0.6
 41
-30.0
 62
     5
 63
     7
 74
     1
 91
        4
 64
     7
 65
   257
 75
     1
175
     1
 42
1.0
 92
       10
 66
     7
 43
1.0
 76
     1
 77
     6
 78
     2
 67
     7
 79
     5
170
     0
171
     0
290
     0
174
     0
 93
        1
 44
0.0
173
     0
291
     1
 45
0.0
1001
ACAD
1000
AcDbSavedByObjectVersion
1070
     0
  0
VISUALSTYLE
  5
100
102
{ACAD_XDICTIONARY
360
1740
102
}
102
{ACAD_REACTORS
330
F2
102
}
330
F2
100
AcDbVisualStyle
  2
Linepattern
 70
    14
 71
     2
 72
     2
 73
     1
 90
        0
 40
-0.6
 41
-30.0
 62
     5
 63
     7
 74
     1
 91
        4
 64
     7
 65
   257
 75
     7
175
     7
 42
1.0
 92
        8
 66
     7
 43
1.0
 76
     1
 77
     6
 78
     2
 67
     7
 79
     5
170
     0
171
     0
290
     0
174
     0
 93
        1
 44
0.0
173
     0
291
     1
 45
0.0
1001
ACAD
1000
AcDbSavedByObjectVersion
1070
     0
  0
VISUALSTYLE
  5
16FD
102
{ACAD_XDICTIONARY
360
1757
102
}
102
{ACAD_REACTORS
330
F2
102
}
330
F2
100
AcDbVisualStyle
  2
OverhangOff
 70
    21
 71
     2
 72
     2
 73
     0
 90
        0
 40
-0.6
 41
-30.0
 62
     5
 63
     7
 74
     1
 91
        4
 64
     7
 65
   257
 75
     1
175
     1
 42
1.0
 92
        9
 66
     7
 43
1.0
 76
     1
 77
     6
 78
     2
 67
     7
 79
     5
170
     0
171
     0
290
     0
174
     0
 93
        1
 44
0.0
173
     0
291
     1
 45
0.0
1001
ACAD
1000
AcDbSavedByObjectVersion
1070
     0
  0
VISUALSTYLE
  5
FC
102
{ACAD_XDICTIONARY
360
1738
102
}
102
{ACAD_REACTORS
330
F2
102
}
330
F2
100
AcDbVisualStyle
  2
Realistic
 70
     8
 71
     2
 72
     2
 73
     1
 90
        0
 40
-0.6
 41
-30.0
 62
     5
 63
     7
 74
     1
 91
        0
 64
     7
 65
   257
 75
     1
175
     1
 42
1.0
 92
        8
 66
     8
 43
1.0
 76
     1
 77
     6
 78
     2
 67
     7
 79
     5
170
     0
171
     0
290
     0
174
     0
 93
       13
 44
0.0
173
     0
291
     0
 45
0.0
1001
ACAD
1000
AcDbSavedByObjectVersion
1070
     0
  0
VISUALSTYLE
  5
16FB
102
{ACAD_XDICTIONARY
360
1753
102
}
102
{ACAD_REACTORS
330
F2
102
}
330
F2
100
AcDbVisualStyle
  2
Shaded
 70
    27
 71
     2
 72
     2
 73
     1
 90
        2
 40
-0.6
 41
30.0
 62
     5
 63
     7
 74
     0
 91
        4
 64
     7
 65
   257
 75
     1
175
     1
 42
1.0
 92
        8
 66
   257
 43
1.0
 76
     1
 77
     6
 78
     2
 67
     8
 79
     3
170
     0
171
     0
290
     0
174
     0
 93
        5
 44
0.0
173
     0
291
     0
 45
0.0
1001
ACAD
1000
AcDbSavedByObjectVersion
1070
     0
  0
VISUALSTYLE
  5
16FA
102
{ACAD_XDICTIONARY
360
1751
102
}
102
{ACAD_REACTORS
330
F2
102
}
330
F2
100
AcDbVisualStyle
  2
Shaded with edges
 70
    26
 71
     2
 72
     2
 73
     1
 90
        2
 40
-0.6
 41
30.0
 62
     5
 63
     7
 74
     1
 91
       10
 64
     7
 65
   257
 75
     2
175
     1
 42
1.0
 92
        8
 66
   257
 43
1.0
 76
     1
 77
     6
 78
     2
 67
     7
 79
     3
170
     0
171
     0
290
     0
174
     0
 93
        5
 44
0.0
173
     0
291
     0
 45
0.0
1001
ACAD
1000
AcDbSavedByObjectVersion
1070
     0
  0
VISUALSTYLE
  5
16F7
102
{ACAD_XDICTIONARY
360
174B
102
}
102
{ACAD_REACTORS
330
F2
102
}
330
F2
100
AcDbVisualStyle
  2
Shades of Gray
 70
    23
 71
     2
 72
     2
 73
     3
 90
        0
 40
-0.6
 41
-30.0
 62
     5
 63
     7
 74
     2
 91
        2
 64
     7
 65
     7
 75
     1
175
     1
 42
40.0
 92
        8
 66
     7
 43
1.0
 76
     1
 77
     6
 78
     2
 67
     7
 79
     3
170
     0
171
     0
290
     0
174
     0
 93
        1
 44
0.0
173
     0
291
     0
 45
0.0
1001
ACAD
1000
AcDbSavedByObjectVersion
1070
     0
  0
VISUALSTYLE
  5
16F8
102
{ACAD_XDICTIONARY
360
174D
102
}
102
{ACAD_REACTORS
330
F2
102
}
330
F2
100
AcDbVisualStyle
  2
Sketchy
 70
    24
 71
     1
 72
     2
 73
     2
 90
        0
 40
-0.6
 41
-30.0
 62
     5
 63
     7
 74
     2
 91
        2
 64
     7
 65
     7
 75
     1
175
     1
 42
40.0
 92
       11
 66
     7
 43
1.0
 76
     1
 77
     6
 78
     2
 67
     7
 79
     6
170
     0
171
     0
290
     0
174
     0
 93
        1
 44
0.0
173
     0
291
     0
 45
0.0
1001
ACAD
1000
AcDbSavedByObjectVersion
1070
     0
  0
VISUALSTYLE
  5
FF
102
{ACAD_XDICTIONARY
360
173E
102
}
102
{ACAD_REACTORS
330
F2
102
}
330
F2
100
AcDbVisualStyle
  2
Thicken
 70
    13
 71
     2
 72
     2
 73
     1
 90
        0
 40
-0.6
 41
-30.0
 62
     5
 63
     7
 74
     1
 91
        4
 64
     7
 65
   257
 75
     1
175
     1
 42
1.0
 92
       12
 66
     7
 43
1.0
 76
     1
 77
     6
 78
     2
 67
     7
 79
     5
170
     0
171
     0
290
     0
174
     0
 93
        1
 44
0.0
173
     0
291
     1
 45
0.0
1001
ACAD
1000
AcDbSavedByObjectVersion
1070
     0
  0
VISUALSTYLE
  5
16F5
102
{ACAD_XDICTIONARY
360
1747
102
}
102
{ACAD_REACTORS
330
F2
102
}
330
F2
100
AcDbVisualStyle
  2
Wireframe
 70
     5
 71
     0
 72
     2
 73
     0
 90
        0
 40
-0.6
 41
-30.0
 62
     5
 63
     7
 74
     1
 91
        4
 64
     7
 65
   257
 75
     1
175
     1
 42
1.0
 92
        0
 66
   257
 43
1.0
 76
     1
 77
     6
 78
     2
 67
     7
 79
     3
170
     0
171
     0
290
     0
174
     0
 93
        1
 44
0.0
173
     0
291
     0
 45
0.0
1001
ACAD
1000
AcDbSavedByObjectVersion
1070
     0
  0
VISUALSTYLE
  5
16F9
102
{ACAD_XDICTIONARY
360
174F
102
}
102
{ACAD_REACTORS
330
F2
102
}
330
F2
100
AcDbVisualStyle
  2
X-Ray
 70
    25
 71
     2
 72
     2
 73
     1
 90
        1
 40
0.5
 41
-30.0
 62
     5
 63
     7
 74
     1
 91
        0
 64
     7
 65
   257
 75
     1
175
     1
 42
1.0
 92
        8
 66
     7
 43
1.0
 76
     1
 77
     6
 78
     2
 67
     7
 79
     3
170
     0
171
     0
290
     0
174
     0
 93
       13
 44
0.0
173
     0
291
     0
 45
0.0
1001
ACAD
1000
AcDbSavedByObjectVersion
1070
     0
  0
DICTIONARYVAR
  5
678
102
{ACAD_REACTORS
330
5E
102
}
330
5E
100
DictionaryVariables
280
     0
  1
1:1
  0
DICTIONARYVAR
  5
676
102
{ACAD_REACTORS
330
5E
102
}
330
5E
100
DictionaryVariables
280
     0
  1
STANDARD
  0
DICTIONARYVAR
  5
84
102
{ACAD_REACTORS
330
5E
102
}
330
5E
100
DictionaryVariables
280
     0
  1
STANDARD
  0
DICTIONARYVAR
  5
170A
102
{ACAD_REACTORS
330
5E
102
}
330
5E
100
DictionaryVariables
280
     0
  1
Metric50
  0
DICTIONARYVAR
  5
170B
102
{ACAD_REACTORS
330
5E
102
}
330
5E
100
DictionaryVariables
280
     0
  1
Metric50
  0
DICTIONARYVAR
  5
5F
102
{ACAD_REACTORS
330
5E
102
}
330
5E
100
DictionaryVariables
280
     0
  1
1
  0
DICTIONARYVAR
  5
63
102
{ACAD_REACTORS
330
5E
102
}
330
5E
100
DictionaryVariables
280
     0
  1
1
  0
DICTIONARYVAR
  5
170D
102
{ACAD_REACTORS
330
5E
102
}
330
5E
100
DictionaryVariables
280
     0
  1
0
  0
DICTIONARYVAR
  5
679
102
{ACAD_REACTORS
330
5E
102
}
330
5E
100
DictionaryVariables
280
     0
  1
0
  0
DICTIONARYVAR
  5
677
102
{ACAD_REACTORS
330
5E
102
}
330
5E
100
DictionaryVariables
280
     0
  1
0
  0
DICTIONARYVAR
  5
1711
102
{ACAD_REACTORS
330
5E
102
}
330
5E
100
DictionaryVariables
280
     0
  1
80.000000
  0
DICTIONARYVAR
  5
1710
102
{ACAD_REACTORS
330
5E
102
}
330
5E
100
DictionaryVariables
280
     0
  1
5.000000
  0
DICTIONARYVAR
  5
170F
102
{ACAD_REACTORS
330
5E
102
}
330
5E
100
DictionaryVariables
280
     0
  1
1
  0
DICTIONARYVAR
  5
170C
102
{ACAD_REACTORS
330
5E
102
}
330
5E
100
DictionaryVariables
280
     0
  1
127
  0
DICTIONARYVAR
  5
170E
102
{ACAD_REACTORS
330
5E
102
}
330
5E
100
DictionaryVariables
280
     0
  1
0
  0
XRECORD
  5
6E8
102
{ACAD_REACTORS
330
6E7
102
}
330
6E7
100
AcDbXrecord
280
     1
300
ASK2000BIKOU>>A3横 1/6        <<                                                                                                                                                                                                                                                                                
  0
XRECORD
  5
7D3
102
{ACAD_REACTORS
330
6E7
102
}
330
6E7
100
AcDbXrecord
280
     1
  1
DwgScale
  0
XRECORD
  5
160E
102
{ACAD_REACTORS
330
160D
102
}
330
160D
100
AcDbXrecord
280
     1
  1

 40
0.1666666716337204
 50
-5414.050750976356
 51
-6694.049183777709
 52
18764.76820354433
 53
10437.38889063333
  0
DICTIONARY
  5
1719
330
22
100
AcDbDictionary
280
     1
281
     1
  3
ACAD_XREC_ROUNDTRIP
360
171A
  0
DICTIONARY
  5
171C
330
D3
100
AcDbDictionary
280
     1
281
     1
  3
ACAD_XREC_ROUNDTRIP
360
171D
  0
DICTIONARY
  5
171E
330
D7
100
AcDbDictionary
280
     1
281
     1
  3
ACAD_XREC_ROUNDTRIP
360
171F
  0
DICTIONARY
  5
1722
330
F0
100
AcDbDictionary
280
     1
281
     1
  3
ACAD_XREC_ROUNDTRIP
360
1723
  0
DICTIONARY
  5
1720
330
EF
100
AcDbDictionary
280
     1
281
     1
  3
ACAD_XREC_ROUNDTRIP
360
1721
  0
DICTIONARY
  5
1724
330
F1
100
AcDbDictionary
280
     1
281
     1
  3
ACAD_XREC_ROUNDTRIP
360
1725
  0
DICTIONARY
  5
673
330
7F
100
AcDbDictionary
280
     1
281
     1
  3
ACAD_ROUNDTRIP_2008_TABLESTYLE_CELLSTYLEMAP
360
1713
  3
ACAD_XREC_ROUNDTRIP
360
171B
  0
DICTIONARY
  5
1730
330
F8
100
AcDbDictionary
280
     1
281
     1
  3
ACAD_XREC_ROUNDTRIP
360
1731
  0
DICTIONARY
  5
1734
330
FA
100
AcDbDictionary
280
     1
281
     1
  3
ACAD_XREC_ROUNDTRIP
360
1735
  0
DICTIONARY
  5
1732
330
F9
100
AcDbDictionary
280
     1
281
     1
  3
ACAD_XREC_ROUNDTRIP
360
1733
  0
DICTIONARY
  5
172E
330
F7
100
AcDbDictionary
280
     1
281
     1
  3
ACAD_XREC_ROUNDTRIP
360
172F
  0
DICTIONARY
  5
173C
330
FE
100
AcDbDictionary
280
     1
281
     1
  3
ACAD_XREC_ROUNDTRIP
360
173D
  0
DICTIONARY
  5
1744
330
102
100
AcDbDictionary
280
     1
281
     1
  3
ACAD_XREC_ROUNDTRIP
360
1745
  0
DICTIONARY
  5
1736
330
FB
100
AcDbDictionary
280
     1
281
     1
  3
ACAD_XREC_ROUNDTRIP
360
1737
  0
DICTIONARY
  5
173A
330
FD
100
AcDbDictionary
280
     1
281
     1
  3
ACAD_XREC_ROUNDTRIP
360
173B
  0
DICTIONARY
  5
1759
330
16FE
100
AcDbDictionary
280
     1
281
     1
  3
ACAD_XREC_ROUNDTRIP
360
175A
  0
DICTIONARY
  5
1742
330
101
100
AcDbDictionary
280
     1
281
     1
  3
ACAD_XREC_ROUNDTRIP
360
1743
  0
DICTIONARY
  5
1726
330
F3
100
AcDbDictionary
280
     1
281
     1
  3
ACAD_XREC_ROUNDTRIP
360
1727
  0
DICTIONARY
  5
1728
330
F4
100
AcDbDictionary
280
     1
281
     1
  3
ACAD_XREC_ROUNDTRIP
360
1729
  0
DICTIONARY
  5
172A
330
F5
100
AcDbDictionary
280
     1
281
     1
  3
ACAD_XREC_ROUNDTRIP
360
172B
  0
DICTIONARY
  5
172C
330
F6
100
AcDbDictionary
280
     1
281
     1
  3
ACAD_XREC_ROUNDTRIP
360
172D
  0
DICTIONARY
  5
1749
330
16F6
100
AcDbDictionary
280
     1
281
     1
  3
ACAD_XREC_ROUNDTRIP
360
174A
  0
DICTIONARY
  5
1755
330
16FC
100
AcDbDictionary
280
     1
281
     1
  3
ACAD_XREC_ROUNDTRIP
360
1756
  0
DICTIONARY
  5
1740
330
100
100
AcDbDictionary
280
     1
281
     1
  3
ACAD_XREC_ROUNDTRIP
360
1741
  0
DICTIONARY
  5
1757
330
16FD
100
AcDbDictionary
280
     1
281
     1
  3
ACAD_XREC_ROUNDTRIP
360
1758
  0
DICTIONARY
  5
1738
330
FC
100
AcDbDictionary
280
     1
281
     1
  3
ACAD_XREC_ROUNDTRIP
360
1739
  0
DICTIONARY
  5
1753
330
16FB
100
AcDbDictionary
280
     1
281
     1
  3
ACAD_XREC_ROUNDTRIP
360
1754
  0
DICTIONARY
  5
1751
330
16FA
100
AcDbDictionary
280
     1
281
     1
  3
ACAD_XREC_ROUNDTRIP
360
1752
  0
DICTIONARY
  5
174B
330
16F7
100
AcDbDictionary
280
     1
281
     1
  3
ACAD_XREC_ROUNDTRIP
360
174C
  0
DICTIONARY
  5
174D
330
16F8
100
AcDbDictionary
280
     1
281
     1
  3
ACAD_XREC_ROUNDTRIP
360
174E
  0
DICTIONARY
  5
173E
330
FF
100
AcDbDictionary
280
     1
281
     1
  3
ACAD_XREC_ROUNDTRIP
360
173F
  0
DICTIONARY
  5
1747
330
16F5
100
AcDbDictionary
280
     1
281
     1
  3
ACAD_XREC_ROUNDTRIP
360
1748
  0
DICTIONARY
  5
174F
330
16F9
100
AcDbDictionary
280
     1
281
     1
  3
ACAD_XREC_ROUNDTRIP
360
1750
  0
XRECORD
  5
171A
102
{ACAD_REACTORS
330
1719
102
}
330
1719
100
AcDbXrecord
280
     1
102
SHADEPLOT
 70
     0
102
SHADEPLOTRESLEVEL
 70
     2
102
SHADEPLOTCUSTOMDPI
 70
   300
  0
XRECORD
  5
171D
102
{ACAD_REACTORS
330
171C
102
}
330
171C
100
AcDbXrecord
280
     1
102
SHADEPLOT
 70
     0
102
SHADEPLOTRESLEVEL
 70
     2
102
SHADEPLOTCUSTOMDPI
 70
   300
  0
XRECORD
  5
171F
102
{ACAD_REACTORS
330
171E
102
}
330
171E
100
AcDbXrecord
280
     1
102
SHADEPLOT
 70
     0
102
SHADEPLOTRESLEVEL
 70
     2
102
SHADEPLOTCUSTOMDPI
 70
   300
  0
XRECORD
  5
1723
102
{ACAD_REACTORS
330
1722
102
}
330
1722
100
AcDbXrecord
280
     1
102
MATERIAL
148
0.0
149
0.0
149
0.0
 93
        0
 94
       63
282
     0
 72
     1
 77
     1
171
     1
175
     1
179
     1
273
     0
  0
XRECORD
  5
1721
102
{ACAD_REACTORS
330
1720
102
}
330
1720
100
AcDbXrecord
280
     1
102
MATERIAL
148
0.0
149
0.0
149
0.0
 93
        0
 94
       63
282
     0
 72
     1
 77
     1
171
     1
175
     1
179
     1
273
     0
  0
XRECORD
  5
1725
102
{ACAD_REACTORS
330
1724
102
}
330
1724
100
AcDbXrecord
280
     1
102
MATERIAL
148
0.0
149
0.0
149
0.0
 93
        0
 94
       63
282
     0
 72
     1
 77
     1
171
     1
175
     1
179
     1
273
     0
  0
CELLSTYLEMAP
  5
1713
102
{ACAD_REACTORS
330
673
102
}
330
673
100
AcDbCellStyleMap
 90
        3
300
CELLSTYLE
  1
TABLEFORMAT_BEGIN
 90
        5
170
     1
 91
        0
 92
    32768
 62
   257
 93
        1
300
CONTENTFORMAT
  1
CONTENTFORMAT_BEGIN
 90
        0
 91
        0
 92
      512
 93
        0
300

 40
0.0
140
1.0
 94
        5
 62
     0
340
11
144
6.0
309
CONTENTFORMAT_END
171
     1
301
MARGIN
  1
CELLMARGIN_BEGIN
 40
1.5
 40
1.5
 40
1.5
 40
1.5
 40
0.18
 40
0.18
309
CELLMARGIN_END
 94
        6
 95
        1
302
GRIDFORMAT
  1
GRIDFORMAT_BEGIN
 90
        0
 91
        1
 62
     0
 92
       -2
340
0
 93
        0
 40
0.045
309
GRIDFORMAT_END
 95
        2
302
GRIDFORMAT
  1
GRIDFORMAT_BEGIN
 90
        0
 91
        1
 62
     0
 92
       -2
340
0
 93
        0
 40
0.045
309
GRIDFORMAT_END
 95
        4
302
GRIDFORMAT
  1
GRIDFORMAT_BEGIN
 90
        0
 91
        1
 62
     0
 92
       -2
340
0
 93
        0
 40
0.045
309
GRIDFORMAT_END
 95
        8
302
GRIDFORMAT
  1
GRIDFORMAT_BEGIN
 90
        0
 91
        1
 62
     0
 92
       -2
340
0
 93
        0
 40
0.045
309
GRIDFORMAT_END
 95
       16
302
GRIDFORMAT
  1
GRIDFORMAT_BEGIN
 90
        0
 91
        1
 62
     0
 92
       -2
340
0
 93
        0
 40
0.045
309
GRIDFORMAT_END
 95
       32
302
GRIDFORMAT
  1
GRIDFORMAT_BEGIN
 90
        0
 91
        1
 62
     0
 92
       -2
340
0
 93
        0
 40
0.045
309
GRIDFORMAT_END
309
TABLEFORMAT_END
  1
CELLSTYLE_BEGIN
 90
        1
 91
        1
300
_TITLE
309
CELLSTYLE_END
300
CELLSTYLE
  1
TABLEFORMAT_BEGIN
 90
        5
170
     1
 91
        0
 92
        0
 62
   257
 93
        1
300
CONTENTFORMAT
  1
CONTENTFORMAT_BEGIN
 90
        0
 91
        0
 92
      512
 93
        0
300

 40
0.0
140
1.0
 94
        5
 62
     0
340
11
144
4.5
309
CONTENTFORMAT_END
171
     1
301
MARGIN
  1
CELLMARGIN_BEGIN
 40
1.5
 40
1.5
 40
1.5
 40
1.5
 40
0.18
 40
0.18
309
CELLMARGIN_END
 94
        6
 95
        1
302
GRIDFORMAT
  1
GRIDFORMAT_BEGIN
 90
        0
 91
        1
 62
     0
 92
       -2
340
0
 93
        0
 40
0.045
309
GRIDFORMAT_END
 95
        2
302
GRIDFORMAT
  1
GRIDFORMAT_BEGIN
 90
        0
 91
        1
 62
     0
 92
       -2
340
0
 93
        0
 40
0.045
309
GRIDFORMAT_END
 95
        4
302
GRIDFORMAT
  1
GRIDFORMAT_BEGIN
 90
        0
 91
        1
 62
     0
 92
       -2
340
0
 93
        0
 40
0.045
309
GRIDFORMAT_END
 95
        8
302
GRIDFORMAT
  1
GRIDFORMAT_BEGIN
 90
        0
 91
        1
 62
     0
 92
       -2
340
0
 93
        0
 40
0.045
309
GRIDFORMAT_END
 95
       16
302
GRIDFORMAT
  1
GRIDFORMAT_BEGIN
 90
        0
 91
        1
 62
     0
 92
       -2
340
0
 93
        0
 40
0.045
309
GRIDFORMAT_END
 95
       32
302
GRIDFORMAT
  1
GRIDFORMAT_BEGIN
 90
        0
 91
        1
 62
     0
 92
       -2
340
0
 93
        0
 40
0.045
309
GRIDFORMAT_END
309
TABLEFORMAT_END
  1
CELLSTYLE_BEGIN
 90
        2
 91
        1
300
_HEADER
309
CELLSTYLE_END
300
CELLSTYLE
  1
TABLEFORMAT_BEGIN
 90
        5
170
     1
 91
        0
 92
        0
 62
   257
 93
        1
300
CONTENTFORMAT
  1
CONTENTFORMAT_BEGIN
 90
        0
 91
        0
 92
      512
 93
        0
300

 40
0.0
140
1.0
 94
        2
 62
     0
340
11
144
4.5
309
CONTENTFORMAT_END
171
     1
301
MARGIN
  1
CELLMARGIN_BEGIN
 40
1.5
 40
1.5
 40
1.5
 40
1.5
 40
0.18
 40
0.18
309
CELLMARGIN_END
 94
        6
 95
        1
302
GRIDFORMAT
  1
GRIDFORMAT_BEGIN
 90
        0
 91
        1
 62
     0
 92
       -2
340
0
 93
        0
 40
0.045
309
GRIDFORMAT_END
 95
        2
302
GRIDFORMAT
  1
GRIDFORMAT_BEGIN
 90
        0
 91
        1
 62
     0
 92
       -2
340
0
 93
        0
 40
0.045
309
GRIDFORMAT_END
 95
        4
302
GRIDFORMAT
  1
GRIDFORMAT_BEGIN
 90
        0
 91
        1
 62
     0
 92
       -2
340
0
 93
        0
 40
0.045
309
GRIDFORMAT_END
 95
        8
302
GRIDFORMAT
  1
GRIDFORMAT_BEGIN
 90
        0
 91
        1
 62
     0
 92
       -2
340
0
 93
        0
 40
0.045
309
GRIDFORMAT_END
 95
       16
302
GRIDFORMAT
  1
GRIDFORMAT_BEGIN
 90
        0
 91
        1
 62
     0
 92
       -2
340
0
 93
        0
 40
0.045
309
GRIDFORMAT_END
 95
       32
302
GRIDFORMAT
  1
GRIDFORMAT_BEGIN
 90
        0
 91
        1
 62
     0
 92
       -2
340
0
 93
        0
 40
0.045
309
GRIDFORMAT_END
309
TABLEFORMAT_END
  1
CELLSTYLE_BEGIN
 90
        3
 91
        2
300
_DATA
309
CELLSTYLE_END
  0
XRECORD
  5
171B
102
{ACAD_REACTORS
330
673
102
}
330
673
100
AcDbXrecord
280
     1
102
ACAD_ROUNDTRIP_PRE2007_TABLESTYLE
 90
      512
 91
        0
  1

 92
      512
 93
        0
  2

 94
      512
 95
        0
  3

  0
XRECORD
  5
1731
102
{ACAD_REACTORS
330
1730
102
}
330
1730
100
AcDbXrecord
280
     1
102
RTVSPost2010Prop28
280
     1
102
RTVSPost2010PropOp28
 70
     1
102
RTVSPost2010Prop29
280
     1
102
RTVSPost2010PropOp29
 70
     1
102
RTVSPost2010Prop30
280
     0
102
RTVSPost2010PropOp30
 70
     1
102
RTVSPost2010Prop31
280
     0
102
RTVSPost2010PropOp31
 70
     1
102
RTVSPost2010Prop32
280
     0
102
RTVSPost2010PropOp32
 70
     1
102
RTVSPost2010Prop33
280
     0
102
RTVSPost2010PropOp33
 70
     1
102
RTVSPost2010Prop34
280
     0
102
RTVSPost2010PropOp34
 70
     1
102
RTVSPost2010Prop35
280
     0
102
RTVSPost2010PropOp35
 70
     1
102
RTVSPost2010Prop36
280
     0
102
RTVSPost2010PropOp36
 70
     1
102
RTVSPost2010Prop37
 90
       50
102
RTVSPost2010PropOp37
 70
     1
102
RTVSPost2010Prop38
140
0.0
102
RTVSPost2010PropOp38
 70
     1
102
RTVSPost2010Prop39
140
1.0
102
RTVSPost2010PropOp39
 70
     1
102
RTVSPost2010Prop40
 90
        0
102
RTVSPost2010PropOp40
 70
     1
102
RTVSPost2010Prop41ColorIndex
 90
       18
102
RTVSPost2010Prop41ColorRGB
 90
        0
102
RTVSPost2010PropOp41
 70
     1
102
RTVSPost2010Prop42
 90
       50
102
RTVSPost2010PropOp42
 70
     1
102
RTVSPost2010Prop43
 90
        3
102
RTVSPost2010PropOp43
 70
     1
102
RTVSPost2010Prop44ColorIndex
 90
        5
102
RTVSPost2010Prop44ColorRGB
 90
      255
102
RTVSPost2010PropOp44
 70
     1
102
RTVSPost2010Prop45
280
     0
102
RTVSPost2010PropOp45
 70
     1
102
RTVSPost2010Prop46
 90
       50
102
RTVSPost2010PropOp46
 70
     1
102
RTVSPost2010Prop47
 90
       50
102
RTVSPost2010PropOp47
 70
     1
102
RTVSPost2010Prop48
 90
       50
102
RTVSPost2010PropOp48
 70
     1
102
RTVSPost2010Prop49
280
     0
102
RTVSPost2010PropOp49
 70
     1
102
RTVSPost2010Prop50
 90
       50
102
RTVSPost2010PropOp50
 70
     1
102
RTVSPost2010Prop51ColorIndex
 90
      256
102
RTVSPost2010Prop51ColorRGB
 90
-16777216
102
RTVSPost2010PropOp51
 70
     0
102
RTVSPost2010Prop52
140
1.0
102
RTVSPost2010PropOp52
 70
     0
102
RTVSPost2010Prop53
 90
        2
102
RTVSPost2010PropOp53
 70
     1
102
RTVSPost2010Prop54
  1
strokes_ogs.tif
102
RTVSPost2010PropOp54
 70
     1
102
RTVSPost2010Prop55
280
     0
102
RTVSPost2010PropOp55
 70
     1
102
RTVSPost2010Prop56
140
1.0
102
RTVSPost2010PropOp56
 70
     1
102
RTVSPost2010Prop57
140
1.0
102
RTVSPost2010PropOp57
 70
     1
102
RTVSPropertyOp0
 70
     1
102
RTVSPropertyOp1
 70
     1
102
RTVSPropertyOp2
 70
     1
102
RTVSPropertyOp3
 70
     1
102
RTVSPropertyOp4
 70
     1
102
RTVSPropertyOp5
 70
     1
102
RTVSPropertyOp6
 70
     1
102
RTVSPropertyOp7
 70
     1
102
RTVSPropertyOp8
 70
     1
102
RTVSPropertyOp9
 70
     1
102
RTVSPropertyOp10
 70
     1
102
RTVSPropertyOp11
 70
     1
102
RTVSPropertyOp12
 70
     1
102
RTVSPropertyOp13
 70
     1
102
RTVSPropertyOp14
 70
     1
102
RTVSPropertyOp15
 70
     1
102
RTVSPropertyOp16
 70
     1
102
RTVSPropertyOp17
 70
     1
102
RTVSPropertyOp18
 70
     1
102
RTVSPropertyOp19
 70
     1
102
RTVSPropertyOp20
 70
     1
102
RTVSPropertyOp21
 70
     1
102
RTVSPropertyOp22
 70
     1
102
RTVSPropertyOp23
 70
     1
102
RTVSPropertyOp24
 70
     1
102
RTVSPropertyOp25
 70
     1
102
RTVSPropertyOp26
 70
     1
102
RTVSPropertyOp27
 70
     1
102
RTVSPropertyOp28
 70
     1
102
RTVSPropertyOp29
 70
     1
102
RTVSPropertyOp30
 70
     1
102
RTVSPropertyOp31
 70
     1
102
RTVSPropertyOp32
 70
     1
102
RTVSPropertyOp33
 70
     1
102
RTVSPropertyOp34
 70
     1
102
RTVSPropertyOp35
 70
     1
102
RTVSPropertyOp36
 70
     1
102
RTVSPropertyOp37
 70
     1
102
RTVSPropertyOp38
 70
     1
102
RTVSPropertyOp39
 70
     1
102
RTVSPropertyOp40
 70
     1
102
RTVSPropertyOp41
 70
     1
102
RTVSPropertyOp42
 70
     1
102
RTVSPropertyOp43
 70
     1
102
RTVSPropertyOp44
 70
     1
102
RTVSPropertyOp45
 70
     1
102
RTVSPropertyOp46
 70
     1
102
RTVSPropertyOp47
 70
     1
102
RTVSPropertyOp48
 70
     1
102
RTVSPropertyOp49
 70
     1
102
RTVSPropertyOp50
 70
     1
102
RTVSPropertyOp51
 70
     0
102
RTVSPropertyOp52
 70
     0
102
RTVSPropertyOp53
 70
     1
102
RTVSPropertyOp54
 70
     1
102
RTVSPropertyOp55
 70
     1
102
RTVSPropertyOp56
 70
     1
102
RTVSPropertyOp57
 70
     1
102
RTVSPropertyOp58
 70
     1
102
RTVSPropertyOp59
 70
     1
102
RTVSPropertyOp60
 70
     1
102
RTVSPropertyOp61
 70
     1
102
RTVSPropertyOp62
 70
     1
  0
XRECORD
  5
1735
102
{ACAD_REACTORS
330
1734
102
}
330
1734
100
AcDbXrecord
280
     1
102
RTVSPost2010Prop28
280
     0
102
RTVSPost2010PropOp28
 70
     1
102
RTVSPost2010Prop29
280
     1
102
RTVSPost2010PropOp29
 70
     1
102
RTVSPost2010Prop30
280
     1
102
RTVSPost2010PropOp30
 70
     1
102
RTVSPost2010Prop31
280
     0
102
RTVSPost2010PropOp31
 70
     1
102
RTVSPost2010Prop32
280
     0
102
RTVSPost2010PropOp32
 70
     1
102
RTVSPost2010Prop33
280
     0
102
RTVSPost2010PropOp33
 70
     1
102
RTVSPost2010Prop34
280
     0
102
RTVSPost2010PropOp34
 70
     1
102
RTVSPost2010Prop35
280
     0
102
RTVSPost2010PropOp35
 70
     1
102
RTVSPost2010Prop36
280
     0
102
RTVSPost2010PropOp36
 70
     1
102
RTVSPost2010Prop37
 90
       50
102
RTVSPost2010PropOp37
 70
     1
102
RTVSPost2010Prop38
140
0.0
102
RTVSPost2010PropOp38
 70
     1
102
RTVSPost2010Prop39
140
1.0
102
RTVSPost2010PropOp39
 70
     1
102
RTVSPost2010Prop40
 90
        0
102
RTVSPost2010PropOp40
 70
     1
102
RTVSPost2010Prop41ColorIndex
 90
       18
102
RTVSPost2010Prop41ColorRGB
 90
        0
102
RTVSPost2010PropOp41
 70
     1
102
RTVSPost2010Prop42
 90
       50
102
RTVSPost2010PropOp42
 70
     1
102
RTVSPost2010Prop43
 90
        3
102
RTVSPost2010PropOp43
 70
     1
102
RTVSPost2010Prop44ColorIndex
 90
        5
102
RTVSPost2010Prop44ColorRGB
 90
      255
102
RTVSPost2010PropOp44
 70
     1
102
RTVSPost2010Prop45
280
     0
102
RTVSPost2010PropOp45
 70
     1
102
RTVSPost2010Prop46
 90
       50
102
RTVSPost2010PropOp46
 70
     1
102
RTVSPost2010Prop47
 90
       50
102
RTVSPost2010PropOp47
 70
     1
102
RTVSPost2010Prop48
 90
       50
102
RTVSPost2010PropOp48
 70
     1
102
RTVSPost2010Prop49
280
     0
102
RTVSPost2010PropOp49
 70
     1
102
RTVSPost2010Prop50
 90
       50
102
RTVSPost2010PropOp50
 70
     1
102
RTVSPost2010Prop51ColorIndex
 90
      256
102
RTVSPost2010Prop51ColorRGB
 90
-16777216
102
RTVSPost2010PropOp51
 70
     0
102
RTVSPost2010Prop52
140
1.0
102
RTVSPost2010PropOp52
 70
     0
102
RTVSPost2010Prop53
 90
        2
102
RTVSPost2010PropOp53
 70
     1
102
RTVSPost2010Prop54
  1
strokes_ogs.tif
102
RTVSPost2010PropOp54
 70
     1
102
RTVSPost2010Prop55
280
     0
102
RTVSPost2010PropOp55
 70
     1
102
RTVSPost2010Prop56
140
1.0
102
RTVSPost2010PropOp56
 70
     1
102
RTVSPost2010Prop57
140
1.0
102
RTVSPost2010PropOp57
 70
     1
102
RTVSPropertyOp0
 70
     1
102
RTVSPropertyOp1
 70
     1
102
RTVSPropertyOp2
 70
     1
102
RTVSPropertyOp3
 70
     1
102
RTVSPropertyOp4
 70
     1
102
RTVSPropertyOp5
 70
     1
102
RTVSPropertyOp6
 70
     1
102
RTVSPropertyOp7
 70
     1
102
RTVSPropertyOp8
 70
     1
102
RTVSPropertyOp9
 70
     1
102
RTVSPropertyOp10
 70
     1
102
RTVSPropertyOp11
 70
     1
102
RTVSPropertyOp12
 70
     1
102
RTVSPropertyOp13
 70
     1
102
RTVSPropertyOp14
 70
     1
102
RTVSPropertyOp15
 70
     1
102
RTVSPropertyOp16
 70
     1
102
RTVSPropertyOp17
 70
     1
102
RTVSPropertyOp18
 70
     1
102
RTVSPropertyOp19
 70
     1
102
RTVSPropertyOp20
 70
     1
102
RTVSPropertyOp21
 70
     1
102
RTVSPropertyOp22
 70
     1
102
RTVSPropertyOp23
 70
     1
102
RTVSPropertyOp24
 70
     1
102
RTVSPropertyOp25
 70
     1
102
RTVSPropertyOp26
 70
     1
102
RTVSPropertyOp27
 70
     1
102
RTVSPropertyOp28
 70
     1
102
RTVSPropertyOp29
 70
     1
102
RTVSPropertyOp30
 70
     1
102
RTVSPropertyOp31
 70
     1
102
RTVSPropertyOp32
 70
     1
102
RTVSPropertyOp33
 70
     1
102
RTVSPropertyOp34
 70
     1
102
RTVSPropertyOp35
 70
     1
102
RTVSPropertyOp36
 70
     1
102
RTVSPropertyOp37
 70
     1
102
RTVSPropertyOp38
 70
     1
102
RTVSPropertyOp39
 70
     1
102
RTVSPropertyOp40
 70
     1
102
RTVSPropertyOp41
 70
     1
102
RTVSPropertyOp42
 70
     1
102
RTVSPropertyOp43
 70
     1
102
RTVSPropertyOp44
 70
     1
102
RTVSPropertyOp45
 70
     1
102
RTVSPropertyOp46
 70
     1
102
RTVSPropertyOp47
 70
     1
102
RTVSPropertyOp48
 70
     1
102
RTVSPropertyOp49
 70
     1
102
RTVSPropertyOp50
 70
     1
102
RTVSPropertyOp51
 70
     0
102
RTVSPropertyOp52
 70
     0
102
RTVSPropertyOp53
 70
     1
102
RTVSPropertyOp54
 70
     1
102
RTVSPropertyOp55
 70
     1
102
RTVSPropertyOp56
 70
     1
102
RTVSPropertyOp57
 70
     1
102
RTVSPropertyOp58
 70
     1
102
RTVSPropertyOp59
 70
     1
102
RTVSPropertyOp60
 70
     1
102
RTVSPropertyOp61
 70
     1
102
RTVSPropertyOp62
 70
     1
  0
XRECORD
  5
1733
102
{ACAD_REACTORS
330
1732
102
}
330
1732
100
AcDbXrecord
280
     1
102
RTVSPost2010Prop28
280
     0
102
RTVSPost2010PropOp28
 70
     1
102
RTVSPost2010Prop29
280
     1
102
RTVSPost2010PropOp29
 70
     1
102
RTVSPost2010Prop30
280
     1
102
RTVSPost2010PropOp30
 70
     1
102
RTVSPost2010Prop31
280
     0
102
RTVSPost2010PropOp31
 70
     1
102
RTVSPost2010Prop32
280
     0
102
RTVSPost2010PropOp32
 70
     1
102
RTVSPost2010Prop33
280
     0
102
RTVSPost2010PropOp33
 70
     1
102
RTVSPost2010Prop34
280
     0
102
RTVSPost2010PropOp34
 70
     1
102
RTVSPost2010Prop35
280
     0
102
RTVSPost2010PropOp35
 70
     1
102
RTVSPost2010Prop36
280
     0
102
RTVSPost2010PropOp36
 70
     1
102
RTVSPost2010Prop37
 90
       50
102
RTVSPost2010PropOp37
 70
     1
102
RTVSPost2010Prop38
140
0.0
102
RTVSPost2010PropOp38
 70
     1
102
RTVSPost2010Prop39
140
1.0
102
RTVSPost2010PropOp39
 70
     1
102
RTVSPost2010Prop40
 90
        0
102
RTVSPost2010PropOp40
 70
     1
102
RTVSPost2010Prop41ColorIndex
 90
       18
102
RTVSPost2010Prop41ColorRGB
 90
        0
102
RTVSPost2010PropOp41
 70
     1
102
RTVSPost2010Prop42
 90
       50
102
RTVSPost2010PropOp42
 70
     1
102
RTVSPost2010Prop43
 90
        3
102
RTVSPost2010PropOp43
 70
     1
102
RTVSPost2010Prop44ColorIndex
 90
        5
102
RTVSPost2010Prop44ColorRGB
 90
      255
102
RTVSPost2010PropOp44
 70
     1
102
RTVSPost2010Prop45
280
     0
102
RTVSPost2010PropOp45
 70
     1
102
RTVSPost2010Prop46
 90
       50
102
RTVSPost2010PropOp46
 70
     1
102
RTVSPost2010Prop47
 90
       50
102
RTVSPost2010PropOp47
 70
     1
102
RTVSPost2010Prop48
 90
       50
102
RTVSPost2010PropOp48
 70
     1
102
RTVSPost2010Prop49
280
     0
102
RTVSPost2010PropOp49
 70
     1
102
RTVSPost2010Prop50
 90
       50
102
RTVSPost2010PropOp50
 70
     1
102
RTVSPost2010Prop51ColorIndex
 90
      256
102
RTVSPost2010Prop51ColorRGB
 90
-16777216
102
RTVSPost2010PropOp51
 70
     0
102
RTVSPost2010Prop52
140
1.0
102
RTVSPost2010PropOp52
 70
     0
102
RTVSPost2010Prop53
 90
        2
102
RTVSPost2010PropOp53
 70
     1
102
RTVSPost2010Prop54
  1
strokes_ogs.tif
102
RTVSPost2010PropOp54
 70
     1
102
RTVSPost2010Prop55
280
     0
102
RTVSPost2010PropOp55
 70
     1
102
RTVSPost2010Prop56
140
1.0
102
RTVSPost2010PropOp56
 70
     1
102
RTVSPost2010Prop57
140
1.0
102
RTVSPost2010PropOp57
 70
     1
102
RTVSPropertyOp0
 70
     1
102
RTVSPropertyOp1
 70
     1
102
RTVSPropertyOp2
 70
     1
102
RTVSPropertyOp3
 70
     1
102
RTVSPropertyOp4
 70
     1
102
RTVSPropertyOp5
 70
     1
102
RTVSPropertyOp6
 70
     1
102
RTVSPropertyOp7
 70
     1
102
RTVSPropertyOp8
 70
     1
102
RTVSPropertyOp9
 70
     1
102
RTVSPropertyOp10
 70
     1
102
RTVSPropertyOp11
 70
     1
102
RTVSPropertyOp12
 70
     1
102
RTVSPropertyOp13
 70
     1
102
RTVSPropertyOp14
 70
     1
102
RTVSPropertyOp15
 70
     1
102
RTVSPropertyOp16
 70
     1
102
RTVSPropertyOp17
 70
     1
102
RTVSPropertyOp18
 70
     1
102
RTVSPropertyOp19
 70
     1
102
RTVSPropertyOp20
 70
     1
102
RTVSPropertyOp21
 70
     1
102
RTVSPropertyOp22
 70
     1
102
RTVSPropertyOp23
 70
     1
102
RTVSPropertyOp24
 70
     1
102
RTVSPropertyOp25
 70
     1
102
RTVSPropertyOp26
 70
     1
102
RTVSPropertyOp27
 70
     1
102
RTVSPropertyOp28
 70
     1
102
RTVSPropertyOp29
 70
     1
102
RTVSPropertyOp30
 70
     1
102
RTVSPropertyOp31
 70
     1
102
RTVSPropertyOp32
 70
     1
102
RTVSPropertyOp33
 70
     1
102
RTVSPropertyOp34
 70
     1
102
RTVSPropertyOp35
 70
     1
102
RTVSPropertyOp36
 70
     1
102
RTVSPropertyOp37
 70
     1
102
RTVSPropertyOp38
 70
     1
102
RTVSPropertyOp39
 70
     1
102
RTVSPropertyOp40
 70
     1
102
RTVSPropertyOp41
 70
     1
102
RTVSPropertyOp42
 70
     1
102
RTVSPropertyOp43
 70
     1
102
RTVSPropertyOp44
 70
     1
102
RTVSPropertyOp45
 70
     1
102
RTVSPropertyOp46
 70
     1
102
RTVSPropertyOp47
 70
     1
102
RTVSPropertyOp48
 70
     1
102
RTVSPropertyOp49
 70
     1
102
RTVSPropertyOp50
 70
     1
102
RTVSPropertyOp51
 70
     0
102
RTVSPropertyOp52
 70
     0
102
RTVSPropertyOp53
 70
     1
102
RTVSPropertyOp54
 70
     1
102
RTVSPropertyOp55
 70
     1
102
RTVSPropertyOp56
 70
     1
102
RTVSPropertyOp57
 70
     1
102
RTVSPropertyOp58
 70
     1
102
RTVSPropertyOp59
 70
     1
102
RTVSPropertyOp60
 70
     1
102
RTVSPropertyOp61
 70
     1
102
RTVSPropertyOp62
 70
     1
  0
XRECORD
  5
172F
102
{ACAD_REACTORS
330
172E
102
}
330
172E
100
AcDbXrecord
280
     1
102
RTVSPost2010Prop28
280
     0
102
RTVSPost2010PropOp28
 70
     1
102
RTVSPost2010Prop29
280
     1
102
RTVSPost2010PropOp29
 70
     1
102
RTVSPost2010Prop30
280
     1
102
RTVSPost2010PropOp30
 70
     1
102
RTVSPost2010Prop31
280
     0
102
RTVSPost2010PropOp31
 70
     1
102
RTVSPost2010Prop32
280
     0
102
RTVSPost2010PropOp32
 70
     1
102
RTVSPost2010Prop33
280
     0
102
RTVSPost2010PropOp33
 70
     1
102
RTVSPost2010Prop34
280
     0
102
RTVSPost2010PropOp34
 70
     1
102
RTVSPost2010Prop35
280
     0
102
RTVSPost2010PropOp35
 70
     1
102
RTVSPost2010Prop36
280
     0
102
RTVSPost2010PropOp36
 70
     1
102
RTVSPost2010Prop37
 90
       50
102
RTVSPost2010PropOp37
 70
     1
102
RTVSPost2010Prop38
140
0.0
102
RTVSPost2010PropOp38
 70
     1
102
RTVSPost2010Prop39
140
1.0
102
RTVSPost2010PropOp39
 70
     1
102
RTVSPost2010Prop40
 90
        0
102
RTVSPost2010PropOp40
 70
     1
102
RTVSPost2010Prop41ColorIndex
 90
       18
102
RTVSPost2010Prop41ColorRGB
 90
        0
102
RTVSPost2010PropOp41
 70
     1
102
RTVSPost2010Prop42
 90
       50
102
RTVSPost2010PropOp42
 70
     1
102
RTVSPost2010Prop43
 90
        3
102
RTVSPost2010PropOp43
 70
     1
102
RTVSPost2010Prop44ColorIndex
 90
        5
102
RTVSPost2010Prop44ColorRGB
 90
      255
102
RTVSPost2010PropOp44
 70
     1
102
RTVSPost2010Prop45
280
     0
102
RTVSPost2010PropOp45
 70
     1
102
RTVSPost2010Prop46
 90
       50
102
RTVSPost2010PropOp46
 70
     1
102
RTVSPost2010Prop47
 90
       50
102
RTVSPost2010PropOp47
 70
     1
102
RTVSPost2010Prop48
 90
       50
102
RTVSPost2010PropOp48
 70
     1
102
RTVSPost2010Prop49
280
     0
102
RTVSPost2010PropOp49
 70
     1
102
RTVSPost2010Prop50
 90
       50
102
RTVSPost2010PropOp50
 70
     1
102
RTVSPost2010Prop51ColorIndex
 90
      256
102
RTVSPost2010Prop51ColorRGB
 90
-16777216
102
RTVSPost2010PropOp51
 70
     0
102
RTVSPost2010Prop52
140
1.0
102
RTVSPost2010PropOp52
 70
     0
102
RTVSPost2010Prop53
 90
        2
102
RTVSPost2010PropOp53
 70
     1
102
RTVSPost2010Prop54
  1
strokes_ogs.tif
102
RTVSPost2010PropOp54
 70
     1
102
RTVSPost2010Prop55
280
     0
102
RTVSPost2010PropOp55
 70
     1
102
RTVSPost2010Prop56
140
1.0
102
RTVSPost2010PropOp56
 70
     1
102
RTVSPost2010Prop57
140
1.0
102
RTVSPost2010PropOp57
 70
     1
102
RTVSPropertyOp0
 70
     1
102
RTVSPropertyOp1
 70
     1
102
RTVSPropertyOp2
 70
     1
102
RTVSPropertyOp3
 70
     1
102
RTVSPropertyOp4
 70
     1
102
RTVSPropertyOp5
 70
     1
102
RTVSPropertyOp6
 70
     1
102
RTVSPropertyOp7
 70
     1
102
RTVSPropertyOp8
 70
     1
102
RTVSPropertyOp9
 70
     1
102
RTVSPropertyOp10
 70
     1
102
RTVSPropertyOp11
 70
     1
102
RTVSPropertyOp12
 70
     1
102
RTVSPropertyOp13
 70
     1
102
RTVSPropertyOp14
 70
     1
102
RTVSPropertyOp15
 70
     1
102
RTVSPropertyOp16
 70
     1
102
RTVSPropertyOp17
 70
     1
102
RTVSPropertyOp18
 70
     1
102
RTVSPropertyOp19
 70
     1
102
RTVSPropertyOp20
 70
     1
102
RTVSPropertyOp21
 70
     1
102
RTVSPropertyOp22
 70
     1
102
RTVSPropertyOp23
 70
     1
102
RTVSPropertyOp24
 70
     1
102
RTVSPropertyOp25
 70
     1
102
RTVSPropertyOp26
 70
     1
102
RTVSPropertyOp27
 70
     1
102
RTVSPropertyOp28
 70
     1
102
RTVSPropertyOp29
 70
     1
102
RTVSPropertyOp30
 70
     1
102
RTVSPropertyOp31
 70
     1
102
RTVSPropertyOp32
 70
     1
102
RTVSPropertyOp33
 70
     1
102
RTVSPropertyOp34
 70
     1
102
RTVSPropertyOp35
 70
     1
102
RTVSPropertyOp36
 70
     1
102
RTVSPropertyOp37
 70
     1
102
RTVSPropertyOp38
 70
     1
102
RTVSPropertyOp39
 70
     1
102
RTVSPropertyOp40
 70
     1
102
RTVSPropertyOp41
 70
     1
102
RTVSPropertyOp42
 70
     1
102
RTVSPropertyOp43
 70
     1
102
RTVSPropertyOp44
 70
     1
102
RTVSPropertyOp45
 70
     1
102
RTVSPropertyOp46
 70
     1
102
RTVSPropertyOp47
 70
     1
102
RTVSPropertyOp48
 70
     1
102
RTVSPropertyOp49
 70
     1
102
RTVSPropertyOp50
 70
     1
102
RTVSPropertyOp51
 70
     0
102
RTVSPropertyOp52
 70
     0
102
RTVSPropertyOp53
 70
     1
102
RTVSPropertyOp54
 70
     1
102
RTVSPropertyOp55
 70
     1
102
RTVSPropertyOp56
 70
     1
102
RTVSPropertyOp57
 70
     1
102
RTVSPropertyOp58
 70
     1
102
RTVSPropertyOp59
 70
     1
102
RTVSPropertyOp60
 70
     1
102
RTVSPropertyOp61
 70
     1
102
RTVSPropertyOp62
 70
     1
  0
XRECORD
  5
173D
102
{ACAD_REACTORS
330
173C
102
}
330
173C
100
AcDbXrecord
280
     1
102
RTVSPost2010Prop28
280
     0
102
RTVSPost2010PropOp28
 70
     1
102
RTVSPost2010Prop29
280
     1
102
RTVSPost2010PropOp29
 70
     1
102
RTVSPost2010Prop30
280
     1
102
RTVSPost2010PropOp30
 70
     1
102
RTVSPost2010Prop31
280
     0
102
RTVSPost2010PropOp31
 70
     1
102
RTVSPost2010Prop32
280
     0
102
RTVSPost2010PropOp32
 70
     1
102
RTVSPost2010Prop33
280
     0
102
RTVSPost2010PropOp33
 70
     1
102
RTVSPost2010Prop34
280
     0
102
RTVSPost2010PropOp34
 70
     1
102
RTVSPost2010Prop35
280
     0
102
RTVSPost2010PropOp35
 70
     1
102
RTVSPost2010Prop36
280
     0
102
RTVSPost2010PropOp36
 70
     1
102
RTVSPost2010Prop37
 90
       50
102
RTVSPost2010PropOp37
 70
     1
102
RTVSPost2010Prop38
140
0.0
102
RTVSPost2010PropOp38
 70
     1
102
RTVSPost2010Prop39
140
1.0
102
RTVSPost2010PropOp39
 70
     1
102
RTVSPost2010Prop40
 90
        0
102
RTVSPost2010PropOp40
 70
     1
102
RTVSPost2010Prop41ColorIndex
 90
       18
102
RTVSPost2010Prop41ColorRGB
 90
        0
102
RTVSPost2010PropOp41
 70
     1
102
RTVSPost2010Prop42
 90
       50
102
RTVSPost2010PropOp42
 70
     1
102
RTVSPost2010Prop43
 90
        3
102
RTVSPost2010PropOp43
 70
     1
102
RTVSPost2010Prop44ColorIndex
 90
        5
102
RTVSPost2010Prop44ColorRGB
 90
      255
102
RTVSPost2010PropOp44
 70
     1
102
RTVSPost2010Prop45
280
     0
102
RTVSPost2010PropOp45
 70
     1
102
RTVSPost2010Prop46
 90
       50
102
RTVSPost2010PropOp46
 70
     1
102
RTVSPost2010Prop47
 90
       50
102
RTVSPost2010PropOp47
 70
     1
102
RTVSPost2010Prop48
 90
       50
102
RTVSPost2010PropOp48
 70
     1
102
RTVSPost2010Prop49
280
     0
102
RTVSPost2010PropOp49
 70
     1
102
RTVSPost2010Prop50
 90
       50
102
RTVSPost2010PropOp50
 70
     1
102
RTVSPost2010Prop51ColorIndex
 90
      256
102
RTVSPost2010Prop51ColorRGB
 90
-16777216
102
RTVSPost2010PropOp51
 70
     0
102
RTVSPost2010Prop52
140
1.0
102
RTVSPost2010PropOp52
 70
     0
102
RTVSPost2010Prop53
 90
        2
102
RTVSPost2010PropOp53
 70
     1
102
RTVSPost2010Prop54
  1
strokes_ogs.tif
102
RTVSPost2010PropOp54
 70
     1
102
RTVSPost2010Prop55
280
     0
102
RTVSPost2010PropOp55
 70
     1
102
RTVSPost2010Prop56
140
1.0
102
RTVSPost2010PropOp56
 70
     1
102
RTVSPost2010Prop57
140
1.0
102
RTVSPost2010PropOp57
 70
     1
102
RTVSPropertyOp0
 70
     1
102
RTVSPropertyOp1
 70
     1
102
RTVSPropertyOp2
 70
     1
102
RTVSPropertyOp3
 70
     1
102
RTVSPropertyOp4
 70
     1
102
RTVSPropertyOp5
 70
     1
102
RTVSPropertyOp6
 70
     1
102
RTVSPropertyOp7
 70
     1
102
RTVSPropertyOp8
 70
     1
102
RTVSPropertyOp9
 70
     1
102
RTVSPropertyOp10
 70
     1
102
RTVSPropertyOp11
 70
     1
102
RTVSPropertyOp12
 70
     1
102
RTVSPropertyOp13
 70
     1
102
RTVSPropertyOp14
 70
     1
102
RTVSPropertyOp15
 70
     1
102
RTVSPropertyOp16
 70
     1
102
RTVSPropertyOp17
 70
     1
102
RTVSPropertyOp18
 70
     1
102
RTVSPropertyOp19
 70
     1
102
RTVSPropertyOp20
 70
     1
102
RTVSPropertyOp21
 70
     1
102
RTVSPropertyOp22
 70
     1
102
RTVSPropertyOp23
 70
     1
102
RTVSPropertyOp24
 70
     1
102
RTVSPropertyOp25
 70
     1
102
RTVSPropertyOp26
 70
     1
102
RTVSPropertyOp27
 70
     1
102
RTVSPropertyOp28
 70
     1
102
RTVSPropertyOp29
 70
     1
102
RTVSPropertyOp30
 70
     1
102
RTVSPropertyOp31
 70
     1
102
RTVSPropertyOp32
 70
     1
102
RTVSPropertyOp33
 70
     1
102
RTVSPropertyOp34
 70
     1
102
RTVSPropertyOp35
 70
     1
102
RTVSPropertyOp36
 70
     1
102
RTVSPropertyOp37
 70
     1
102
RTVSPropertyOp38
 70
     1
102
RTVSPropertyOp39
 70
     1
102
RTVSPropertyOp40
 70
     1
102
RTVSPropertyOp41
 70
     1
102
RTVSPropertyOp42
 70
     1
102
RTVSPropertyOp43
 70
     1
102
RTVSPropertyOp44
 70
     1
102
RTVSPropertyOp45
 70
     1
102
RTVSPropertyOp46
 70
     1
102
RTVSPropertyOp47
 70
     1
102
RTVSPropertyOp48
 70
     1
102
RTVSPropertyOp49
 70
     1
102
RTVSPropertyOp50
 70
     1
102
RTVSPropertyOp51
 70
     0
102
RTVSPropertyOp52
 70
     0
102
RTVSPropertyOp53
 70
     1
102
RTVSPropertyOp54
 70
     1
102
RTVSPropertyOp55
 70
     1
102
RTVSPropertyOp56
 70
     1
102
RTVSPropertyOp57
 70
     1
102
RTVSPropertyOp58
 70
     1
102
RTVSPropertyOp59
 70
     1
102
RTVSPropertyOp60
 70
     1
102
RTVSPropertyOp61
 70
     1
102
RTVSPropertyOp62
 70
     1
  0
XRECORD
  5
1745
102
{ACAD_REACTORS
330
1744
102
}
330
1744
100
AcDbXrecord
280
     1
102
RTVSPost2010Prop28
280
     0
102
RTVSPost2010PropOp28
 70
     1
102
RTVSPost2010Prop29
280
     1
102
RTVSPost2010PropOp29
 70
     1
102
RTVSPost2010Prop30
280
     1
102
RTVSPost2010PropOp30
 70
     1
102
RTVSPost2010Prop31
280
     0
102
RTVSPost2010PropOp31
 70
     1
102
RTVSPost2010Prop32
280
     0
102
RTVSPost2010PropOp32
 70
     1
102
RTVSPost2010Prop33
280
     0
102
RTVSPost2010PropOp33
 70
     1
102
RTVSPost2010Prop34
280
     0
102
RTVSPost2010PropOp34
 70
     1
102
RTVSPost2010Prop35
280
     0
102
RTVSPost2010PropOp35
 70
     1
102
RTVSPost2010Prop36
280
     0
102
RTVSPost2010PropOp36
 70
     1
102
RTVSPost2010Prop37
 90
       50
102
RTVSPost2010PropOp37
 70
     1
102
RTVSPost2010Prop38
140
0.0
102
RTVSPost2010PropOp38
 70
     1
102
RTVSPost2010Prop39
140
1.0
102
RTVSPost2010PropOp39
 70
     1
102
RTVSPost2010Prop40
 90
        0
102
RTVSPost2010PropOp40
 70
     1
102
RTVSPost2010Prop41ColorIndex
 90
       18
102
RTVSPost2010Prop41ColorRGB
 90
        0
102
RTVSPost2010PropOp41
 70
     1
102
RTVSPost2010Prop42
 90
       50
102
RTVSPost2010PropOp42
 70
     1
102
RTVSPost2010Prop43
 90
        3
102
RTVSPost2010PropOp43
 70
     1
102
RTVSPost2010Prop44ColorIndex
 90
        5
102
RTVSPost2010Prop44ColorRGB
 90
      255
102
RTVSPost2010PropOp44
 70
     1
102
RTVSPost2010Prop45
280
     0
102
RTVSPost2010PropOp45
 70
     1
102
RTVSPost2010Prop46
 90
       50
102
RTVSPost2010PropOp46
 70
     1
102
RTVSPost2010Prop47
 90
       50
102
RTVSPost2010PropOp47
 70
     1
102
RTVSPost2010Prop48
 90
       50
102
RTVSPost2010PropOp48
 70
     1
102
RTVSPost2010Prop49
280
     0
102
RTVSPost2010PropOp49
 70
     1
102
RTVSPost2010Prop50
 90
       50
102
RTVSPost2010PropOp50
 70
     1
102
RTVSPost2010Prop51ColorIndex
 90
      256
102
RTVSPost2010Prop51ColorRGB
 90
-16777216
102
RTVSPost2010PropOp51
 70
     0
102
RTVSPost2010Prop52
140
1.0
102
RTVSPost2010PropOp52
 70
     0
102
RTVSPost2010Prop53
 90
        2
102
RTVSPost2010PropOp53
 70
     1
102
RTVSPost2010Prop54
  1
strokes_ogs.tif
102
RTVSPost2010PropOp54
 70
     1
102
RTVSPost2010Prop55
280
     0
102
RTVSPost2010PropOp55
 70
     1
102
RTVSPost2010Prop56
140
1.0
102
RTVSPost2010PropOp56
 70
     1
102
RTVSPost2010Prop57
140
1.0
102
RTVSPost2010PropOp57
 70
     1
102
RTVSPropertyOp0
 70
     1
102
RTVSPropertyOp1
 70
     1
102
RTVSPropertyOp2
 70
     1
102
RTVSPropertyOp3
 70
     1
102
RTVSPropertyOp4
 70
     1
102
RTVSPropertyOp5
 70
     1
102
RTVSPropertyOp6
 70
     1
102
RTVSPropertyOp7
 70
     1
102
RTVSPropertyOp8
 70
     1
102
RTVSPropertyOp9
 70
     1
102
RTVSPropertyOp10
 70
     1
102
RTVSPropertyOp11
 70
     1
102
RTVSPropertyOp12
 70
     1
102
RTVSPropertyOp13
 70
     1
102
RTVSPropertyOp14
 70
     1
102
RTVSPropertyOp15
 70
     1
102
RTVSPropertyOp16
 70
     1
102
RTVSPropertyOp17
 70
     1
102
RTVSPropertyOp18
 70
     1
102
RTVSPropertyOp19
 70
     1
102
RTVSPropertyOp20
 70
     1
102
RTVSPropertyOp21
 70
     1
102
RTVSPropertyOp22
 70
     1
102
RTVSPropertyOp23
 70
     1
102
RTVSPropertyOp24
 70
     1
102
RTVSPropertyOp25
 70
     1
102
RTVSPropertyOp26
 70
     1
102
RTVSPropertyOp27
 70
     1
102
RTVSPropertyOp28
 70
     1
102
RTVSPropertyOp29
 70
     1
102
RTVSPropertyOp30
 70
     1
102
RTVSPropertyOp31
 70
     1
102
RTVSPropertyOp32
 70
     1
102
RTVSPropertyOp33
 70
     1
102
RTVSPropertyOp34
 70
     1
102
RTVSPropertyOp35
 70
     1
102
RTVSPropertyOp36
 70
     1
102
RTVSPropertyOp37
 70
     1
102
RTVSPropertyOp38
 70
     1
102
RTVSPropertyOp39
 70
     1
102
RTVSPropertyOp40
 70
     1
102
RTVSPropertyOp41
 70
     1
102
RTVSPropertyOp42
 70
     1
102
RTVSPropertyOp43
 70
     1
102
RTVSPropertyOp44
 70
     1
102
RTVSPropertyOp45
 70
     1
102
RTVSPropertyOp46
 70
     1
102
RTVSPropertyOp47
 70
     1
102
RTVSPropertyOp48
 70
     1
102
RTVSPropertyOp49
 70
     1
102
RTVSPropertyOp50
 70
     1
102
RTVSPropertyOp51
 70
     0
102
RTVSPropertyOp52
 70
     0
102
RTVSPropertyOp53
 70
     1
102
RTVSPropertyOp54
 70
     1
102
RTVSPropertyOp55
 70
     1
102
RTVSPropertyOp56
 70
     1
102
RTVSPropertyOp57
 70
     1
102
RTVSPropertyOp58
 70
     1
102
RTVSPropertyOp59
 70
     1
102
RTVSPropertyOp60
 70
     1
102
RTVSPropertyOp61
 70
     1
102
RTVSPropertyOp62
 70
     1
  0
XRECORD
  5
1737
102
{ACAD_REACTORS
330
1736
102
}
330
1736
100
AcDbXrecord
280
     1
102
RTVSPost2010Prop28
280
     0
102
RTVSPost2010PropOp28
 70
     1
102
RTVSPost2010Prop29
280
     1
102
RTVSPost2010PropOp29
 70
     1
102
RTVSPost2010Prop30
280
     1
102
RTVSPost2010PropOp30
 70
     1
102
RTVSPost2010Prop31
280
     0
102
RTVSPost2010PropOp31
 70
     1
102
RTVSPost2010Prop32
280
     0
102
RTVSPost2010PropOp32
 70
     1
102
RTVSPost2010Prop33
280
     0
102
RTVSPost2010PropOp33
 70
     1
102
RTVSPost2010Prop34
280
     0
102
RTVSPost2010PropOp34
 70
     1
102
RTVSPost2010Prop35
280
     0
102
RTVSPost2010PropOp35
 70
     1
102
RTVSPost2010Prop36
280
     0
102
RTVSPost2010PropOp36
 70
     1
102
RTVSPost2010Prop37
 90
       50
102
RTVSPost2010PropOp37
 70
     1
102
RTVSPost2010Prop38
140
0.0
102
RTVSPost2010PropOp38
 70
     1
102
RTVSPost2010Prop39
140
1.0
102
RTVSPost2010PropOp39
 70
     1
102
RTVSPost2010Prop40
 90
        0
102
RTVSPost2010PropOp40
 70
     1
102
RTVSPost2010Prop41ColorIndex
 90
       18
102
RTVSPost2010Prop41ColorRGB
 90
        0
102
RTVSPost2010PropOp41
 70
     1
102
RTVSPost2010Prop42
 90
       50
102
RTVSPost2010PropOp42
 70
     1
102
RTVSPost2010Prop43
 90
        3
102
RTVSPost2010PropOp43
 70
     1
102
RTVSPost2010Prop44ColorIndex
 90
        5
102
RTVSPost2010Prop44ColorRGB
 90
      255
102
RTVSPost2010PropOp44
 70
     1
102
RTVSPost2010Prop45
280
     0
102
RTVSPost2010PropOp45
 70
     1
102
RTVSPost2010Prop46
 90
       50
102
RTVSPost2010PropOp46
 70
     1
102
RTVSPost2010Prop47
 90
       50
102
RTVSPost2010PropOp47
 70
     1
102
RTVSPost2010Prop48
 90
       50
102
RTVSPost2010PropOp48
 70
     1
102
RTVSPost2010Prop49
280
     0
102
RTVSPost2010PropOp49
 70
     1
102
RTVSPost2010Prop50
 90
       50
102
RTVSPost2010PropOp50
 70
     1
102
RTVSPost2010Prop51ColorIndex
 90
      256
102
RTVSPost2010Prop51ColorRGB
 90
-16777216
102
RTVSPost2010PropOp51
 70
     0
102
RTVSPost2010Prop52
140
1.0
102
RTVSPost2010PropOp52
 70
     0
102
RTVSPost2010Prop53
 90
        2
102
RTVSPost2010PropOp53
 70
     1
102
RTVSPost2010Prop54
  1
strokes_ogs.tif
102
RTVSPost2010PropOp54
 70
     1
102
RTVSPost2010Prop55
280
     0
102
RTVSPost2010PropOp55
 70
     1
102
RTVSPost2010Prop56
140
1.0
102
RTVSPost2010PropOp56
 70
     1
102
RTVSPost2010Prop57
140
1.0
102
RTVSPost2010PropOp57
 70
     1
102
RTVSPropertyOp0
 70
     1
102
RTVSPropertyOp1
 70
     1
102
RTVSPropertyOp2
 70
     1
102
RTVSPropertyOp3
 70
     1
102
RTVSPropertyOp4
 70
     1
102
RTVSPropertyOp5
 70
     1
102
RTVSPropertyOp6
 70
     1
102
RTVSPropertyOp7
 70
     1
102
RTVSPropertyOp8
 70
     1
102
RTVSPropertyOp9
 70
     1
102
RTVSPropertyOp10
 70
     1
102
RTVSPropertyOp11
 70
     1
102
RTVSPropertyOp12
 70
     1
102
RTVSPropertyOp13
 70
     1
102
RTVSPropertyOp14
 70
     1
102
RTVSPropertyOp15
 70
     1
102
RTVSPropertyOp16
 70
     1
102
RTVSPropertyOp17
 70
     1
102
RTVSPropertyOp18
 70
     1
102
RTVSPropertyOp19
 70
     1
102
RTVSPropertyOp20
 70
     1
102
RTVSPropertyOp21
 70
     1
102
RTVSPropertyOp22
 70
     1
102
RTVSPropertyOp23
 70
     1
102
RTVSPropertyOp24
 70
     1
102
RTVSPropertyOp25
 70
     1
102
RTVSPropertyOp26
 70
     1
102
RTVSPropertyOp27
 70
     1
102
RTVSPropertyOp28
 70
     1
102
RTVSPropertyOp29
 70
     1
102
RTVSPropertyOp30
 70
     1
102
RTVSPropertyOp31
 70
     1
102
RTVSPropertyOp32
 70
     1
102
RTVSPropertyOp33
 70
     1
102
RTVSPropertyOp34
 70
     1
102
RTVSPropertyOp35
 70
     1
102
RTVSPropertyOp36
 70
     1
102
RTVSPropertyOp37
 70
     1
102
RTVSPropertyOp38
 70
     1
102
RTVSPropertyOp39
 70
     1
102
RTVSPropertyOp40
 70
     1
102
RTVSPropertyOp41
 70
     1
102
RTVSPropertyOp42
 70
     1
102
RTVSPropertyOp43
 70
     1
102
RTVSPropertyOp44
 70
     1
102
RTVSPropertyOp45
 70
     1
102
RTVSPropertyOp46
 70
     1
102
RTVSPropertyOp47
 70
     1
102
RTVSPropertyOp48
 70
     1
102
RTVSPropertyOp49
 70
     1
102
RTVSPropertyOp50
 70
     1
102
RTVSPropertyOp51
 70
     0
102
RTVSPropertyOp52
 70
     0
102
RTVSPropertyOp53
 70
     1
102
RTVSPropertyOp54
 70
     1
102
RTVSPropertyOp55
 70
     1
102
RTVSPropertyOp56
 70
     1
102
RTVSPropertyOp57
 70
     1
102
RTVSPropertyOp58
 70
     1
102
RTVSPropertyOp59
 70
     1
102
RTVSPropertyOp60
 70
     1
102
RTVSPropertyOp61
 70
     1
102
RTVSPropertyOp62
 70
     1
  0
XRECORD
  5
173B
102
{ACAD_REACTORS
330
173A
102
}
330
173A
100
AcDbXrecord
280
     1
102
RTVSPost2010Prop28
280
     0
102
RTVSPost2010PropOp28
 70
     1
102
RTVSPost2010Prop29
280
     1
102
RTVSPost2010PropOp29
 70
     1
102
RTVSPost2010Prop30
280
     1
102
RTVSPost2010PropOp30
 70
     1
102
RTVSPost2010Prop31
280
     0
102
RTVSPost2010PropOp31
 70
     1
102
RTVSPost2010Prop32
280
     0
102
RTVSPost2010PropOp32
 70
     1
102
RTVSPost2010Prop33
280
     0
102
RTVSPost2010PropOp33
 70
     1
102
RTVSPost2010Prop34
280
     0
102
RTVSPost2010PropOp34
 70
     1
102
RTVSPost2010Prop35
280
     0
102
RTVSPost2010PropOp35
 70
     1
102
RTVSPost2010Prop36
280
     0
102
RTVSPost2010PropOp36
 70
     1
102
RTVSPost2010Prop37
 90
       50
102
RTVSPost2010PropOp37
 70
     1
102
RTVSPost2010Prop38
140
0.0
102
RTVSPost2010PropOp38
 70
     1
102
RTVSPost2010Prop39
140
1.0
102
RTVSPost2010PropOp39
 70
     1
102
RTVSPost2010Prop40
 90
        0
102
RTVSPost2010PropOp40
 70
     1
102
RTVSPost2010Prop41ColorIndex
 90
       18
102
RTVSPost2010Prop41ColorRGB
 90
        0
102
RTVSPost2010PropOp41
 70
     1
102
RTVSPost2010Prop42
 90
       50
102
RTVSPost2010PropOp42
 70
     1
102
RTVSPost2010Prop43
 90
        3
102
RTVSPost2010PropOp43
 70
     1
102
RTVSPost2010Prop44ColorIndex
 90
        5
102
RTVSPost2010Prop44ColorRGB
 90
      255
102
RTVSPost2010PropOp44
 70
     1
102
RTVSPost2010Prop45
280
     0
102
RTVSPost2010PropOp45
 70
     1
102
RTVSPost2010Prop46
 90
       50
102
RTVSPost2010PropOp46
 70
     1
102
RTVSPost2010Prop47
 90
       50
102
RTVSPost2010PropOp47
 70
     1
102
RTVSPost2010Prop48
 90
       50
102
RTVSPost2010PropOp48
 70
     1
102
RTVSPost2010Prop49
280
     0
102
RTVSPost2010PropOp49
 70
     1
102
RTVSPost2010Prop50
 90
       50
102
RTVSPost2010PropOp50
 70
     1
102
RTVSPost2010Prop51ColorIndex
 90
      256
102
RTVSPost2010Prop51ColorRGB
 90
-16777216
102
RTVSPost2010PropOp51
 70
     0
102
RTVSPost2010Prop52
140
1.0
102
RTVSPost2010PropOp52
 70
     0
102
RTVSPost2010Prop53
 90
        2
102
RTVSPost2010PropOp53
 70
     1
102
RTVSPost2010Prop54
  1
strokes_ogs.tif
102
RTVSPost2010PropOp54
 70
     1
102
RTVSPost2010Prop55
280
     0
102
RTVSPost2010PropOp55
 70
     1
102
RTVSPost2010Prop56
140
1.0
102
RTVSPost2010PropOp56
 70
     1
102
RTVSPost2010Prop57
140
1.0
102
RTVSPost2010PropOp57
 70
     1
102
RTVSPropertyOp0
 70
     1
102
RTVSPropertyOp1
 70
     1
102
RTVSPropertyOp2
 70
     1
102
RTVSPropertyOp3
 70
     1
102
RTVSPropertyOp4
 70
     1
102
RTVSPropertyOp5
 70
     1
102
RTVSPropertyOp6
 70
     1
102
RTVSPropertyOp7
 70
     1
102
RTVSPropertyOp8
 70
     1
102
RTVSPropertyOp9
 70
     1
102
RTVSPropertyOp10
 70
     1
102
RTVSPropertyOp11
 70
     1
102
RTVSPropertyOp12
 70
     1
102
RTVSPropertyOp13
 70
     1
102
RTVSPropertyOp14
 70
     1
102
RTVSPropertyOp15
 70
     1
102
RTVSPropertyOp16
 70
     1
102
RTVSPropertyOp17
 70
     1
102
RTVSPropertyOp18
 70
     1
102
RTVSPropertyOp19
 70
     1
102
RTVSPropertyOp20
 70
     1
102
RTVSPropertyOp21
 70
     1
102
RTVSPropertyOp22
 70
     1
102
RTVSPropertyOp23
 70
     1
102
RTVSPropertyOp24
 70
     1
102
RTVSPropertyOp25
 70
     1
102
RTVSPropertyOp26
 70
     1
102
RTVSPropertyOp27
 70
     1
102
RTVSPropertyOp28
 70
     1
102
RTVSPropertyOp29
 70
     1
102
RTVSPropertyOp30
 70
     1
102
RTVSPropertyOp31
 70
     1
102
RTVSPropertyOp32
 70
     1
102
RTVSPropertyOp33
 70
     1
102
RTVSPropertyOp34
 70
     1
102
RTVSPropertyOp35
 70
     1
102
RTVSPropertyOp36
 70
     1
102
RTVSPropertyOp37
 70
     1
102
RTVSPropertyOp38
 70
     1
102
RTVSPropertyOp39
 70
     1
102
RTVSPropertyOp40
 70
     1
102
RTVSPropertyOp41
 70
     1
102
RTVSPropertyOp42
 70
     1
102
RTVSPropertyOp43
 70
     1
102
RTVSPropertyOp44
 70
     1
102
RTVSPropertyOp45
 70
     1
102
RTVSPropertyOp46
 70
     1
102
RTVSPropertyOp47
 70
     1
102
RTVSPropertyOp48
 70
     1
102
RTVSPropertyOp49
 70
     1
102
RTVSPropertyOp50
 70
     1
102
RTVSPropertyOp51
 70
     0
102
RTVSPropertyOp52
 70
     0
102
RTVSPropertyOp53
 70
     1
102
RTVSPropertyOp54
 70
     1
102
RTVSPropertyOp55
 70
     1
102
RTVSPropertyOp56
 70
     1
102
RTVSPropertyOp57
 70
     1
102
RTVSPropertyOp58
 70
     1
102
RTVSPropertyOp59
 70
     1
102
RTVSPropertyOp60
 70
     1
102
RTVSPropertyOp61
 70
     1
102
RTVSPropertyOp62
 70
     1
  0
XRECORD
  5
175A
102
{ACAD_REACTORS
330
1759
102
}
330
1759
100
AcDbXrecord
280
     1
102
RTVSPost2010Prop28
280
     0
102
RTVSPost2010PropOp28
 70
     0
102
RTVSPost2010Prop29
280
     1
102
RTVSPost2010PropOp29
 70
     0
102
RTVSPost2010Prop30
280
     1
102
RTVSPost2010PropOp30
 70
     0
102
RTVSPost2010Prop31
280
     0
102
RTVSPost2010PropOp31
 70
     0
102
RTVSPost2010Prop32
280
     0
102
RTVSPost2010PropOp32
 70
     0
102
RTVSPost2010Prop33
280
     0
102
RTVSPost2010PropOp33
 70
     0
102
RTVSPost2010Prop34
280
     0
102
RTVSPost2010PropOp34
 70
     0
102
RTVSPost2010Prop35
280
     0
102
RTVSPost2010PropOp35
 70
     0
102
RTVSPost2010Prop36
280
     0
102
RTVSPost2010PropOp36
 70
     0
102
RTVSPost2010Prop37
 90
       50
102
RTVSPost2010PropOp37
 70
     0
102
RTVSPost2010Prop38
140
0.0
102
RTVSPost2010PropOp38
 70
     0
102
RTVSPost2010Prop39
140
1.0
102
RTVSPost2010PropOp39
 70
     0
102
RTVSPost2010Prop40
 90
        0
102
RTVSPost2010PropOp40
 70
     0
102
RTVSPost2010Prop41ColorIndex
 90
       18
102
RTVSPost2010Prop41ColorRGB
 90
        0
102
RTVSPost2010PropOp41
 70
     0
102
RTVSPost2010Prop42
 90
       50
102
RTVSPost2010PropOp42
 70
     0
102
RTVSPost2010Prop43
 90
        3
102
RTVSPost2010PropOp43
 70
     0
102
RTVSPost2010Prop44ColorIndex
 90
        5
102
RTVSPost2010Prop44ColorRGB
 90
      255
102
RTVSPost2010PropOp44
 70
     0
102
RTVSPost2010Prop45
280
     0
102
RTVSPost2010PropOp45
 70
     0
102
RTVSPost2010Prop46
 90
       50
102
RTVSPost2010PropOp46
 70
     0
102
RTVSPost2010Prop47
 90
       50
102
RTVSPost2010PropOp47
 70
     0
102
RTVSPost2010Prop48
 90
       50
102
RTVSPost2010PropOp48
 70
     0
102
RTVSPost2010Prop49
280
     0
102
RTVSPost2010PropOp49
 70
     0
102
RTVSPost2010Prop50
 90
       50
102
RTVSPost2010PropOp50
 70
     0
102
RTVSPost2010Prop51ColorIndex
 90
      256
102
RTVSPost2010Prop51ColorRGB
 90
-16777216
102
RTVSPost2010PropOp51
 70
     0
102
RTVSPost2010Prop52
140
1.0
102
RTVSPost2010PropOp52
 70
     0
102
RTVSPost2010Prop53
 90
        2
102
RTVSPost2010PropOp53
 70
     0
102
RTVSPost2010Prop54
  1
strokes_ogs.tif
102
RTVSPost2010PropOp54
 70
     0
102
RTVSPost2010Prop55
280
     0
102
RTVSPost2010PropOp55
 70
     0
102
RTVSPost2010Prop56
140
1.0
102
RTVSPost2010PropOp56
 70
     0
102
RTVSPost2010Prop57
140
1.0
102
RTVSPost2010PropOp57
 70
     0
102
RTVSPropertyOp0
 70
     0
102
RTVSPropertyOp1
 70
     0
102
RTVSPropertyOp2
 70
     0
102
RTVSPropertyOp3
 70
     0
102
RTVSPropertyOp4
 70
     0
102
RTVSPropertyOp5
 70
     0
102
RTVSPropertyOp6
 70
     0
102
RTVSPropertyOp7
 70
     0
102
RTVSPropertyOp8
 70
     0
102
RTVSPropertyOp9
 70
     0
102
RTVSPropertyOp10
 70
     0
102
RTVSPropertyOp11
 70
     0
102
RTVSPropertyOp12
 70
     0
102
RTVSPropertyOp13
 70
     0
102
RTVSPropertyOp14
 70
     2
102
RTVSPropertyOp15
 70
     0
102
RTVSPropertyOp16
 70
     0
102
RTVSPropertyOp17
 70
     0
102
RTVSPropertyOp18
 70
     0
102
RTVSPropertyOp19
 70
     0
102
RTVSPropertyOp20
 70
     0
102
RTVSPropertyOp21
 70
     0
102
RTVSPropertyOp22
 70
     0
102
RTVSPropertyOp23
 70
     0
102
RTVSPropertyOp24
 70
     0
102
RTVSPropertyOp25
 70
     0
102
RTVSPropertyOp26
 70
     0
102
RTVSPropertyOp27
 70
     0
102
RTVSPropertyOp28
 70
     0
102
RTVSPropertyOp29
 70
     0
102
RTVSPropertyOp30
 70
     0
102
RTVSPropertyOp31
 70
     0
102
RTVSPropertyOp32
 70
     0
102
RTVSPropertyOp33
 70
     0
102
RTVSPropertyOp34
 70
     0
102
RTVSPropertyOp35
 70
     0
102
RTVSPropertyOp36
 70
     0
102
RTVSPropertyOp37
 70
     0
102
RTVSPropertyOp38
 70
     0
102
RTVSPropertyOp39
 70
     0
102
RTVSPropertyOp40
 70
     0
102
RTVSPropertyOp41
 70
     0
102
RTVSPropertyOp42
 70
     0
102
RTVSPropertyOp43
 70
     0
102
RTVSPropertyOp44
 70
     0
102
RTVSPropertyOp45
 70
     0
102
RTVSPropertyOp46
 70
     0
102
RTVSPropertyOp47
 70
     0
102
RTVSPropertyOp48
 70
     0
102
RTVSPropertyOp49
 70
     0
102
RTVSPropertyOp50
 70
     0
102
RTVSPropertyOp51
 70
     0
102
RTVSPropertyOp52
 70
     0
102
RTVSPropertyOp53
 70
     0
102
RTVSPropertyOp54
 70
     0
102
RTVSPropertyOp55
 70
     0
102
RTVSPropertyOp56
 70
     0
102
RTVSPropertyOp57
 70
     0
102
RTVSPropertyOp58
 70
     0
102
RTVSPropertyOp59
 70
     0
102
RTVSPropertyOp60
 70
     0
102
RTVSPropertyOp61
 70
     0
102
RTVSPropertyOp62
 70
     0
  0
XRECORD
  5
1743
102
{ACAD_REACTORS
330
1742
102
}
330
1742
100
AcDbXrecord
280
     1
102
RTVSPost2010Prop28
280
     0
102
RTVSPost2010PropOp28
 70
     1
102
RTVSPost2010Prop29
280
     1
102
RTVSPost2010PropOp29
 70
     1
102
RTVSPost2010Prop30
280
     1
102
RTVSPost2010PropOp30
 70
     1
102
RTVSPost2010Prop31
280
     0
102
RTVSPost2010PropOp31
 70
     1
102
RTVSPost2010Prop32
280
     0
102
RTVSPost2010PropOp32
 70
     1
102
RTVSPost2010Prop33
280
     0
102
RTVSPost2010PropOp33
 70
     1
102
RTVSPost2010Prop34
280
     0
102
RTVSPost2010PropOp34
 70
     1
102
RTVSPost2010Prop35
280
     0
102
RTVSPost2010PropOp35
 70
     1
102
RTVSPost2010Prop36
280
     0
102
RTVSPost2010PropOp36
 70
     1
102
RTVSPost2010Prop37
 90
       50
102
RTVSPost2010PropOp37
 70
     1
102
RTVSPost2010Prop38
140
0.0
102
RTVSPost2010PropOp38
 70
     1
102
RTVSPost2010Prop39
140
1.0
102
RTVSPost2010PropOp39
 70
     1
102
RTVSPost2010Prop40
 90
        0
102
RTVSPost2010PropOp40
 70
     1
102
RTVSPost2010Prop41ColorIndex
 90
       18
102
RTVSPost2010Prop41ColorRGB
 90
        0
102
RTVSPost2010PropOp41
 70
     1
102
RTVSPost2010Prop42
 90
       50
102
RTVSPost2010PropOp42
 70
     1
102
RTVSPost2010Prop43
 90
        3
102
RTVSPost2010PropOp43
 70
     1
102
RTVSPost2010Prop44ColorIndex
 90
        5
102
RTVSPost2010Prop44ColorRGB
 90
      255
102
RTVSPost2010PropOp44
 70
     1
102
RTVSPost2010Prop45
280
     0
102
RTVSPost2010PropOp45
 70
     1
102
RTVSPost2010Prop46
 90
       50
102
RTVSPost2010PropOp46
 70
     1
102
RTVSPost2010Prop47
 90
       50
102
RTVSPost2010PropOp47
 70
     1
102
RTVSPost2010Prop48
 90
       50
102
RTVSPost2010PropOp48
 70
     1
102
RTVSPost2010Prop49
280
     0
102
RTVSPost2010PropOp49
 70
     1
102
RTVSPost2010Prop50
 90
       50
102
RTVSPost2010PropOp50
 70
     1
102
RTVSPost2010Prop51ColorIndex
 90
      256
102
RTVSPost2010Prop51ColorRGB
 90
-16777216
102
RTVSPost2010PropOp51
 70
     0
102
RTVSPost2010Prop52
140
1.0
102
RTVSPost2010PropOp52
 70
     0
102
RTVSPost2010Prop53
 90
        2
102
RTVSPost2010PropOp53
 70
     1
102
RTVSPost2010Prop54
  1
strokes_ogs.tif
102
RTVSPost2010PropOp54
 70
     1
102
RTVSPost2010Prop55
280
     0
102
RTVSPost2010PropOp55
 70
     1
102
RTVSPost2010Prop56
140
1.0
102
RTVSPost2010PropOp56
 70
     1
102
RTVSPost2010Prop57
140
1.0
102
RTVSPost2010PropOp57
 70
     1
102
RTVSPropertyOp0
 70
     1
102
RTVSPropertyOp1
 70
     1
102
RTVSPropertyOp2
 70
     1
102
RTVSPropertyOp3
 70
     1
102
RTVSPropertyOp4
 70
     1
102
RTVSPropertyOp5
 70
     1
102
RTVSPropertyOp6
 70
     1
102
RTVSPropertyOp7
 70
     1
102
RTVSPropertyOp8
 70
     1
102
RTVSPropertyOp9
 70
     1
102
RTVSPropertyOp10
 70
     1
102
RTVSPropertyOp11
 70
     1
102
RTVSPropertyOp12
 70
     1
102
RTVSPropertyOp13
 70
     1
102
RTVSPropertyOp14
 70
     1
102
RTVSPropertyOp15
 70
     1
102
RTVSPropertyOp16
 70
     1
102
RTVSPropertyOp17
 70
     1
102
RTVSPropertyOp18
 70
     1
102
RTVSPropertyOp19
 70
     1
102
RTVSPropertyOp20
 70
     1
102
RTVSPropertyOp21
 70
     1
102
RTVSPropertyOp22
 70
     1
102
RTVSPropertyOp23
 70
     1
102
RTVSPropertyOp24
 70
     1
102
RTVSPropertyOp25
 70
     1
102
RTVSPropertyOp26
 70
     1
102
RTVSPropertyOp27
 70
     1
102
RTVSPropertyOp28
 70
     1
102
RTVSPropertyOp29
 70
     1
102
RTVSPropertyOp30
 70
     1
102
RTVSPropertyOp31
 70
     1
102
RTVSPropertyOp32
 70
     1
102
RTVSPropertyOp33
 70
     1
102
RTVSPropertyOp34
 70
     1
102
RTVSPropertyOp35
 70
     1
102
RTVSPropertyOp36
 70
     1
102
RTVSPropertyOp37
 70
     1
102
RTVSPropertyOp38
 70
     1
102
RTVSPropertyOp39
 70
     1
102
RTVSPropertyOp40
 70
     1
102
RTVSPropertyOp41
 70
     1
102
RTVSPropertyOp42
 70
     1
102
RTVSPropertyOp43
 70
     1
102
RTVSPropertyOp44
 70
     1
102
RTVSPropertyOp45
 70
     1
102
RTVSPropertyOp46
 70
     1
102
RTVSPropertyOp47
 70
     1
102
RTVSPropertyOp48
 70
     1
102
RTVSPropertyOp49
 70
     1
102
RTVSPropertyOp50
 70
     1
102
RTVSPropertyOp51
 70
     0
102
RTVSPropertyOp52
 70
     0
102
RTVSPropertyOp53
 70
     1
102
RTVSPropertyOp54
 70
     1
102
RTVSPropertyOp55
 70
     1
102
RTVSPropertyOp56
 70
     1
102
RTVSPropertyOp57
 70
     1
102
RTVSPropertyOp58
 70
     1
102
RTVSPropertyOp59
 70
     1
102
RTVSPropertyOp60
 70
     1
102
RTVSPropertyOp61
 70
     1
102
RTVSPropertyOp62
 70
     1
  0
XRECORD
  5
1727
102
{ACAD_REACTORS
330
1726
102
}
330
1726
100
AcDbXrecord
280
     1
102
RTVSPost2010Prop28
280
     0
102
RTVSPost2010PropOp28
 70
     1
102
RTVSPost2010Prop29
280
     1
102
RTVSPost2010PropOp29
 70
     1
102
RTVSPost2010Prop30
280
     1
102
RTVSPost2010PropOp30
 70
     1
102
RTVSPost2010Prop31
280
     0
102
RTVSPost2010PropOp31
 70
     1
102
RTVSPost2010Prop32
280
     0
102
RTVSPost2010PropOp32
 70
     1
102
RTVSPost2010Prop33
280
     0
102
RTVSPost2010PropOp33
 70
     1
102
RTVSPost2010Prop34
280
     0
102
RTVSPost2010PropOp34
 70
     1
102
RTVSPost2010Prop35
280
     0
102
RTVSPost2010PropOp35
 70
     1
102
RTVSPost2010Prop36
280
     0
102
RTVSPost2010PropOp36
 70
     1
102
RTVSPost2010Prop37
 90
       50
102
RTVSPost2010PropOp37
 70
     1
102
RTVSPost2010Prop38
140
0.0
102
RTVSPost2010PropOp38
 70
     1
102
RTVSPost2010Prop39
140
1.0
102
RTVSPost2010PropOp39
 70
     1
102
RTVSPost2010Prop40
 90
        0
102
RTVSPost2010PropOp40
 70
     1
102
RTVSPost2010Prop41ColorIndex
 90
       18
102
RTVSPost2010Prop41ColorRGB
 90
        0
102
RTVSPost2010PropOp41
 70
     1
102
RTVSPost2010Prop42
 90
       50
102
RTVSPost2010PropOp42
 70
     1
102
RTVSPost2010Prop43
 90
        3
102
RTVSPost2010PropOp43
 70
     1
102
RTVSPost2010Prop44ColorIndex
 90
        5
102
RTVSPost2010Prop44ColorRGB
 90
      255
102
RTVSPost2010PropOp44
 70
     1
102
RTVSPost2010Prop45
280
     0
102
RTVSPost2010PropOp45
 70
     1
102
RTVSPost2010Prop46
 90
       50
102
RTVSPost2010PropOp46
 70
     1
102
RTVSPost2010Prop47
 90
       50
102
RTVSPost2010PropOp47
 70
     1
102
RTVSPost2010Prop48
 90
       50
102
RTVSPost2010PropOp48
 70
     1
102
RTVSPost2010Prop49
280
     0
102
RTVSPost2010PropOp49
 70
     1
102
RTVSPost2010Prop50
 90
       50
102
RTVSPost2010PropOp50
 70
     1
102
RTVSPost2010Prop51ColorIndex
 90
      256
102
RTVSPost2010Prop51ColorRGB
 90
-16777216
102
RTVSPost2010PropOp51
 70
     0
102
RTVSPost2010Prop52
140
1.0
102
RTVSPost2010PropOp52
 70
     0
102
RTVSPost2010Prop53
 90
        2
102
RTVSPost2010PropOp53
 70
     1
102
RTVSPost2010Prop54
  1
strokes_ogs.tif
102
RTVSPost2010PropOp54
 70
     1
102
RTVSPost2010Prop55
280
     0
102
RTVSPost2010PropOp55
 70
     1
102
RTVSPost2010Prop56
140
1.0
102
RTVSPost2010PropOp56
 70
     1
102
RTVSPost2010Prop57
140
1.0
102
RTVSPost2010PropOp57
 70
     1
102
RTVSPropertyOp0
 70
     1
102
RTVSPropertyOp1
 70
     1
102
RTVSPropertyOp2
 70
     1
102
RTVSPropertyOp3
 70
     1
102
RTVSPropertyOp4
 70
     1
102
RTVSPropertyOp5
 70
     1
102
RTVSPropertyOp6
 70
     1
102
RTVSPropertyOp7
 70
     1
102
RTVSPropertyOp8
 70
     1
102
RTVSPropertyOp9
 70
     1
102
RTVSPropertyOp10
 70
     1
102
RTVSPropertyOp11
 70
     1
102
RTVSPropertyOp12
 70
     1
102
RTVSPropertyOp13
 70
     1
102
RTVSPropertyOp14
 70
     1
102
RTVSPropertyOp15
 70
     1
102
RTVSPropertyOp16
 70
     1
102
RTVSPropertyOp17
 70
     1
102
RTVSPropertyOp18
 70
     1
102
RTVSPropertyOp19
 70
     1
102
RTVSPropertyOp20
 70
     1
102
RTVSPropertyOp21
 70
     1
102
RTVSPropertyOp22
 70
     1
102
RTVSPropertyOp23
 70
     1
102
RTVSPropertyOp24
 70
     1
102
RTVSPropertyOp25
 70
     1
102
RTVSPropertyOp26
 70
     1
102
RTVSPropertyOp27
 70
     1
102
RTVSPropertyOp28
 70
     1
102
RTVSPropertyOp29
 70
     1
102
RTVSPropertyOp30
 70
     1
102
RTVSPropertyOp31
 70
     1
102
RTVSPropertyOp32
 70
     1
102
RTVSPropertyOp33
 70
     1
102
RTVSPropertyOp34
 70
     1
102
RTVSPropertyOp35
 70
     1
102
RTVSPropertyOp36
 70
     1
102
RTVSPropertyOp37
 70
     1
102
RTVSPropertyOp38
 70
     1
102
RTVSPropertyOp39
 70
     1
102
RTVSPropertyOp40
 70
     1
102
RTVSPropertyOp41
 70
     1
102
RTVSPropertyOp42
 70
     1
102
RTVSPropertyOp43
 70
     1
102
RTVSPropertyOp44
 70
     1
102
RTVSPropertyOp45
 70
     1
102
RTVSPropertyOp46
 70
     1
102
RTVSPropertyOp47
 70
     1
102
RTVSPropertyOp48
 70
     1
102
RTVSPropertyOp49
 70
     1
102
RTVSPropertyOp50
 70
     1
102
RTVSPropertyOp51
 70
     0
102
RTVSPropertyOp52
 70
     0
102
RTVSPropertyOp53
 70
     1
102
RTVSPropertyOp54
 70
     1
102
RTVSPropertyOp55
 70
     1
102
RTVSPropertyOp56
 70
     1
102
RTVSPropertyOp57
 70
     1
102
RTVSPropertyOp58
 70
     1
102
RTVSPropertyOp59
 70
     1
102
RTVSPropertyOp60
 70
     1
102
RTVSPropertyOp61
 70
     1
102
RTVSPropertyOp62
 70
     1
  0
XRECORD
  5
1729
102
{ACAD_REACTORS
330
1728
102
}
330
1728
100
AcDbXrecord
280
     1
102
RTVSPost2010Prop28
280
     0
102
RTVSPost2010PropOp28
 70
     1
102
RTVSPost2010Prop29
280
     1
102
RTVSPost2010PropOp29
 70
     1
102
RTVSPost2010Prop30
280
     1
102
RTVSPost2010PropOp30
 70
     1
102
RTVSPost2010Prop31
280
     0
102
RTVSPost2010PropOp31
 70
     1
102
RTVSPost2010Prop32
280
     0
102
RTVSPost2010PropOp32
 70
     1
102
RTVSPost2010Prop33
280
     0
102
RTVSPost2010PropOp33
 70
     1
102
RTVSPost2010Prop34
280
     0
102
RTVSPost2010PropOp34
 70
     1
102
RTVSPost2010Prop35
280
     0
102
RTVSPost2010PropOp35
 70
     1
102
RTVSPost2010Prop36
280
     0
102
RTVSPost2010PropOp36
 70
     1
102
RTVSPost2010Prop37
 90
       50
102
RTVSPost2010PropOp37
 70
     1
102
RTVSPost2010Prop38
140
0.0
102
RTVSPost2010PropOp38
 70
     1
102
RTVSPost2010Prop39
140
1.0
102
RTVSPost2010PropOp39
 70
     1
102
RTVSPost2010Prop40
 90
        0
102
RTVSPost2010PropOp40
 70
     1
102
RTVSPost2010Prop41ColorIndex
 90
       18
102
RTVSPost2010Prop41ColorRGB
 90
        0
102
RTVSPost2010PropOp41
 70
     1
102
RTVSPost2010Prop42
 90
       50
102
RTVSPost2010PropOp42
 70
     1
102
RTVSPost2010Prop43
 90
        3
102
RTVSPost2010PropOp43
 70
     1
102
RTVSPost2010Prop44ColorIndex
 90
        5
102
RTVSPost2010Prop44ColorRGB
 90
      255
102
RTVSPost2010PropOp44
 70
     1
102
RTVSPost2010Prop45
280
     0
102
RTVSPost2010PropOp45
 70
     1
102
RTVSPost2010Prop46
 90
       50
102
RTVSPost2010PropOp46
 70
     1
102
RTVSPost2010Prop47
 90
       50
102
RTVSPost2010PropOp47
 70
     1
102
RTVSPost2010Prop48
 90
       50
102
RTVSPost2010PropOp48
 70
     1
102
RTVSPost2010Prop49
280
     0
102
RTVSPost2010PropOp49
 70
     1
102
RTVSPost2010Prop50
 90
       50
102
RTVSPost2010PropOp50
 70
     1
102
RTVSPost2010Prop51ColorIndex
 90
      256
102
RTVSPost2010Prop51ColorRGB
 90
-16777216
102
RTVSPost2010PropOp51
 70
     0
102
RTVSPost2010Prop52
140
1.0
102
RTVSPost2010PropOp52
 70
     0
102
RTVSPost2010Prop53
 90
        2
102
RTVSPost2010PropOp53
 70
     1
102
RTVSPost2010Prop54
  1
strokes_ogs.tif
102
RTVSPost2010PropOp54
 70
     1
102
RTVSPost2010Prop55
280
     0
102
RTVSPost2010PropOp55
 70
     1
102
RTVSPost2010Prop56
140
1.0
102
RTVSPost2010PropOp56
 70
     1
102
RTVSPost2010Prop57
140
1.0
102
RTVSPost2010PropOp57
 70
     1
102
RTVSPropertyOp0
 70
     1
102
RTVSPropertyOp1
 70
     1
102
RTVSPropertyOp2
 70
     1
102
RTVSPropertyOp3
 70
     1
102
RTVSPropertyOp4
 70
     1
102
RTVSPropertyOp5
 70
     1
102
RTVSPropertyOp6
 70
     1
102
RTVSPropertyOp7
 70
     1
102
RTVSPropertyOp8
 70
     1
102
RTVSPropertyOp9
 70
     1
102
RTVSPropertyOp10
 70
     1
102
RTVSPropertyOp11
 70
     1
102
RTVSPropertyOp12
 70
     1
102
RTVSPropertyOp13
 70
     1
102
RTVSPropertyOp14
 70
     1
102
RTVSPropertyOp15
 70
     1
102
RTVSPropertyOp16
 70
     1
102
RTVSPropertyOp17
 70
     1
102
RTVSPropertyOp18
 70
     1
102
RTVSPropertyOp19
 70
     1
102
RTVSPropertyOp20
 70
     1
102
RTVSPropertyOp21
 70
     1
102
RTVSPropertyOp22
 70
     1
102
RTVSPropertyOp23
 70
     1
102
RTVSPropertyOp24
 70
     1
102
RTVSPropertyOp25
 70
     1
102
RTVSPropertyOp26
 70
     1
102
RTVSPropertyOp27
 70
     1
102
RTVSPropertyOp28
 70
     1
102
RTVSPropertyOp29
 70
     1
102
RTVSPropertyOp30
 70
     1
102
RTVSPropertyOp31
 70
     1
102
RTVSPropertyOp32
 70
     1
102
RTVSPropertyOp33
 70
     1
102
RTVSPropertyOp34
 70
     1
102
RTVSPropertyOp35
 70
     1
102
RTVSPropertyOp36
 70
     1
102
RTVSPropertyOp37
 70
     1
102
RTVSPropertyOp38
 70
     1
102
RTVSPropertyOp39
 70
     1
102
RTVSPropertyOp40
 70
     1
102
RTVSPropertyOp41
 70
     1
102
RTVSPropertyOp42
 70
     1
102
RTVSPropertyOp43
 70
     1
102
RTVSPropertyOp44
 70
     1
102
RTVSPropertyOp45
 70
     1
102
RTVSPropertyOp46
 70
     1
102
RTVSPropertyOp47
 70
     1
102
RTVSPropertyOp48
 70
     1
102
RTVSPropertyOp49
 70
     1
102
RTVSPropertyOp50
 70
     1
102
RTVSPropertyOp51
 70
     0
102
RTVSPropertyOp52
 70
     0
102
RTVSPropertyOp53
 70
     1
102
RTVSPropertyOp54
 70
     1
102
RTVSPropertyOp55
 70
     1
102
RTVSPropertyOp56
 70
     1
102
RTVSPropertyOp57
 70
     1
102
RTVSPropertyOp58
 70
     1
102
RTVSPropertyOp59
 70
     1
102
RTVSPropertyOp60
 70
     1
102
RTVSPropertyOp61
 70
     1
102
RTVSPropertyOp62
 70
     1
  0
XRECORD
  5
172B
102
{ACAD_REACTORS
330
172A
102
}
330
172A
100
AcDbXrecord
280
     1
102
RTVSPost2010Prop28
280
     0
102
RTVSPost2010PropOp28
 70
     1
102
RTVSPost2010Prop29
280
     1
102
RTVSPost2010PropOp29
 70
     1
102
RTVSPost2010Prop30
280
     1
102
RTVSPost2010PropOp30
 70
     1
102
RTVSPost2010Prop31
280
     0
102
RTVSPost2010PropOp31
 70
     1
102
RTVSPost2010Prop32
280
     0
102
RTVSPost2010PropOp32
 70
     1
102
RTVSPost2010Prop33
280
     0
102
RTVSPost2010PropOp33
 70
     1
102
RTVSPost2010Prop34
280
     0
102
RTVSPost2010PropOp34
 70
     1
102
RTVSPost2010Prop35
280
     0
102
RTVSPost2010PropOp35
 70
     1
102
RTVSPost2010Prop36
280
     0
102
RTVSPost2010PropOp36
 70
     1
102
RTVSPost2010Prop37
 90
       50
102
RTVSPost2010PropOp37
 70
     1
102
RTVSPost2010Prop38
140
0.0
102
RTVSPost2010PropOp38
 70
     1
102
RTVSPost2010Prop39
140
1.0
102
RTVSPost2010PropOp39
 70
     1
102
RTVSPost2010Prop40
 90
        0
102
RTVSPost2010PropOp40
 70
     1
102
RTVSPost2010Prop41ColorIndex
 90
       18
102
RTVSPost2010Prop41ColorRGB
 90
        0
102
RTVSPost2010PropOp41
 70
     1
102
RTVSPost2010Prop42
 90
       50
102
RTVSPost2010PropOp42
 70
     1
102
RTVSPost2010Prop43
 90
        3
102
RTVSPost2010PropOp43
 70
     1
102
RTVSPost2010Prop44ColorIndex
 90
        5
102
RTVSPost2010Prop44ColorRGB
 90
      255
102
RTVSPost2010PropOp44
 70
     1
102
RTVSPost2010Prop45
280
     0
102
RTVSPost2010PropOp45
 70
     1
102
RTVSPost2010Prop46
 90
       50
102
RTVSPost2010PropOp46
 70
     1
102
RTVSPost2010Prop47
 90
       50
102
RTVSPost2010PropOp47
 70
     1
102
RTVSPost2010Prop48
 90
       50
102
RTVSPost2010PropOp48
 70
     1
102
RTVSPost2010Prop49
280
     0
102
RTVSPost2010PropOp49
 70
     1
102
RTVSPost2010Prop50
 90
       50
102
RTVSPost2010PropOp50
 70
     1
102
RTVSPost2010Prop51ColorIndex
 90
      256
102
RTVSPost2010Prop51ColorRGB
 90
-16777216
102
RTVSPost2010PropOp51
 70
     0
102
RTVSPost2010Prop52
140
1.0
102
RTVSPost2010PropOp52
 70
     0
102
RTVSPost2010Prop53
 90
        2
102
RTVSPost2010PropOp53
 70
     1
102
RTVSPost2010Prop54
  1
strokes_ogs.tif
102
RTVSPost2010PropOp54
 70
     1
102
RTVSPost2010Prop55
280
     0
102
RTVSPost2010PropOp55
 70
     1
102
RTVSPost2010Prop56
140
1.0
102
RTVSPost2010PropOp56
 70
     1
102
RTVSPost2010Prop57
140
1.0
102
RTVSPost2010PropOp57
 70
     1
102
RTVSPropertyOp0
 70
     1
102
RTVSPropertyOp1
 70
     1
102
RTVSPropertyOp2
 70
     1
102
RTVSPropertyOp3
 70
     1
102
RTVSPropertyOp4
 70
     1
102
RTVSPropertyOp5
 70
     1
102
RTVSPropertyOp6
 70
     1
102
RTVSPropertyOp7
 70
     1
102
RTVSPropertyOp8
 70
     1
102
RTVSPropertyOp9
 70
     1
102
RTVSPropertyOp10
 70
     1
102
RTVSPropertyOp11
 70
     1
102
RTVSPropertyOp12
 70
     1
102
RTVSPropertyOp13
 70
     1
102
RTVSPropertyOp14
 70
     1
102
RTVSPropertyOp15
 70
     1
102
RTVSPropertyOp16
 70
     1
102
RTVSPropertyOp17
 70
     1
102
RTVSPropertyOp18
 70
     1
102
RTVSPropertyOp19
 70
     1
102
RTVSPropertyOp20
 70
     1
102
RTVSPropertyOp21
 70
     1
102
RTVSPropertyOp22
 70
     1
102
RTVSPropertyOp23
 70
     1
102
RTVSPropertyOp24
 70
     1
102
RTVSPropertyOp25
 70
     1
102
RTVSPropertyOp26
 70
     1
102
RTVSPropertyOp27
 70
     1
102
RTVSPropertyOp28
 70
     1
102
RTVSPropertyOp29
 70
     1
102
RTVSPropertyOp30
 70
     1
102
RTVSPropertyOp31
 70
     1
102
RTVSPropertyOp32
 70
     1
102
RTVSPropertyOp33
 70
     1
102
RTVSPropertyOp34
 70
     1
102
RTVSPropertyOp35
 70
     1
102
RTVSPropertyOp36
 70
     1
102
RTVSPropertyOp37
 70
     1
102
RTVSPropertyOp38
 70
     1
102
RTVSPropertyOp39
 70
     1
102
RTVSPropertyOp40
 70
     1
102
RTVSPropertyOp41
 70
     1
102
RTVSPropertyOp42
 70
     1
102
RTVSPropertyOp43
 70
     1
102
RTVSPropertyOp44
 70
     1
102
RTVSPropertyOp45
 70
     1
102
RTVSPropertyOp46
 70
     1
102
RTVSPropertyOp47
 70
     1
102
RTVSPropertyOp48
 70
     1
102
RTVSPropertyOp49
 70
     1
102
RTVSPropertyOp50
 70
     1
102
RTVSPropertyOp51
 70
     0
102
RTVSPropertyOp52
 70
     0
102
RTVSPropertyOp53
 70
     1
102
RTVSPropertyOp54
 70
     1
102
RTVSPropertyOp55
 70
     1
102
RTVSPropertyOp56
 70
     1
102
RTVSPropertyOp57
 70
     1
102
RTVSPropertyOp58
 70
     1
102
RTVSPropertyOp59
 70
     1
102
RTVSPropertyOp60
 70
     1
102
RTVSPropertyOp61
 70
     1
102
RTVSPropertyOp62
 70
     1
  0
XRECORD
  5
172D
102
{ACAD_REACTORS
330
172C
102
}
330
172C
100
AcDbXrecord
280
     1
102
RTVSPost2010Prop28
280
     0
102
RTVSPost2010PropOp28
 70
     1
102
RTVSPost2010Prop29
280
     1
102
RTVSPost2010PropOp29
 70
     1
102
RTVSPost2010Prop30
280
     1
102
RTVSPost2010PropOp30
 70
     1
102
RTVSPost2010Prop31
280
     0
102
RTVSPost2010PropOp31
 70
     1
102
RTVSPost2010Prop32
280
     0
102
RTVSPost2010PropOp32
 70
     1
102
RTVSPost2010Prop33
280
     0
102
RTVSPost2010PropOp33
 70
     1
102
RTVSPost2010Prop34
280
     0
102
RTVSPost2010PropOp34
 70
     1
102
RTVSPost2010Prop35
280
     0
102
RTVSPost2010PropOp35
 70
     1
102
RTVSPost2010Prop36
280
     0
102
RTVSPost2010PropOp36
 70
     1
102
RTVSPost2010Prop37
 90
       50
102
RTVSPost2010PropOp37
 70
     1
102
RTVSPost2010Prop38
140
0.0
102
RTVSPost2010PropOp38
 70
     1
102
RTVSPost2010Prop39
140
1.0
102
RTVSPost2010PropOp39
 70
     1
102
RTVSPost2010Prop40
 90
        0
102
RTVSPost2010PropOp40
 70
     1
102
RTVSPost2010Prop41ColorIndex
 90
       18
102
RTVSPost2010Prop41ColorRGB
 90
        0
102
RTVSPost2010PropOp41
 70
     1
102
RTVSPost2010Prop42
 90
       50
102
RTVSPost2010PropOp42
 70
     1
102
RTVSPost2010Prop43
 90
        3
102
RTVSPost2010PropOp43
 70
     1
102
RTVSPost2010Prop44ColorIndex
 90
        5
102
RTVSPost2010Prop44ColorRGB
 90
      255
102
RTVSPost2010PropOp44
 70
     1
102
RTVSPost2010Prop45
280
     0
102
RTVSPost2010PropOp45
 70
     1
102
RTVSPost2010Prop46
 90
       50
102
RTVSPost2010PropOp46
 70
     1
102
RTVSPost2010Prop47
 90
       50
102
RTVSPost2010PropOp47
 70
     1
102
RTVSPost2010Prop48
 90
       50
102
RTVSPost2010PropOp48
 70
     1
102
RTVSPost2010Prop49
280
     0
102
RTVSPost2010PropOp49
 70
     1
102
RTVSPost2010Prop50
 90
       50
102
RTVSPost2010PropOp50
 70
     1
102
RTVSPost2010Prop51ColorIndex
 90
      256
102
RTVSPost2010Prop51ColorRGB
 90
-16777216
102
RTVSPost2010PropOp51
 70
     0
102
RTVSPost2010Prop52
140
1.0
102
RTVSPost2010PropOp52
 70
     0
102
RTVSPost2010Prop53
 90
        2
102
RTVSPost2010PropOp53
 70
     1
102
RTVSPost2010Prop54
  1
strokes_ogs.tif
102
RTVSPost2010PropOp54
 70
     1
102
RTVSPost2010Prop55
280
     0
102
RTVSPost2010PropOp55
 70
     1
102
RTVSPost2010Prop56
140
1.0
102
RTVSPost2010PropOp56
 70
     1
102
RTVSPost2010Prop57
140
1.0
102
RTVSPost2010PropOp57
 70
     1
102
RTVSPropertyOp0
 70
     1
102
RTVSPropertyOp1
 70
     1
102
RTVSPropertyOp2
 70
     1
102
RTVSPropertyOp3
 70
     1
102
RTVSPropertyOp4
 70
     1
102
RTVSPropertyOp5
 70
     1
102
RTVSPropertyOp6
 70
     1
102
RTVSPropertyOp7
 70
     1
102
RTVSPropertyOp8
 70
     1
102
RTVSPropertyOp9
 70
     1
102
RTVSPropertyOp10
 70
     1
102
RTVSPropertyOp11
 70
     1
102
RTVSPropertyOp12
 70
     1
102
RTVSPropertyOp13
 70
     1
102
RTVSPropertyOp14
 70
     1
102
RTVSPropertyOp15
 70
     1
102
RTVSPropertyOp16
 70
     1
102
RTVSPropertyOp17
 70
     1
102
RTVSPropertyOp18
 70
     1
102
RTVSPropertyOp19
 70
     1
102
RTVSPropertyOp20
 70
     1
102
RTVSPropertyOp21
 70
     1
102
RTVSPropertyOp22
 70
     1
102
RTVSPropertyOp23
 70
     1
102
RTVSPropertyOp24
 70
     1
102
RTVSPropertyOp25
 70
     1
102
RTVSPropertyOp26
 70
     1
102
RTVSPropertyOp27
 70
     1
102
RTVSPropertyOp28
 70
     1
102
RTVSPropertyOp29
 70
     1
102
RTVSPropertyOp30
 70
     1
102
RTVSPropertyOp31
 70
     1
102
RTVSPropertyOp32
 70
     1
102
RTVSPropertyOp33
 70
     1
102
RTVSPropertyOp34
 70
     1
102
RTVSPropertyOp35
 70
     1
102
RTVSPropertyOp36
 70
     1
102
RTVSPropertyOp37
 70
     1
102
RTVSPropertyOp38
 70
     1
102
RTVSPropertyOp39
 70
     1
102
RTVSPropertyOp40
 70
     1
102
RTVSPropertyOp41
 70
     1
102
RTVSPropertyOp42
 70
     1
102
RTVSPropertyOp43
 70
     1
102
RTVSPropertyOp44
 70
     1
102
RTVSPropertyOp45
 70
     1
102
RTVSPropertyOp46
 70
     1
102
RTVSPropertyOp47
 70
     1
102
RTVSPropertyOp48
 70
     1
102
RTVSPropertyOp49
 70
     1
102
RTVSPropertyOp50
 70
     1
102
RTVSPropertyOp51
 70
     0
102
RTVSPropertyOp52
 70
     0
102
RTVSPropertyOp53
 70
     1
102
RTVSPropertyOp54
 70
     1
102
RTVSPropertyOp55
 70
     1
102
RTVSPropertyOp56
 70
     1
102
RTVSPropertyOp57
 70
     1
102
RTVSPropertyOp58
 70
     1
102
RTVSPropertyOp59
 70
     1
102
RTVSPropertyOp60
 70
     1
102
RTVSPropertyOp61
 70
     1
102
RTVSPropertyOp62
 70
     1
  0
XRECORD
  5
174A
102
{ACAD_REACTORS
330
1749
102
}
330
1749
100
AcDbXrecord
280
     1
102
RTVSPost2010Prop28
280
     0
102
RTVSPost2010PropOp28
 70
     1
102
RTVSPost2010Prop29
280
     1
102
RTVSPost2010PropOp29
 70
     1
102
RTVSPost2010Prop30
280
     1
102
RTVSPost2010PropOp30
 70
     1
102
RTVSPost2010Prop31
280
     0
102
RTVSPost2010PropOp31
 70
     1
102
RTVSPost2010Prop32
280
     0
102
RTVSPost2010PropOp32
 70
     1
102
RTVSPost2010Prop33
280
     0
102
RTVSPost2010PropOp33
 70
     1
102
RTVSPost2010Prop34
280
     0
102
RTVSPost2010PropOp34
 70
     1
102
RTVSPost2010Prop35
280
     0
102
RTVSPost2010PropOp35
 70
     1
102
RTVSPost2010Prop36
280
     0
102
RTVSPost2010PropOp36
 70
     1
102
RTVSPost2010Prop37
 90
       50
102
RTVSPost2010PropOp37
 70
     1
102
RTVSPost2010Prop38
140
0.0
102
RTVSPost2010PropOp38
 70
     1
102
RTVSPost2010Prop39
140
1.0
102
RTVSPost2010PropOp39
 70
     1
102
RTVSPost2010Prop40
 90
        0
102
RTVSPost2010PropOp40
 70
     1
102
RTVSPost2010Prop41ColorIndex
 90
       18
102
RTVSPost2010Prop41ColorRGB
 90
        0
102
RTVSPost2010PropOp41
 70
     1
102
RTVSPost2010Prop42
 90
       50
102
RTVSPost2010PropOp42
 70
     1
102
RTVSPost2010Prop43
 90
        3
102
RTVSPost2010PropOp43
 70
     1
102
RTVSPost2010Prop44ColorIndex
 90
        5
102
RTVSPost2010Prop44ColorRGB
 90
      255
102
RTVSPost2010PropOp44
 70
     1
102
RTVSPost2010Prop45
280
     0
102
RTVSPost2010PropOp45
 70
     1
102
RTVSPost2010Prop46
 90
       50
102
RTVSPost2010PropOp46
 70
     1
102
RTVSPost2010Prop47
 90
       50
102
RTVSPost2010PropOp47
 70
     1
102
RTVSPost2010Prop48
 90
       50
102
RTVSPost2010PropOp48
 70
     1
102
RTVSPost2010Prop49
280
     0
102
RTVSPost2010PropOp49
 70
     1
102
RTVSPost2010Prop50
 90
       50
102
RTVSPost2010PropOp50
 70
     1
102
RTVSPost2010Prop51ColorIndex
 90
      256
102
RTVSPost2010Prop51ColorRGB
 90
-16777216
102
RTVSPost2010PropOp51
 70
     0
102
RTVSPost2010Prop52
140
1.0
102
RTVSPost2010PropOp52
 70
     0
102
RTVSPost2010Prop53
 90
        2
102
RTVSPost2010PropOp53
 70
     1
102
RTVSPost2010Prop54
  1
strokes_ogs.tif
102
RTVSPost2010PropOp54
 70
     1
102
RTVSPost2010Prop55
280
     0
102
RTVSPost2010PropOp55
 70
     1
102
RTVSPost2010Prop56
140
1.0
102
RTVSPost2010PropOp56
 70
     1
102
RTVSPost2010Prop57
140
1.0
102
RTVSPost2010PropOp57
 70
     1
102
RTVSPropertyOp0
 70
     1
102
RTVSPropertyOp1
 70
     1
102
RTVSPropertyOp2
 70
     1
102
RTVSPropertyOp3
 70
     1
102
RTVSPropertyOp4
 70
     1
102
RTVSPropertyOp5
 70
     1
102
RTVSPropertyOp6
 70
     1
102
RTVSPropertyOp7
 70
     1
102
RTVSPropertyOp8
 70
     1
102
RTVSPropertyOp9
 70
     1
102
RTVSPropertyOp10
 70
     1
102
RTVSPropertyOp11
 70
     1
102
RTVSPropertyOp12
 70
     1
102
RTVSPropertyOp13
 70
     1
102
RTVSPropertyOp14
 70
     1
102
RTVSPropertyOp15
 70
     1
102
RTVSPropertyOp16
 70
     1
102
RTVSPropertyOp17
 70
     1
102
RTVSPropertyOp18
 70
     1
102
RTVSPropertyOp19
 70
     1
102
RTVSPropertyOp20
 70
     1
102
RTVSPropertyOp21
 70
     1
102
RTVSPropertyOp22
 70
     1
102
RTVSPropertyOp23
 70
     1
102
RTVSPropertyOp24
 70
     1
102
RTVSPropertyOp25
 70
     1
102
RTVSPropertyOp26
 70
     1
102
RTVSPropertyOp27
 70
     1
102
RTVSPropertyOp28
 70
     1
102
RTVSPropertyOp29
 70
     1
102
RTVSPropertyOp30
 70
     1
102
RTVSPropertyOp31
 70
     1
102
RTVSPropertyOp32
 70
     1
102
RTVSPropertyOp33
 70
     1
102
RTVSPropertyOp34
 70
     1
102
RTVSPropertyOp35
 70
     1
102
RTVSPropertyOp36
 70
     1
102
RTVSPropertyOp37
 70
     1
102
RTVSPropertyOp38
 70
     1
102
RTVSPropertyOp39
 70
     1
102
RTVSPropertyOp40
 70
     1
102
RTVSPropertyOp41
 70
     1
102
RTVSPropertyOp42
 70
     1
102
RTVSPropertyOp43
 70
     1
102
RTVSPropertyOp44
 70
     1
102
RTVSPropertyOp45
 70
     1
102
RTVSPropertyOp46
 70
     1
102
RTVSPropertyOp47
 70
     1
102
RTVSPropertyOp48
 70
     1
102
RTVSPropertyOp49
 70
     1
102
RTVSPropertyOp50
 70
     1
102
RTVSPropertyOp51
 70
     0
102
RTVSPropertyOp52
 70
     0
102
RTVSPropertyOp53
 70
     1
102
RTVSPropertyOp54
 70
     1
102
RTVSPropertyOp55
 70
     1
102
RTVSPropertyOp56
 70
     1
102
RTVSPropertyOp57
 70
     1
102
RTVSPropertyOp58
 70
     1
102
RTVSPropertyOp59
 70
     1
102
RTVSPropertyOp60
 70
     1
102
RTVSPropertyOp61
 70
     1
102
RTVSPropertyOp62
 70
     1
  0
XRECORD
  5
1756
102
{ACAD_REACTORS
330
1755
102
}
330
1755
100
AcDbXrecord
280
     1
102
RTVSPost2010Prop28
280
     0
102
RTVSPost2010PropOp28
 70
     0
102
RTVSPost2010Prop29
280
     1
102
RTVSPost2010PropOp29
 70
     0
102
RTVSPost2010Prop30
280
     1
102
RTVSPost2010PropOp30
 70
     0
102
RTVSPost2010Prop31
280
     0
102
RTVSPost2010PropOp31
 70
     0
102
RTVSPost2010Prop32
280
     0
102
RTVSPost2010PropOp32
 70
     0
102
RTVSPost2010Prop33
280
     0
102
RTVSPost2010PropOp33
 70
     0
102
RTVSPost2010Prop34
280
     0
102
RTVSPost2010PropOp34
 70
     0
102
RTVSPost2010Prop35
280
     0
102
RTVSPost2010PropOp35
 70
     0
102
RTVSPost2010Prop36
280
     0
102
RTVSPost2010PropOp36
 70
     0
102
RTVSPost2010Prop37
 90
       50
102
RTVSPost2010PropOp37
 70
     0
102
RTVSPost2010Prop38
140
0.0
102
RTVSPost2010PropOp38
 70
     0
102
RTVSPost2010Prop39
140
1.0
102
RTVSPost2010PropOp39
 70
     0
102
RTVSPost2010Prop40
 90
        0
102
RTVSPost2010PropOp40
 70
     0
102
RTVSPost2010Prop41ColorIndex
 90
       18
102
RTVSPost2010Prop41ColorRGB
 90
        0
102
RTVSPost2010PropOp41
 70
     0
102
RTVSPost2010Prop42
 90
       50
102
RTVSPost2010PropOp42
 70
     0
102
RTVSPost2010Prop43
 90
        3
102
RTVSPost2010PropOp43
 70
     0
102
RTVSPost2010Prop44ColorIndex
 90
        5
102
RTVSPost2010Prop44ColorRGB
 90
      255
102
RTVSPost2010PropOp44
 70
     0
102
RTVSPost2010Prop45
280
     0
102
RTVSPost2010PropOp45
 70
     0
102
RTVSPost2010Prop46
 90
       50
102
RTVSPost2010PropOp46
 70
     0
102
RTVSPost2010Prop47
 90
       50
102
RTVSPost2010PropOp47
 70
     0
102
RTVSPost2010Prop48
 90
       50
102
RTVSPost2010PropOp48
 70
     0
102
RTVSPost2010Prop49
280
     0
102
RTVSPost2010PropOp49
 70
     0
102
RTVSPost2010Prop50
 90
       50
102
RTVSPost2010PropOp50
 70
     0
102
RTVSPost2010Prop51ColorIndex
 90
      256
102
RTVSPost2010Prop51ColorRGB
 90
-16777216
102
RTVSPost2010PropOp51
 70
     0
102
RTVSPost2010Prop52
140
1.0
102
RTVSPost2010PropOp52
 70
     0
102
RTVSPost2010Prop53
 90
        2
102
RTVSPost2010PropOp53
 70
     0
102
RTVSPost2010Prop54
  1
strokes_ogs.tif
102
RTVSPost2010PropOp54
 70
     0
102
RTVSPost2010Prop55
280
     0
102
RTVSPost2010PropOp55
 70
     0
102
RTVSPost2010Prop56
140
1.0
102
RTVSPost2010PropOp56
 70
     0
102
RTVSPost2010Prop57
140
1.0
102
RTVSPost2010PropOp57
 70
     0
102
RTVSPropertyOp0
 70
     0
102
RTVSPropertyOp1
 70
     0
102
RTVSPropertyOp2
 70
     0
102
RTVSPropertyOp3
 70
     0
102
RTVSPropertyOp4
 70
     0
102
RTVSPropertyOp5
 70
     0
102
RTVSPropertyOp6
 70
     0
102
RTVSPropertyOp7
 70
     0
102
RTVSPropertyOp8
 70
     0
102
RTVSPropertyOp9
 70
     0
102
RTVSPropertyOp10
 70
     0
102
RTVSPropertyOp11
 70
     0
102
RTVSPropertyOp12
 70
     0
102
RTVSPropertyOp13
 70
     0
102
RTVSPropertyOp14
 70
     2
102
RTVSPropertyOp15
 70
     0
102
RTVSPropertyOp16
 70
     0
102
RTVSPropertyOp17
 70
     0
102
RTVSPropertyOp18
 70
     0
102
RTVSPropertyOp19
 70
     0
102
RTVSPropertyOp20
 70
     0
102
RTVSPropertyOp21
 70
     0
102
RTVSPropertyOp22
 70
     0
102
RTVSPropertyOp23
 70
     0
102
RTVSPropertyOp24
 70
     0
102
RTVSPropertyOp25
 70
     0
102
RTVSPropertyOp26
 70
     0
102
RTVSPropertyOp27
 70
     0
102
RTVSPropertyOp28
 70
     0
102
RTVSPropertyOp29
 70
     0
102
RTVSPropertyOp30
 70
     0
102
RTVSPropertyOp31
 70
     0
102
RTVSPropertyOp32
 70
     0
102
RTVSPropertyOp33
 70
     0
102
RTVSPropertyOp34
 70
     0
102
RTVSPropertyOp35
 70
     0
102
RTVSPropertyOp36
 70
     0
102
RTVSPropertyOp37
 70
     0
102
RTVSPropertyOp38
 70
     0
102
RTVSPropertyOp39
 70
     0
102
RTVSPropertyOp40
 70
     0
102
RTVSPropertyOp41
 70
     0
102
RTVSPropertyOp42
 70
     0
102
RTVSPropertyOp43
 70
     0
102
RTVSPropertyOp44
 70
     0
102
RTVSPropertyOp45
 70
     0
102
RTVSPropertyOp46
 70
     0
102
RTVSPropertyOp47
 70
     0
102
RTVSPropertyOp48
 70
     0
102
RTVSPropertyOp49
 70
     0
102
RTVSPropertyOp50
 70
     0
102
RTVSPropertyOp51
 70
     0
102
RTVSPropertyOp52
 70
     0
102
RTVSPropertyOp53
 70
     0
102
RTVSPropertyOp54
 70
     0
102
RTVSPropertyOp55
 70
     0
102
RTVSPropertyOp56
 70
     0
102
RTVSPropertyOp57
 70
     0
102
RTVSPropertyOp58
 70
     0
102
RTVSPropertyOp59
 70
     0
102
RTVSPropertyOp60
 70
     0
102
RTVSPropertyOp61
 70
     0
102
RTVSPropertyOp62
 70
     0
  0
XRECORD
  5
1741
102
{ACAD_REACTORS
330
1740
102
}
330
1740
100
AcDbXrecord
280
     1
102
RTVSPost2010Prop28
280
     0
102
RTVSPost2010PropOp28
 70
     1
102
RTVSPost2010Prop29
280
     1
102
RTVSPost2010PropOp29
 70
     1
102
RTVSPost2010Prop30
280
     1
102
RTVSPost2010PropOp30
 70
     1
102
RTVSPost2010Prop31
280
     0
102
RTVSPost2010PropOp31
 70
     1
102
RTVSPost2010Prop32
280
     0
102
RTVSPost2010PropOp32
 70
     1
102
RTVSPost2010Prop33
280
     0
102
RTVSPost2010PropOp33
 70
     1
102
RTVSPost2010Prop34
280
     0
102
RTVSPost2010PropOp34
 70
     1
102
RTVSPost2010Prop35
280
     0
102
RTVSPost2010PropOp35
 70
     1
102
RTVSPost2010Prop36
280
     0
102
RTVSPost2010PropOp36
 70
     1
102
RTVSPost2010Prop37
 90
       50
102
RTVSPost2010PropOp37
 70
     1
102
RTVSPost2010Prop38
140
0.0
102
RTVSPost2010PropOp38
 70
     1
102
RTVSPost2010Prop39
140
1.0
102
RTVSPost2010PropOp39
 70
     1
102
RTVSPost2010Prop40
 90
        0
102
RTVSPost2010PropOp40
 70
     1
102
RTVSPost2010Prop41ColorIndex
 90
       18
102
RTVSPost2010Prop41ColorRGB
 90
        0
102
RTVSPost2010PropOp41
 70
     1
102
RTVSPost2010Prop42
 90
       50
102
RTVSPost2010PropOp42
 70
     1
102
RTVSPost2010Prop43
 90
        3
102
RTVSPost2010PropOp43
 70
     1
102
RTVSPost2010Prop44ColorIndex
 90
        5
102
RTVSPost2010Prop44ColorRGB
 90
      255
102
RTVSPost2010PropOp44
 70
     1
102
RTVSPost2010Prop45
280
     0
102
RTVSPost2010PropOp45
 70
     1
102
RTVSPost2010Prop46
 90
       50
102
RTVSPost2010PropOp46
 70
     1
102
RTVSPost2010Prop47
 90
       50
102
RTVSPost2010PropOp47
 70
     1
102
RTVSPost2010Prop48
 90
       50
102
RTVSPost2010PropOp48
 70
     1
102
RTVSPost2010Prop49
280
     0
102
RTVSPost2010PropOp49
 70
     1
102
RTVSPost2010Prop50
 90
       50
102
RTVSPost2010PropOp50
 70
     1
102
RTVSPost2010Prop51ColorIndex
 90
      256
102
RTVSPost2010Prop51ColorRGB
 90
-16777216
102
RTVSPost2010PropOp51
 70
     0
102
RTVSPost2010Prop52
140
1.0
102
RTVSPost2010PropOp52
 70
     0
102
RTVSPost2010Prop53
 90
        2
102
RTVSPost2010PropOp53
 70
     1
102
RTVSPost2010Prop54
  1
strokes_ogs.tif
102
RTVSPost2010PropOp54
 70
     1
102
RTVSPost2010Prop55
280
     0
102
RTVSPost2010PropOp55
 70
     1
102
RTVSPost2010Prop56
140
1.0
102
RTVSPost2010PropOp56
 70
     1
102
RTVSPost2010Prop57
140
1.0
102
RTVSPost2010PropOp57
 70
     1
102
RTVSPropertyOp0
 70
     1
102
RTVSPropertyOp1
 70
     1
102
RTVSPropertyOp2
 70
     1
102
RTVSPropertyOp3
 70
     1
102
RTVSPropertyOp4
 70
     1
102
RTVSPropertyOp5
 70
     1
102
RTVSPropertyOp6
 70
     1
102
RTVSPropertyOp7
 70
     1
102
RTVSPropertyOp8
 70
     1
102
RTVSPropertyOp9
 70
     1
102
RTVSPropertyOp10
 70
     1
102
RTVSPropertyOp11
 70
     1
102
RTVSPropertyOp12
 70
     1
102
RTVSPropertyOp13
 70
     1
102
RTVSPropertyOp14
 70
     1
102
RTVSPropertyOp15
 70
     1
102
RTVSPropertyOp16
 70
     1
102
RTVSPropertyOp17
 70
     1
102
RTVSPropertyOp18
 70
     1
102
RTVSPropertyOp19
 70
     1
102
RTVSPropertyOp20
 70
     1
102
RTVSPropertyOp21
 70
     1
102
RTVSPropertyOp22
 70
     1
102
RTVSPropertyOp23
 70
     1
102
RTVSPropertyOp24
 70
     1
102
RTVSPropertyOp25
 70
     1
102
RTVSPropertyOp26
 70
     1
102
RTVSPropertyOp27
 70
     1
102
RTVSPropertyOp28
 70
     1
102
RTVSPropertyOp29
 70
     1
102
RTVSPropertyOp30
 70
     1
102
RTVSPropertyOp31
 70
     1
102
RTVSPropertyOp32
 70
     1
102
RTVSPropertyOp33
 70
     1
102
RTVSPropertyOp34
 70
     1
102
RTVSPropertyOp35
 70
     1
102
RTVSPropertyOp36
 70
     1
102
RTVSPropertyOp37
 70
     1
102
RTVSPropertyOp38
 70
     1
102
RTVSPropertyOp39
 70
     1
102
RTVSPropertyOp40
 70
     1
102
RTVSPropertyOp41
 70
     1
102
RTVSPropertyOp42
 70
     1
102
RTVSPropertyOp43
 70
     1
102
RTVSPropertyOp44
 70
     1
102
RTVSPropertyOp45
 70
     1
102
RTVSPropertyOp46
 70
     1
102
RTVSPropertyOp47
 70
     1
102
RTVSPropertyOp48
 70
     1
102
RTVSPropertyOp49
 70
     1
102
RTVSPropertyOp50
 70
     1
102
RTVSPropertyOp51
 70
     0
102
RTVSPropertyOp52
 70
     0
102
RTVSPropertyOp53
 70
     1
102
RTVSPropertyOp54
 70
     1
102
RTVSPropertyOp55
 70
     1
102
RTVSPropertyOp56
 70
     1
102
RTVSPropertyOp57
 70
     1
102
RTVSPropertyOp58
 70
     1
102
RTVSPropertyOp59
 70
     1
102
RTVSPropertyOp60
 70
     1
102
RTVSPropertyOp61
 70
     1
102
RTVSPropertyOp62
 70
     1
  0
XRECORD
  5
1758
102
{ACAD_REACTORS
330
1757
102
}
330
1757
100
AcDbXrecord
280
     1
102
RTVSPost2010Prop28
280
     0
102
RTVSPost2010PropOp28
 70
     0
102
RTVSPost2010Prop29
280
     1
102
RTVSPost2010PropOp29
 70
     0
102
RTVSPost2010Prop30
280
     1
102
RTVSPost2010PropOp30
 70
     0
102
RTVSPost2010Prop31
280
     0
102
RTVSPost2010PropOp31
 70
     0
102
RTVSPost2010Prop32
280
     0
102
RTVSPost2010PropOp32
 70
     0
102
RTVSPost2010Prop33
280
     0
102
RTVSPost2010PropOp33
 70
     0
102
RTVSPost2010Prop34
280
     0
102
RTVSPost2010PropOp34
 70
     0
102
RTVSPost2010Prop35
280
     0
102
RTVSPost2010PropOp35
 70
     0
102
RTVSPost2010Prop36
280
     0
102
RTVSPost2010PropOp36
 70
     0
102
RTVSPost2010Prop37
 90
       50
102
RTVSPost2010PropOp37
 70
     0
102
RTVSPost2010Prop38
140
0.0
102
RTVSPost2010PropOp38
 70
     0
102
RTVSPost2010Prop39
140
1.0
102
RTVSPost2010PropOp39
 70
     0
102
RTVSPost2010Prop40
 90
        0
102
RTVSPost2010PropOp40
 70
     0
102
RTVSPost2010Prop41ColorIndex
 90
       18
102
RTVSPost2010Prop41ColorRGB
 90
        0
102
RTVSPost2010PropOp41
 70
     0
102
RTVSPost2010Prop42
 90
       50
102
RTVSPost2010PropOp42
 70
     0
102
RTVSPost2010Prop43
 90
        3
102
RTVSPost2010PropOp43
 70
     0
102
RTVSPost2010Prop44ColorIndex
 90
        5
102
RTVSPost2010Prop44ColorRGB
 90
      255
102
RTVSPost2010PropOp44
 70
     0
102
RTVSPost2010Prop45
280
     0
102
RTVSPost2010PropOp45
 70
     0
102
RTVSPost2010Prop46
 90
       50
102
RTVSPost2010PropOp46
 70
     0
102
RTVSPost2010Prop47
 90
       50
102
RTVSPost2010PropOp47
 70
     0
102
RTVSPost2010Prop48
 90
       50
102
RTVSPost2010PropOp48
 70
     0
102
RTVSPost2010Prop49
280
     0
102
RTVSPost2010PropOp49
 70
     0
102
RTVSPost2010Prop50
 90
       50
102
RTVSPost2010PropOp50
 70
     0
102
RTVSPost2010Prop51ColorIndex
 90
      256
102
RTVSPost2010Prop51ColorRGB
 90
-16777216
102
RTVSPost2010PropOp51
 70
     0
102
RTVSPost2010Prop52
140
1.0
102
RTVSPost2010PropOp52
 70
     0
102
RTVSPost2010Prop53
 90
        2
102
RTVSPost2010PropOp53
 70
     0
102
RTVSPost2010Prop54
  1
strokes_ogs.tif
102
RTVSPost2010PropOp54
 70
     0
102
RTVSPost2010Prop55
280
     0
102
RTVSPost2010PropOp55
 70
     0
102
RTVSPost2010Prop56
140
1.0
102
RTVSPost2010PropOp56
 70
     0
102
RTVSPost2010Prop57
140
1.0
102
RTVSPost2010PropOp57
 70
     0
102
RTVSPropertyOp0
 70
     0
102
RTVSPropertyOp1
 70
     0
102
RTVSPropertyOp2
 70
     0
102
RTVSPropertyOp3
 70
     0
102
RTVSPropertyOp4
 70
     0
102
RTVSPropertyOp5
 70
     0
102
RTVSPropertyOp6
 70
     0
102
RTVSPropertyOp7
 70
     0
102
RTVSPropertyOp8
 70
     0
102
RTVSPropertyOp9
 70
     0
102
RTVSPropertyOp10
 70
     0
102
RTVSPropertyOp11
 70
     0
102
RTVSPropertyOp12
 70
     0
102
RTVSPropertyOp13
 70
     0
102
RTVSPropertyOp14
 70
     2
102
RTVSPropertyOp15
 70
     0
102
RTVSPropertyOp16
 70
     0
102
RTVSPropertyOp17
 70
     0
102
RTVSPropertyOp18
 70
     0
102
RTVSPropertyOp19
 70
     0
102
RTVSPropertyOp20
 70
     0
102
RTVSPropertyOp21
 70
     0
102
RTVSPropertyOp22
 70
     0
102
RTVSPropertyOp23
 70
     0
102
RTVSPropertyOp24
 70
     0
102
RTVSPropertyOp25
 70
     0
102
RTVSPropertyOp26
 70
     0
102
RTVSPropertyOp27
 70
     0
102
RTVSPropertyOp28
 70
     0
102
RTVSPropertyOp29
 70
     0
102
RTVSPropertyOp30
 70
     0
102
RTVSPropertyOp31
 70
     0
102
RTVSPropertyOp32
 70
     0
102
RTVSPropertyOp33
 70
     0
102
RTVSPropertyOp34
 70
     0
102
RTVSPropertyOp35
 70
     0
102
RTVSPropertyOp36
 70
     0
102
RTVSPropertyOp37
 70
     0
102
RTVSPropertyOp38
 70
     0
102
RTVSPropertyOp39
 70
     0
102
RTVSPropertyOp40
 70
     0
102
RTVSPropertyOp41
 70
     0
102
RTVSPropertyOp42
 70
     0
102
RTVSPropertyOp43
 70
     0
102
RTVSPropertyOp44
 70
     0
102
RTVSPropertyOp45
 70
     0
102
RTVSPropertyOp46
 70
     0
102
RTVSPropertyOp47
 70
     0
102
RTVSPropertyOp48
 70
     0
102
RTVSPropertyOp49
 70
     0
102
RTVSPropertyOp50
 70
     0
102
RTVSPropertyOp51
 70
     0
102
RTVSPropertyOp52
 70
     0
102
RTVSPropertyOp53
 70
     0
102
RTVSPropertyOp54
 70
     0
102
RTVSPropertyOp55
 70
     0
102
RTVSPropertyOp56
 70
     0
102
RTVSPropertyOp57
 70
     0
102
RTVSPropertyOp58
 70
     0
102
RTVSPropertyOp59
 70
     0
102
RTVSPropertyOp60
 70
     0
102
RTVSPropertyOp61
 70
     0
102
RTVSPropertyOp62
 70
     0
  0
XRECORD
  5
1739
102
{ACAD_REACTORS
330
1738
102
}
330
1738
100
AcDbXrecord
280
     1
102
RTVSPost2010Prop28
280
     0
102
RTVSPost2010PropOp28
 70
     1
102
RTVSPost2010Prop29
280
     1
102
RTVSPost2010PropOp29
 70
     1
102
RTVSPost2010Prop30
280
     1
102
RTVSPost2010PropOp30
 70
     1
102
RTVSPost2010Prop31
280
     0
102
RTVSPost2010PropOp31
 70
     1
102
RTVSPost2010Prop32
280
     0
102
RTVSPost2010PropOp32
 70
     1
102
RTVSPost2010Prop33
280
     0
102
RTVSPost2010PropOp33
 70
     1
102
RTVSPost2010Prop34
280
     0
102
RTVSPost2010PropOp34
 70
     1
102
RTVSPost2010Prop35
280
     0
102
RTVSPost2010PropOp35
 70
     1
102
RTVSPost2010Prop36
280
     0
102
RTVSPost2010PropOp36
 70
     1
102
RTVSPost2010Prop37
 90
       50
102
RTVSPost2010PropOp37
 70
     1
102
RTVSPost2010Prop38
140
0.0
102
RTVSPost2010PropOp38
 70
     1
102
RTVSPost2010Prop39
140
1.0
102
RTVSPost2010PropOp39
 70
     1
102
RTVSPost2010Prop40
 90
        0
102
RTVSPost2010PropOp40
 70
     1
102
RTVSPost2010Prop41ColorIndex
 90
       18
102
RTVSPost2010Prop41ColorRGB
 90
        0
102
RTVSPost2010PropOp41
 70
     1
102
RTVSPost2010Prop42
 90
       50
102
RTVSPost2010PropOp42
 70
     1
102
RTVSPost2010Prop43
 90
        3
102
RTVSPost2010PropOp43
 70
     1
102
RTVSPost2010Prop44ColorIndex
 90
        5
102
RTVSPost2010Prop44ColorRGB
 90
      255
102
RTVSPost2010PropOp44
 70
     1
102
RTVSPost2010Prop45
280
     0
102
RTVSPost2010PropOp45
 70
     1
102
RTVSPost2010Prop46
 90
       50
102
RTVSPost2010PropOp46
 70
     1
102
RTVSPost2010Prop47
 90
       50
102
RTVSPost2010PropOp47
 70
     1
102
RTVSPost2010Prop48
 90
       50
102
RTVSPost2010PropOp48
 70
     1
102
RTVSPost2010Prop49
280
     0
102
RTVSPost2010PropOp49
 70
     1
102
RTVSPost2010Prop50
 90
       50
102
RTVSPost2010PropOp50
 70
     1
102
RTVSPost2010Prop51ColorIndex
 90
      256
102
RTVSPost2010Prop51ColorRGB
 90
-16777216
102
RTVSPost2010PropOp51
 70
     0
102
RTVSPost2010Prop52
140
1.0
102
RTVSPost2010PropOp52
 70
     0
102
RTVSPost2010Prop53
 90
        2
102
RTVSPost2010PropOp53
 70
     1
102
RTVSPost2010Prop54
  1
strokes_ogs.tif
102
RTVSPost2010PropOp54
 70
     1
102
RTVSPost2010Prop55
280
     0
102
RTVSPost2010PropOp55
 70
     1
102
RTVSPost2010Prop56
140
1.0
102
RTVSPost2010PropOp56
 70
     1
102
RTVSPost2010Prop57
140
1.0
102
RTVSPost2010PropOp57
 70
     1
102
RTVSPropertyOp0
 70
     1
102
RTVSPropertyOp1
 70
     1
102
RTVSPropertyOp2
 70
     1
102
RTVSPropertyOp3
 70
     1
102
RTVSPropertyOp4
 70
     1
102
RTVSPropertyOp5
 70
     1
102
RTVSPropertyOp6
 70
     1
102
RTVSPropertyOp7
 70
     1
102
RTVSPropertyOp8
 70
     1
102
RTVSPropertyOp9
 70
     1
102
RTVSPropertyOp10
 70
     1
102
RTVSPropertyOp11
 70
     1
102
RTVSPropertyOp12
 70
     1
102
RTVSPropertyOp13
 70
     1
102
RTVSPropertyOp14
 70
     1
102
RTVSPropertyOp15
 70
     1
102
RTVSPropertyOp16
 70
     1
102
RTVSPropertyOp17
 70
     1
102
RTVSPropertyOp18
 70
     1
102
RTVSPropertyOp19
 70
     1
102
RTVSPropertyOp20
 70
     1
102
RTVSPropertyOp21
 70
     1
102
RTVSPropertyOp22
 70
     1
102
RTVSPropertyOp23
 70
     1
102
RTVSPropertyOp24
 70
     1
102
RTVSPropertyOp25
 70
     1
102
RTVSPropertyOp26
 70
     1
102
RTVSPropertyOp27
 70
     1
102
RTVSPropertyOp28
 70
     1
102
RTVSPropertyOp29
 70
     1
102
RTVSPropertyOp30
 70
     1
102
RTVSPropertyOp31
 70
     1
102
RTVSPropertyOp32
 70
     1
102
RTVSPropertyOp33
 70
     1
102
RTVSPropertyOp34
 70
     1
102
RTVSPropertyOp35
 70
     1
102
RTVSPropertyOp36
 70
     1
102
RTVSPropertyOp37
 70
     1
102
RTVSPropertyOp38
 70
     1
102
RTVSPropertyOp39
 70
     1
102
RTVSPropertyOp40
 70
     1
102
RTVSPropertyOp41
 70
     1
102
RTVSPropertyOp42
 70
     1
102
RTVSPropertyOp43
 70
     1
102
RTVSPropertyOp44
 70
     1
102
RTVSPropertyOp45
 70
     1
102
RTVSPropertyOp46
 70
     1
102
RTVSPropertyOp47
 70
     1
102
RTVSPropertyOp48
 70
     1
102
RTVSPropertyOp49
 70
     1
102
RTVSPropertyOp50
 70
     1
102
RTVSPropertyOp51
 70
     0
102
RTVSPropertyOp52
 70
     0
102
RTVSPropertyOp53
 70
     1
102
RTVSPropertyOp54
 70
     1
102
RTVSPropertyOp55
 70
     1
102
RTVSPropertyOp56
 70
     1
102
RTVSPropertyOp57
 70
     1
102
RTVSPropertyOp58
 70
     1
102
RTVSPropertyOp59
 70
     1
102
RTVSPropertyOp60
 70
     1
102
RTVSPropertyOp61
 70
     1
102
RTVSPropertyOp62
 70
     1
  0
XRECORD
  5
1754
102
{ACAD_REACTORS
330
1753
102
}
330
1753
100
AcDbXrecord
280
     1
102
RTVSPost2010Prop28
280
     0
102
RTVSPost2010PropOp28
 70
     1
102
RTVSPost2010Prop29
280
     1
102
RTVSPost2010PropOp29
 70
     1
102
RTVSPost2010Prop30
280
     1
102
RTVSPost2010PropOp30
 70
     1
102
RTVSPost2010Prop31
280
     0
102
RTVSPost2010PropOp31
 70
     1
102
RTVSPost2010Prop32
280
     0
102
RTVSPost2010PropOp32
 70
     1
102
RTVSPost2010Prop33
280
     0
102
RTVSPost2010PropOp33
 70
     1
102
RTVSPost2010Prop34
280
     0
102
RTVSPost2010PropOp34
 70
     1
102
RTVSPost2010Prop35
280
     0
102
RTVSPost2010PropOp35
 70
     1
102
RTVSPost2010Prop36
280
     0
102
RTVSPost2010PropOp36
 70
     1
102
RTVSPost2010Prop37
 90
       50
102
RTVSPost2010PropOp37
 70
     1
102
RTVSPost2010Prop38
140
0.0
102
RTVSPost2010PropOp38
 70
     1
102
RTVSPost2010Prop39
140
1.0
102
RTVSPost2010PropOp39
 70
     1
102
RTVSPost2010Prop40
 90
        0
102
RTVSPost2010PropOp40
 70
     1
102
RTVSPost2010Prop41ColorIndex
 90
       18
102
RTVSPost2010Prop41ColorRGB
 90
        0
102
RTVSPost2010PropOp41
 70
     1
102
RTVSPost2010Prop42
 90
       50
102
RTVSPost2010PropOp42
 70
     1
102
RTVSPost2010Prop43
 90
        3
102
RTVSPost2010PropOp43
 70
     1
102
RTVSPost2010Prop44ColorIndex
 90
        5
102
RTVSPost2010Prop44ColorRGB
 90
      255
102
RTVSPost2010PropOp44
 70
     1
102
RTVSPost2010Prop45
280
     0
102
RTVSPost2010PropOp45
 70
     1
102
RTVSPost2010Prop46
 90
       50
102
RTVSPost2010PropOp46
 70
     1
102
RTVSPost2010Prop47
 90
       50
102
RTVSPost2010PropOp47
 70
     1
102
RTVSPost2010Prop48
 90
       50
102
RTVSPost2010PropOp48
 70
     1
102
RTVSPost2010Prop49
280
     0
102
RTVSPost2010PropOp49
 70
     1
102
RTVSPost2010Prop50
 90
       50
102
RTVSPost2010PropOp50
 70
     1
102
RTVSPost2010Prop51ColorIndex
 90
      256
102
RTVSPost2010Prop51ColorRGB
 90
-16777216
102
RTVSPost2010PropOp51
 70
     0
102
RTVSPost2010Prop52
140
1.0
102
RTVSPost2010PropOp52
 70
     0
102
RTVSPost2010Prop53
 90
        2
102
RTVSPost2010PropOp53
 70
     1
102
RTVSPost2010Prop54
  1
strokes_ogs.tif
102
RTVSPost2010PropOp54
 70
     1
102
RTVSPost2010Prop55
280
     0
102
RTVSPost2010PropOp55
 70
     1
102
RTVSPost2010Prop56
140
1.0
102
RTVSPost2010PropOp56
 70
     1
102
RTVSPost2010Prop57
140
1.0
102
RTVSPost2010PropOp57
 70
     1
102
RTVSPropertyOp0
 70
     1
102
RTVSPropertyOp1
 70
     1
102
RTVSPropertyOp2
 70
     1
102
RTVSPropertyOp3
 70
     1
102
RTVSPropertyOp4
 70
     1
102
RTVSPropertyOp5
 70
     1
102
RTVSPropertyOp6
 70
     1
102
RTVSPropertyOp7
 70
     1
102
RTVSPropertyOp8
 70
     1
102
RTVSPropertyOp9
 70
     1
102
RTVSPropertyOp10
 70
     1
102
RTVSPropertyOp11
 70
     1
102
RTVSPropertyOp12
 70
     1
102
RTVSPropertyOp13
 70
     1
102
RTVSPropertyOp14
 70
     1
102
RTVSPropertyOp15
 70
     1
102
RTVSPropertyOp16
 70
     1
102
RTVSPropertyOp17
 70
     1
102
RTVSPropertyOp18
 70
     1
102
RTVSPropertyOp19
 70
     1
102
RTVSPropertyOp20
 70
     1
102
RTVSPropertyOp21
 70
     1
102
RTVSPropertyOp22
 70
     1
102
RTVSPropertyOp23
 70
     1
102
RTVSPropertyOp24
 70
     1
102
RTVSPropertyOp25
 70
     1
102
RTVSPropertyOp26
 70
     1
102
RTVSPropertyOp27
 70
     1
102
RTVSPropertyOp28
 70
     1
102
RTVSPropertyOp29
 70
     1
102
RTVSPropertyOp30
 70
     1
102
RTVSPropertyOp31
 70
     1
102
RTVSPropertyOp32
 70
     1
102
RTVSPropertyOp33
 70
     1
102
RTVSPropertyOp34
 70
     1
102
RTVSPropertyOp35
 70
     1
102
RTVSPropertyOp36
 70
     1
102
RTVSPropertyOp37
 70
     1
102
RTVSPropertyOp38
 70
     1
102
RTVSPropertyOp39
 70
     1
102
RTVSPropertyOp40
 70
     1
102
RTVSPropertyOp41
 70
     1
102
RTVSPropertyOp42
 70
     1
102
RTVSPropertyOp43
 70
     1
102
RTVSPropertyOp44
 70
     1
102
RTVSPropertyOp45
 70
     1
102
RTVSPropertyOp46
 70
     1
102
RTVSPropertyOp47
 70
     1
102
RTVSPropertyOp48
 70
     1
102
RTVSPropertyOp49
 70
     1
102
RTVSPropertyOp50
 70
     1
102
RTVSPropertyOp51
 70
     0
102
RTVSPropertyOp52
 70
     0
102
RTVSPropertyOp53
 70
     1
102
RTVSPropertyOp54
 70
     1
102
RTVSPropertyOp55
 70
     1
102
RTVSPropertyOp56
 70
     1
102
RTVSPropertyOp57
 70
     1
102
RTVSPropertyOp58
 70
     1
102
RTVSPropertyOp59
 70
     1
102
RTVSPropertyOp60
 70
     1
102
RTVSPropertyOp61
 70
     1
102
RTVSPropertyOp62
 70
     1
  0
XRECORD
  5
1752
102
{ACAD_REACTORS
330
1751
102
}
330
1751
100
AcDbXrecord
280
     1
102
RTVSPost2010Prop28
280
     0
102
RTVSPost2010PropOp28
 70
     1
102
RTVSPost2010Prop29
280
     1
102
RTVSPost2010PropOp29
 70
     1
102
RTVSPost2010Prop30
280
     1
102
RTVSPost2010PropOp30
 70
     1
102
RTVSPost2010Prop31
280
     0
102
RTVSPost2010PropOp31
 70
     1
102
RTVSPost2010Prop32
280
     0
102
RTVSPost2010PropOp32
 70
     1
102
RTVSPost2010Prop33
280
     0
102
RTVSPost2010PropOp33
 70
     1
102
RTVSPost2010Prop34
280
     0
102
RTVSPost2010PropOp34
 70
     1
102
RTVSPost2010Prop35
280
     0
102
RTVSPost2010PropOp35
 70
     1
102
RTVSPost2010Prop36
280
     0
102
RTVSPost2010PropOp36
 70
     1
102
RTVSPost2010Prop37
 90
       50
102
RTVSPost2010PropOp37
 70
     1
102
RTVSPost2010Prop38
140
0.0
102
RTVSPost2010PropOp38
 70
     1
102
RTVSPost2010Prop39
140
1.0
102
RTVSPost2010PropOp39
 70
     1
102
RTVSPost2010Prop40
 90
        0
102
RTVSPost2010PropOp40
 70
     1
102
RTVSPost2010Prop41ColorIndex
 90
       18
102
RTVSPost2010Prop41ColorRGB
 90
        0
102
RTVSPost2010PropOp41
 70
     1
102
RTVSPost2010Prop42
 90
       50
102
RTVSPost2010PropOp42
 70
     1
102
RTVSPost2010Prop43
 90
        3
102
RTVSPost2010PropOp43
 70
     1
102
RTVSPost2010Prop44ColorIndex
 90
        5
102
RTVSPost2010Prop44ColorRGB
 90
      255
102
RTVSPost2010PropOp44
 70
     1
102
RTVSPost2010Prop45
280
     0
102
RTVSPost2010PropOp45
 70
     1
102
RTVSPost2010Prop46
 90
       50
102
RTVSPost2010PropOp46
 70
     1
102
RTVSPost2010Prop47
 90
       50
102
RTVSPost2010PropOp47
 70
     1
102
RTVSPost2010Prop48
 90
       50
102
RTVSPost2010PropOp48
 70
     1
102
RTVSPost2010Prop49
280
     0
102
RTVSPost2010PropOp49
 70
     1
102
RTVSPost2010Prop50
 90
       50
102
RTVSPost2010PropOp50
 70
     1
102
RTVSPost2010Prop51ColorIndex
 90
      256
102
RTVSPost2010Prop51ColorRGB
 90
-16777216
102
RTVSPost2010PropOp51
 70
     0
102
RTVSPost2010Prop52
140
1.0
102
RTVSPost2010PropOp52
 70
     0
102
RTVSPost2010Prop53
 90
        2
102
RTVSPost2010PropOp53
 70
     1
102
RTVSPost2010Prop54
  1
strokes_ogs.tif
102
RTVSPost2010PropOp54
 70
     1
102
RTVSPost2010Prop55
280
     0
102
RTVSPost2010PropOp55
 70
     1
102
RTVSPost2010Prop56
140
1.0
102
RTVSPost2010PropOp56
 70
     1
102
RTVSPost2010Prop57
140
1.0
102
RTVSPost2010PropOp57
 70
     1
102
RTVSPropertyOp0
 70
     1
102
RTVSPropertyOp1
 70
     1
102
RTVSPropertyOp2
 70
     1
102
RTVSPropertyOp3
 70
     1
102
RTVSPropertyOp4
 70
     1
102
RTVSPropertyOp5
 70
     1
102
RTVSPropertyOp6
 70
     1
102
RTVSPropertyOp7
 70
     1
102
RTVSPropertyOp8
 70
     1
102
RTVSPropertyOp9
 70
     1
102
RTVSPropertyOp10
 70
     1
102
RTVSPropertyOp11
 70
     1
102
RTVSPropertyOp12
 70
     1
102
RTVSPropertyOp13
 70
     1
102
RTVSPropertyOp14
 70
     1
102
RTVSPropertyOp15
 70
     1
102
RTVSPropertyOp16
 70
     1
102
RTVSPropertyOp17
 70
     1
102
RTVSPropertyOp18
 70
     1
102
RTVSPropertyOp19
 70
     1
102
RTVSPropertyOp20
 70
     1
102
RTVSPropertyOp21
 70
     1
102
RTVSPropertyOp22
 70
     1
102
RTVSPropertyOp23
 70
     1
102
RTVSPropertyOp24
 70
     1
102
RTVSPropertyOp25
 70
     1
102
RTVSPropertyOp26
 70
     1
102
RTVSPropertyOp27
 70
     1
102
RTVSPropertyOp28
 70
     1
102
RTVSPropertyOp29
 70
     1
102
RTVSPropertyOp30
 70
     1
102
RTVSPropertyOp31
 70
     1
102
RTVSPropertyOp32
 70
     1
102
RTVSPropertyOp33
 70
     1
102
RTVSPropertyOp34
 70
     1
102
RTVSPropertyOp35
 70
     1
102
RTVSPropertyOp36
 70
     1
102
RTVSPropertyOp37
 70
     1
102
RTVSPropertyOp38
 70
     1
102
RTVSPropertyOp39
 70
     1
102
RTVSPropertyOp40
 70
     1
102
RTVSPropertyOp41
 70
     1
102
RTVSPropertyOp42
 70
     1
102
RTVSPropertyOp43
 70
     1
102
RTVSPropertyOp44
 70
     1
102
RTVSPropertyOp45
 70
     1
102
RTVSPropertyOp46
 70
     1
102
RTVSPropertyOp47
 70
     1
102
RTVSPropertyOp48
 70
     1
102
RTVSPropertyOp49
 70
     1
102
RTVSPropertyOp50
 70
     1
102
RTVSPropertyOp51
 70
     0
102
RTVSPropertyOp52
 70
     0
102
RTVSPropertyOp53
 70
     1
102
RTVSPropertyOp54
 70
     1
102
RTVSPropertyOp55
 70
     1
102
RTVSPropertyOp56
 70
     1
102
RTVSPropertyOp57
 70
     1
102
RTVSPropertyOp58
 70
     1
102
RTVSPropertyOp59
 70
     1
102
RTVSPropertyOp60
 70
     1
102
RTVSPropertyOp61
 70
     1
102
RTVSPropertyOp62
 70
     1
  0
XRECORD
  5
174C
102
{ACAD_REACTORS
330
174B
102
}
330
174B
100
AcDbXrecord
280
     1
102
RTVSPost2010Prop28
280
     0
102
RTVSPost2010PropOp28
 70
     1
102
RTVSPost2010Prop29
280
     1
102
RTVSPost2010PropOp29
 70
     1
102
RTVSPost2010Prop30
280
     1
102
RTVSPost2010PropOp30
 70
     1
102
RTVSPost2010Prop31
280
     0
102
RTVSPost2010PropOp31
 70
     1
102
RTVSPost2010Prop32
280
     0
102
RTVSPost2010PropOp32
 70
     1
102
RTVSPost2010Prop33
280
     0
102
RTVSPost2010PropOp33
 70
     1
102
RTVSPost2010Prop34
280
     0
102
RTVSPost2010PropOp34
 70
     1
102
RTVSPost2010Prop35
280
     0
102
RTVSPost2010PropOp35
 70
     1
102
RTVSPost2010Prop36
280
     0
102
RTVSPost2010PropOp36
 70
     1
102
RTVSPost2010Prop37
 90
       50
102
RTVSPost2010PropOp37
 70
     1
102
RTVSPost2010Prop38
140
0.0
102
RTVSPost2010PropOp38
 70
     1
102
RTVSPost2010Prop39
140
1.0
102
RTVSPost2010PropOp39
 70
     1
102
RTVSPost2010Prop40
 90
        0
102
RTVSPost2010PropOp40
 70
     1
102
RTVSPost2010Prop41ColorIndex
 90
       18
102
RTVSPost2010Prop41ColorRGB
 90
        0
102
RTVSPost2010PropOp41
 70
     1
102
RTVSPost2010Prop42
 90
       50
102
RTVSPost2010PropOp42
 70
     1
102
RTVSPost2010Prop43
 90
        3
102
RTVSPost2010PropOp43
 70
     1
102
RTVSPost2010Prop44ColorIndex
 90
        5
102
RTVSPost2010Prop44ColorRGB
 90
      255
102
RTVSPost2010PropOp44
 70
     1
102
RTVSPost2010Prop45
280
     0
102
RTVSPost2010PropOp45
 70
     1
102
RTVSPost2010Prop46
 90
       50
102
RTVSPost2010PropOp46
 70
     1
102
RTVSPost2010Prop47
 90
       50
102
RTVSPost2010PropOp47
 70
     1
102
RTVSPost2010Prop48
 90
       50
102
RTVSPost2010PropOp48
 70
     1
102
RTVSPost2010Prop49
280
     0
102
RTVSPost2010PropOp49
 70
     1
102
RTVSPost2010Prop50
 90
       50
102
RTVSPost2010PropOp50
 70
     1
102
RTVSPost2010Prop51ColorIndex
 90
      256
102
RTVSPost2010Prop51ColorRGB
 90
-16777216
102
RTVSPost2010PropOp51
 70
     0
102
RTVSPost2010Prop52
140
1.0
102
RTVSPost2010PropOp52
 70
     0
102
RTVSPost2010Prop53
 90
        2
102
RTVSPost2010PropOp53
 70
     1
102
RTVSPost2010Prop54
  1
strokes_ogs.tif
102
RTVSPost2010PropOp54
 70
     1
102
RTVSPost2010Prop55
280
     0
102
RTVSPost2010PropOp55
 70
     1
102
RTVSPost2010Prop56
140
1.0
102
RTVSPost2010PropOp56
 70
     1
102
RTVSPost2010Prop57
140
1.0
102
RTVSPost2010PropOp57
 70
     1
102
RTVSPropertyOp0
 70
     1
102
RTVSPropertyOp1
 70
     1
102
RTVSPropertyOp2
 70
     1
102
RTVSPropertyOp3
 70
     1
102
RTVSPropertyOp4
 70
     1
102
RTVSPropertyOp5
 70
     1
102
RTVSPropertyOp6
 70
     1
102
RTVSPropertyOp7
 70
     1
102
RTVSPropertyOp8
 70
     1
102
RTVSPropertyOp9
 70
     1
102
RTVSPropertyOp10
 70
     1
102
RTVSPropertyOp11
 70
     1
102
RTVSPropertyOp12
 70
     1
102
RTVSPropertyOp13
 70
     1
102
RTVSPropertyOp14
 70
     1
102
RTVSPropertyOp15
 70
     1
102
RTVSPropertyOp16
 70
     1
102
RTVSPropertyOp17
 70
     1
102
RTVSPropertyOp18
 70
     1
102
RTVSPropertyOp19
 70
     1
102
RTVSPropertyOp20
 70
     1
102
RTVSPropertyOp21
 70
     1
102
RTVSPropertyOp22
 70
     1
102
RTVSPropertyOp23
 70
     1
102
RTVSPropertyOp24
 70
     1
102
RTVSPropertyOp25
 70
     1
102
RTVSPropertyOp26
 70
     1
102
RTVSPropertyOp27
 70
     1
102
RTVSPropertyOp28
 70
     1
102
RTVSPropertyOp29
 70
     1
102
RTVSPropertyOp30
 70
     1
102
RTVSPropertyOp31
 70
     1
102
RTVSPropertyOp32
 70
     1
102
RTVSPropertyOp33
 70
     1
102
RTVSPropertyOp34
 70
     1
102
RTVSPropertyOp35
 70
     1
102
RTVSPropertyOp36
 70
     1
102
RTVSPropertyOp37
 70
     1
102
RTVSPropertyOp38
 70
     1
102
RTVSPropertyOp39
 70
     1
102
RTVSPropertyOp40
 70
     1
102
RTVSPropertyOp41
 70
     1
102
RTVSPropertyOp42
 70
     1
102
RTVSPropertyOp43
 70
     1
102
RTVSPropertyOp44
 70
     1
102
RTVSPropertyOp45
 70
     1
102
RTVSPropertyOp46
 70
     1
102
RTVSPropertyOp47
 70
     1
102
RTVSPropertyOp48
 70
     1
102
RTVSPropertyOp49
 70
     1
102
RTVSPropertyOp50
 70
     1
102
RTVSPropertyOp51
 70
     0
102
RTVSPropertyOp52
 70
     0
102
RTVSPropertyOp53
 70
     1
102
RTVSPropertyOp54
 70
     1
102
RTVSPropertyOp55
 70
     1
102
RTVSPropertyOp56
 70
     1
102
RTVSPropertyOp57
 70
     1
102
RTVSPropertyOp58
 70
     1
102
RTVSPropertyOp59
 70
     1
102
RTVSPropertyOp60
 70
     1
102
RTVSPropertyOp61
 70
     1
102
RTVSPropertyOp62
 70
     1
  0
XRECORD
  5
174E
102
{ACAD_REACTORS
330
174D
102
}
330
174D
100
AcDbXrecord
280
     1
102
RTVSPost2010Prop28
280
     0
102
RTVSPost2010PropOp28
 70
     1
102
RTVSPost2010Prop29
280
     1
102
RTVSPost2010PropOp29
 70
     1
102
RTVSPost2010Prop30
280
     1
102
RTVSPost2010PropOp30
 70
     1
102
RTVSPost2010Prop31
280
     0
102
RTVSPost2010PropOp31
 70
     1
102
RTVSPost2010Prop32
280
     0
102
RTVSPost2010PropOp32
 70
     1
102
RTVSPost2010Prop33
280
     0
102
RTVSPost2010PropOp33
 70
     1
102
RTVSPost2010Prop34
280
     0
102
RTVSPost2010PropOp34
 70
     1
102
RTVSPost2010Prop35
280
     0
102
RTVSPost2010PropOp35
 70
     1
102
RTVSPost2010Prop36
280
     0
102
RTVSPost2010PropOp36
 70
     1
102
RTVSPost2010Prop37
 90
       50
102
RTVSPost2010PropOp37
 70
     1
102
RTVSPost2010Prop38
140
0.0
102
RTVSPost2010PropOp38
 70
     1
102
RTVSPost2010Prop39
140
1.0
102
RTVSPost2010PropOp39
 70
     1
102
RTVSPost2010Prop40
 90
        0
102
RTVSPost2010PropOp40
 70
     1
102
RTVSPost2010Prop41ColorIndex
 90
       18
102
RTVSPost2010Prop41ColorRGB
 90
        0
102
RTVSPost2010PropOp41
 70
     1
102
RTVSPost2010Prop42
 90
       50
102
RTVSPost2010PropOp42
 70
     1
102
RTVSPost2010Prop43
 90
        3
102
RTVSPost2010PropOp43
 70
     1
102
RTVSPost2010Prop44ColorIndex
 90
        5
102
RTVSPost2010Prop44ColorRGB
 90
      255
102
RTVSPost2010PropOp44
 70
     1
102
RTVSPost2010Prop45
280
     0
102
RTVSPost2010PropOp45
 70
     1
102
RTVSPost2010Prop46
 90
       50
102
RTVSPost2010PropOp46
 70
     1
102
RTVSPost2010Prop47
 90
       50
102
RTVSPost2010PropOp47
 70
     1
102
RTVSPost2010Prop48
 90
       50
102
RTVSPost2010PropOp48
 70
     1
102
RTVSPost2010Prop49
280
     0
102
RTVSPost2010PropOp49
 70
     1
102
RTVSPost2010Prop50
 90
       50
102
RTVSPost2010PropOp50
 70
     1
102
RTVSPost2010Prop51ColorIndex
 90
      256
102
RTVSPost2010Prop51ColorRGB
 90
-16777216
102
RTVSPost2010PropOp51
 70
     0
102
RTVSPost2010Prop52
140
1.0
102
RTVSPost2010PropOp52
 70
     0
102
RTVSPost2010Prop53
 90
        2
102
RTVSPost2010PropOp53
 70
     1
102
RTVSPost2010Prop54
  1
strokes_ogs.tif
102
RTVSPost2010PropOp54
 70
     1
102
RTVSPost2010Prop55
280
     0
102
RTVSPost2010PropOp55
 70
     1
102
RTVSPost2010Prop56
140
1.0
102
RTVSPost2010PropOp56
 70
     1
102
RTVSPost2010Prop57
140
1.0
102
RTVSPost2010PropOp57
 70
     1
102
RTVSPropertyOp0
 70
     1
102
RTVSPropertyOp1
 70
     1
102
RTVSPropertyOp2
 70
     1
102
RTVSPropertyOp3
 70
     1
102
RTVSPropertyOp4
 70
     1
102
RTVSPropertyOp5
 70
     1
102
RTVSPropertyOp6
 70
     1
102
RTVSPropertyOp7
 70
     1
102
RTVSPropertyOp8
 70
     1
102
RTVSPropertyOp9
 70
     1
102
RTVSPropertyOp10
 70
     1
102
RTVSPropertyOp11
 70
     1
102
RTVSPropertyOp12
 70
     1
102
RTVSPropertyOp13
 70
     1
102
RTVSPropertyOp14
 70
     1
102
RTVSPropertyOp15
 70
     1
102
RTVSPropertyOp16
 70
     1
102
RTVSPropertyOp17
 70
     1
102
RTVSPropertyOp18
 70
     1
102
RTVSPropertyOp19
 70
     1
102
RTVSPropertyOp20
 70
     1
102
RTVSPropertyOp21
 70
     1
102
RTVSPropertyOp22
 70
     1
102
RTVSPropertyOp23
 70
     1
102
RTVSPropertyOp24
 70
     1
102
RTVSPropertyOp25
 70
     1
102
RTVSPropertyOp26
 70
     1
102
RTVSPropertyOp27
 70
     1
102
RTVSPropertyOp28
 70
     1
102
RTVSPropertyOp29
 70
     1
102
RTVSPropertyOp30
 70
     1
102
RTVSPropertyOp31
 70
     1
102
RTVSPropertyOp32
 70
     1
102
RTVSPropertyOp33
 70
     1
102
RTVSPropertyOp34
 70
     1
102
RTVSPropertyOp35
 70
     1
102
RTVSPropertyOp36
 70
     1
102
RTVSPropertyOp37
 70
     1
102
RTVSPropertyOp38
 70
     1
102
RTVSPropertyOp39
 70
     1
102
RTVSPropertyOp40
 70
     1
102
RTVSPropertyOp41
 70
     1
102
RTVSPropertyOp42
 70
     1
102
RTVSPropertyOp43
 70
     1
102
RTVSPropertyOp44
 70
     1
102
RTVSPropertyOp45
 70
     1
102
RTVSPropertyOp46
 70
     1
102
RTVSPropertyOp47
 70
     1
102
RTVSPropertyOp48
 70
     1
102
RTVSPropertyOp49
 70
     1
102
RTVSPropertyOp50
 70
     1
102
RTVSPropertyOp51
 70
     0
102
RTVSPropertyOp52
 70
     0
102
RTVSPropertyOp53
 70
     1
102
RTVSPropertyOp54
 70
     1
102
RTVSPropertyOp55
 70
     1
102
RTVSPropertyOp56
 70
     1
102
RTVSPropertyOp57
 70
     1
102
RTVSPropertyOp58
 70
     1
102
RTVSPropertyOp59
 70
     1
102
RTVSPropertyOp60
 70
     1
102
RTVSPropertyOp61
 70
     1
102
RTVSPropertyOp62
 70
     1
  0
XRECORD
  5
173F
102
{ACAD_REACTORS
330
173E
102
}
330
173E
100
AcDbXrecord
280
     1
102
RTVSPost2010Prop28
280
     0
102
RTVSPost2010PropOp28
 70
     1
102
RTVSPost2010Prop29
280
     1
102
RTVSPost2010PropOp29
 70
     1
102
RTVSPost2010Prop30
280
     1
102
RTVSPost2010PropOp30
 70
     1
102
RTVSPost2010Prop31
280
     0
102
RTVSPost2010PropOp31
 70
     1
102
RTVSPost2010Prop32
280
     0
102
RTVSPost2010PropOp32
 70
     1
102
RTVSPost2010Prop33
280
     0
102
RTVSPost2010PropOp33
 70
     1
102
RTVSPost2010Prop34
280
     0
102
RTVSPost2010PropOp34
 70
     1
102
RTVSPost2010Prop35
280
     0
102
RTVSPost2010PropOp35
 70
     1
102
RTVSPost2010Prop36
280
     0
102
RTVSPost2010PropOp36
 70
     1
102
RTVSPost2010Prop37
 90
       50
102
RTVSPost2010PropOp37
 70
     1
102
RTVSPost2010Prop38
140
0.0
102
RTVSPost2010PropOp38
 70
     1
102
RTVSPost2010Prop39
140
1.0
102
RTVSPost2010PropOp39
 70
     1
102
RTVSPost2010Prop40
 90
        0
102
RTVSPost2010PropOp40
 70
     1
102
RTVSPost2010Prop41ColorIndex
 90
       18
102
RTVSPost2010Prop41ColorRGB
 90
        0
102
RTVSPost2010PropOp41
 70
     1
102
RTVSPost2010Prop42
 90
       50
102
RTVSPost2010PropOp42
 70
     1
102
RTVSPost2010Prop43
 90
        3
102
RTVSPost2010PropOp43
 70
     1
102
RTVSPost2010Prop44ColorIndex
 90
        5
102
RTVSPost2010Prop44ColorRGB
 90
      255
102
RTVSPost2010PropOp44
 70
     1
102
RTVSPost2010Prop45
280
     0
102
RTVSPost2010PropOp45
 70
     1
102
RTVSPost2010Prop46
 90
       50
102
RTVSPost2010PropOp46
 70
     1
102
RTVSPost2010Prop47
 90
       50
102
RTVSPost2010PropOp47
 70
     1
102
RTVSPost2010Prop48
 90
       50
102
RTVSPost2010PropOp48
 70
     1
102
RTVSPost2010Prop49
280
     0
102
RTVSPost2010PropOp49
 70
     1
102
RTVSPost2010Prop50
 90
       50
102
RTVSPost2010PropOp50
 70
     1
102
RTVSPost2010Prop51ColorIndex
 90
      256
102
RTVSPost2010Prop51ColorRGB
 90
-16777216
102
RTVSPost2010PropOp51
 70
     0
102
RTVSPost2010Prop52
140
1.0
102
RTVSPost2010PropOp52
 70
     0
102
RTVSPost2010Prop53
 90
        2
102
RTVSPost2010PropOp53
 70
     1
102
RTVSPost2010Prop54
  1
strokes_ogs.tif
102
RTVSPost2010PropOp54
 70
     1
102
RTVSPost2010Prop55
280
     0
102
RTVSPost2010PropOp55
 70
     1
102
RTVSPost2010Prop56
140
1.0
102
RTVSPost2010PropOp56
 70
     1
102
RTVSPost2010Prop57
140
1.0
102
RTVSPost2010PropOp57
 70
     1
102
RTVSPropertyOp0
 70
     1
102
RTVSPropertyOp1
 70
     1
102
RTVSPropertyOp2
 70
     1
102
RTVSPropertyOp3
 70
     1
102
RTVSPropertyOp4
 70
     1
102
RTVSPropertyOp5
 70
     1
102
RTVSPropertyOp6
 70
     1
102
RTVSPropertyOp7
 70
     1
102
RTVSPropertyOp8
 70
     1
102
RTVSPropertyOp9
 70
     1
102
RTVSPropertyOp10
 70
     1
102
RTVSPropertyOp11
 70
     1
102
RTVSPropertyOp12
 70
     1
102
RTVSPropertyOp13
 70
     1
102
RTVSPropertyOp14
 70
     1
102
RTVSPropertyOp15
 70
     1
102
RTVSPropertyOp16
 70
     1
102
RTVSPropertyOp17
 70
     1
102
RTVSPropertyOp18
 70
     1
102
RTVSPropertyOp19
 70
     1
102
RTVSPropertyOp20
 70
     1
102
RTVSPropertyOp21
 70
     1
102
RTVSPropertyOp22
 70
     1
102
RTVSPropertyOp23
 70
     1
102
RTVSPropertyOp24
 70
     1
102
RTVSPropertyOp25
 70
     1
102
RTVSPropertyOp26
 70
     1
102
RTVSPropertyOp27
 70
     1
102
RTVSPropertyOp28
 70
     1
102
RTVSPropertyOp29
 70
     1
102
RTVSPropertyOp30
 70
     1
102
RTVSPropertyOp31
 70
     1
102
RTVSPropertyOp32
 70
     1
102
RTVSPropertyOp33
 70
     1
102
RTVSPropertyOp34
 70
     1
102
RTVSPropertyOp35
 70
     1
102
RTVSPropertyOp36
 70
     1
102
RTVSPropertyOp37
 70
     1
102
RTVSPropertyOp38
 70
     1
102
RTVSPropertyOp39
 70
     1
102
RTVSPropertyOp40
 70
     1
102
RTVSPropertyOp41
 70
     1
102
RTVSPropertyOp42
 70
     1
102
RTVSPropertyOp43
 70
     1
102
RTVSPropertyOp44
 70
     1
102
RTVSPropertyOp45
 70
     1
102
RTVSPropertyOp46
 70
     1
102
RTVSPropertyOp47
 70
     1
102
RTVSPropertyOp48
 70
     1
102
RTVSPropertyOp49
 70
     1
102
RTVSPropertyOp50
 70
     1
102
RTVSPropertyOp51
 70
     0
102
RTVSPropertyOp52
 70
     0
102
RTVSPropertyOp53
 70
     1
102
RTVSPropertyOp54
 70
     1
102
RTVSPropertyOp55
 70
     1
102
RTVSPropertyOp56
 70
     1
102
RTVSPropertyOp57
 70
     1
102
RTVSPropertyOp58
 70
     1
102
RTVSPropertyOp59
 70
     1
102
RTVSPropertyOp60
 70
     1
102
RTVSPropertyOp61
 70
     1
102
RTVSPropertyOp62
 70
     1
  0
XRECORD
  5
1748
102
{ACAD_REACTORS
330
1747
102
}
330
1747
100
AcDbXrecord
280
     1
102
RTVSPost2010Prop28
280
     0
102
RTVSPost2010PropOp28
 70
     1
102
RTVSPost2010Prop29
280
     1
102
RTVSPost2010PropOp29
 70
     1
102
RTVSPost2010Prop30
280
     1
102
RTVSPost2010PropOp30
 70
     1
102
RTVSPost2010Prop31
280
     0
102
RTVSPost2010PropOp31
 70
     1
102
RTVSPost2010Prop32
280
     0
102
RTVSPost2010PropOp32
 70
     1
102
RTVSPost2010Prop33
280
     0
102
RTVSPost2010PropOp33
 70
     1
102
RTVSPost2010Prop34
280
     0
102
RTVSPost2010PropOp34
 70
     1
102
RTVSPost2010Prop35
280
     0
102
RTVSPost2010PropOp35
 70
     1
102
RTVSPost2010Prop36
280
     0
102
RTVSPost2010PropOp36
 70
     1
102
RTVSPost2010Prop37
 90
       50
102
RTVSPost2010PropOp37
 70
     1
102
RTVSPost2010Prop38
140
0.0
102
RTVSPost2010PropOp38
 70
     1
102
RTVSPost2010Prop39
140
1.0
102
RTVSPost2010PropOp39
 70
     1
102
RTVSPost2010Prop40
 90
        0
102
RTVSPost2010PropOp40
 70
     1
102
RTVSPost2010Prop41ColorIndex
 90
       18
102
RTVSPost2010Prop41ColorRGB
 90
        0
102
RTVSPost2010PropOp41
 70
     1
102
RTVSPost2010Prop42
 90
       50
102
RTVSPost2010PropOp42
 70
     1
102
RTVSPost2010Prop43
 90
        3
102
RTVSPost2010PropOp43
 70
     1
102
RTVSPost2010Prop44ColorIndex
 90
        5
102
RTVSPost2010Prop44ColorRGB
 90
      255
102
RTVSPost2010PropOp44
 70
     1
102
RTVSPost2010Prop45
280
     0
102
RTVSPost2010PropOp45
 70
     1
102
RTVSPost2010Prop46
 90
       50
102
RTVSPost2010PropOp46
 70
     1
102
RTVSPost2010Prop47
 90
       50
102
RTVSPost2010PropOp47
 70
     1
102
RTVSPost2010Prop48
 90
       50
102
RTVSPost2010PropOp48
 70
     1
102
RTVSPost2010Prop49
280
     0
102
RTVSPost2010PropOp49
 70
     1
102
RTVSPost2010Prop50
 90
       50
102
RTVSPost2010PropOp50
 70
     1
102
RTVSPost2010Prop51ColorIndex
 90
      256
102
RTVSPost2010Prop51ColorRGB
 90
-16777216
102
RTVSPost2010PropOp51
 70
     0
102
RTVSPost2010Prop52
140
1.0
102
RTVSPost2010PropOp52
 70
     0
102
RTVSPost2010Prop53
 90
        2
102
RTVSPost2010PropOp53
 70
     1
102
RTVSPost2010Prop54
  1
strokes_ogs.tif
102
RTVSPost2010PropOp54
 70
     1
102
RTVSPost2010Prop55
280
     0
102
RTVSPost2010PropOp55
 70
     1
102
RTVSPost2010Prop56
140
1.0
102
RTVSPost2010PropOp56
 70
     1
102
RTVSPost2010Prop57
140
1.0
102
RTVSPost2010PropOp57
 70
     1
102
RTVSPropertyOp0
 70
     1
102
RTVSPropertyOp1
 70
     1
102
RTVSPropertyOp2
 70
     1
102
RTVSPropertyOp3
 70
     1
102
RTVSPropertyOp4
 70
     1
102
RTVSPropertyOp5
 70
     1
102
RTVSPropertyOp6
 70
     1
102
RTVSPropertyOp7
 70
     1
102
RTVSPropertyOp8
 70
     1
102
RTVSPropertyOp9
 70
     1
102
RTVSPropertyOp10
 70
     1
102
RTVSPropertyOp11
 70
     1
102
RTVSPropertyOp12
 70
     1
102
RTVSPropertyOp13
 70
     1
102
RTVSPropertyOp14
 70
     1
102
RTVSPropertyOp15
 70
     1
102
RTVSPropertyOp16
 70
     1
102
RTVSPropertyOp17
 70
     1
102
RTVSPropertyOp18
 70
     1
102
RTVSPropertyOp19
 70
     1
102
RTVSPropertyOp20
 70
     1
102
RTVSPropertyOp21
 70
     1
102
RTVSPropertyOp22
 70
     1
102
RTVSPropertyOp23
 70
     1
102
RTVSPropertyOp24
 70
     1
102
RTVSPropertyOp25
 70
     1
102
RTVSPropertyOp26
 70
     1
102
RTVSPropertyOp27
 70
     1
102
RTVSPropertyOp28
 70
     1
102
RTVSPropertyOp29
 70
     1
102
RTVSPropertyOp30
 70
     1
102
RTVSPropertyOp31
 70
     1
102
RTVSPropertyOp32
 70
     1
102
RTVSPropertyOp33
 70
     1
102
RTVSPropertyOp34
 70
     1
102
RTVSPropertyOp35
 70
     1
102
RTVSPropertyOp36
 70
     1
102
RTVSPropertyOp37
 70
     1
102
RTVSPropertyOp38
 70
     1
102
RTVSPropertyOp39
 70
     1
102
RTVSPropertyOp40
 70
     1
102
RTVSPropertyOp41
 70
     1
102
RTVSPropertyOp42
 70
     1
102
RTVSPropertyOp43
 70
     1
102
RTVSPropertyOp44
 70
     1
102
RTVSPropertyOp45
 70
     1
102
RTVSPropertyOp46
 70
     1
102
RTVSPropertyOp47
 70
     1
102
RTVSPropertyOp48
 70
     1
102
RTVSPropertyOp49
 70
     1
102
RTVSPropertyOp50
 70
     1
102
RTVSPropertyOp51
 70
     0
102
RTVSPropertyOp52
 70
     0
102
RTVSPropertyOp53
 70
     1
102
RTVSPropertyOp54
 70
     1
102
RTVSPropertyOp55
 70
     1
102
RTVSPropertyOp56
 70
     1
102
RTVSPropertyOp57
 70
     1
102
RTVSPropertyOp58
 70
     1
102
RTVSPropertyOp59
 70
     1
102
RTVSPropertyOp60
 70
     1
102
RTVSPropertyOp61
 70
     1
102
RTVSPropertyOp62
 70
     1
  0
XRECORD
  5
1750
102
{ACAD_REACTORS
330
174F
102
}
330
174F
100
AcDbXrecord
280
     1
102
RTVSPost2010Prop28
280
     0
102
RTVSPost2010PropOp28
 70
     1
102
RTVSPost2010Prop29
280
     1
102
RTVSPost2010PropOp29
 70
     1
102
RTVSPost2010Prop30
280
     1
102
RTVSPost2010PropOp30
 70
     1
102
RTVSPost2010Prop31
280
     0
102
RTVSPost2010PropOp31
 70
     1
102
RTVSPost2010Prop32
280
     0
102
RTVSPost2010PropOp32
 70
     1
102
RTVSPost2010Prop33
280
     0
102
RTVSPost2010PropOp33
 70
     1
102
RTVSPost2010Prop34
280
     0
102
RTVSPost2010PropOp34
 70
     1
102
RTVSPost2010Prop35
280
     0
102
RTVSPost2010PropOp35
 70
     1
102
RTVSPost2010Prop36
280
     0
102
RTVSPost2010PropOp36
 70
     1
102
RTVSPost2010Prop37
 90
       50
102
RTVSPost2010PropOp37
 70
     1
102
RTVSPost2010Prop38
140
0.0
102
RTVSPost2010PropOp38
 70
     1
102
RTVSPost2010Prop39
140
1.0
102
RTVSPost2010PropOp39
 70
     1
102
RTVSPost2010Prop40
 90
        0
102
RTVSPost2010PropOp40
 70
     1
102
RTVSPost2010Prop41ColorIndex
 90
       18
102
RTVSPost2010Prop41ColorRGB
 90
        0
102
RTVSPost2010PropOp41
 70
     1
102
RTVSPost2010Prop42
 90
       50
102
RTVSPost2010PropOp42
 70
     1
102
RTVSPost2010Prop43
 90
        3
102
RTVSPost2010PropOp43
 70
     1
102
RTVSPost2010Prop44ColorIndex
 90
        5
102
RTVSPost2010Prop44ColorRGB
 90
      255
102
RTVSPost2010PropOp44
 70
     1
102
RTVSPost2010Prop45
280
     0
102
RTVSPost2010PropOp45
 70
     1
102
RTVSPost2010Prop46
 90
       50
102
RTVSPost2010PropOp46
 70
     1
102
RTVSPost2010Prop47
 90
       50
102
RTVSPost2010PropOp47
 70
     1
102
RTVSPost2010Prop48
 90
       50
102
RTVSPost2010PropOp48
 70
     1
102
RTVSPost2010Prop49
280
     0
102
RTVSPost2010PropOp49
 70
     1
102
RTVSPost2010Prop50
 90
       50
102
RTVSPost2010PropOp50
 70
     1
102
RTVSPost2010Prop51ColorIndex
 90
      256
102
RTVSPost2010Prop51ColorRGB
 90
-16777216
102
RTVSPost2010PropOp51
 70
     0
102
RTVSPost2010Prop52
140
1.0
102
RTVSPost2010PropOp52
 70
     0
102
RTVSPost2010Prop53
 90
        2
102
RTVSPost2010PropOp53
 70
     1
102
RTVSPost2010Prop54
  1
strokes_ogs.tif
102
RTVSPost2010PropOp54
 70
     1
102
RTVSPost2010Prop55
280
     0
102
RTVSPost2010PropOp55
 70
     1
102
RTVSPost2010Prop56
140
1.0
102
RTVSPost2010PropOp56
 70
     1
102
RTVSPost2010Prop57
140
1.0
102
RTVSPost2010PropOp57
 70
     1
102
RTVSPropertyOp0
 70
     1
102
RTVSPropertyOp1
 70
     1
102
RTVSPropertyOp2
 70
     1
102
RTVSPropertyOp3
 70
     1
102
RTVSPropertyOp4
 70
     1
102
RTVSPropertyOp5
 70
     1
102
RTVSPropertyOp6
 70
     1
102
RTVSPropertyOp7
 70
     1
102
RTVSPropertyOp8
 70
     1
102
RTVSPropertyOp9
 70
     1
102
RTVSPropertyOp10
 70
     1
102
RTVSPropertyOp11
 70
     1
102
RTVSPropertyOp12
 70
     1
102
RTVSPropertyOp13
 70
     1
102
RTVSPropertyOp14
 70
     1
102
RTVSPropertyOp15
 70
     1
102
RTVSPropertyOp16
 70
     1
102
RTVSPropertyOp17
 70
     1
102
RTVSPropertyOp18
 70
     1
102
RTVSPropertyOp19
 70
     1
102
RTVSPropertyOp20
 70
     1
102
RTVSPropertyOp21
 70
     1
102
RTVSPropertyOp22
 70
     1
102
RTVSPropertyOp23
 70
     1
102
RTVSPropertyOp24
 70
     1
102
RTVSPropertyOp25
 70
     1
102
RTVSPropertyOp26
 70
     1
102
RTVSPropertyOp27
 70
     1
102
RTVSPropertyOp28
 70
     1
102
RTVSPropertyOp29
 70
     1
102
RTVSPropertyOp30
 70
     1
102
RTVSPropertyOp31
 70
     1
102
RTVSPropertyOp32
 70
     1
102
RTVSPropertyOp33
 70
     1
102
RTVSPropertyOp34
 70
     1
102
RTVSPropertyOp35
 70
     1
102
RTVSPropertyOp36
 70
     1
102
RTVSPropertyOp37
 70
     1
102
RTVSPropertyOp38
 70
     1
102
RTVSPropertyOp39
 70
     1
102
RTVSPropertyOp40
 70
     1
102
RTVSPropertyOp41
 70
     1
102
RTVSPropertyOp42
 70
     1
102
RTVSPropertyOp43
 70
     1
102
RTVSPropertyOp44
 70
     1
102
RTVSPropertyOp45
 70
     1
102
RTVSPropertyOp46
 70
     1
102
RTVSPropertyOp47
 70
     1
102
RTVSPropertyOp48
 70
     1
102
RTVSPropertyOp49
 70
     1
102
RTVSPropertyOp50
 70
     1
102
RTVSPropertyOp51
 70
     0
102
RTVSPropertyOp52
 70
     0
102
RTVSPropertyOp53
 70
     1
102
RTVSPropertyOp54
 70
     1
102
RTVSPropertyOp55
 70
     1
102
RTVSPropertyOp56
 70
     1
102
RTVSPropertyOp57
 70
     1
102
RTVSPropertyOp58
 70
     1
102
RTVSPropertyOp59
 70
     1
102
RTVSPropertyOp60
 70
     1
102
RTVSPropertyOp61
 70
     1
102
RTVSPropertyOp62
 70
     1
  0
ENDSEC
  0
EOF
