  0
SECTION
  2
HEADER
  9
$ACADVER
  1
AC1015
  9
$ACADMAINTVER
 70
    18
  9
$DWGCODEPAGE
  3
ANSI_932
  9
$INSBASE
 10
0.0
 20
0.0
 30
0.0
  9
$EXTMIN
 10
9.999999851328993
 20
10.00000406652987
 30
0.0
  9
$EXTMAX
 10
4209.999937266352
 20
2979.999959809982
 30
0.0
  9
$LIMMIN
 10
0.0
 20
0.0
  9
$LIMMAX
 10
4199.999937415801
 20
2969.999955744031
  9
$ORTHOMODE
 70
     0
  9
$REGENMODE
 70
     1
  9
$FILLMODE
 70
     1
  9
$QTEXTMODE
 70
     0
  9
$MIRRTEXT
 70
     0
  9
$LTSCALE
 40
9.999999850990002
  9
$ATTMODE
 70
     1
  9
$TEXTSIZE
 40
2.5
  9
$TRACEWID
 40
1.0
  9
$TEXTSTYLE
  7
STD
  9
$CLAYER
  8
画層1
  9
$CELTYPE
  6
Continuous
  9
$CECOLOR
 62
     7
  9
$CELTSCALE
 40
1.0
  9
$DISPSILH
 70
     0
  9
$DIMSCALE
 40
9.999999850990002
  9
$DIMASZ
 40
3.0
  9
$DIMEXO
 40
1.0
  9
$DIMDLI
 40
8.0
  9
$DIMRND
 40
0.0
  9
$DIMDLE
 40
0.0
  9
$DIMEXE
 40
1.0
  9
$DIMTP
 40
0.0
  9
$DIMTM
 40
0.000000001
  9
$DIMTXT
 40
3.0
  9
$DIMCEN
 40
0.0
  9
$DIMTSZ
 40
0.0
  9
$DIMTOL
 70
     0
  9
$DIMLIM
 70
     0
  9
$DIMTIH
 70
     0
  9
$DIMTOH
 70
     0
  9
$DIMSE1
 70
     0
  9
$DIMSE2
 70
     0
  9
$DIMTAD
 70
     3
  9
$DIMZIN
 70
     9
  9
$DIMBLK
  1
Open30
  9
$DIMASO
 70
     1
  9
$DIMSHO
 70
     1
  9
$DIMPOST
  1

  9
$DIMAPOST
  1

  9
$DIMALT
 70
     0
  9
$DIMALTD
 70
     2
  9
$DIMALTF
 40
0.0005
  9
$DIMLFAC
 40
1.0
  9
$DIMTOFL
 70
     1
  9
$DIMTVP
 40
0.0
  9
$DIMTIX
 70
     0
  9
$DIMSOXD
 70
     0
  9
$DIMSAH
 70
     0
  9
$DIMBLK1
  1

  9
$DIMBLK2
  1

  9
$DIMSTYLE
  2
ASKSTANDARD
  9
$DIMCLRD
 70
     4
  9
$DIMCLRE
 70
     4
  9
$DIMCLRT
 70
     4
  9
$DIMTFAC
 40
0.5
  9
$DIMGAP
 40
1.0
  9
$DIMJUST
 70
     0
  9
$DIMSD1
 70
     0
  9
$DIMSD2
 70
     0
  9
$DIMTOLJ
 70
     1
  9
$DIMTZIN
 70
     0
  9
$DIMALTZ
 70
     0
  9
$DIMALTTZ
 70
     0
  9
$DIMUPT
 70
     0
  9
$DIMDEC
 70
     2
  9
$DIMTDEC
 70
     2
  9
$DIMALTU
 70
     2
  9
$DIMALTTD
 70
     2
  9
$DIMTXSTY
  7
STD
  9
$DIMAUNIT
 70
     0
  9
$DIMADEC
 70
     2
  9
$DIMALTRND
 40
0.0
  9
$DIMAZIN
 70
     2
  9
$DIMDSEP
 70
    46
  9
$DIMATFIT
 70
     0
  9
$DIMFRAC
 70
     0
  9
$DIMLDRBLK
  1
Open30
  9
$DIMLUNIT
 70
     2
  9
$DIMLWD
 70
     9
  9
$DIMLWE
 70
     9
  9
$DIMTMOVE
 70
     0
  9
$LUNITS
 70
     2
  9
$LUPREC
 70
     4
  9
$SKETCHINC
 40
1.0
  9
$FILLETRAD
 40
0.0
  9
$AUNITS
 70
     0
  9
$AUPREC
 70
     0
  9
$MENU
  1
.
  9
$ELEVATION
 40
0.0
  9
$PELEVATION
 40
0.0
  9
$THICKNESS
 40
0.0
  9
$LIMCHECK
 70
     0
  9
$CHAMFERA
 40
0.0
  9
$CHAMFERB
 40
0.0
  9
$CHAMFERC
 40
0.0
  9
$CHAMFERD
 40
0.0
  9
$SKPOLY
 70
     0
  9
$TDCREATE
 40
2454497.602825139
  9
$TDUCREATE
 40
2454497.227825139
  9
$TDUPDATE
 40
2456367.607867651
  9
$TDUUPDATE
 40
2456367.232867651
  9
$TDINDWG
 40
0.1967086574
  9
$TDUSRTIMER
 40
0.1967086574
  9
$USRTIMER
 70
     1
  9
$ANGBASE
 50
0.0
  9
$ANGDIR
 70
     0
  9
$PDMODE
 70
     1
  9
$PDSIZE
 40
0.0
  9
$PLINEWID
 40
0.0
  9
$SPLFRAME
 70
     0
  9
$SPLINETYPE
 70
     6
  9
$SPLINESEGS
 70
     8
  9
$HANDSEED
  5
133C
  9
$SURFTAB1
 70
     6
  9
$SURFTAB2
 70
     6
  9
$SURFTYPE
 70
     6
  9
$SURFU
 70
     6
  9
$SURFV
 70
     6
  9
$UCSBASE
  2

  9
$UCSNAME
  2

  9
$UCSORG
 10
0.0
 20
0.0
 30
0.0
  9
$UCSXDIR
 10
1.0
 20
0.0
 30
0.0
  9
$UCSYDIR
 10
0.0
 20
1.0
 30
0.0
  9
$UCSORTHOREF
  2

  9
$UCSORTHOVIEW
 70
     0
  9
$UCSORGTOP
 10
0.0
 20
0.0
 30
0.0
  9
$UCSORGBOTTOM
 10
0.0
 20
0.0
 30
0.0
  9
$UCSORGLEFT
 10
0.0
 20
0.0
 30
0.0
  9
$UCSORGRIGHT
 10
0.0
 20
0.0
 30
0.0
  9
$UCSORGFRONT
 10
0.0
 20
0.0
 30
0.0
  9
$UCSORGBACK
 10
0.0
 20
0.0
 30
0.0
  9
$PUCSBASE
  2

  9
$PUCSNAME
  2

  9
$PUCSORG
 10
0.0
 20
0.0
 30
0.0
  9
$PUCSXDIR
 10
1.0
 20
0.0
 30
0.0
  9
$PUCSYDIR
 10
0.0
 20
1.0
 30
0.0
  9
$PUCSORTHOREF
  2

  9
$PUCSORTHOVIEW
 70
     0
  9
$PUCSORGTOP
 10
0.0
 20
0.0
 30
0.0
  9
$PUCSORGBOTTOM
 10
0.0
 20
0.0
 30
0.0
  9
$PUCSORGLEFT
 10
0.0
 20
0.0
 30
0.0
  9
$PUCSORGRIGHT
 10
0.0
 20
0.0
 30
0.0
  9
$PUCSORGFRONT
 10
0.0
 20
0.0
 30
0.0
  9
$PUCSORGBACK
 10
0.0
 20
0.0
 30
0.0
  9
$USERI1
 70
     0
  9
$USERI2
 70
     0
  9
$USERI3
 70
     0
  9
$USERI4
 70
     0
  9
$USERI5
 70
     0
  9
$USERR1
 40
0.0
  9
$USERR2
 40
0.0
  9
$USERR3
 40
0.0
  9
$USERR4
 40
0.0
  9
$USERR5
 40
0.0
  9
$WORLDVIEW
 70
     1
  9
$SHADEDGE
 70
     3
  9
$SHADEDIF
 70
    70
  9
$TILEMODE
 70
     1
  9
$MAXACTVP
 70
    64
  9
$PINSBASE
 10
0.0
 20
0.0
 30
0.0
  9
$PLIMCHECK
 70
     0
  9
$PEXTMIN
 10
0.0
 20
0.0
 30
0.0
  9
$PEXTMAX
 10
0.0
 20
0.0
 30
0.0
  9
$PLIMMIN
 10
0.0
 20
0.0
  9
$PLIMMAX
 10
12.0
 20
9.0
  9
$UNITMODE
 70
     0
  9
$VISRETAIN
 70
     1
  9
$PLINEGEN
 70
     0
  9
$PSLTSCALE
 70
     1
  9
$TREEDEPTH
 70
  3020
  9
$CMLSTYLE
  2
Standard
  9
$CMLJUST
 70
     0
  9
$CMLSCALE
 40
20.0
  9
$PROXYGRAPHICS
 70
     1
  9
$MEASUREMENT
 70
     1
  9
$CELWEIGHT
370
    -1
  9
$ENDCAPS
280
     0
  9
$JOINSTYLE
280
     0
  9
$LWDISPLAY
290
     0
  9
$INSUNITS
 70
     4
  9
$HYPERLINKBASE
  1

  9
$STYLESHEET
  1

  9
$XEDIT
290
     1
  9
$CEPSNTYPE
380
     0
  9
$PSTYLEMODE
290
     1
  9
$FINGERPRINTGUID
  2
{D178A04D-76D8-4F2C-AB2D-4FB1B243C31E}
  9
$VERSIONGUID
  2
{643AAB6C-880A-4D31-9D62-A397136D3E7B}
  9
$EXTNAMES
290
     1
  9
$PSVPSCALE
 40
0.0
  9
$OLESTARTUP
290
     0
  0
ENDSEC
  0
SECTION
  2
CLASSES
  0
CLASS
  1
ACDBDICTIONARYWDFLT
  2
AcDbDictionaryWithDefault
  3
ObjectDBX Classes
 90
        0
280
     0
281
     0
  0
CLASS
  1
DICTIONARYVAR
  2
AcDbDictionaryVar
  3
ObjectDBX Classes
 90
        0
280
     0
281
     0
  0
CLASS
  1
TABLESTYLE
  2
AcDbTableStyle
  3
ObjectDBX Classes
 90
     4095
280
     0
281
     0
  0
CLASS
  1
MATERIAL
  2
AcDbMaterial
  3
ObjectDBX Classes
 90
     1153
280
     0
281
     0
  0
CLASS
  1
VISUALSTYLE
  2
AcDbVisualStyle
  3
ObjectDBX Classes
 90
     4095
280
     0
281
     0
  0
CLASS
  1
SORTENTSTABLE
  2
AcDbSortentsTable
  3
ObjectDBX Classes
 90
        0
280
     0
281
     0
  0
CLASS
  1
SCALE
  2
AcDbScale
  3
ObjectDBX Classes
 90
     1153
280
     0
281
     0
  0
CLASS
  1
MLEADERSTYLE
  2
AcDbMLeaderStyle
  3
ACDB_MLEADERSTYLE_CLASS
 90
     4095
280
     0
281
     0
  0
CLASS
  1
CELLSTYLEMAP
  2
AcDbCellStyleMap
  3
ObjectDBX Classes
 90
     1152
280
     0
281
     0
  0
CLASS
  1
EXACXREFPANELOBJECT
  2
ExAcXREFPanelObject
  3
EXAC_ESW
 90
    33793
280
     0
281
     0
  0
CLASS
  1
NPOCOLLECTION
  2
AcDbImpNonPersistentObjectsCollection
  3
ObjectDBX Classes
 90
    33921
280
     0
281
     0
  0
CLASS
  1
RASTERVARIABLES
  2
AcDbRasterVariables
  3
ISM
 90
        0
280
     0
281
     0
  0
CLASS
  1
ACDBPLACEHOLDER
  2
AcDbPlaceHolder
  3
ObjectDBX Classes
 90
        0
280
     0
281
     0
  0
CLASS
  1
LAYOUT
  2
AcDbLayout
  3
ObjectDBX Classes
 90
        0
280
     0
281
     0
  0
ENDSEC
  0
SECTION
  2
TABLES
  0
TABLE
  2
VPORT
  5
8
330
0
100
AcDbSymbolTable
 70
     1
  0
VPORT
  5
ED
330
8
100
AcDbSymbolTableRecord
100
AcDbViewportTableRecord
  2
*Active
 70
     0
 10
0.0
 20
0.0
 11
1.0
 21
1.0
 12
2099.999968707901
 22
1484.999977872015
 13
0.0
 23
0.0
 14
10.0
 24
10.0
 15
10.0
 25
10.0
 16
0.0
 26
0.0
 36
1.0
 17
0.0
 27
0.0
 37
0.0
 40
2969.999955744031
 41
1.878504672897196
 42
50.0
 43
0.0
 44
0.0
 50
0.0
 51
0.0
 71
     0
 72
  1000
 73
     1
 74
     3
 75
     0
 76
     0
 77
     0
 78
     0
281
     0
 65
     1
110
0.0
120
0.0
130
0.0
111
1.0
121
0.0
131
0.0
112
0.0
122
1.0
132
0.0
 79
     0
146
0.0
  0
ENDTAB
  0
TABLE
  2
LTYPE
  5
5
330
0
100
AcDbSymbolTable
 70
     6
  0
LTYPE
  5
14
330
5
100
AcDbSymbolTableRecord
100
AcDbLinetypeTableRecord
  2
ByBlock
 70
     0
  3

 72
    65
 73
     0
 40
0.0
  0
LTYPE
  5
15
330
5
100
AcDbSymbolTableRecord
100
AcDbLinetypeTableRecord
  2
ByLayer
 70
     0
  3

 72
    65
 73
     0
 40
0.0
  0
LTYPE
  5
16
330
5
100
AcDbSymbolTableRecord
100
AcDbLinetypeTableRecord
  2
Continuous
 70
     0
  3
Solid line
 72
    65
 73
     0
 40
0.0
  0
LTYPE
  5
780
330
5
100
AcDbSymbolTableRecord
100
AcDbLinetypeTableRecord
  2
CENTER2
 70
     0
  3
Center (.5x) ___ _ ___ _ ___ _ ___ _ ___ _ ___
 72
    65
 73
     4
 40
28.575
 49
19.05
 74
     0
 49
-3.174999999999999
 74
     0
 49
3.174999999999999
 74
     0
 49
-3.174999999999999
 74
     0
  0
LTYPE
  5
781
330
5
100
AcDbSymbolTableRecord
100
AcDbLinetypeTableRecord
  2
HIDDEN2
 70
     0
  3
Hidden (.5x) _ _ _ _ _ _ _ _ _ _ _ _ _ _ _ _ _
 72
    65
 73
     2
 40
4.762499999999999
 49
3.174999999999999
 74
     0
 49
-1.587499999999999
 74
     0
  0
LTYPE
  5
782
330
5
100
AcDbSymbolTableRecord
100
AcDbLinetypeTableRecord
  2
PHANTOM2
 70
     0
  3
Phantom (.5x) ___ _ _ ___ _ _ ___ _ _ ___ _ _
 72
    65
 73
     6
 40
31.75
 49
15.875
 74
     0
 49
-3.174999999999999
 74
     0
 49
3.174999999999999
 74
     0
 49
-3.174999999999999
 74
     0
 49
3.174999999999999
 74
     0
 49
-3.174999999999999
 74
     0
  0
LTYPE
  5
7A8
330
5
100
AcDbSymbolTableRecord
100
AcDbLinetypeTableRecord
  2
zigzag
 70
     0
  3
/\/-/\/-/\/-/\/-/\/-/\/
 72
    65
 73
     2
 40
11.0001
 49
0.0001
 74
     4
 75
   135
340
77F
 46
0.04
 50
0.0
 44
0.0
 45
0.0
 49
-11.0
 74
     0
  0
LTYPE
  5
7D1
330
5
100
AcDbSymbolTableRecord
100
AcDbLinetypeTableRecord
  2
DIMENSION
 70
     0
  3
_______________________________________________
 72
    65
 73
     2
 40
0.000000000000002
 49
0.000000000000001
 74
     0
 49
0.000000000000001
 74
     0
  0
ENDTAB
  0
TABLE
  2
LAYER
  5
2
102
{ACAD_XDICTIONARY
360
688
102
}
330
0
100
AcDbSymbolTable
 70
     8
  0
LAYER
  5
10
102
{ACAD_XDICTIONARY
360
785
102
}
330
2
100
AcDbSymbolTableRecord
100
AcDbLayerTableRecord
  2
0
 70
     0
 62
     7
  6
Continuous
370
    -3
390
F
  0
LAYER
  5
14A
330
2
100
AcDbSymbolTableRecord
100
AcDbLayerTableRecord
  2
Defpoints
 70
     0
 62
     7
  6
Continuous
290
     0
370
    -3
390
F
  0
LAYER
  5
7F9
330
2
100
AcDbSymbolTableRecord
100
AcDbLayerTableRecord
  2
PV0001_10
 70
     0
 62
     7
  6
Continuous
370
    -3
390
F
  0
LAYER
  5
AEB
330
2
100
AcDbSymbolTableRecord
100
AcDbLayerTableRecord
  2
RH0901_10
 70
     0
 62
     7
  6
Continuous
370
    -3
390
F
  0
LAYER
  5
C58
330
2
100
AcDbSymbolTableRecord
100
AcDbLayerTableRecord
  2
LH2691_10
 70
     0
 62
     7
  6
Continuous
370
    -3
390
F
  0
LAYER
  5
F43
330
2
100
AcDbSymbolTableRecord
100
AcDbLayerTableRecord
  2
TP1791_10
 70
     0
 62
     7
  6
Continuous
370
    -3
390
F
  0
LAYER
  5
1147
330
2
100
AcDbSymbolTableRecord
100
AcDbLayerTableRecord
  2
F00001_1
 70
     0
 62
     7
  6
Continuous
370
    -3
390
F
  0
LAYER
  5
12EB
330
2
100
AcDbSymbolTableRecord
100
AcDbLayerTableRecord
  2
画層1
 70
     0
 62
     7
  6
Continuous
370
    -3
390
F
1001
AcAecLayerStandard
1000

1000

  0
ENDTAB
  0
TABLE
  2
STYLE
  5
3
330
0
100
AcDbSymbolTable
 70
     3
  0
STYLE
  5
11
330
3
100
AcDbSymbolTableRecord
100
AcDbTextStyleTableRecord
  2
Standard
 70
     0
 40
0.0
 41
0.8
 50
0.0
 71
     0
 42
2.5
  3
romans.shx
  4
extfont2.shx
  0
STYLE
  5
77F
330
3
100
AcDbSymbolTableRecord
100
AcDbTextStyleTableRecord
  2

 70
     1
 40
0.0
 41
1.0
 50
0.0
 71
     0
 42
2.5
  3
ltypeshp.shx
  4

  0
STYLE
  5
783
330
3
100
AcDbSymbolTableRecord
100
AcDbTextStyleTableRecord
  2
STD
 70
     0
 40
0.0
 41
0.6
 50
0.0
 71
     0
 42
2.5
  3
monotxt.shx
  4
extfont2.shx
  0
ENDTAB
  0
TABLE
  2
VIEW
  5
6
330
0
100
AcDbSymbolTable
 70
     0
  0
ENDTAB
  0
TABLE
  2
UCS
  5
7
330
0
100
AcDbSymbolTable
 70
     0
  0
ENDTAB
  0
TABLE
  2
APPID
  5
9
330
0
100
AcDbSymbolTable
 70
    21
  0
APPID
  5
12
330
9
100
AcDbSymbolTableRecord
100
AcDbRegAppTableRecord
  2
ACAD
 70
     0
  0
APPID
  5
9E
330
9
100
AcDbSymbolTableRecord
100
AcDbRegAppTableRecord
  2
ACAD_PSEXT
 70
     0
  0
APPID
  5
15A
330
9
100
AcDbSymbolTableRecord
100
AcDbRegAppTableRecord
  2
ACAD_DSTYLE_DIMTEXT_FILL
 70
     0
  0
APPID
  5
15B
330
9
100
AcDbSymbolTableRecord
100
AcDbRegAppTableRecord
  2
ACAD_DSTYLE_DIMEXT_LENGTH
 70
     0
  0
APPID
  5
15C
330
9
100
AcDbSymbolTableRecord
100
AcDbRegAppTableRecord
  2
ACAD_DSTYLE_DIMEXT_ENABLED
 70
     0
  0
APPID
  5
15D
330
9
100
AcDbSymbolTableRecord
100
AcDbRegAppTableRecord
  2
ACAD_DSTYLE_DIM_LINETYPE
 70
     0
  0
APPID
  5
15E
330
9
100
AcDbSymbolTableRecord
100
AcDbRegAppTableRecord
  2
ACAD_DSTYLE_DIM_EXT1_LINETYPE
 70
     0
  0
APPID
  5
15F
330
9
100
AcDbSymbolTableRecord
100
AcDbRegAppTableRecord
  2
ACAD_DSTYLE_DIM_EXT2_LINETYPE
 70
     0
  0
APPID
  5
160
330
9
100
AcDbSymbolTableRecord
100
AcDbRegAppTableRecord
  2
ACAD_DSTYLE_DIMJOGGED_JOGANGLE_SYMBOL
 70
     0
  0
APPID
  5
161
330
9
100
AcDbSymbolTableRecord
100
AcDbRegAppTableRecord
  2
ACAD_DSTYLE_DIMARC_LENGTH_SYMBOL
 70
     0
  0
APPID
  5
162
330
9
100
AcDbSymbolTableRecord
100
AcDbRegAppTableRecord
  2
ACAD_MLEADERVER
 70
     0
  0
APPID
  5
163
330
9
100
AcDbSymbolTableRecord
100
AcDbRegAppTableRecord
  2
AcAecLayerStandard
 70
     0
  0
APPID
  5
164
330
9
100
AcDbSymbolTableRecord
100
AcDbRegAppTableRecord
  2
ACAD_DSTYLE_DIMJAG
 70
     0
  0
APPID
  5
165
330
9
100
AcDbSymbolTableRecord
100
AcDbRegAppTableRecord
  2
ACAD_DSTYLE_DIMTALN
 70
     0
  0
APPID
  5
166
330
9
100
AcDbSymbolTableRecord
100
AcDbRegAppTableRecord
  2
DIMEXPLODE
 70
     0
  0
APPID
  5
41A
330
9
100
AcDbSymbolTableRecord
100
AcDbRegAppTableRecord
  2
AcadAnnoPO
 70
     0
  0
APPID
  5
7AC
330
9
100
AcDbSymbolTableRecord
100
AcDbRegAppTableRecord
  2
AcadAnnotative
 70
     0
  0
APPID
  5
7C9
330
9
100
AcDbSymbolTableRecord
100
AcDbRegAppTableRecord
  2
ACAD_EXEMPT_FROM_CAD_STANDARDS
 70
     0
  0
APPID
  5
97F
330
9
100
AcDbSymbolTableRecord
100
AcDbRegAppTableRecord
  2
DEKIMAS
 70
     0
  0
APPID
  5
124D
330
9
100
AcDbSymbolTableRecord
100
AcDbRegAppTableRecord
  2
ASKOBJSC
 70
     0
  0
APPID
  5
124E
330
9
100
AcDbSymbolTableRecord
100
AcDbRegAppTableRecord
  2
ASKDWGSC
 70
     0
  0
ENDTAB
  0
TABLE
  2
DIMSTYLE
  5
A
330
0
100
AcDbSymbolTable
 70
     4
100
AcDbDimStyleTable
 71
     1
340
159
  0
DIMSTYLE
105
159
102
{ACAD_REACTORS
330
7FA
330
83D
330
8A6
330
8E9
330
92C
330
9FE
330
AEC
330
B2F
330
C0E
330
C59
330
C9C
330
CDF
330
D22
330
D73
330
DB6
330
F44
330
F87
330
FCA
330
10D0
330
10D6
330
10D8
102
}
330
A
100
AcDbSymbolTableRecord
100
AcDbDimStyleTableRecord
  2
ASKSTANDARD
 70
     0
 40
9.999999850988389
 41
3.0
 42
1.0
 43
8.0
 44
1.0
 48
0.000000001
 73
     0
 74
     0
 77
     3
 78
     9
 79
     2
140
3.0
141
0.0
143
0.0005
146
0.5
147
1.0
172
     1
176
     4
177
     4
178
     4
179
     2
271
     2
272
     2
289
     0
340
783
341
71F
342
71F
371
     9
372
     9
1001
ACAD_DSTYLE_DIMJAG
1070
   388
1040
1.5
1001
ACAD_DSTYLE_DIMTALN
1070
   392
1070
     0
1001
ACAD_DSTYLE_DIMEXT_LENGTH
1070
   378
1040
2.0
1001
ACAD_DSTYLE_DIMJOGGED_JOGANGLE_SYMBOL
1070
   384
1040
1.570796326794896
  0
DIMSTYLE
105
7AA
330
A
100
AcDbSymbolTableRecord
100
AcDbDimStyleTableRecord
  2
Standard
 70
     0
340
11
  0
DIMSTYLE
105
7F8
330
A
100
AcDbSymbolTableRecord
100
AcDbDimStyleTableRecord
  2
SYMBOL
 70
     0
 40
9.999999850988389
 41
3.0
 42
1.0
 43
8.0
 44
1.0
 48
0.000000001
 73
     0
 74
     0
 77
     3
 78
     9
 79
     2
140
3.0
141
0.0
143
0.0005
146
0.5
147
1.0
172
     1
176
     4
177
     4
178
     4
179
     2
271
     2
272
     2
289
     0
340
783
341
71F
342
71F
371
     9
372
     9
1001
ACAD_DSTYLE_DIMJAG
1070
   388
1040
1.5
1001
ACAD_DSTYLE_DIMTALN
1070
   392
1070
     0
1001
ACAD_DSTYLE_DIMEXT_LENGTH
1070
   378
1040
2.0
1001
ACAD_DSTYLE_DIMJOGGED_JOGANGLE_SYMBOL
1070
   384
1040
1.570796326794896
  0
DIMSTYLE
105
1146
102
{ACAD_REACTORS
330
7FA
330
83D
330
8A6
330
8E9
330
92C
330
AEC
330
B2F
330
C59
330
C9C
330
CDF
330
D22
330
D73
330
DB6
330
F44
330
F87
330
FCA
102
}
330
A
100
AcDbSymbolTableRecord
100
AcDbDimStyleTableRecord
  2
ASKSTANDARDF00P1
 70
     0
 40
9.999999850988389
 41
3.0
 42
1.0
 43
8.0
 44
1.0
 48
0.000000001
 73
     0
 74
     0
 77
     3
 78
     9
 79
     2
140
3.0
141
0.0
143
0.0005
144
0.1
146
0.5
147
1.0
172
     1
176
     4
177
     4
178
     4
179
     2
271
     2
272
     2
289
     0
340
783
341
71F
342
71F
371
     9
372
     9
1001
ACAD_DSTYLE_DIMJAG
1070
   388
1040
1.5
1001
ACAD_DSTYLE_DIMTALN
1070
   392
1070
     0
1001
ACAD_DSTYLE_DIMEXT_LENGTH
1070
   378
1040
2.0
1001
ACAD_DSTYLE_DIMJOGGED_JOGANGLE_SYMBOL
1070
   384
1040
1.570796326794896
  0
ENDTAB
  0
TABLE
  2
BLOCK_RECORD
  5
1
330
0
100
AcDbSymbolTable
 70
    20
  0
BLOCK_RECORD
  5
1F
102
{ACAD_XDICTIONARY
360
318
102
}
330
1
100
AcDbSymbolTableRecord
100
AcDbBlockTableRecord
  2
*Model_Space
340
22
  0
BLOCK_RECORD
  5
D2
330
1
100
AcDbSymbolTableRecord
100
AcDbBlockTableRecord
  2
*Paper_Space
340
D3
  0
BLOCK_RECORD
  5
D6
330
1
100
AcDbSymbolTableRecord
100
AcDbBlockTableRecord
  2
*Paper_Space0
340
D7
  0
BLOCK_RECORD
  5
71F
330
1
100
AcDbSymbolTableRecord
100
AcDbBlockTableRecord
  2
_Open30
340
0
102
{BLKREFS
331
1252
331
1253
331
125E
331
125F
331
1266
331
1267
331
126F
331
1270
331
1278
331
1279
331
1281
331
1282
331
128A
331
128B
331
1293
331
1294
331
129C
331
129D
331
12A5
331
12A6
331
12B0
331
12B1
331
12B9
331
12BA
331
12C2
331
12C3
331
12CB
331
12CC
331
12D4
331
12D5
331
12DD
331
12DE
102
}
  0
BLOCK_RECORD
  5
7FB
330
1
100
AcDbSymbolTableRecord
100
AcDbBlockTableRecord
  2
*D2
340
0
  0
BLOCK_RECORD
  5
83E
330
1
100
AcDbSymbolTableRecord
100
AcDbBlockTableRecord
  2
*D3
340
0
  0
BLOCK_RECORD
  5
8A7
330
1
100
AcDbSymbolTableRecord
100
AcDbBlockTableRecord
  2
*D4
340
0
  0
BLOCK_RECORD
  5
8EA
330
1
100
AcDbSymbolTableRecord
100
AcDbBlockTableRecord
  2
*D5
340
0
  0
BLOCK_RECORD
  5
92D
330
1
100
AcDbSymbolTableRecord
100
AcDbBlockTableRecord
  2
*D6
340
0
  0
BLOCK_RECORD
  5
AED
330
1
100
AcDbSymbolTableRecord
100
AcDbBlockTableRecord
  2
*D7
340
0
  0
BLOCK_RECORD
  5
B30
330
1
100
AcDbSymbolTableRecord
100
AcDbBlockTableRecord
  2
*D8
340
0
  0
BLOCK_RECORD
  5
C5A
330
1
100
AcDbSymbolTableRecord
100
AcDbBlockTableRecord
  2
*D9
340
0
  0
BLOCK_RECORD
  5
C9D
330
1
100
AcDbSymbolTableRecord
100
AcDbBlockTableRecord
  2
*D10
340
0
  0
BLOCK_RECORD
  5
CE0
330
1
100
AcDbSymbolTableRecord
100
AcDbBlockTableRecord
  2
*D11
340
0
  0
BLOCK_RECORD
  5
D23
330
1
100
AcDbSymbolTableRecord
100
AcDbBlockTableRecord
  2
*D12
340
0
  0
BLOCK_RECORD
  5
D74
330
1
100
AcDbSymbolTableRecord
100
AcDbBlockTableRecord
  2
*D13
340
0
  0
BLOCK_RECORD
  5
DB7
330
1
100
AcDbSymbolTableRecord
100
AcDbBlockTableRecord
  2
*D14
340
0
  0
BLOCK_RECORD
  5
F45
330
1
100
AcDbSymbolTableRecord
100
AcDbBlockTableRecord
  2
*D15
340
0
  0
BLOCK_RECORD
  5
F88
330
1
100
AcDbSymbolTableRecord
100
AcDbBlockTableRecord
  2
*D16
340
0
  0
BLOCK_RECORD
  5
FCB
330
1
100
AcDbSymbolTableRecord
100
AcDbBlockTableRecord
  2
*D17
340
0
  0
BLOCK_RECORD
  5
10D1
330
1
100
AcDbSymbolTableRecord
100
AcDbBlockTableRecord
  2
_DotSmall
340
0
  0
BLOCK_RECORD
  5
130C
102
{ACAD_XDICTIONARY
360
1311
102
}
330
1
100
AcDbSymbolTableRecord
100
AcDbBlockTableRecord
  2
訂正記号-2
340
0
102
{BLKREFS
331
1315
331
1316
102
}
1001
ACAD
1000
DesignCenter Data
1002
{
1070
     1
1070
     4
1002
}
  0
ENDTAB
  0
ENDSEC
  0
SECTION
  2
BLOCKS
  0
BLOCK
  5
20
330
1F
100
AcDbEntity
  8
0
100
AcDbBlockBegin
  2
*Model_Space
 70
     0
 10
0.0
 20
0.0
 30
0.0
  3
*Model_Space
  1

  0
ENDBLK
  5
21
330
1F
100
AcDbEntity
  8
0
100
AcDbBlockEnd
  0
BLOCK
  5
D4
330
D2
100
AcDbEntity
 67
     1
  8
0
100
AcDbBlockBegin
  2
*Paper_Space
 70
     0
 10
0.0
 20
0.0
 30
0.0
  3
*Paper_Space
  1

  0
ENDBLK
  5
D5
330
D2
100
AcDbEntity
 67
     1
  8
0
100
AcDbBlockEnd
  0
BLOCK
  5
D8
330
D6
100
AcDbEntity
 67
     1
  8
0
100
AcDbBlockBegin
  2
*Paper_Space0
 70
     0
 10
0.0
 20
0.0
 30
0.0
  3
*Paper_Space0
  1

  0
ENDBLK
  5
D9
330
D6
100
AcDbEntity
 67
     1
  8
0
100
AcDbBlockEnd
  0
BLOCK
  5
723
330
71F
100
AcDbEntity
  8
0
100
AcDbBlockBegin
  2
_Open30
 70
     0
 10
0.0
 20
0.0
 30
0.0
  3
_Open30
  1

  0
LINE
  5
720
330
71F
100
AcDbEntity
  8
0
  6
ByBlock
 62
     0
370
    -2
100
AcDbLine
 10
-1.0
 20
0.26794919
 30
0.0
 11
0.0
 21
0.0
 31
0.0
  0
LINE
  5
721
330
71F
100
AcDbEntity
  8
0
  6
ByBlock
 62
     0
370
    -2
100
AcDbLine
 10
0.0
 20
0.0
 30
0.0
 11
-1.0
 21
-0.26794919
 31
0.0
  0
LINE
  5
722
330
71F
100
AcDbEntity
  8
0
  6
ByBlock
 62
     0
370
    -2
100
AcDbLine
 10
0.0
 20
0.0
 30
0.0
 11
-1.0
 21
0.0
 31
0.0
  0
ENDBLK
  5
724
330
71F
100
AcDbEntity
  8
0
100
AcDbBlockEnd
  0
BLOCK
  5
7FC
330
7FB
100
AcDbEntity
  8
0
 62
     7
100
AcDbBlockBegin
  2
*D2
 70
     1
 10
0.0
 20
0.0
 30
0.0
  3
*D2
  1

  0
LINE
  5
124F
330
7FB
100
AcDbEntity
  8
PV0001_10
  6
Continuous
 62
     4
370
     9
100
AcDbLine
 10
1789.047500654634
 20
891.0415516639901
 30
0.0
 11
1553.409972885383
 21
891.0415516639901
 31
0.0
  0
LINE
  5
1250
330
7FB
100
AcDbEntity
  8
PV0001_10
  6
Continuous
 62
     4
370
     9
100
AcDbLine
 10
1761.247684937284
 20
1501.04154257428
 30
0.0
 11
1553.409972885383
 21
1501.04154257428
 31
0.0
  0
LINE
  5
1251
330
7FB
100
AcDbEntity
  8
PV0001_10
  6
Continuous
 62
     4
370
     9
100
AcDbLine
 10
1576.269965525703
 20
921.0415512169552
 30
0.0
 11
1576.269965525703
 21
1471.041543021315
 31
0.0
  0
INSERT
  5
1252
330
7FB
100
AcDbEntity
  8
PV0001_10
  6
Continuous
 62
     4
370
     9
100
AcDbBlockReference
  2
_Open30
 10
1576.269965525703
 20
891.0415516639901
 30
0.0
 41
29.99999955296517
 42
29.99999955296517
 43
29.99999955296517
 50
270.0
  0
INSERT
  5
1253
330
7FB
100
AcDbEntity
  8
PV0001_10
  6
Continuous
 62
     4
370
     9
100
AcDbBlockReference
  2
_Open30
 10
1576.269965525703
 20
1501.04154257428
 30
0.0
 41
29.99999955296517
 42
29.99999955296517
 43
29.99999955296517
 50
90.0
  0
MTEXT
  5
1254
330
7FB
100
AcDbEntity
  8
PV0001_10
  6
Continuous
 62
     4
100
AcDbMText
 10
1551.269965898231
 20
1196.04154711913
 30
0.0
 40
29.99999955296517
 41
0.0
 71
     5
 72
     1
  1
\A1;610
  7
STD
 11
0.0000000000000001
 21
1.0
 31
0.0
 73
     1
 44
1.0
1001
ACAD
1000
MTEXTBEGIN
1070
    73
1070
     1
1070
    44
1040
1.0
1070
    74
1070
     0
1000
MTEXTEND
  0
POINT
  5
1255
330
7FB
100
AcDbEntity
  8
Defpoints
  6
Continuous
 62
     0
100
AcDbPoint
 10
1799.047500505622
 20
891.0415516639899
 30
0.0
  0
POINT
  5
1256
330
7FB
100
AcDbEntity
  8
Defpoints
  6
Continuous
 62
     0
100
AcDbPoint
 10
1771.247684788272
 20
1501.04154257428
 30
0.0
  0
POINT
  5
1257
330
7FB
100
AcDbEntity
  8
Defpoints
  6
Continuous
 62
     0
100
AcDbPoint
 10
1576.269965525703
 20
1501.04154257428
 30
0.0
  0
ENDBLK
  5
7FD
330
7FB
100
AcDbEntity
  8
0
 62
     7
100
AcDbBlockEnd
  0
BLOCK
  5
83F
330
83E
100
AcDbEntity
  8
0
 62
     7
100
AcDbBlockBegin
  2
*D3
 70
     1
 10
0.0
 20
0.0
 30
0.0
  3
*D3
  1

  0
LINE
  5
1258
330
83E
100
AcDbEntity
  8
PV0001_10
  6
Continuous
 62
     4
370
     9
100
AcDbLine
 10
2432.047445296811
 20
891.0415516639899
 30
0.0
 11
2704.117963550993
 21
891.0415516639899
 31
0.0
  0
LINE
  5
1259
330
83E
100
AcDbEntity
  8
PV0001_10
  6
Continuous
 62
     4
370
     9
100
AcDbLine
 10
2590.667266389001
 20
931.041551067943
 30
0.0
 11
2704.117963550993
 21
931.041551067943
 31
0.0
  0
LINE
  5
125A
330
83E
100
AcDbEntity
  8
PV0001_10
  6
Continuous
 62
     4
370
     9
100
AcDbLine
 10
2681.257970910673
 20
861.0415521110247
 30
0.0
 11
2681.257970910673
 21
831.0415525580596
 31
0.0
  0
LINE
  5
125B
330
83E
100
AcDbEntity
  8
PV0001_10
  6
Continuous
 62
     4
370
     9
100
AcDbLine
 10
2681.257970910673
 20
961.0415506209081
 30
0.0
 11
2681.257970910673
 21
991.0415501738732
 31
0.0
  0
MTEXT
  5
125C
330
83E
100
AcDbEntity
  8
PV0001_10
  6
Continuous
 62
     4
100
AcDbMText
 10
2656.257971283202
 20
970.055680125259
 30
0.0
 40
29.99999955296517
 41
0.0
 71
     5
 72
     1
  1
\A1;40
  7
STD
 11
0.0000000000000001
 21
1.0
 31
0.0
 73
     1
 44
1.0
1001
ACAD
1000
MTEXTBEGIN
1070
    73
1070
     1
1070
    44
1040
1.0
1070
    74
1070
     0
1000
MTEXTEND
  0
LINE
  5
125D
330
83E
100
AcDbEntity
  8
PV0001_10
  6
Continuous
 62
     4
370
     9
100
AcDbLine
 10
2681.257970910673
 20
891.0415516639899
 30
0.0
 11
2681.257970910673
 21
931.041551067943
 31
0.0
  0
INSERT
  5
125E
330
83E
100
AcDbEntity
  8
PV0001_10
  6
Continuous
 62
     4
370
     9
100
AcDbBlockReference
  2
_Open30
 10
2681.257970910673
 20
891.0415516639899
 30
0.0
 41
29.99999955296517
 42
29.99999955296517
 43
29.99999955296517
 50
90.0
  0
INSERT
  5
125F
330
83E
100
AcDbEntity
  8
PV0001_10
  6
Continuous
 62
     4
370
     9
100
AcDbBlockReference
  2
_Open30
 10
2681.257970910673
 20
931.041551067943
 30
0.0
 41
29.99999955296517
 42
29.99999955296517
 43
29.99999955296517
 50
270.0
  0
POINT
  5
1260
330
83E
100
AcDbEntity
  8
Defpoints
  6
Continuous
 62
     0
100
AcDbPoint
 10
2422.047445445823
 20
891.0415516639899
 30
0.0
  0
POINT
  5
1261
330
83E
100
AcDbEntity
  8
Defpoints
  6
Continuous
 62
     0
100
AcDbPoint
 10
2580.667266538013
 20
931.041551067943
 30
0.0
  0
POINT
  5
1262
330
83E
100
AcDbEntity
  8
Defpoints
  6
Continuous
 62
     0
100
AcDbPoint
 10
2681.257970910673
 20
931.041551067943
 30
0.0
  0
ENDBLK
  5
840
330
83E
100
AcDbEntity
  8
0
 62
     7
100
AcDbBlockEnd
  0
BLOCK
  5
8A8
330
8A7
100
AcDbEntity
  8
0
 62
     7
100
AcDbBlockBegin
  2
*D4
 70
     1
 10
0.0
 20
0.0
 30
0.0
  3
*D4
  1

  0
LINE
  5
1263
330
8A7
100
AcDbEntity
  8
PV0001_10
  6
Continuous
 62
     4
370
     9
100
AcDbLine
 10
1710.547459862702
 20
1221.041546746598
 30
0.0
 11
1710.547459862702
 21
1721.92525205141
 31
0.0
  0
LINE
  5
1264
330
8A7
100
AcDbEntity
  8
PV0001_10
  6
Continuous
 62
     4
370
     9
100
AcDbLine
 10
2510.547447941763
 20
1221.041546746598
 30
0.0
 11
2510.547447941763
 21
1721.92525205141
 31
0.0
  0
LINE
  5
1265
330
8A7
100
AcDbEntity
  8
PV0001_10
  6
Continuous
 62
     4
370
     9
100
AcDbLine
 10
1740.547459415667
 20
1699.06522126412
 30
0.0
 11
2480.547448388798
 21
1699.06522126412
 31
0.0
  0
INSERT
  5
1266
330
8A7
100
AcDbEntity
  8
PV0001_10
  6
Continuous
 62
     4
370
     9
100
AcDbBlockReference
  2
_Open30
 10
1710.547459862702
 20
1699.06522126412
 30
0.0
 41
29.99999955296517
 42
29.99999955296517
 43
29.99999955296517
 50
180.0
  0
INSERT
  5
1267
330
8A7
100
AcDbEntity
  8
PV0001_10
  6
Continuous
 62
     4
370
     9
100
AcDbBlockReference
  2
_Open30
 10
2510.547447941763
 20
1699.06522126412
 30
0.0
 41
29.99999955296517
 42
29.99999955296517
 43
29.99999955296517
  0
MTEXT
  5
1268
330
8A7
100
AcDbEntity
  8
PV0001_10
  6
Continuous
 62
     4
100
AcDbMText
 10
2107.781867567253
 20
1724.06522089159
 30
0.0
 40
29.99999955296517
 41
0.0
 71
     5
 72
     1
  1
\A1;800
  7
STD
 73
     1
 44
1.0
1001
ACAD
1000
MTEXTBEGIN
1070
    73
1070
     1
1070
    44
1040
1.0
1070
    74
1070
     0
1000
MTEXTEND
  0
POINT
  5
1269
330
8A7
100
AcDbEntity
  8
Defpoints
  6
Continuous
 62
     0
100
AcDbPoint
 10
1710.547459862702
 20
1211.04154689561
 30
0.0
  0
POINT
  5
126A
330
8A7
100
AcDbEntity
  8
Defpoints
  6
Continuous
 62
     0
100
AcDbPoint
 10
2510.547447941763
 20
1211.04154689561
 30
0.0
  0
POINT
  5
126B
330
8A7
100
AcDbEntity
  8
Defpoints
  6
Continuous
 62
     0
100
AcDbPoint
 10
2510.547447941763
 20
1699.06522126412
 30
0.0
  0
ENDBLK
  5
8A9
330
8A7
100
AcDbEntity
  8
0
 62
     7
100
AcDbBlockEnd
  0
BLOCK
  5
8EB
330
8EA
100
AcDbEntity
  8
0
 62
     7
100
AcDbBlockBegin
  2
*D5
 70
     1
 10
0.0
 20
0.0
 30
0.0
  3
*D5
  1

  0
LINE
  5
126C
330
8EA
100
AcDbEntity
  8
PV0001_10
  6
Continuous
 62
     4
370
     9
100
AcDbLine
 10
2483.355370710242
 20
1511.041542425268
 30
0.0
 11
2483.355370710242
 21
1628.76500563687
 31
0.0
  0
LINE
  5
126D
330
8EA
100
AcDbEntity
  8
PV0001_10
  6
Continuous
 62
     4
370
     9
100
AcDbLine
 10
1737.739537094222
 20
1511.041542425268
 30
0.0
 11
1737.739537094222
 21
1628.76500563687
 31
0.0
  0
LINE
  5
126E
330
8EA
100
AcDbEntity
  8
PV0001_10
  6
Continuous
 62
     4
370
     9
100
AcDbLine
 10
2453.355371157277
 20
1605.90497484958
 30
0.0
 11
1767.739536647187
 21
1605.90497484958
 31
0.0
  0
INSERT
  5
126F
330
8EA
100
AcDbEntity
  8
PV0001_10
  6
Continuous
 62
     4
370
     9
100
AcDbBlockReference
  2
_Open30
 10
2483.355370710242
 20
1605.90497484958
 30
0.0
 41
29.99999955296517
 42
29.99999955296517
 43
29.99999955296517
  0
INSERT
  5
1270
330
8EA
100
AcDbEntity
  8
PV0001_10
  6
Continuous
 62
     4
370
     9
100
AcDbBlockReference
  2
_Open30
 10
1737.739537094222
 20
1605.90497484958
 30
0.0
 41
29.99999955296517
 42
29.99999955296517
 43
29.99999955296517
 50
180.0
  0
MTEXT
  5
1271
330
8EA
100
AcDbEntity
  8
PV0001_10
  6
Continuous
 62
     4
100
AcDbMText
 10
2112.218069401392
 20
1630.904974477051
 30
0.0
 40
29.99999955296517
 41
0.0
 71
     5
 72
     1
  1
\A1;740
  7
STD
 73
     1
 44
1.0
1001
ACAD
1000
MTEXTBEGIN
1070
    73
1070
     1
1070
    44
1040
1.0
1070
    74
1070
     0
1000
MTEXTEND
  0
POINT
  5
1272
330
8EA
100
AcDbEntity
  8
Defpoints
  6
Continuous
 62
     0
100
AcDbPoint
 10
2483.355370710242
 20
1501.04154257428
 30
0.0
  0
POINT
  5
1273
330
8EA
100
AcDbEntity
  8
Defpoints
  6
Continuous
 62
     0
100
AcDbPoint
 10
1737.739537094222
 20
1501.04154257428
 30
0.0
  0
POINT
  5
1274
330
8EA
100
AcDbEntity
  8
Defpoints
  6
Continuous
 62
     0
100
AcDbPoint
 10
1737.739537094222
 20
1605.90497484958
 30
0.0
  0
ENDBLK
  5
8EC
330
8EA
100
AcDbEntity
  8
0
 62
     7
100
AcDbBlockEnd
  0
BLOCK
  5
92E
330
92D
100
AcDbEntity
  8
0
 62
     7
100
AcDbBlockBegin
  2
*D6
 70
     1
 10
0.0
 20
0.0
 30
0.0
  3
*D6
  1

  0
LINE
  5
1275
330
92D
100
AcDbEntity
  8
PV0001_10
  6
Continuous
 62
     4
370
     9
100
AcDbLine
 10
2418.047449320123
 20
876.020239651039
 30
0.0
 11
2418.047449320123
 21
723.5493742892199
 31
0.0
  0
LINE
  5
1276
330
92D
100
AcDbEntity
  8
PV0001_10
  6
Continuous
 62
     4
370
     9
100
AcDbLine
 10
1803.047458484342
 20
876.020239651039
 30
0.0
 11
1803.047458484342
 21
723.5493742892199
 31
0.0
  0
LINE
  5
1277
330
92D
100
AcDbEntity
  8
PV0001_10
  6
Continuous
 62
     4
370
     9
100
AcDbLine
 10
2388.047449767157
 20
746.4093669295299
 30
0.0
 11
1833.047458037308
 21
746.4093669295299
 31
0.0
  0
INSERT
  5
1278
330
92D
100
AcDbEntity
  8
PV0001_10
  6
Continuous
 62
     4
370
     9
100
AcDbBlockReference
  2
_Open30
 10
2418.047449320123
 20
746.4093669295299
 30
0.0
 41
29.99999955296517
 42
29.99999955296517
 43
29.99999955296517
  0
INSERT
  5
1279
330
92D
100
AcDbEntity
  8
PV0001_10
  6
Continuous
 62
     4
370
     9
100
AcDbBlockReference
  2
_Open30
 10
1803.047458484342
 20
746.4093669295299
 30
0.0
 41
29.99999955296517
 42
29.99999955296517
 43
29.99999955296517
 50
180.0
  0
MTEXT
  5
127A
330
92D
100
AcDbEntity
  8
PV0001_10
  6
Continuous
 62
     4
100
AcDbMText
 10
2110.547453902233
 20
771.4093665570008
 30
0.0
 40
29.99999955296517
 41
0.0
 71
     5
 72
     1
  1
\A1;615
  7
STD
 73
     1
 44
1.0
1001
ACAD
1000
MTEXTBEGIN
1070
    73
1070
     1
1070
    44
1040
1.0
1070
    74
1070
     0
1000
MTEXTEND
  0
POINT
  5
127B
330
92D
100
AcDbEntity
  8
Defpoints
  6
Continuous
 62
     0
100
AcDbPoint
 10
2418.047449320123
 20
886.0202395020273
 30
0.0
  0
POINT
  5
127C
330
92D
100
AcDbEntity
  8
Defpoints
  6
Continuous
 62
     0
100
AcDbPoint
 10
1803.047458484342
 20
886.0202395020273
 30
0.0
  0
POINT
  5
127D
330
92D
100
AcDbEntity
  8
Defpoints
  6
Continuous
 62
     0
100
AcDbPoint
 10
1803.047458484342
 20
746.4093669295299
 30
0.0
  0
ENDBLK
  5
92F
330
92D
100
AcDbEntity
  8
0
 62
     7
100
AcDbBlockEnd
  0
BLOCK
  5
AEE
330
AED
100
AcDbEntity
  8
0
 62
     7
100
AcDbBlockBegin
  2
*D7
 70
     1
 10
0.0
 20
0.0
 30
0.0
  3
*D7
  1

  0
LINE
  5
127E
330
AED
100
AcDbEntity
  8
RH0901_10
  6
Continuous
 62
     4
370
     9
100
AcDbLine
 10
3120.547457351348
 20
1511.041542376043
 30
0.0
 11
3120.547457302668
 21
1748.400623922128
 31
0.0
  0
LINE
  5
127F
330
AED
100
AcDbEntity
  8
RH0901_10
  6
Continuous
 62
     4
370
     9
100
AcDbLine
 10
3600.547450198789
 20
1511.041542474493
 30
0.0
 11
3600.547450150108
 21
1748.400624020572
 31
0.0
  0
LINE
  5
1280
330
AED
100
AcDbEntity
  8
RH0901_10
  6
Continuous
 62
     4
370
     9
100
AcDbLine
 10
3150.547456860322
 20
1725.540593140991
 30
0.0
 11
3570.547450601831
 21
1725.540593227129
 31
0.0
  0
INSERT
  5
1281
330
AED
100
AcDbEntity
  8
RH0901_10
  6
Continuous
 62
     4
370
     9
100
AcDbBlockReference
  2
_Open30
 10
3120.547457307357
 20
1725.540593134838
 30
0.0
 41
29.99999955296517
 42
29.99999955296517
 43
29.99999955296517
 50
180.0000000117508
  0
INSERT
  5
1282
330
AED
100
AcDbEntity
  8
RH0901_10
  6
Continuous
 62
     4
370
     9
100
AcDbBlockReference
  2
_Open30
 10
3600.547450154797
 20
1725.540593233282
 30
0.0
 41
29.99999955296517
 42
29.99999955296517
 43
29.99999955296517
 50
0.0000000117508519
  0
MTEXT
  5
1283
102
{ACAD_XDICTIONARY
360
1338
102
}
330
AED
100
AcDbEntity
  8
RH0901_10
  6
Continuous
 62
     4
100
AcDbMText
 10
3360.547453725947
 20
1750.540592811531
 30
0.0
 40
29.99999955296517
 41
0.0
 71
     5
 72
     1
  1
\A1;\U+2205480
  7
STD
 73
     1
 44
1.0
1001
ACAD
1000
MTEXTBEGIN
1070
    73
1070
     1
1070
    44
1040
1.0
1070
    74
1070
     0
1000
MTEXTEND
  0
POINT
  5
1284
330
AED
100
AcDbEntity
  8
Defpoints
  6
Continuous
 62
     0
100
AcDbPoint
 10
3120.5474573534
 20
1501.041542525055
 30
0.0
  0
POINT
  5
1285
330
AED
100
AcDbEntity
  8
Defpoints
  6
Continuous
 62
     0
100
AcDbPoint
 10
3600.547450200839
 20
1501.041542623504
 30
0.0
  0
POINT
  5
1286
330
AED
100
AcDbEntity
  8
Defpoints
  6
Continuous
 62
     0
100
AcDbPoint
 10
3600.547450154797
 20
1725.540593233282
 30
0.0
  0
ENDBLK
  5
AEF
330
AED
100
AcDbEntity
  8
0
 62
     7
100
AcDbBlockEnd
  0
BLOCK
  5
B31
330
B30
100
AcDbEntity
  8
0
 62
     7
100
AcDbBlockBegin
  2
*D8
 70
     1
 10
0.0
 20
0.0
 30
0.0
  3
*D8
  1

  0
LINE
  5
1287
330
B30
100
AcDbEntity
  8
RH0901_10
  6
Continuous
 62
     4
370
     9
100
AcDbLine
 10
3150.54745691765
 20
1446.041543350766
 30
0.0
 11
3150.547456875221
 21
1652.924245956451
 31
0.0
  0
LINE
  5
1288
330
B30
100
AcDbEntity
  8
RH0901_10
  6
Continuous
 62
     4
370
     9
100
AcDbLine
 10
3570.54745065915
 20
1446.04154343691
 30
0.0
 11
3570.54745061672
 21
1652.924246042589
 31
0.0
  0
LINE
  5
1289
330
B30
100
AcDbEntity
  8
RH0901_10
  6
Continuous
 62
     4
370
     9
100
AcDbLine
 10
3180.547456432874
 20
1630.064215175323
 30
0.0
 11
3540.547451068444
 21
1630.064215249156
 31
0.0
  0
INSERT
  5
128A
330
B30
100
AcDbEntity
  8
RH0901_10
  6
Continuous
 62
     4
370
     9
100
AcDbBlockReference
  2
_Open30
 10
3150.547456879909
 20
1630.064215169171
 30
0.0
 41
29.99999955296517
 42
29.99999955296517
 43
29.99999955296517
 50
180.0000000117508
  0
INSERT
  5
128B
330
B30
100
AcDbEntity
  8
RH0901_10
  6
Continuous
 62
     4
370
     9
100
AcDbBlockReference
  2
_Open30
 10
3570.547450621409
 20
1630.064215255309
 30
0.0
 41
29.99999955296517
 42
29.99999955296517
 43
29.99999955296517
 50
0.0000000117508519
  0
MTEXT
  5
128C
102
{ACAD_XDICTIONARY
360
133A
102
}
330
B30
100
AcDbEntity
  8
RH0901_10
  6
Continuous
 62
     4
100
AcDbMText
 10
3360.547453745529
 20
1655.064214839711
 30
0.0
 40
29.99999955296517
 41
0.0
 71
     5
 72
     1
  1
\A1;\U+2205420
  7
STD
 73
     1
 44
1.0
1001
ACAD
1000
MTEXTBEGIN
1070
    73
1070
     1
1070
    44
1040
1.0
1070
    74
1070
     0
1000
MTEXTEND
  0
POINT
  5
128D
330
B30
100
AcDbEntity
  8
Defpoints
  6
Continuous
 62
     0
100
AcDbPoint
 10
3150.547456919702
 20
1436.041543499778
 30
0.0
  0
POINT
  5
128E
330
B30
100
AcDbEntity
  8
Defpoints
  6
Continuous
 62
     0
100
AcDbPoint
 10
3570.547450661201
 20
1436.041543585921
 30
0.0
  0
POINT
  5
128F
330
B30
100
AcDbEntity
  8
Defpoints
  6
Continuous
 62
     0
100
AcDbPoint
 10
3570.547450621409
 20
1630.064215255309
 30
0.0
  0
ENDBLK
  5
B32
330
B30
100
AcDbEntity
  8
0
 62
     7
100
AcDbBlockEnd
  0
BLOCK
  5
C5B
330
C5A
100
AcDbEntity
  8
0
 62
     7
100
AcDbBlockBegin
  2
*D9
 70
     1
 10
0.0
 20
0.0
 30
0.0
  3
*D9
  1

  0
LINE
  5
1290
330
C5A
100
AcDbEntity
  8
LH2691_10
  6
Continuous
 62
     4
370
     9
100
AcDbLine
 10
1185.547372831035
 20
1221.041546679939
 30
0.0
 11
1185.547372831035
 21
1748.36140888404
 31
0.0
  0
LINE
  5
1291
330
C5A
100
AcDbEntity
  8
LH2691_10
  6
Continuous
 62
     4
370
     9
100
AcDbLine
 10
535.5474588107456
 20
1221.041546813257
 30
0.0
 11
535.5474588107456
 21
1748.36140888404
 31
0.0
  0
LINE
  5
1292
330
C5A
100
AcDbEntity
  8
LH2691_10
  6
Continuous
 62
     4
370
     9
100
AcDbLine
 10
1155.54737327807
 20
1725.50137809675
 30
0.0
 11
565.5474583637108
 21
1725.50137809675
 31
0.0
  0
INSERT
  5
1293
330
C5A
100
AcDbEntity
  8
LH2691_10
  6
Continuous
 62
     4
370
     9
100
AcDbBlockReference
  2
_Open30
 10
1185.547372831035
 20
1725.50137809675
 30
0.0
 41
29.99999955296517
 42
29.99999955296517
 43
29.99999955296517
  0
INSERT
  5
1294
330
C5A
100
AcDbEntity
  8
LH2691_10
  6
Continuous
 62
     4
370
     9
100
AcDbBlockReference
  2
_Open30
 10
535.5474588107456
 20
1725.50137809675
 30
0.0
 41
29.99999955296517
 42
29.99999955296517
 43
29.99999955296517
 50
180.0
  0
MTEXT
  5
1295
330
C5A
100
AcDbEntity
  8
LH2691_10
  6
Continuous
 62
     4
100
AcDbMText
 10
860.547377779439
 20
1750.501377724221
 30
0.0
 40
29.99999955296517
 41
0.0
 71
     5
 72
     1
  1
\A1;650
  7
STD
 73
     1
 44
1.0
1001
ACAD
1000
MTEXTBEGIN
1070
    73
1070
     1
1070
    44
1040
1.0
1070
    74
1070
     0
1000
MTEXTEND
  0
POINT
  5
1296
330
C5A
100
AcDbEntity
  8
Defpoints
  6
Continuous
 62
     0
100
AcDbPoint
 10
1185.547372831035
 20
1211.041546828951
 30
0.0
  0
POINT
  5
1297
330
C5A
100
AcDbEntity
  8
Defpoints
  6
Continuous
 62
     0
100
AcDbPoint
 10
535.5474588107456
 20
1211.041546962268
 30
0.0
  0
POINT
  5
1298
330
C5A
100
AcDbEntity
  8
Defpoints
  6
Continuous
 62
     0
100
AcDbPoint
 10
535.5474588107456
 20
1725.50137809675
 30
0.0
  0
ENDBLK
  5
C5C
330
C5A
100
AcDbEntity
  8
0
 62
     7
100
AcDbBlockEnd
  0
BLOCK
  5
C9E
330
C9D
100
AcDbEntity
  8
0
 62
     7
100
AcDbBlockBegin
  2
*D10
 70
     1
 10
0.0
 20
0.0
 30
0.0
  3
*D10
  1

  0
LINE
  5
1299
330
C9D
100
AcDbEntity
  8
LH2691_10
  6
Continuous
 62
     4
370
     9
100
AcDbLine
 10
1158.355219365046
 20
1511.041542364186
 30
0.0
 11
1158.355219365046
 21
1650.76497479147
 31
0.0
  0
LINE
  5
129A
330
C9D
100
AcDbEntity
  8
LH2691_10
  6
Continuous
 62
     4
370
     9
100
AcDbLine
 10
562.7396886896458
 20
1511.041504339369
 30
0.0
 11
562.7396886896458
 21
1650.76497479147
 31
0.0
  0
LINE
  5
129B
330
C9D
100
AcDbEntity
  8
LH2691_10
  6
Continuous
 62
     4
370
     9
100
AcDbLine
 10
1128.35521981208
 20
1627.90494400418
 30
0.0
 11
592.7396882426109
 21
1627.90494400418
 31
0.0
  0
INSERT
  5
129C
330
C9D
100
AcDbEntity
  8
LH2691_10
  6
Continuous
 62
     4
370
     9
100
AcDbBlockReference
  2
_Open30
 10
1158.355219365046
 20
1627.90494400418
 30
0.0
 41
29.99999955296517
 42
29.99999955296517
 43
29.99999955296517
  0
INSERT
  5
129D
330
C9D
100
AcDbEntity
  8
LH2691_10
  6
Continuous
 62
     4
370
     9
100
AcDbBlockReference
  2
_Open30
 10
562.7396886896458
 20
1627.90494400418
 30
0.0
 41
29.99999955296517
 42
29.99999955296517
 43
29.99999955296517
 50
180.0
  0
MTEXT
  5
129E
330
C9D
100
AcDbEntity
  8
LH2691_10
  6
Continuous
 62
     4
100
AcDbMText
 10
860.5473777594216
 20
1652.904943631651
 30
0.0
 40
29.99999955296517
 41
0.0
 71
     5
 72
     1
  1
\A1;590
  7
STD
 73
     1
 44
1.0
1001
ACAD
1000
MTEXTBEGIN
1070
    73
1070
     1
1070
    44
1040
1.0
1070
    74
1070
     0
1000
MTEXTEND
  0
POINT
  5
129F
330
C9D
100
AcDbEntity
  8
Defpoints
  6
Continuous
 62
     0
100
AcDbPoint
 10
1158.355219365046
 20
1501.041542513198
 30
0.0
  0
POINT
  5
12A0
330
C9D
100
AcDbEntity
  8
Defpoints
  6
Continuous
 62
     0
100
AcDbPoint
 10
562.7396886896458
 20
1501.041504488381
 30
0.0
  0
POINT
  5
12A1
330
C9D
100
AcDbEntity
  8
Defpoints
  6
Continuous
 62
     0
100
AcDbPoint
 10
562.7396886896458
 20
1627.90494400418
 30
0.0
  0
ENDBLK
  5
C9F
330
C9D
100
AcDbEntity
  8
0
 62
     7
100
AcDbBlockEnd
  0
BLOCK
  5
CE1
330
CE0
100
AcDbEntity
  8
0
 62
     7
100
AcDbBlockBegin
  2
*D11
 70
     1
 10
0.0
 20
0.0
 30
0.0
  3
*D11
  1

  0
LINE
  5
12A2
330
CE0
100
AcDbEntity
  8
LH2691_10
  6
Continuous
 62
     4
370
     9
100
AcDbLine
 10
620.5474574765853
 20
871.6450824091966
 30
0.0
 11
620.5474574765853
 21
744.4219001470198
 31
0.0
  0
LINE
  5
12A3
330
CE0
100
AcDbEntity
  8
LH2691_10
  6
Continuous
 62
     4
370
     9
100
AcDbLine
 10
1100.547526617965
 20
871.6451586046911
 30
0.0
 11
1100.547526617965
 21
744.4219001470198
 31
0.0
  0
LINE
  5
12A4
330
CE0
100
AcDbEntity
  8
LH2691_10
  6
Continuous
 62
     4
370
     9
100
AcDbLine
 10
650.5474570295505
 20
767.2818927873298
 30
0.0
 11
1070.547527065
 21
767.2818927873298
 31
0.0
  0
INSERT
  5
12A5
330
CE0
100
AcDbEntity
  8
LH2691_10
  6
Continuous
 62
     4
370
     9
100
AcDbBlockReference
  2
_Open30
 10
620.5474574765853
 20
767.2818927873298
 30
0.0
 41
29.99999955296517
 42
29.99999955296517
 43
29.99999955296517
 50
180.0
  0
INSERT
  5
12A6
330
CE0
100
AcDbEntity
  8
LH2691_10
  6
Continuous
 62
     4
370
     9
100
AcDbBlockReference
  2
_Open30
 10
1100.547526617965
 20
767.2818927873298
 30
0.0
 41
29.99999955296517
 42
29.99999955296517
 43
29.99999955296517
  0
MTEXT
  5
12A7
330
CE0
100
AcDbEntity
  8
LH2691_10
  6
Continuous
 62
     4
100
AcDbMText
 10
860.547453876849
 20
792.2818924148008
 30
0.0
 40
29.99999955296517
 41
0.0
 71
     5
 72
     1
  1
\A1;480
  7
STD
 73
     1
 44
1.0
1001
ACAD
1000
MTEXTBEGIN
1070
    73
1070
     1
1070
    44
1040
1.0
1070
    74
1070
     0
1000
MTEXTEND
  0
POINT
  5
12A8
330
CE0
100
AcDbEntity
  8
Defpoints
  6
Continuous
 62
     0
100
AcDbPoint
 10
620.5474574765853
 20
881.6450822601849
 30
0.0
  0
POINT
  5
12A9
330
CE0
100
AcDbEntity
  8
Defpoints
  6
Continuous
 62
     0
100
AcDbPoint
 10
1100.547526617965
 20
881.6451584556794
 30
0.0
  0
POINT
  5
12AA
330
CE0
100
AcDbEntity
  8
Defpoints
  6
Continuous
 62
     0
100
AcDbPoint
 10
1100.547526617965
 20
767.2818927873298
 30
0.0
  0
ENDBLK
  5
CE2
330
CE0
100
AcDbEntity
  8
0
 62
     7
100
AcDbBlockEnd
  0
BLOCK
  5
D24
330
D23
100
AcDbEntity
  8
0
 62
     7
100
AcDbBlockBegin
  2
*D12
 70
     1
 10
0.0
 20
0.0
 30
0.0
  3
*D12
  1

  0
LINE
  5
12AB
330
D23
100
AcDbEntity
  8
LH2691_10
  6
Continuous
 62
     4
370
     9
100
AcDbLine
 10
1161.841928894492
 20
1436.041543483104
 30
0.0
 11
1348.10501755628
 21
1436.041543483104
 31
0.0
  0
LINE
  5
12AC
330
D23
100
AcDbEntity
  8
LH2691_10
  6
Continuous
 62
     4
370
     9
100
AcDbLine
 10
1134.847147815934
 20
1501.041542520071
 30
0.0
 11
1348.10501755628
 21
1501.041542520071
 31
0.0
  0
LINE
  5
12AD
330
D23
100
AcDbEntity
  8
LH2691_10
  6
Continuous
 62
     4
370
     9
100
AcDbLine
 10
1325.24501789692
 20
1406.041543930139
 30
0.0
 11
1325.24501789692
 21
1376.041544377174
 31
0.0
  0
LINE
  5
12AE
330
D23
100
AcDbEntity
  8
LH2691_10
  6
Continuous
 62
     4
370
     9
100
AcDbLine
 10
1325.24501789692
 20
1531.041542073036
 30
0.0
 11
1325.24501789692
 21
1561.041541626001
 31
0.0
  0
LINE
  5
12AF
330
D23
100
AcDbEntity
  8
LH2691_10
  6
Continuous
 62
     4
370
     9
100
AcDbLine
 10
1325.24501789692
 20
1436.041543483104
 30
0.0
 11
1325.24501789692
 21
1501.041542520071
 31
0.0
  0
INSERT
  5
12B0
330
D23
100
AcDbEntity
  8
LH2691_10
  6
Continuous
 62
     4
370
     9
100
AcDbBlockReference
  2
_Open30
 10
1325.24501789692
 20
1436.041543483104
 30
0.0
 41
29.99999955296517
 42
29.99999955296517
 43
29.99999955296517
 50
90.0
  0
INSERT
  5
12B1
330
D23
100
AcDbEntity
  8
LH2691_10
  6
Continuous
 62
     4
370
     9
100
AcDbBlockReference
  2
_Open30
 10
1325.24501789692
 20
1501.041542520071
 30
0.0
 41
29.99999955296517
 42
29.99999955296517
 43
29.99999955296517
 50
270.0
  0
MTEXT
  5
12B2
330
D23
100
AcDbEntity
  8
LH2691_10
  6
Continuous
 62
     4
100
AcDbMText
 10
1300.245018269449
 20
1468.541543001587
 30
0.0
 40
29.99999955296517
 41
0.0
 71
     5
 72
     1
  1
\A1;65
  7
STD
 11
0.0000000000000001
 21
1.0
 31
0.0
 73
     1
 44
1.0
1001
ACAD
1000
MTEXTBEGIN
1070
    73
1070
     1
1070
    44
1040
1.0
1070
    74
1070
     0
1000
MTEXTEND
  0
POINT
  5
12B3
330
D23
100
AcDbEntity
  8
Defpoints
  6
Continuous
 62
     0
100
AcDbPoint
 10
1151.841929043504
 20
1436.041543483104
 30
0.0
  0
POINT
  5
12B4
330
D23
100
AcDbEntity
  8
Defpoints
  6
Continuous
 62
     0
100
AcDbPoint
 10
1124.847147964946
 20
1501.041542520071
 30
0.0
  0
POINT
  5
12B5
330
D23
100
AcDbEntity
  8
Defpoints
  6
Continuous
 62
     0
100
AcDbPoint
 10
1325.24501789692
 20
1501.041542520071
 30
0.0
  0
ENDBLK
  5
D25
330
D23
100
AcDbEntity
  8
0
 62
     7
100
AcDbBlockEnd
  0
BLOCK
  5
D75
330
D74
100
AcDbEntity
  8
0
 62
     7
100
AcDbBlockBegin
  2
*D13
 70
     1
 10
0.0
 20
0.0
 30
0.0
  3
*D13
  1

  0
LINE
  5
12B6
330
D74
100
AcDbEntity
  8
LH2691_10
  6
Continuous
 62
     4
370
     9
100
AcDbLine
 10
680.5474566687971
 20
1312.320079507927
 30
0.0
 11
680.5474566687971
 21
1364.241147224687
 31
0.0
  0
LINE
  5
12B7
330
D74
100
AcDbEntity
  8
LH2691_10
  6
Continuous
 62
     4
370
     9
100
AcDbLine
 10
1040.547451304377
 20
1312.320155728029
 30
0.0
 11
1040.547451304377
 21
1364.241147224687
 31
0.0
  0
LINE
  5
12B8
330
D74
100
AcDbEntity
  8
LH2691_10
  6
Continuous
 62
     4
370
     9
100
AcDbLine
 10
710.5474562217623
 20
1341.381147565327
 30
0.0
 11
1010.547451751412
 21
1341.381147565327
 31
0.0
  0
INSERT
  5
12B9
330
D74
100
AcDbEntity
  8
LH2691_10
  6
Continuous
 62
     4
370
     9
100
AcDbBlockReference
  2
_Open30
 10
680.5474566687971
 20
1341.381147565327
 30
0.0
 41
29.99999955296517
 42
29.99999955296517
 43
29.99999955296517
 50
180.0
  0
INSERT
  5
12BA
330
D74
100
AcDbEntity
  8
LH2691_10
  6
Continuous
 62
     4
370
     9
100
AcDbBlockReference
  2
_Open30
 10
1040.547451304377
 20
1341.381147565327
 30
0.0
 41
29.99999955296517
 42
29.99999955296517
 43
29.99999955296517
  0
MTEXT
  5
12BB
330
D74
100
AcDbEntity
  8
LH2691_10
  6
Continuous
 62
     4
100
AcDbMText
 10
859.8302913770526
 20
1366.381147192798
 30
0.0
 40
29.99999955296517
 41
0.0
 71
     5
 72
     1
  1
\A1;360
  7
STD
 73
     1
 44
1.0
1001
ACAD
1000
MTEXTBEGIN
1070
    73
1070
     1
1070
    44
1040
1.0
1070
    74
1070
     0
1000
MTEXTEND
  0
POINT
  5
12BC
330
D74
100
AcDbEntity
  8
Defpoints
  6
Continuous
 62
     0
100
AcDbPoint
 10
680.5474566687971
 20
1302.320079656938
 30
0.0
  0
POINT
  5
12BD
330
D74
100
AcDbEntity
  8
Defpoints
  6
Continuous
 62
     0
100
AcDbPoint
 10
1040.547451304377
 20
1302.320155877041
 30
0.0
  0
POINT
  5
12BE
330
D74
100
AcDbEntity
  8
Defpoints
  6
Continuous
 62
     0
100
AcDbPoint
 10
1040.547451304377
 20
1341.381147565327
 30
0.0
  0
ENDBLK
  5
D76
330
D74
100
AcDbEntity
  8
0
 62
     7
100
AcDbBlockEnd
  0
BLOCK
  5
DB8
330
DB7
100
AcDbEntity
  8
0
 62
     7
100
AcDbBlockBegin
  2
*D14
 70
     1
 10
0.0
 20
0.0
 30
0.0
  3
*D14
  1

  0
LINE
  5
12BF
330
DB7
100
AcDbEntity
  8
LH2691_10
  6
Continuous
 62
     4
370
     9
100
AcDbLine
 10
1202.32914139211
 20
1271.04154608251
 30
0.0
 11
1348.105017476802
 21
1271.04154608251
 31
0.0
  0
LINE
  5
12C0
330
DB7
100
AcDbEntity
  8
LH2691_10
  6
Continuous
 62
     4
370
     9
100
AcDbLine
 10
1114.547541670061
 20
891.0415516139448
 30
0.0
 11
1348.105017476802
 21
891.0415516139446
 31
0.0
  0
LINE
  5
12C1
330
DB7
100
AcDbEntity
  8
LH2691_10
  6
Continuous
 62
     4
370
     9
100
AcDbLine
 10
1325.245017817442
 20
1241.041546529545
 30
0.0
 11
1325.245017817442
 21
921.0415511669097
 31
0.0
  0
INSERT
  5
12C2
330
DB7
100
AcDbEntity
  8
LH2691_10
  6
Continuous
 62
     4
370
     9
100
AcDbBlockReference
  2
_Open30
 10
1325.245017817442
 20
1271.04154608251
 30
0.0
 41
29.99999955296517
 42
29.99999955296517
 43
29.99999955296517
 50
90.0
  0
INSERT
  5
12C3
330
DB7
100
AcDbEntity
  8
LH2691_10
  6
Continuous
 62
     4
370
     9
100
AcDbBlockReference
  2
_Open30
 10
1325.245017817442
 20
891.0415516139446
 30
0.0
 41
29.99999955296517
 42
29.99999955296517
 43
29.99999955296517
 50
270.0
  0
MTEXT
  5
12C4
330
DB7
100
AcDbEntity
  8
LH2691_10
  6
Continuous
 62
     4
100
AcDbMText
 10
1300.245018189971
 20
1081.041548811959
 30
0.0
 40
29.99999955296517
 41
0.0
 71
     5
 72
     1
  1
\A1;380
  7
STD
 11
0.0000000000000001
 21
1.0
 31
0.0
 73
     1
 44
1.0
1001
ACAD
1000
MTEXTBEGIN
1070
    73
1070
     1
1070
    44
1040
1.0
1070
    74
1070
     0
1000
MTEXTEND
  0
POINT
  5
12C5
330
DB7
100
AcDbEntity
  8
Defpoints
  6
Continuous
 62
     0
100
AcDbPoint
 10
1192.329141541122
 20
1271.04154608251
 30
0.0
  0
POINT
  5
12C6
330
DB7
100
AcDbEntity
  8
Defpoints
  6
Continuous
 62
     0
100
AcDbPoint
 10
1104.547541819072
 20
891.0415516139448
 30
0.0
  0
POINT
  5
12C7
330
DB7
100
AcDbEntity
  8
Defpoints
  6
Continuous
 62
     0
100
AcDbPoint
 10
1325.245017817442
 20
891.0415516139446
 30
0.0
  0
ENDBLK
  5
DB9
330
DB7
100
AcDbEntity
  8
0
 62
     7
100
AcDbBlockEnd
  0
BLOCK
  5
F46
330
F45
100
AcDbEntity
  8
0
 62
     7
100
AcDbBlockBegin
  2
*D15
 70
     1
 10
0.0
 20
0.0
 30
0.0
  3
*D15
  1

  0
LINE
  5
12C8
330
F45
100
AcDbEntity
  8
TP1791_10
  6
Continuous
 62
     4
370
     9
100
AcDbLine
 10
1810.547458266749
 20
2020.508444059297
 30
0.0
 11
1810.547458190495
 21
1834.604592459347
 31
0.0
  0
LINE
  5
12C9
330
F45
100
AcDbEntity
  8
TP1791_10
  6
Continuous
 62
     4
370
     9
100
AcDbLine
 10
2410.547449326049
 20
2020.508443813172
 30
0.0
 11
2410.547449249795
 21
1834.604592213238
 31
0.0
  0
LINE
  5
12CA
330
F45
100
AcDbEntity
  8
TP1791_10
  6
Continuous
 62
     4
370
     9
100
AcDbLine
 10
1840.547457752837
 20
1857.464623234331
 30
0.0
 11
2380.547449706206
 21
1857.464623012833
 31
0.0
  0
INSERT
  5
12CB
330
F45
100
AcDbEntity
  8
TP1791_10
  6
Continuous
 62
     4
370
     9
100
AcDbBlockReference
  2
_Open30
 10
1810.547458199872
 20
1857.464623246637
 30
0.0
 41
29.99999955296517
 42
29.99999955296517
 43
29.99999955296517
 50
179.9999999764983
  0
INSERT
  5
12CC
330
F45
100
AcDbEntity
  8
TP1791_10
  6
Continuous
 62
     4
370
     9
100
AcDbBlockReference
  2
_Open30
 10
2410.547449259172
 20
1857.464623000528
 30
0.0
 41
29.99999955296517
 42
29.99999955296517
 43
29.99999955296517
 50
359.9999999764983
  0
MTEXT
  5
12CD
330
F45
100
AcDbEntity
  8
TP1791_10
  6
Continuous
 62
     4
100
AcDbMText
 10
2110.547453739772
 20
1882.464622751053
 30
0.0
 40
29.99999955296517
 41
0.0
 71
     5
 72
     1
  1
\A1;600
  7
STD
 73
     1
 44
1.0
1001
ACAD
1000
MTEXTBEGIN
1070
    73
1070
     1
1070
    44
1040
1.0
1070
    74
1070
     0
1000
MTEXTEND
  0
POINT
  5
12CE
330
F45
100
AcDbEntity
  8
Defpoints
  6
Continuous
 62
     0
100
AcDbPoint
 10
1810.547458270851
 20
2030.508443910285
 30
0.0
  0
POINT
  5
12CF
330
F45
100
AcDbEntity
  8
Defpoints
  6
Continuous
 62
     0
100
AcDbPoint
 10
2410.547449330151
 20
2030.50844366416
 30
0.0
  0
POINT
  5
12D0
330
F45
100
AcDbEntity
  8
Defpoints
  6
Continuous
 62
     0
100
AcDbPoint
 10
2410.547449259172
 20
1857.464623000528
 30
0.0
  0
ENDBLK
  5
F47
330
F45
100
AcDbEntity
  8
0
 62
     7
100
AcDbBlockEnd
  0
BLOCK
  5
F89
330
F88
100
AcDbEntity
  8
0
 62
     7
100
AcDbBlockBegin
  2
*D16
 70
     1
 10
0.0
 20
0.0
 30
0.0
  3
*D16
  1

  0
LINE
  5
12D1
330
F88
100
AcDbEntity
  8
TP1791_10
  6
Continuous
 62
     4
370
     9
100
AcDbLine
 10
1791.805011658107
 20
2048.508474163221
 30
0.0
 11
1552.942367254359
 21
2048.508474163221
 31
0.0
  0
LINE
  5
12D2
330
F88
100
AcDbEntity
  8
TP1791_10
  6
Continuous
 62
     4
370
     9
100
AcDbLine
 10
1672.145894883174
 20
2278.508470785036
 30
0.0
 11
1552.942367254359
 21
2278.508470785036
 31
0.0
  0
LINE
  5
12D3
330
F88
100
AcDbEntity
  8
TP1791_10
  6
Continuous
 62
     4
370
     9
100
AcDbLine
 10
1575.802359894679
 20
2078.508473716186
 30
0.0
 11
1575.802359894679
 21
2248.508471232071
 31
0.0
  0
INSERT
  5
12D4
330
F88
100
AcDbEntity
  8
TP1791_10
  6
Continuous
 62
     4
370
     9
100
AcDbBlockReference
  2
_Open30
 10
1575.802359894679
 20
2048.508474163221
 30
0.0
 41
29.99999955296517
 42
29.99999955296517
 43
29.99999955296517
 50
270.0
  0
INSERT
  5
12D5
330
F88
100
AcDbEntity
  8
TP1791_10
  6
Continuous
 62
     4
370
     9
100
AcDbBlockReference
  2
_Open30
 10
1575.802359894679
 20
2278.508470785036
 30
0.0
 41
29.99999955296517
 42
29.99999955296517
 43
29.99999955296517
 50
90.0
  0
MTEXT
  5
12D6
330
F88
100
AcDbEntity
  8
TP1791_10
  6
Continuous
 62
     4
100
AcDbMText
 10
1550.802360267208
 20
2163.508472542298
 30
0.0
 40
29.99999955296517
 41
0.0
 71
     5
 72
     1
  1
\A1;230
  7
STD
 11
0.0000000000000001
 21
1.0
 31
0.0
 73
     1
 44
1.0
1001
ACAD
1000
MTEXTBEGIN
1070
    73
1070
     1
1070
    44
1040
1.0
1070
    74
1070
     0
1000
MTEXTEND
  0
POINT
  5
12D7
330
F88
100
AcDbEntity
  8
Defpoints
  6
Continuous
 62
     0
100
AcDbPoint
 10
1801.805011509095
 20
2048.508474163221
 30
0.0
  0
POINT
  5
12D8
330
F88
100
AcDbEntity
  8
Defpoints
  6
Continuous
 62
     0
100
AcDbPoint
 10
1682.145894734162
 20
2278.508470785036
 30
0.0
  0
POINT
  5
12D9
330
F88
100
AcDbEntity
  8
Defpoints
  6
Continuous
 62
     0
100
AcDbPoint
 10
1575.802359894679
 20
2278.508470785036
 30
0.0
  0
ENDBLK
  5
F8A
330
F88
100
AcDbEntity
  8
0
 62
     7
100
AcDbBlockEnd
  0
BLOCK
  5
FCC
330
FCB
100
AcDbEntity
  8
0
 62
     7
100
AcDbBlockBegin
  2
*D17
 70
     1
 10
0.0
 20
0.0
 30
0.0
  3
*D17
  1

  0
LINE
  5
12DA
330
FCB
100
AcDbEntity
  8
TP1791_10
  6
Continuous
 62
     4
370
     9
100
AcDbLine
 10
2924.042925255721
 20
2466.41084174321
 30
0.0
 11
2924.042925315275
 21
2611.598370097313
 31
0.0
  0
LINE
  5
12DB
330
FCB
100
AcDbEntity
  8
TP1791_10
  6
Continuous
 62
     4
370
     9
100
AcDbLine
 10
3519.042916389511
 20
2466.410841499137
 30
0.0
 11
3519.042916449065
 21
2611.598369853255
 31
0.0
  0
LINE
  5
12DC
330
FCB
100
AcDbEntity
  8
TP1791_10
  6
Continuous
 62
     4
370
     9
100
AcDbLine
 10
2954.042924858863
 20
2588.738415591668
 30
0.0
 11
3489.042916886722
 21
2588.738415372221
 31
0.0
  0
INSERT
  5
12DD
330
FCB
100
AcDbEntity
  8
TP1791_10
  6
Continuous
 62
     4
370
     9
100
AcDbBlockReference
  2
_Open30
 10
2924.042925305898
 20
2588.738415603974
 30
0.0
 41
29.99999955296517
 42
29.99999955296517
 43
29.99999955296517
 50
179.9999999764983
  0
INSERT
  5
12DE
330
FCB
100
AcDbEntity
  8
TP1791_10
  6
Continuous
 62
     4
370
     9
100
AcDbBlockReference
  2
_Open30
 10
3519.042916439687
 20
2588.738415359915
 30
0.0
 41
29.99999955296517
 42
29.99999955296517
 43
29.99999955296517
 50
359.9999999764983
  0
MTEXT
  5
12DF
330
FCB
100
AcDbEntity
  8
TP1791_10
  6
Continuous
 62
     4
100
AcDbMText
 10
3221.542920883046
 20
2613.738415109415
 30
0.0
 40
29.99999955296517
 41
0.0
 71
     5
 72
     1
  1
\A1;595
  7
STD
 73
     1
 44
1.0
1001
ACAD
1000
MTEXTBEGIN
1070
    73
1070
     1
1070
    44
1040
1.0
1070
    74
1070
     0
1000
MTEXTEND
  0
POINT
  5
12E0
330
FCB
100
AcDbEntity
  8
Defpoints
  6
Continuous
 62
     0
100
AcDbPoint
 10
2924.042925251619
 20
2456.410841892221
 30
0.0
  0
POINT
  5
12E1
330
FCB
100
AcDbEntity
  8
Defpoints
  6
Continuous
 62
     0
100
AcDbPoint
 10
3519.042916385409
 20
2456.410841648148
 30
0.0
  0
POINT
  5
12E2
330
FCB
100
AcDbEntity
  8
Defpoints
  6
Continuous
 62
     0
100
AcDbPoint
 10
3519.042916439687
 20
2588.738415359915
 30
0.0
  0
ENDBLK
  5
FCD
330
FCB
100
AcDbEntity
  8
0
 62
     7
100
AcDbBlockEnd
  0
BLOCK
  5
10D3
330
10D1
100
AcDbEntity
  8
0
 62
     7
100
AcDbBlockBegin
  2
_DotSmall
 70
     0
 10
0.0
 20
0.0
 30
0.0
  3
_DotSmall
  1

  0
LWPOLYLINE
  5
10D2
330
10D1
100
AcDbEntity
  8
0
  6
ByBlock
 62
     0
100
AcDbPolyline
 90
        2
 70
     1
 43
0.5
 10
-0.0625
 20
0.0
 42
1.0
 10
0.0625
 20
0.0
 42
1.0
  0
ENDBLK
  5
10D4
330
10D1
100
AcDbEntity
  8
0
 62
     7
100
AcDbBlockEnd
  0
BLOCK
  5
1313
330
130C
100
AcDbEntity
  8
0
 62
     7
100
AcDbBlockBegin
  2
訂正記号-2
 70
     0
 10
0.0
 20
0.0
 30
0.0
  3
訂正記号-2
  1

  0
LINE
  5
130D
330
130C
100
AcDbEntity
  8
0
  6
Continuous
 62
     4
 48
0.5
100
AcDbLine
 10
2.496597290034998
 20
0.0000152587900288
 30
0.0
 11
0.0037307739249997
 21
4.32347106934003
 31
0.0
1001
DEKIMAS
1000
実線（細）
1040
0.15
1001
DIMEXPLODE
1070
     0
  0
LINE
  5
130E
330
130C
100
AcDbEntity
  8
0
  6
Continuous
 62
     4
 48
0.5
100
AcDbLine
 10
0.0037384033250021
 20
4.323440551760029
 30
0.0
 11
-2.496574401854999
 21
-0.000015258789972
 31
0.0
1001
DEKIMAS
1000
実線（細）
1040
0.15
1001
DIMEXPLODE
1070
     0
  0
LINE
  5
130F
330
130C
100
AcDbEntity
  8
0
  6
Continuous
 62
     4
 48
0.5
100
AcDbLine
 10
-2.496589660645
 20
0.0
 30
0.0
 11
2.496589660645
 21
0.0
 31
0.0
1001
DEKIMAS
1000
実線（細）
1040
0.15
1001
DIMEXPLODE
1070
     0
  0
MTEXT
  5
1310
330
130C
100
AcDbEntity
  8
0
  6
Continuous
 62
     4
100
AcDbMText
 10
-0.4751996960309413
 20
1.693634033210059
 30
0.0
 40
2.5
 41
0.0
 71
     4
 72
     5
  1
{\W0.61;\T1.4;２}
  7
STD
 73
     1
 44
1.0
1001
DEKIMAS
1040
0.15
1001
ACAD
1000
MTEXTBEGIN
1070
    73
1070
     1
1070
    44
1040
1.0
1070
    74
1070
     0
1000
MTEXTEND
  0
ENDBLK
  5
1314
330
130C
100
AcDbEntity
  8
0
 62
     7
100
AcDbBlockEnd
  0
ENDSEC
  0
SECTION
  2
ENTITIES
  0
DIMENSION
  5
7FA
330
1F
100
AcDbEntity
  8
PV0001_10
  6
Continuous
 62
     7
100
AcDbDimension
  2
*D2
 10
1576.269965525703
 20
1501.04154257428
 30
0.0
 11
1576.269965525702
 21
1196.04154711913
 31
0.0
 70
   160
  1
<>
 71
     5
 42
609.99999091029
  3
ASKSTANDARD
100
AcDbAlignedDimension
 13
1799.047500505622
 23
891.0415516639899
 33
0.0
 14
1771.247684788272
 24
1501.04154257428
 34
0.0
 50
90.0
100
AcDbRotatedDimension
1001
ACAD
1000
DSTYLE
1002
{
1070
    44
1040
2.285999298096043
1070
    40
1040
9.999999850988389
1070
   284
1070
     8
1070
   140
1040
3.0
1070
   271
1070
     0
1070
   173
1070
     1
1070
   343
1005
71F
1070
   344
1005
71F
1002
}
  0
DIMENSION
  5
83D
330
1F
100
AcDbEntity
  8
PV0001_10
  6
Continuous
 62
     7
100
AcDbDimension
  2
*D3
 10
2681.257970910673
 20
931.041551067943
 30
0.0
 11
2681.257970910673
 21
970.055680125259
 31
0.0
 70
   160
  1
<>
 71
     5
 42
39.99999940395298
  3
ASKSTANDARD
100
AcDbAlignedDimension
 13
2422.047445445823
 23
891.0415516639899
 33
0.0
 14
2580.667266538013
 24
931.041551067943
 34
0.0
 50
90.0
100
AcDbRotatedDimension
1001
ACAD
1000
DSTYLE
1002
{
1070
    44
1040
2.285999298096043
1070
    40
1040
9.999999850988389
1070
   284
1070
     8
1070
   140
1040
3.0
1070
   271
1070
     0
1070
   173
1070
     1
1070
   343
1005
71F
1070
   344
1005
71F
1070
   279
1070
     1
1002
}
  0
DIMENSION
  5
8A6
330
1F
100
AcDbEntity
  8
PV0001_10
  6
Continuous
 62
     7
100
AcDbDimension
  2
*D4
 10
2510.547447941763
 20
1699.06522126412
 30
0.0
 11
2107.781867567253
 21
1699.06522126412
 31
0.0
 70
   160
  1
<>
 71
     5
 42
799.9999880790601
  3
ASKSTANDARD
100
AcDbAlignedDimension
 13
1710.547459862702
 23
1211.04154689561
 33
0.0
 14
2510.547447941763
 24
1211.04154689561
 34
0.0
100
AcDbRotatedDimension
1001
ACAD
1000
DSTYLE
1002
{
1070
    44
1040
2.286003112793104
1070
    40
1040
9.999999850988389
1070
   284
1070
     8
1070
   140
1040
3.0
1070
   271
1070
     0
1070
   173
1070
     1
1070
   343
1005
71F
1070
   344
1005
71F
1002
}
  0
DIMENSION
  5
8E9
330
1F
100
AcDbEntity
  8
PV0001_10
  6
Continuous
 62
     7
100
AcDbDimension
  2
*D5
 10
1737.739537094222
 20
1605.90497484958
 30
0.0
 11
2112.218069401392
 21
1605.90497484958
 31
0.0
 70
   160
  1
740
 71
     5
 42
745.6158336160199
  3
ASKSTANDARD
100
AcDbAlignedDimension
 13
2483.355370710242
 23
1501.04154257428
 33
0.0
 14
1737.739537094222
 24
1501.04154257428
 34
0.0
100
AcDbRotatedDimension
1001
ACAD
1000
DSTYLE
1002
{
1070
    44
1040
2.286003112793093
1070
    40
1040
9.999999850988389
1070
   284
1070
     8
1070
   140
1040
3.0
1070
   271
1070
     0
1070
   173
1070
     1
1070
   343
1005
71F
1070
   344
1005
71F
1002
}
  0
DIMENSION
  5
92C
330
1F
100
AcDbEntity
  8
PV0001_10
  6
Continuous
 62
     7
100
AcDbDimension
  2
*D6
 10
1803.047458484342
 20
746.4093669295299
 30
0.0
 11
2110.547453902233
 21
746.4093669295299
 31
0.0
 70
   160
  1
<>
 71
     5
 42
614.9999908357801
  3
ASKSTANDARD
100
AcDbAlignedDimension
 13
2418.047449320123
 23
886.0202395020273
 33
0.0
 14
1803.047458484342
 24
886.0202395020273
 34
0.0
100
AcDbRotatedDimension
1001
ACAD
1000
DSTYLE
1002
{
1070
    44
1040
2.285999298095043
1070
    40
1040
9.999999850988389
1070
   284
1070
     8
1070
   140
1040
3.0
1070
   271
1070
     0
1070
   173
1070
     1
1070
   343
1005
71F
1070
   344
1005
71F
1002
}
  0
POINT
  5
96F
330
1F
100
AcDbEntity
  8
PV0001_10
  6
Continuous
 62
     4
100
AcDbPoint
 10
1734.855320828613
 20
936.7245296133258
 30
0.0
  0
POINT
  5
970
330
1F
100
AcDbEntity
  8
PV0001_10
  6
Continuous
 62
     4
100
AcDbPoint
 10
1732.107670723072
 20
952.578544727425
 30
0.0
  0
POINT
  5
971
330
1F
100
AcDbEntity
  8
PV0001_10
  6
Continuous
 62
     4
100
AcDbPoint
 10
1737.739537094222
 20
1501.04154257428
 30
0.0
  0
POINT
  5
972
330
1F
100
AcDbEntity
  8
PV0001_10
  6
Continuous
 62
     4
100
AcDbPoint
 10
2483.355370710242
 20
1501.04154257428
 30
0.0
  0
POINT
  5
973
330
1F
100
AcDbEntity
  8
PV0001_10
  6
Continuous
 62
     4
100
AcDbPoint
 10
2110.547453902233
 20
891.0415516639899
 30
0.0
  0
POINT
  5
974
330
1F
100
AcDbEntity
  8
PV0001_10
  6
Continuous
 62
     4
100
AcDbPoint
 10
2494.956742302502
 20
991.0415787840999
 30
0.0
  0
POINT
  5
975
330
1F
100
AcDbEntity
  8
PV0001_10
  6
Continuous
 62
     4
100
AcDbPoint
 10
2040.547450176942
 20
1501.04154257428
 30
0.0
  0
POINT
  5
976
330
1F
100
AcDbEntity
  8
PV0001_10
  6
Continuous
 62
     4
100
AcDbPoint
 10
2070.547449729907
 20
1436.04154354285
 30
0.0
  0
POINT
  5
977
330
1F
100
AcDbEntity
  8
PV0001_10
  6
Continuous
 62
     4
100
AcDbPoint
 10
2508.838463592232
 20
1138.04155561279
 30
0.0
  0
POINT
  5
978
330
1F
100
AcDbEntity
  8
PV0001_10
  6
Continuous
 62
     4
100
AcDbPoint
 10
2110.547453902233
 20
1211.04154689561
 30
0.0
  0
POINT
  5
979
330
1F
100
AcDbEntity
  8
PV0001_10
  6
Continuous
 62
     4
100
AcDbPoint
 10
1893.400431075972
 20
1454.54156615536
 30
0.0
  0
POINT
  5
97A
330
1F
100
AcDbEntity
  8
PV0001_10
  6
Continuous
 62
     4
100
AcDbPoint
 10
1881.162825209742
 20
1478.041550546399
 30
0.0
  0
POINT
  5
97B
330
1F
100
AcDbEntity
  8
PV0001_10
  6
Continuous
 62
     4
100
AcDbPoint
 10
2062.008979588892
 20
1454.54156615536
 30
0.0
  0
POINT
  5
97C
330
1F
100
AcDbEntity
  8
PV0001_10
  6
Continuous
 62
     4
100
AcDbPoint
 10
2051.162832213281
 20
1478.041550546399
 30
0.0
  0
POINT
  5
97D
330
1F
100
AcDbEntity
  8
PV0001_10
  6
Continuous
 62
     4
100
AcDbPoint
 10
2110.547453902233
 20
891.0415516639899
 30
0.0
  0
POINT
  5
97E
330
1F
100
AcDbEntity
  8
PV0001_10
  6
Continuous
 62
     4
100
AcDbPoint
 10
2110.547453902233
 20
923.605085359264
 30
0.0
  0
LINE
  5
980
330
1F
100
AcDbEntity
  8
PV0001_10
  6
Continuous
 62
     7
100
AcDbLine
 10
1799.047500505622
 20
891.0415516639899
 30
0.0
 11
2422.047445445823
 21
891.0415516639899
 31
0.0
1001
DEKIMAS
1000
実線（中）
1040
0.25
1001
DIMEXPLODE
1070
     0
  0
LINE
  5
981
330
1F
100
AcDbEntity
  8
PV0001_10
  6
CENTER2
 62
     1
100
AcDbLine
 10
2110.547453902233
 20
1528.04151165437
 30
0.0
 11
2110.547453902233
 21
869.6392501945799
 31
0.0
1001
DEKIMAS
1000
一点鎖線（細）
1040
0.15
1001
DIMEXPLODE
1070
     0
  0
LINE
  5
982
330
1F
100
AcDbEntity
  8
PV0001_10
  6
Continuous
 62
     7
100
AcDbLine
 10
2193.344102601328
 20
1501.04154257428
 30
0.0
 11
2449.847223016192
 21
1501.04154257428
 31
0.0
1001
DEKIMAS
1000
実線（中）
1040
0.25
1001
DIMEXPLODE
1070
     0
  0
LINE
  5
983
330
1F
100
AcDbEntity
  8
PV0001_10
  6
CENTER2
 62
     1
100
AcDbLine
 10
1690.011800378672
 20
1271.04155166399
 30
0.0
 11
2523.973923266593
 21
1271.04155166399
 31
0.0
1001
DEKIMAS
1000
一点鎖線（細）
1040
0.15
1001
DIMEXPLODE
1070
     0
  0
LINE
  5
984
330
1F
100
AcDbEntity
  8
PV0001_10
  6
CENTER2
 62
     1
100
AcDbLine
 10
2418.047449320123
 20
937.3668064707969
 30
0.0
 11
2418.047449320123
 21
886.0202395020273
 31
0.0
1001
DEKIMAS
1000
一点鎖線（細）
1040
0.15
1001
DIMEXPLODE
1070
     0
  0
LINE
  5
985
330
1F
100
AcDbEntity
  8
PV0001_10
  6
Continuous
 62
     7
 48
0.5
100
AcDbLine
 10
2422.047435663532
 20
891.041551837206
 30
0.0
 11
2423.047439417132
 21
913.0415504064458
 31
0.0
1001
DEKIMAS
1000
実線（中）
1040
0.25
1001
DIMEXPLODE
1070
     0
  0
LINE
  5
986
330
1F
100
AcDbEntity
  8
PV0001_10
  6
HIDDEN2
 62
     4
 48
0.5
100
AcDbLine
 10
2414.047431411493
 20
891.0415515124251
 30
0.0
 11
2413.047427603763
 21
913.041551272528
 31
0.0
1001
DEKIMAS
1000
破線（細）
1040
0.15
1001
DIMEXPLODE
1070
     0
  0
LINE
  5
987
330
1F
100
AcDbEntity
  8
PV0001_10
  6
Continuous
 62
     7
 48
0.5
100
AcDbLine
 10
1767.502942670093
 20
935.5844631011269
 30
0.0
 11
1791.727144481682
 21
934.738535373107
 31
0.0
1001
DEKIMAS
1000
実線（中）
1040
0.25
1001
DIMEXPLODE
1070
     0
  0
LINE
  5
988
330
1F
100
AcDbEntity
  8
PV0001_10
  6
HIDDEN2
 62
     4
 48
0.5
100
AcDbLine
 10
1807.047514554722
 20
891.0415509711169
 30
0.0
 11
1808.031711378452
 21
912.6937984109749
 31
0.0
1001
DEKIMAS
1000
破線（細）
1040
0.15
1001
DIMEXPLODE
1070
     0
  0
LINE
  5
989
330
1F
100
AcDbEntity
  8
PV0001_10
  6
CENTER2
 62
     1
100
AcDbLine
 10
1803.047458484342
 20
961.388851893021
 30
0.0
 11
1803.047458484342
 21
886.0202395020273
 31
0.0
1001
DEKIMAS
1000
一点鎖線（細）
1040
0.15
1001
DIMEXPLODE
1070
     0
  0
LINE
  5
98A
330
1F
100
AcDbEntity
  8
PV0001_10
  6
Continuous
 62
     7
 48
0.5
100
AcDbLine
 10
1799.047510302692
 20
891.0415523785141
 30
0.0
 11
1798.063403930792
 21
912.6918098858439
 31
0.0
1001
DEKIMAS
1000
実線（中）
1040
0.25
1001
DIMEXPLODE
1070
     0
  0
LINE
  5
98B
330
1F
100
AcDbEntity
  8
PV0001_10
  6
Continuous
 62
     7
100
AcDbLine
 10
1930.547456584442
 20
1251.04155196201
 30
0.0
 11
2290.547451220023
 21
1251.04155196201
 31
0.0
1001
DEKIMAS
1000
実線（中）
1040
0.25
1001
DIMEXPLODE
1070
     0
  0
LINE
  5
98C
330
1F
100
AcDbEntity
  8
PV0001_10
  6
Continuous
 62
     7
100
AcDbLine
 10
1930.547456584442
 20
1291.04155136596
 30
0.0
 11
2290.547451220023
 21
1291.04155136596
 31
0.0
1001
DEKIMAS
1000
実線（中）
1040
0.25
1001
DIMEXPLODE
1070
     0
  0
LINE
  5
98D
330
1F
100
AcDbEntity
  8
PV0001_10
  6
CENTER2
 62
     1
100
AcDbLine
 10
2491.883355202303
 20
931.041551067943
 30
0.0
 11
2580.667266538013
 21
931.041551067943
 31
0.0
1001
DEKIMAS
1000
一点鎖線（細）
1040
0.15
1001
DIMEXPLODE
1070
     0
  0
LINE
  5
98E
330
1F
100
AcDbEntity
  8
PV0001_10
  6
Continuous
 62
     7
100
AcDbLine
 10
2422.729265351433
 20
906.041551440472
 30
0.0
 11
2527.047424807713
 21
906.041551440472
 31
0.0
1001
DEKIMAS
1000
実線（中）
1040
0.25
1001
DIMEXPLODE
1070
     0
  0
LINE
  5
98F
330
1F
100
AcDbEntity
  8
PV0001_10
  6
Continuous
 62
     7
 48
0.5
100
AcDbLine
 10
2511.047440304923
 20
956.0415506954139
 30
0.0
 11
2527.047424807713
 21
956.0415506954139
 31
0.0
1001
DEKIMAS
1000
実線（中）
1040
0.25
1001
DIMEXPLODE
1070
     0
  0
LINE
  5
990
330
1F
100
AcDbEntity
  8
PV0001_10
  6
Continuous
 62
     7
100
AcDbLine
 10
2511.047440304923
 20
956.0415506954139
 30
0.0
 11
2511.047440304923
 21
906.041551440472
 31
0.0
1001
DEKIMAS
1000
実線（中）
1040
0.25
1001
DIMEXPLODE
1070
     0
  0
LINE
  5
991
330
1F
100
AcDbEntity
  8
PV0001_10
  6
Continuous
 62
     7
100
AcDbLine
 10
2516.047440230412
 20
956.0415506954139
 30
0.0
 11
2516.047440230412
 21
906.041551440472
 31
0.0
1001
DEKIMAS
1000
実線（中）
1040
0.25
1001
DIMEXPLODE
1070
     0
  0
LINE
  5
992
330
1F
100
AcDbEntity
  8
PV0001_10
  6
Continuous
 62
     4
 48
0.5
100
AcDbLine
 10
2516.047440230412
 20
910.041551142449
 30
0.0
 11
2527.047424807713
 21
910.041551142449
 31
0.0
1001
DEKIMAS
1000
実線（細）
1040
0.15
1001
DIMEXPLODE
1070
     0
  0
LINE
  5
993
330
1F
100
AcDbEntity
  8
PV0001_10
  6
Continuous
 62
     4
 48
0.5
100
AcDbLine
 10
2516.047440230412
 20
952.041549801344
 30
0.0
 11
2527.047424807713
 21
952.041549801344
 31
0.0
1001
DEKIMAS
1000
実線（細）
1040
0.15
1001
DIMEXPLODE
1070
     0
  0
LINE
  5
994
330
1F
100
AcDbEntity
  8
PV0001_10
  6
Continuous
 62
     7
100
AcDbLine
 10
2350.547450325953
 20
1501.04154257428
 30
0.0
 11
2350.547450325953
 21
1311.04155106794
 31
0.0
1001
DEKIMAS
1000
実線（中）
1040
0.25
1001
DIMEXPLODE
1070
     0
  0
LINE
  5
995
330
1F
100
AcDbEntity
  8
PV0001_10
  6
Continuous
 62
     7
100
AcDbLine
 10
2310.547450921993
 20
1501.04154257428
 30
0.0
 11
2310.547450921993
 21
1311.04155106794
 31
0.0
1001
DEKIMAS
1000
実線（中）
1040
0.25
1001
DIMEXPLODE
1070
     0
  0
LINE
  5
996
330
1F
100
AcDbEntity
  8
PV0001_10
  6
CENTER2
 62
     1
100
AcDbLine
 10
2330.547450623972
 20
1517.19877455846
 30
0.0
 11
2330.547450623972
 21
935.0950635211789
 31
0.0
1001
DEKIMAS
1000
一点鎖線（細）
1040
0.15
1001
DIMEXPLODE
1070
     0
  0
LINE
  5
997
330
1F
100
AcDbEntity
  8
PV0001_10
  6
Continuous
 62
     7
100
AcDbLine
 10
2310.547450921993
 20
1231.04155226003
 30
0.0
 11
2310.547450921993
 21
932.378983909342
 31
0.0
1001
DEKIMAS
1000
実線（中）
1040
0.25
1001
DIMEXPLODE
1070
     0
  0
LINE
  5
998
330
1F
100
AcDbEntity
  8
PV0001_10
  6
Continuous
 62
     7
100
AcDbLine
 10
2350.547450325953
 20
1231.04155226003
 30
0.0
 11
2350.547450325953
 21
930.982153848217
 31
0.0
1001
DEKIMAS
1000
実線（中）
1040
0.25
1001
DIMEXPLODE
1070
     0
  0
LINE
  5
999
330
1F
100
AcDbEntity
  8
PV0001_10
  6
Continuous
 62
     7
100
AcDbLine
 10
2370.547450027922
 20
1291.04155136596
 30
0.0
 11
2508.494815213623
 21
1291.04155136596
 31
0.0
1001
DEKIMAS
1000
実線（中）
1040
0.25
1001
DIMEXPLODE
1070
     0
  0
LINE
  5
99A
330
1F
100
AcDbEntity
  8
PV0001_10
  6
Continuous
 62
     7
100
AcDbLine
 10
2370.547450027922
 20
1251.04155196201
 30
0.0
 11
2510.034542973603
 21
1251.04155196201
 31
0.0
1001
DEKIMAS
1000
実線（中）
1040
0.25
1001
DIMEXPLODE
1070
     0
  0
LINE
  5
99B
330
1F
100
AcDbEntity
  8
PV0001_10
  6
Continuous
 62
     7
100
AcDbLine
 10
1765.104066138243
 20
951.4262859959909
 30
0.0
 11
2449.514186340483
 21
927.526159068417
 31
0.0
1001
DEKIMAS
1000
実線（中）
1040
0.25
1001
DIMEXPLODE
1070
     0
  0
LINE
  5
99C
330
1F
100
AcDbEntity
  8
PV0001_10
  6
Continuous
 62
     7
 48
0.5
100
AcDbLine
 10
2423.031604063413
 20
912.6928977371559
 30
0.0
 11
2423.992517924163
 21
923.676185944673
 31
0.0
1001
DEKIMAS
1000
実線（中）
1040
0.25
1001
DIMEXPLODE
1070
     0
  0
LINE
  5
99D
330
1F
100
AcDbEntity
  8
PV0001_10
  6
HIDDEN2
 62
     4
100
AcDbLine
 10
1808.031608935512
 20
912.6928979080078
 30
0.0
 11
1811.279270095893
 21
949.8138095547579
 31
0.0
1001
DEKIMAS
1000
破線（細）
1040
0.15
1001
DIMEXPLODE
1070
     0
  0
LINE
  5
99E
330
1F
100
AcDbEntity
  8
PV0001_10
  6
Continuous
 62
     7
 48
0.5
100
AcDbLine
 10
1798.063284324553
 20
912.6929008250179
 30
0.0
 11
1796.533591043792
 21
930.1773631249409
 31
0.0
1001
DEKIMAS
1000
実線（中）
1040
0.25
1001
DIMEXPLODE
1070
     0
  0
LINE
  5
99F
330
1F
100
AcDbEntity
  8
PV0001_10
  6
HIDDEN2
 62
     4
100
AcDbLine
 10
1809.904826773873
 20
934.1037567495758
 30
0.0
 11
2413.047441023693
 21
913.0415535318039
 31
0.0
1001
DEKIMAS
1000
破線（細）
1040
0.15
1001
DIMEXPLODE
1070
     0
  0
LINE
  5
9A0
330
1F
100
AcDbEntity
  8
PV0001_10
  6
HIDDEN2
 62
     4
 48
0.5
100
AcDbLine
 10
1796.148046633382
 20
934.5841529001349
 30
0.0
 11
1794.765169686132
 21
950.3904979719079
 31
0.0
1001
DEKIMAS
1000
破線（細）
1040
0.15
1001
DIMEXPLODE
1070
     0
  0
LINE
  5
9A1
330
1F
100
AcDbEntity
  8
PV0001_10
  6
Continuous
 62
     7
 48
0.5
100
AcDbLine
 10
2423.031608531493
 20
912.692898736004
 30
0.0
 11
2446.887134773583
 21
911.859845441962
 31
0.0
1001
DEKIMAS
1000
実線（中）
1040
0.25
1001
DIMEXPLODE
1070
     0
  0
LINE
  5
9A2
330
1F
100
AcDbEntity
  8
PV0001_10
  6
Continuous
 62
     7
100
AcDbLine
 10
1850.547457776542
 20
1251.04155196201
 30
0.0
 11
1711.060364830862
 21
1251.04155196201
 31
0.0
1001
DEKIMAS
1000
実線（中）
1040
0.25
1001
DIMEXPLODE
1070
     0
  0
LINE
  5
9A3
330
1F
100
AcDbEntity
  8
PV0001_10
  6
Continuous
 62
     7
100
AcDbLine
 10
1850.547457776542
 20
1291.04155136596
 30
0.0
 11
1712.600092590842
 21
1291.04155136596
 31
0.0
1001
DEKIMAS
1000
実線（中）
1040
0.25
1001
DIMEXPLODE
1070
     0
  0
LINE
  5
9A4
330
1F
100
AcDbEntity
  8
PV0001_10
  6
Continuous
 62
     7
100
AcDbLine
 10
1870.547457478512
 20
1501.04154257428
 30
0.0
 11
1870.547457478512
 21
1311.04155106794
 31
0.0
1001
DEKIMAS
1000
実線（中）
1040
0.25
1001
DIMEXPLODE
1070
     0
  0
LINE
  5
9A5
330
1F
100
AcDbEntity
  8
PV0001_10
  6
Continuous
 62
     7
100
AcDbLine
 10
1910.547456882472
 20
1501.04154257428
 30
0.0
 11
1910.547456882472
 21
1311.04155106794
 31
0.0
1001
DEKIMAS
1000
実線（中）
1040
0.25
1001
DIMEXPLODE
1070
     0
  0
LINE
  5
9A6
330
1F
100
AcDbEntity
  8
PV0001_10
  6
Continuous
 62
     7
100
AcDbLine
 10
1910.547456882472
 20
1231.04155226003
 30
0.0
 11
1910.547456882472
 21
946.3472892889669
 31
0.0
1001
DEKIMAS
1000
実線（中）
1040
0.25
1001
DIMEXPLODE
1070
     0
  0
LINE
  5
9A7
330
1F
100
AcDbEntity
  8
PV0001_10
  6
Continuous
 62
     7
100
AcDbLine
 10
1870.547457478512
 20
1231.04155226003
 30
0.0
 11
1870.547457478512
 21
947.7441217342779
 31
0.0
1001
DEKIMAS
1000
実線（中）
1040
0.25
1001
DIMEXPLODE
1070
     0
  0
LINE
  5
9A8
330
1F
100
AcDbEntity
  8
PV0001_10
  6
CENTER2
 62
     1
100
AcDbLine
 10
1890.547457180493
 20
1517.19877455846
 30
0.0
 11
1890.547457180493
 21
935.0950635211789
 31
0.0
1001
DEKIMAS
1000
一点鎖線（細）
1040
0.15
1001
DIMEXPLODE
1070
     0
  0
LINE
  5
9A9
330
1F
100
AcDbEntity
  8
PV0001_10
  6
HIDDEN2
 62
     4
100
AcDbLine
 10
2345.184927798463
 20
1489.42270729292
 30
0.0
 11
2325.910006062763
 21
1447.66040496658
 31
0.0
1001
DEKIMAS
1000
破線（細）
1040
0.15
1001
DIMEXPLODE
1070
     0
  0
LINE
  5
9AA
330
1F
100
AcDbEntity
  8
PV0001_10
  6
HIDDEN2
 62
     4
 48
0.5
100
AcDbLine
 10
2285.547451294522
 20
1476.04154294681
 30
0.0
 11
2285.547451294522
 21
1456.04154324483
 31
0.0
1001
DEKIMAS
1000
破線（細）
1040
0.15
1001
DIMEXPLODE
1070
     0
  0
LINE
  5
9AB
330
1F
100
AcDbEntity
  8
PV0001_10
  6
Continuous
 62
     7
100
AcDbLine
 10
2055.394132504233
 20
1476.04154294681
 30
0.0
 11
2164.776436019573
 21
1476.04154294681
 31
0.0
1001
DEKIMAS
1000
実線（中）
1040
0.25
1001
DIMEXPLODE
1070
     0
  0
LINE
  5
9AC
330
1F
100
AcDbEntity
  8
PV0001_10
  6
Continuous
 62
     7
100
AcDbLine
 10
2042.268264856196
 20
1496.04154264878
 30
0.0
 11
2178.527356110383
 21
1496.04154264878
 31
0.0
1001
DEKIMAS
1000
実線（中）
1040
0.25
1001
DIMEXPLODE
1070
     0
  0
LINE
  5
9AD
330
1F
100
AcDbEntity
  8
PV0001_10
  6
HIDDEN2
 62
     4
 48
0.5
100
AcDbLine
 10
2300.547451071002
 20
1496.04154264878
 30
0.0
 11
2300.547451071002
 21
1476.04154294681
 31
0.0
1001
DEKIMAS
1000
破線（細）
1040
0.15
1001
DIMEXPLODE
1070
     0
  0
LINE
  5
9AE
330
1F
100
AcDbEntity
  8
PV0001_10
  6
Continuous
 62
     7
100
AcDbLine
 10
2083.344099472085
 20
1436.04154354285
 30
0.0
 11
2137.750808332381
 21
1436.04154354285
 31
0.0
1001
DEKIMAS
1000
実線（中）
1040
0.25
1001
DIMEXPLODE
1070
     0
  0
LINE
  5
9AF
330
1F
100
AcDbEntity
  8
PV0001_10
  6
HIDDEN2
 62
     4
100
AcDbLine
 10
2307.750801030802
 20
1436.04154354285
 30
0.0
 11
2150.547453306186
 21
1436.04154354285
 31
0.0
1001
DEKIMAS
1000
破線（細）
1040
0.15
1001
DIMEXPLODE
1070
     0
  0
LINE
  5
9B0
330
1F
100
AcDbEntity
  8
PV0001_10
  6
Continuous
 62
     7
100
AcDbLine
 10
2155.909995369599
 20
1447.66036053114
 30
0.0
 11
2175.184907021701
 21
1489.42266751146
 31
0.0
1001
DEKIMAS
1000
実線（中）
1040
0.25
1001
DIMEXPLODE
1070
     0
  0
LINE
  5
9B1
330
1F
100
AcDbEntity
  8
PV0001_10
  6
HIDDEN2
 62
     4
100
AcDbLine
 10
2172.276941355194
 20
1476.04154294681
 30
0.0
 11
2300.547451071002
 21
1476.04154294681
 31
0.0
1001
DEKIMAS
1000
破線（細）
1040
0.15
1001
DIMEXPLODE
1070
     0
  0
LINE
  5
9B2
330
1F
100
AcDbEntity
  8
PV0001_10
  6
HIDDEN2
 62
     4
100
AcDbLine
 10
2184.152732727914
 20
1496.04154264878
 30
0.0
 11
2300.547451071002
 21
1496.04154264878
 31
0.0
1001
DEKIMAS
1000
破線（細）
1040
0.15
1001
DIMEXPLODE
1070
     0
  0
LINE
  5
9B3
330
1F
100
AcDbEntity
  8
PV0001_10
  6
Continuous
 62
     7
100
AcDbLine
 10
2065.184928420667
 20
1447.66032589524
 30
0.0
 11
2045.910016768564
 21
1489.42263287555
 31
0.0
1001
DEKIMAS
1000
実線（中）
1040
0.25
1001
DIMEXPLODE
1070
     0
  0
LINE
  5
9B4
330
1F
100
AcDbEntity
  8
PV0001_10
  6
HIDDEN2
 62
     4
100
AcDbLine
 10
2036.942175076552
 20
1496.04154264878
 30
0.0
 11
1920.547456733462
 21
1496.04154264878
 31
0.0
1001
DEKIMAS
1000
破線（細）
1040
0.15
1001
DIMEXPLODE
1070
     0
  0
LINE
  5
9B5
330
1F
100
AcDbEntity
  8
PV0001_10
  6
Continuous
 62
     7
100
AcDbLine
 10
2027.750805203138
 20
1501.04154257428
 30
0.0
 11
1771.247684788272
 21
1501.04154257428
 31
0.0
1001
DEKIMAS
1000
実線（中）
1040
0.25
1001
DIMEXPLODE
1070
     0
  0
LINE
  5
9B6
330
1F
100
AcDbEntity
  8
PV0001_10
  6
HIDDEN2
 62
     4
100
AcDbLine
 10
2048.817966449272
 20
1476.04154294681
 30
0.0
 11
1920.547456733462
 21
1476.04154294681
 31
0.0
1001
DEKIMAS
1000
破線（細）
1040
0.15
1001
DIMEXPLODE
1070
     0
  0
LINE
  5
9B7
330
1F
100
AcDbEntity
  8
PV0001_10
  6
HIDDEN2
 62
     4
 48
0.5
100
AcDbLine
 10
1920.547456733462
 20
1496.04154264878
 30
0.0
 11
1920.547456733462
 21
1476.04154294681
 31
0.0
1001
DEKIMAS
1000
破線（細）
1040
0.15
1001
DIMEXPLODE
1070
     0
  0
LINE
  5
9B8
330
1F
100
AcDbEntity
  8
PV0001_10
  6
HIDDEN2
 62
     4
 48
0.5
100
AcDbLine
 10
1935.547456509942
 20
1476.04154294681
 30
0.0
 11
1935.547456509942
 21
1456.04154324483
 31
0.0
1001
DEKIMAS
1000
破線（細）
1040
0.15
1001
DIMEXPLODE
1070
     0
  0
LINE
  5
9B9
330
1F
100
AcDbEntity
  8
PV0001_10
  6
HIDDEN2
 62
     4
100
AcDbLine
 10
1913.344106773663
 20
1436.04154354285
 30
0.0
 11
2072.270267125196
 21
1436.04154354285
 31
0.0
1001
DEKIMAS
1000
破線（細）
1040
0.15
1001
DIMEXPLODE
1070
     0
  0
LINE
  5
9BA
330
1F
100
AcDbEntity
  8
PV0001_10
  6
HIDDEN2
 62
     4
100
AcDbLine
 10
1875.909980006002
 20
1489.42270729292
 30
0.0
 11
1895.184901741702
 21
1447.66040496658
 31
0.0
1001
DEKIMAS
1000
破線（細）
1040
0.15
1001
DIMEXPLODE
1070
     0
  0
LINE
  5
9BB
330
1F
100
AcDbEntity
  8
PV0001_10
  6
Continuous
 62
     7
 48
0.5
100
AcDbLine
 10
2100.547454051244
 20
1501.04154257428
 30
0.0
 11
2100.547454051244
 21
1496.04154264878
 31
0.0
1001
DEKIMAS
1000
実線（中）
1040
0.25
1001
DIMEXPLODE
1070
     0
  0
LINE
  5
9BC
330
1F
100
AcDbEntity
  8
PV0001_10
  6
Continuous
 62
     7
100
AcDbLine
 10
2036.017845332635
 20
1501.04154257428
 30
0.0
 11
2100.547454051244
 21
1501.04154257428
 31
0.0
1001
DEKIMAS
1000
実線（中）
1040
0.25
1001
DIMEXPLODE
1070
     0
  0
LINE
  5
9BD
330
1F
100
AcDbEntity
  8
PV0001_10
  6
Continuous
 62
     7
100
AcDbLine
 10
2185.077062471831
 20
1501.04154257428
 30
0.0
 11
2120.547453753221
 21
1501.04154257428
 31
0.0
1001
DEKIMAS
1000
実線（中）
1040
0.25
1001
DIMEXPLODE
1070
     0
  0
LINE
  5
9BE
330
1F
100
AcDbEntity
  8
PV0001_10
  6
Continuous
 62
     7
 48
0.5
100
AcDbLine
 10
2120.547453753221
 20
1501.04154257428
 30
0.0
 11
2120.547453753221
 21
1496.04154264878
 31
0.0
1001
DEKIMAS
1000
実線（中）
1040
0.25
1001
DIMEXPLODE
1070
     0
  0
LINE
  5
9BF
330
1F
100
AcDbEntity
  8
PV0001_10
  6
HIDDEN2
 62
     4
 48
0.5
100
AcDbLine
 10
2240.547451965072
 20
1501.04154257428
 30
0.0
 11
2240.547451965072
 21
1496.04154264878
 31
0.0
1001
DEKIMAS
1000
破線（細）
1040
0.15
1001
DIMEXPLODE
1070
     0
  0
LINE
  5
9C0
330
1F
100
AcDbEntity
  8
PV0001_10
  6
HIDDEN2
 62
     4
 48
0.5
100
AcDbLine
 10
1980.547455839392
 20
1501.04154257428
 30
0.0
 11
1980.547455839392
 21
1496.04154264878
 31
0.0
1001
DEKIMAS
1000
破線（細）
1040
0.15
1001
DIMEXPLODE
1070
     0
  0
LINE
  5
9C1
330
1F
100
AcDbEntity
  8
PV0001_10
  6
Continuous
 62
     7
 48
0.5
100
AcDbLine
 10
2085.547454274761
 20
1056.04154920529
 30
0.0
 11
2105.547453976738
 21
1056.04154920529
 31
0.0
1001
DEKIMAS
1000
実線（中）
1040
0.25
1001
DIMEXPLODE
1070
     0
  0
LINE
  5
9C2
330
1F
100
AcDbEntity
  8
PV0001_10
  6
Continuous
 62
     7
 48
0.5
100
AcDbLine
 10
2085.547454274761
 20
1046.04154935431
 30
0.0
 11
2105.547453976738
 21
1046.04154935431
 31
0.0
1001
DEKIMAS
1000
実線（中）
1040
0.25
1001
DIMEXPLODE
1070
     0
  0
LINE
  5
9C3
330
1F
100
AcDbEntity
  8
PV0001_10
  6
Continuous
 62
     7
 48
0.5
100
AcDbLine
 10
2105.547453976738
 20
1381.04154436242
 30
0.0
 11
2105.547453976738
 21
1371.04154451143
 31
0.0
1001
DEKIMAS
1000
実線（中）
1040
0.25
1001
DIMEXPLODE
1070
     0
  0
LINE
  5
9C4
330
1F
100
AcDbEntity
  8
PV0001_10
  6
Continuous
 62
     7
100
AcDbLine
 10
2115.547453827727
 20
1381.04154436242
 30
0.0
 11
2115.547453827727
 21
1301.04155121695
 31
0.0
1001
DEKIMAS
1000
実線（中）
1040
0.25
1001
DIMEXPLODE
1070
     0
  0
LINE
  5
9C5
330
1F
100
AcDbEntity
  8
PV0001_10
  6
Continuous
 62
     7
 48
0.5
100
AcDbLine
 10
2085.547454274761
 20
1056.04154920529
 30
0.0
 11
2085.547454274761
 21
1046.04154935431
 31
0.0
1001
DEKIMAS
1000
実線（中）
1040
0.25
1001
DIMEXPLODE
1070
     0
  0
LINE
  5
9C6
330
1F
100
AcDbEntity
  8
PV0001_10
  6
Continuous
 62
     7
 48
0.5
100
AcDbLine
 10
2105.547453976738
 20
1001.04155002486
 30
0.0
 11
2115.547453827727
 21
1001.04155002486
 31
0.0
1001
DEKIMAS
1000
実線（中）
1040
0.25
1001
DIMEXPLODE
1070
     0
  0
LINE
  5
9C7
330
1F
100
AcDbEntity
  8
PV0001_10
  6
Continuous
 62
     7
100
AcDbLine
 10
2105.547453976738
 20
1046.04154935431
 30
0.0
 11
2105.547453976738
 21
1001.04155002486
 31
0.0
1001
DEKIMAS
1000
実線（中）
1040
0.25
1001
DIMEXPLODE
1070
     0
  0
LINE
  5
9C8
330
1F
100
AcDbEntity
  8
PV0001_10
  6
Continuous
 62
     7
100
AcDbLine
 10
2065.547454572786
 20
1151.04154778968
 30
0.0
 11
2105.547453976738
 21
1151.04154778968
 31
0.0
1001
DEKIMAS
1000
実線（中）
1040
0.25
1001
DIMEXPLODE
1070
     0
  0
LINE
  5
9C9
330
1F
100
AcDbEntity
  8
PV0001_10
  6
Continuous
 62
     7
100
AcDbLine
 10
2065.547454572786
 20
1161.04154764067
 30
0.0
 11
2105.547453976738
 21
1161.04154764067
 31
0.0
1001
DEKIMAS
1000
実線（中）
1040
0.25
1001
DIMEXPLODE
1070
     0
  0
LINE
  5
9CA
330
1F
100
AcDbEntity
  8
PV0001_10
  6
Continuous
 62
     7
100
AcDbLine
 10
2065.547454572786
 20
1361.04154466044
 30
0.0
 11
2105.547453976738
 21
1361.04154466044
 31
0.0
1001
DEKIMAS
1000
実線（中）
1040
0.25
1001
DIMEXPLODE
1070
     0
  0
LINE
  5
9CB
330
1F
100
AcDbEntity
  8
PV0001_10
  6
Continuous
 62
     7
100
AcDbLine
 10
2065.547454572786
 20
1371.04154451143
 30
0.0
 11
2105.547453976738
 21
1371.04154451143
 31
0.0
1001
DEKIMAS
1000
実線（中）
1040
0.25
1001
DIMEXPLODE
1070
     0
  0
LINE
  5
9CC
330
1F
100
AcDbEntity
  8
PV0001_10
  6
Continuous
 62
     7
 48
0.5
100
AcDbLine
 10
2065.547454572786
 20
1371.04154451143
 30
0.0
 11
2065.547454572786
 21
1361.04154466044
 31
0.0
1001
DEKIMAS
1000
実線（中）
1040
0.25
1001
DIMEXPLODE
1070
     0
  0
LINE
  5
9CD
330
1F
100
AcDbEntity
  8
PV0001_10
  6
Continuous
 62
     7
 48
0.5
100
AcDbLine
 10
2065.547454572786
 20
1161.04154764067
 30
0.0
 11
2065.547454572786
 21
1151.04154778968
 31
0.0
1001
DEKIMAS
1000
実線（中）
1040
0.25
1001
DIMEXPLODE
1070
     0
  0
LINE
  5
9CE
330
1F
100
AcDbEntity
  8
PV0001_10
  6
Continuous
 62
     7
 48
0.5
100
AcDbLine
 10
2105.547453976738
 20
1381.04154436242
 30
0.0
 11
2115.547453827727
 21
1381.04154436242
 31
0.0
1001
DEKIMAS
1000
実線（中）
1040
0.25
1001
DIMEXPLODE
1070
     0
  0
LINE
  5
9CF
330
1F
100
AcDbEntity
  8
PV0001_10
  6
Continuous
 62
     7
100
AcDbLine
 10
2105.547453976738
 20
1151.04154778968
 30
0.0
 11
2105.547453976738
 21
1056.04154920529
 31
0.0
1001
DEKIMAS
1000
実線（中）
1040
0.25
1001
DIMEXPLODE
1070
     0
  0
LINE
  5
9D0
330
1F
100
AcDbEntity
  8
PV0001_10
  6
Continuous
 62
     7
100
AcDbLine
 10
2105.547453976738
 20
1361.04154466044
 30
0.0
 11
2105.547453976738
 21
1301.04155121695
 31
0.0
1001
DEKIMAS
1000
実線（中）
1040
0.25
1001
DIMEXPLODE
1070
     0
  0
LINE
  5
9D1
330
1F
100
AcDbEntity
  8
PV0001_10
  6
Continuous
 62
     7
 48
0.5
100
AcDbLine
 10
2105.547453976738
 20
1301.04155121695
 30
0.0
 11
2115.547453827727
 21
1301.04155121695
 31
0.0
1001
DEKIMAS
1000
実線（中）
1040
0.25
1001
DIMEXPLODE
1070
     0
  0
LINE
  5
9D2
330
1F
100
AcDbEntity
  8
PV0001_10
  6
Continuous
 62
     7
 48
0.5
100
AcDbLine
 10
2105.547453976738
 20
1201.04154704463
 30
0.0
 11
2115.547453827727
 21
1201.04154704463
 31
0.0
1001
DEKIMAS
1000
実線（中）
1040
0.25
1001
DIMEXPLODE
1070
     0
  0
LINE
  5
9D3
330
1F
100
AcDbEntity
  8
PV0001_10
  6
Continuous
 62
     7
100
AcDbLine
 10
2105.547453976738
 20
1201.04154704463
 30
0.0
 11
2105.547453976738
 21
1161.04154764067
 31
0.0
1001
DEKIMAS
1000
実線（中）
1040
0.25
1001
DIMEXPLODE
1070
     0
  0
LINE
  5
9D4
330
1F
100
AcDbEntity
  8
PV0001_10
  6
Continuous
 62
     7
100
AcDbLine
 10
2115.547453827727
 20
1201.04154704463
 30
0.0
 11
2115.547453827727
 21
1001.04155002486
 31
0.0
1001
DEKIMAS
1000
実線（中）
1040
0.25
1001
DIMEXPLODE
1070
     0
  0
LINE
  5
9D5
330
1F
100
AcDbEntity
  8
PV0001_10
  6
CENTER2
 62
     1
100
AcDbLine
 10
1689.577916718143
 20
1211.04154689561
 30
0.0
 11
2527.872772695803
 21
1211.04154689561
 31
0.0
1001
DEKIMAS
1000
一点鎖線（細）
1040
0.15
1001
DIMEXPLODE
1070
     0
  0
LINE
  5
9D6
330
1F
100
AcDbEntity
  8
PV0001_10
  6
Continuous
 62
     7
100
AcDbLine
 10
2494.956784259743
 20
991.0415132281778
 30
0.0
 11
2511.047445961533
 21
956.041547543626
 31
0.0
1001
DEKIMAS
1000
実線（中）
1040
0.25
1001
DIMEXPLODE
1070
     0
  0
LINE
  5
9D7
330
1F
100
AcDbEntity
  8
PV0001_10
  6
Continuous
 62
     7
100
AcDbLine
 10
2566.047439485353
 20
961.0415506209079
 30
0.0
 11
2566.047439485353
 21
901.0415515149784
 31
0.0
1001
DEKIMAS
1000
実線（中）
1040
0.25
1001
DIMEXPLODE
1070
     0
  0
LINE
  5
9D8
330
1F
100
AcDbEntity
  8
PV0001_10
  6
Continuous
 62
     7
100
AcDbLine
 10
2527.047424807713
 20
961.0415506209079
 30
0.0
 11
2527.047424807713
 21
901.0415515149784
 31
0.0
1001
DEKIMAS
1000
実線（中）
1040
0.25
1001
DIMEXPLODE
1070
     0
  0
LINE
  5
9D9
330
1F
100
AcDbEntity
  8
PV0001_10
  6
Continuous
 62
     7
100
AcDbLine
 10
2527.047424807713
 20
961.0415506209079
 30
0.0
 11
2566.047439485353
 21
961.0415506209079
 31
0.0
1001
DEKIMAS
1000
実線（中）
1040
0.25
1001
DIMEXPLODE
1070
     0
  0
LINE
  5
9DA
330
1F
100
AcDbEntity
  8
PV0001_10
  6
Continuous
 62
     7
100
AcDbLine
 10
2527.047424807713
 20
901.0415515149784
 30
0.0
 11
2566.047439485353
 21
901.0415515149784
 31
0.0
1001
DEKIMAS
1000
実線（中）
1040
0.25
1001
DIMEXPLODE
1070
     0
  0
ARC
  5
9DB
330
1F
100
AcDbEntity
  8
PV0001_10
  6
Continuous
 62
     7
100
AcDbCircle
 10
2290.547451220023
 20
1311.04155106794
 30
0.0
 40
19.999999701976
100
AcDbArc
 50
270.0000179860988
 51
0.0
1001
DEKIMAS
1000
実線（中）
1040
0.25
1001
DIMEXPLODE
1070
     0
  0
ARC
  5
9DC
330
1F
100
AcDbEntity
  8
PV0001_10
  6
Continuous
 62
     7
100
AcDbCircle
 10
2370.547450027922
 20
1311.04155106794
 30
0.0
 40
19.999999701976
100
AcDbArc
 50
180.0
 51
270.0
1001
DEKIMAS
1000
実線（中）
1040
0.25
1001
DIMEXPLODE
1070
     0
  0
ARC
  5
9DD
330
1F
100
AcDbEntity
  8
PV0001_10
  6
Continuous
 62
     7
100
AcDbCircle
 10
2370.547450027922
 20
1231.04155226003
 30
0.0
 40
19.999999701976
100
AcDbArc
 50
89.99998201390118
 51
179.9999640278219
1001
DEKIMAS
1000
実線（中）
1040
0.25
1001
DIMEXPLODE
1070
     0
  0
ARC
  5
9DE
330
1F
100
AcDbEntity
  8
PV0001_10
  6
Continuous
 62
     7
100
AcDbCircle
 10
2290.547451220023
 20
1231.04155226003
 30
0.0
 40
19.999999701976
100
AcDbArc
 50
0.0
 51
89.99998201390118
1001
DEKIMAS
1000
実線（中）
1040
0.25
1001
DIMEXPLODE
1070
     0
  0
ARC
  5
9DF
330
1F
100
AcDbEntity
  8
PV0001_10
  6
Continuous
 62
     7
 48
0.5
100
AcDbCircle
 10
2428.973485992023
 20
923.2404070611119
 30
0.0
 40
4.9999999254942
100
AcDbArc
 50
87.99993187020005
 51
175.0000196685573
1001
DEKIMAS
1000
実線（中）
1040
0.25
1001
DIMEXPLODE
1070
     0
  0
ARC
  5
9E0
330
1F
100
AcDbEntity
  8
PV0001_10
  6
Continuous
 62
     7
 48
0.5
100
AcDbCircle
 10
1791.552631385123
 20
929.7415809373198
 30
0.0
 40
4.9999999254942
100
AcDbArc
 50
5.000013088038641
 51
87.99993187020005
1001
DEKIMAS
1000
実線（中）
1040
0.25
1001
DIMEXPLODE
1070
     0
  0
ARC
  5
9E1
330
1F
100
AcDbEntity
  8
PV0001_10
  6
Continuous
 62
     7
100
AcDbCircle
 10
1930.547456584442
 20
1231.04155226003
 30
0.0
 40
19.999999701976
100
AcDbArc
 50
89.99998201390118
 51
179.9999640278219
1001
DEKIMAS
1000
実線（中）
1040
0.25
1001
DIMEXPLODE
1070
     0
  0
ARC
  5
9E2
330
1F
100
AcDbEntity
  8
PV0001_10
  6
Continuous
 62
     7
100
AcDbCircle
 10
1930.547456584442
 20
1311.04155106794
 30
0.0
 40
19.999999701976
100
AcDbArc
 50
180.0
 51
270.0
1001
DEKIMAS
1000
実線（中）
1040
0.25
1001
DIMEXPLODE
1070
     0
  0
ARC
  5
9E3
330
1F
100
AcDbEntity
  8
PV0001_10
  6
Continuous
 62
     7
100
AcDbCircle
 10
1850.547457776542
 20
1311.04155106794
 30
0.0
 40
19.999999701976
100
AcDbArc
 50
269.9999633445855
 51
0.0
1001
DEKIMAS
1000
実線（中）
1040
0.25
1001
DIMEXPLODE
1070
     0
  0
ARC
  5
9E4
330
1F
100
AcDbEntity
  8
PV0001_10
  6
Continuous
 62
     7
100
AcDbCircle
 10
1850.547457776542
 20
1231.04155226003
 30
0.0
 40
19.999999701976
100
AcDbArc
 50
0.0
 51
89.99998201390118
1001
DEKIMAS
1000
実線（中）
1040
0.25
1001
DIMEXPLODE
1070
     0
  0
ARC
  5
9E5
330
1F
100
AcDbEntity
  8
PV0001_10
  6
HIDDEN2
 62
     4
100
AcDbCircle
 10
2305.547450996503
 20
1456.04154324483
 30
0.0
 40
19.999999701976
100
AcDbArc
 50
179.9999813306647
 51
270.0
1001
DEKIMAS
1000
破線（細）
1040
0.15
1001
DIMEXPLODE
1070
     0
  0
ARC
  5
9E6
330
1F
100
AcDbEntity
  8
PV0001_10
  6
HIDDEN2
 62
     4
 48
0.5
100
AcDbCircle
 10
2307.750801030802
 20
1456.04154324483
 30
0.0
 40
19.999999701976
100
AcDbArc
 50
270.0
 51
335.2248906821
1001
DEKIMAS
1000
破線（細）
1040
0.15
1001
DIMEXPLODE
1070
     0
  0
ARC
  5
9E7
330
1F
100
AcDbEntity
  8
PV0001_10
  6
HIDDEN2
 62
     4
 48
0.5
100
AcDbCircle
 10
2363.344119141612
 20
1481.0415428723
 30
0.0
 40
19.999999701976
100
AcDbArc
 50
89.99998201390118
 51
155.2248871533221
1001
DEKIMAS
1000
破線（細）
1040
0.15
1001
DIMEXPLODE
1070
     0
  0
ARC
  5
9E8
330
1F
100
AcDbEntity
  8
PV0001_10
  6
Continuous
 62
     7
 48
0.5
100
AcDbCircle
 10
2193.344102601328
 20
1481.0415428723
 30
0.0
 40
19.999999701976
100
AcDbArc
 50
89.99998201390118
 51
155.2248871533221
1001
DEKIMAS
1000
実線（中）
1040
0.25
1001
DIMEXPLODE
1070
     0
  0
ARC
  5
9E9
330
1F
100
AcDbEntity
  8
PV0001_10
  6
Continuous
 62
     7
 48
0.5
100
AcDbCircle
 10
2137.750808332381
 20
1456.04154324483
 30
0.0
 40
19.999999701976
100
AcDbArc
 50
270.0000179860988
 51
335.2248736066379
1001
DEKIMAS
1000
実線（中）
1040
0.25
1001
DIMEXPLODE
1070
     0
  0
ARC
  5
9EA
330
1F
100
AcDbEntity
  8
PV0001_10
  6
Continuous
 62
     7
 48
0.5
100
AcDbCircle
 10
2083.344099472085
 20
1456.04154324483
 30
0.0
 40
19.999999701976
100
AcDbArc
 50
204.7751128466778
 51
269.9999701747746
1001
DEKIMAS
1000
実線（中）
1040
0.25
1001
DIMEXPLODE
1070
     0
  0
ARC
  5
9EB
330
1F
100
AcDbEntity
  8
PV0001_10
  6
Continuous
 62
     7
 48
0.5
100
AcDbCircle
 10
2027.750805203138
 20
1481.0415428723
 30
0.0
 40
19.999999701976
100
AcDbArc
 50
24.77507687449546
 51
89.99998201390118
1001
DEKIMAS
1000
実線（中）
1040
0.25
1001
DIMEXPLODE
1070
     0
  0
ARC
  5
9EC
330
1F
100
AcDbEntity
  8
PV0001_10
  6
HIDDEN2
 62
     4
100
AcDbCircle
 10
1915.547456807962
 20
1456.04154324483
 30
0.0
 40
19.999999701976
100
AcDbArc
 50
270.0
 51
0.0
1001
DEKIMAS
1000
破線（細）
1040
0.15
1001
DIMEXPLODE
1070
     0
  0
ARC
  5
9ED
330
1F
100
AcDbEntity
  8
PV0001_10
  6
HIDDEN2
 62
     4
 48
0.5
100
AcDbCircle
 10
1913.344106773663
 20
1456.04154324483
 30
0.0
 40
19.999999701976
100
AcDbArc
 50
204.7750855259172
 51
270.0
1001
DEKIMAS
1000
破線（細）
1040
0.15
1001
DIMEXPLODE
1070
     0
  0
ARC
  5
9EE
330
1F
100
AcDbEntity
  8
PV0001_10
  6
HIDDEN2
 62
     4
 48
0.5
100
AcDbCircle
 10
1857.750788662852
 20
1481.0415428723
 30
0.0
 40
19.999999701976
100
AcDbArc
 50
24.77507687449546
 51
89.99998201390118
1001
DEKIMAS
1000
破線（細）
1040
0.15
1001
DIMEXPLODE
1070
     0
  0
ARC
  5
9EF
330
1F
100
AcDbEntity
  8
PV0001_10
  6
Continuous
 62
     7
100
AcDbCircle
 10
950.5474711876324
 20
1211.04154689561
 30
0.0
 40
1559.9999767541
100
AcDbArc
 50
350.1813460822357
 51
1.471542405518881
1001
DEKIMAS
1000
実線（中）
1040
0.25
1001
DIMEXPLODE
1070
     0
  0
ARC
  5
9F0
330
1F
100
AcDbEntity
  8
PV0001_10
  6
Continuous
 62
     7
100
AcDbCircle
 10
2448.283120866643
 20
951.8354750897549
 30
0.0
 40
39.999999403953
100
AcDbArc
 50
267.9999678423737
 51
350.1813494973349
1001
DEKIMAS
1000
実線（中）
1040
0.25
1001
DIMEXPLODE
1070
     0
  0
ARC
  5
9F1
330
1F
100
AcDbEntity
  8
PV0001_10
  6
Continuous
 62
     7
100
AcDbCircle
 10
2450.910188393413
 20
967.5017784909519
 30
0.0
 40
39.999999403953
100
AcDbArc
 50
267.9999678423737
 51
350.7801316912954
1001
DEKIMAS
1000
実線（中）
1040
0.25
1001
DIMEXPLODE
1070
     0
  0
ARC
  5
9F2
330
1F
100
AcDbEntity
  8
PV0001_10
  6
Continuous
 62
     7
100
AcDbCircle
 10
950.5474711876324
 20
1211.04154689561
 30
0.0
 40
1559.9999767541
100
AcDbArc
 50
2.933457607402838
 51
9.466660972654244
1001
DEKIMAS
1000
実線（中）
1040
0.25
1001
DIMEXPLODE
1070
     0
  0
ARC
  5
9F3
330
1F
100
AcDbEntity
  8
PV0001_10
  6
Continuous
 62
     7
100
AcDbCircle
 10
2449.847223016192
 20
1461.04154317032
 30
0.0
 40
39.999999403953
100
AcDbArc
 50
9.466643043406397
 51
89.99998201390118
1001
DEKIMAS
1000
実線（中）
1040
0.25
1001
DIMEXPLODE
1070
     0
  0
ARC
  5
9F4
330
1F
100
AcDbEntity
  8
PV0001_10
  6
Continuous
 62
     7
100
AcDbCircle
 10
2515.633049672623
 20
1271.23446090183
 30
0.0
 40
20.895826505186
100
AcDbArc
 50
109.9502989681924
 51
254.4547010447335
1001
DEKIMAS
1000
実線（中）
1040
0.25
1001
DIMEXPLODE
1070
     0
  0
ARC
  5
9F5
330
1F
100
AcDbEntity
  8
PV0001_10
  6
Continuous
 62
     7
100
AcDbCircle
 10
1771.247684788272
 20
1461.04154317032
 30
0.0
 40
39.999999403953
100
AcDbArc
 50
89.99998201390118
 51
170.5333218381894
1001
DEKIMAS
1000
実線（中）
1040
0.25
1001
DIMEXPLODE
1070
     0
  0
ARC
  5
9F6
330
1F
100
AcDbEntity
  8
PV0001_10
  6
Continuous
 62
     7
100
AcDbCircle
 10
3270.547436616833
 20
1211.04154689561
 30
0.0
 40
1559.9999767541
100
AcDbArc
 50
170.5333081778085
 51
177.0665423926037
1001
DEKIMAS
1000
実線（中）
1040
0.25
1001
DIMEXPLODE
1070
     0
  0
ARC
  5
9F7
330
1F
100
AcDbEntity
  8
PV0001_10
  6
Continuous
 62
     7
100
AcDbCircle
 10
1705.461858131842
 20
1271.23446090183
 30
0.0
 40
20.895826505186
100
AcDbArc
 50
285.5452989552665
 51
70.04970103180759
1001
DEKIMAS
1000
実線（中）
1040
0.25
1001
DIMEXPLODE
1070
     0
  0
ARC
  5
9F8
330
1F
100
AcDbEntity
  8
PV0001_10
  6
Continuous
 62
     7
100
AcDbCircle
 10
3270.547436616833
 20
1211.04154689561
 30
0.0
 40
1559.9999767541
100
AcDbArc
 50
178.5284575944811
 51
188.9122407436661
1001
DEKIMAS
1000
実線（中）
1040
0.25
1001
DIMEXPLODE
1070
     0
  0
ARC
  5
9F9
330
1F
100
AcDbEntity
  8
PV0001_10
  6
Continuous
 62
     7
100
AcDbCircle
 10
1766.500065230113
 20
991.4019150824399
 30
0.0
 40
39.999999403953
100
AcDbArc
 50
188.3082917389615
 51
267.9999678423737
1001
DEKIMAS
1000
実線（中）
1040
0.25
1001
DIMEXPLODE
1070
     0
  0
ARC
  5
9FA
330
1F
100
AcDbEntity
  8
PV0001_10
  6
Continuous
 62
     7
100
AcDbCircle
 10
1768.898937569852
 20
975.5600879259279
 30
0.0
 40
39.999999403953
100
AcDbArc
 50
188.9122580465055
 51
267.9999678423737
1001
DEKIMAS
1000
実線（中）
1040
0.25
1001
DIMEXPLODE
1070
     0
  0
MTEXT
  5
9FB
330
1F
100
AcDbEntity
  8
PV0001_10
  6
Continuous
 62
     4
100
AcDbMText
 10
2128.196825859275
 20
1050.97828252659
 30
0.0
 40
32.0
 41
0.0
 71
     4
 72
     5
  1
\T1.40;\W0.60;５０
  7
STD
 73
     1
 44
1.0
1001
DEKIMAS
1040
0.15
1001
ACAD
1000
MTEXTBEGIN
1070
    73
1070
     1
1070
    44
1040
1.0
1070
    74
1070
     0
1000
MTEXTEND
  0
MTEXT
  5
9FC
330
1F
100
AcDbEntity
  8
PV0001_10
  6
Continuous
 62
     4
100
AcDbMText
 10
2125.467219271532
 20
1156.06809800775
 30
0.0
 40
32.0
 41
0.0
 71
     4
 72
     5
  1
\T1.40;\W0.60;１００
  7
STD
 73
     1
 44
1.0
1001
DEKIMAS
1040
0.15
1001
ACAD
1000
MTEXTBEGIN
1070
    73
1070
     1
1070
    44
1040
1.0
1070
    74
1070
     0
1000
MTEXTEND
  0
MTEXT
  5
9FD
330
1F
100
AcDbEntity
  8
PV0001_10
  6
Continuous
 62
     4
100
AcDbMText
 10
2126.832022565404
 20
1368.97737370478
 30
0.0
 40
32.0
 41
0.0
 71
     4
 72
     5
  1
\T1.40;\W0.60;２００
  7
STD
 73
     1
 44
1.0
1001
DEKIMAS
1040
0.15
1001
ACAD
1000
MTEXTBEGIN
1070
    73
1070
     1
1070
    44
1040
1.0
1070
    74
1070
     0
1000
MTEXTEND
  0
LEADER
  5
9FE
330
1F
100
AcDbEntity
  8
PV0001_10
  6
Continuous
 62
     4
100
AcDbLeader
  3
ASKSTANDARD
 76
     3
 10
2547.798728320822
 20
961.0415473329659
 30
0.0
 10
2580.601422477953
 20
1101.33095935102
 30
0.0
 10
2918.892397301283
 20
1101.33095053849
 30
0.0
1001
DEKIMAS
1000
実線（細）
1040
0.15
1001
DIMEXPLODE
1070
     0
1001
ACAD
1000
DSTYLE
1002
{
1070
   173
1070
     1
1070
   341
1005
71F
1070
   176
1070
     0
1002
}
  0
MTEXT
  5
9FF
330
1F
100
AcDbEntity
  8
PV0001_10
  6
Continuous
 62
     4
100
AcDbMText
 10
2600.376812214278
 20
1109.330970208016
 30
0.0
 40
32.0
 41
0.0
 71
     7
 72
     5
  1
{\T1.4;ドレン・キャップ付}
  7
STD
 73
     1
 44
1.0
1001
DEKIMAS
1040
0.15
1001
ACAD
1000
MTEXTBEGIN
1070
    73
1070
     1
1070
    44
1040
1.0
1070
    74
1070
     0
1000
MTEXTEND
  0
DIMENSION
  5
AEC
330
1F
100
AcDbEntity
  8
RH0901_10
  6
Continuous
 62
     7
100
AcDbDimension
  2
*D7
 10
3600.547450154797
 20
1725.540593233282
 30
0.0
 11
3360.547453731074
 21
1725.54059318406
 31
0.0
 70
   160
  1
\U+2205<>
 71
     5
 42
479.9999928474399
  3
ASKSTANDARD
100
AcDbAlignedDimension
 13
3120.5474573534
 23
1501.041542525055
 33
0.0
 14
3600.547450200839
 24
1501.041542623504
 34
0.0
 50
180.0000000117508
100
AcDbRotatedDimension
1001
ACAD
1000
DSTYLE
1002
{
1070
    44
1040
2.286003112793093
1070
    40
1040
9.999999850988389
1070
   284
1070
     8
1070
   140
1040
3.0
1070
   271
1070
     0
1070
   173
1070
     1
1070
   343
1005
71F
1070
   344
1005
71F
1002
}
  0
DIMENSION
  5
B2F
330
1F
100
AcDbEntity
  8
RH0901_10
  6
Continuous
 62
     7
100
AcDbDimension
  2
*D8
 10
3570.547450621409
 20
1630.064215255309
 30
0.0
 11
3360.547453750656
 21
1630.06421521224
 31
0.0
 70
   160
  1
\U+2205<>
 71
     5
 42
419.9999937414995
  3
ASKSTANDARD
100
AcDbAlignedDimension
 13
3150.547456919702
 23
1436.041543499778
 33
0.0
 14
3570.547450661201
 24
1436.041543585921
 34
0.0
 50
180.0000000117508
100
AcDbRotatedDimension
1001
ACAD
1000
DSTYLE
1002
{
1070
    44
1040
2.286003112792104
1070
    40
1040
9.999999850988389
1070
   284
1070
     8
1070
   140
1040
3.0
1070
   271
1070
     0
1070
   173
1070
     1
1070
   343
1005
71F
1070
   344
1005
71F
1002
}
  0
POINT
  5
B72
330
1F
100
AcDbEntity
  8
RH0901_10
  6
Continuous
 62
     4
100
AcDbPoint
 10
3360.547453902233
 20
891.0415516639899
 30
0.0
 50
90.00000001175157
  0
POINT
  5
B73
330
1F
100
AcDbEntity
  8
RH0901_10
  6
Continuous
 62
     4
100
AcDbPoint
 10
3061.306049051794
 20
928.7242058987345
 30
0.0
 50
90.00000001175157
  0
POINT
  5
B74
330
1F
100
AcDbEntity
  8
RH0901_10
  6
Continuous
 62
     4
100
AcDbPoint
 10
3062.739612145469
 20
1501.041542513198
 30
0.0
 50
90.00000001175157
  0
POINT
  5
B75
330
1F
100
AcDbEntity
  8
RH0901_10
  6
Continuous
 62
     4
100
AcDbPoint
 10
3658.355219114819
 20
1501.041542635361
 30
0.0
 50
90.00000001175157
  0
POINT
  5
B76
330
1F
100
AcDbEntity
  8
RH0901_10
  6
Continuous
 62
     4
100
AcDbPoint
 10
3659.788782443264
 20
928.7242060214854
 30
0.0
 50
90.00000001175157
  0
POINT
  5
B77
330
1F
100
AcDbEntity
  8
RH0901_10
  6
Continuous
 62
     4
100
AcDbPoint
 10
3051.858722428361
 20
1436.041543479537
 30
0.0
 50
90.00000001175157
  0
POINT
  5
B78
330
1F
100
AcDbEntity
  8
RH0901_10
  6
Continuous
 62
     4
100
AcDbPoint
 10
3078.00847178123
 20
1501.04154251633
 30
0.0
 50
90.00000001175157
  0
POINT
  5
B79
330
1F
100
AcDbEntity
  8
RH0901_10
  6
Continuous
 62
     4
100
AcDbPoint
 10
3360.54745389772
 20
913.0415494288149
 30
0.0
 50
90.00000001175157
  0
POINT
  5
B7A
330
1F
100
AcDbEntity
  8
RH0901_10
  6
Continuous
 62
     4
100
AcDbPoint
 10
3553.54732891251
 20
1103.041556173914
 30
0.0
 50
90.00000001175157
  0
POINT
  5
B7B
330
1F
100
AcDbEntity
  8
RH0901_10
  6
Continuous
 62
     4
100
AcDbPoint
 10
3531.547512338622
 20
1138.041555647862
 30
0.0
 50
90.00000001175157
  0
POINT
  5
B7C
330
1F
100
AcDbEntity
  8
RH0901_10
  6
Continuous
 62
     4
100
AcDbPoint
 10
3683.838464659152
 20
1138.041555679098
 30
0.0
 50
90.00000001175157
  0
POINT
  5
B7D
330
1F
100
AcDbEntity
  8
RH0901_10
  6
Continuous
 62
     4
100
AcDbPoint
 10
3681.804468114611
 20
1103.041556200221
 30
0.0
 50
90.00000001175157
  0
POINT
  5
B7E
330
1F
100
AcDbEntity
  8
RH0901_10
  6
Continuous
 62
     4
100
AcDbPoint
 10
3531.547512382932
 20
922.0033103281194
 30
0.0
 50
90.00000001175157
  0
POINT
  5
B7F
330
1F
100
AcDbEntity
  8
RH0901_10
  6
Continuous
 62
     4
100
AcDbPoint
 10
3553.547328949406
 20
923.1562834904996
 30
0.0
 50
90.00000001175157
  0
POINT
  5
B80
330
1F
100
AcDbEntity
  8
RH0901_10
  6
Continuous
 62
     4
100
AcDbPoint
 10
3673.562433342755
 20
1018.04155746513
 30
0.0
 50
90.00000001175157
  0
POINT
  5
B81
330
1F
100
AcDbEntity
  8
RH0901_10
  6
Continuous
 62
     4
100
AcDbPoint
 10
3672.282831313085
 20
1008.041557613878
 30
0.0
 50
90.00000001175157
  0
POINT
  5
B82
330
1F
100
AcDbEntity
  8
RH0901_10
  6
Continuous
 62
     4
100
AcDbPoint
 10
3553.547328929945
 20
1018.041547903774
 30
0.0
 50
90.00000001175157
  0
POINT
  5
B83
330
1F
100
AcDbEntity
  8
RH0901_10
  6
Continuous
 62
     4
100
AcDbPoint
 10
3550.537990597935
 20
1008.041548052168
 30
0.0
 50
90.00000001175157
  0
POINT
  5
B84
330
1F
100
AcDbEntity
  8
RH0901_10
  6
Continuous
 62
     4
100
AcDbPoint
 10
3550.537990615378
 20
922.9985672179717
 30
0.0
 50
90.00000001175157
  0
POINT
  5
B85
330
1F
100
AcDbEntity
  8
RH0901_10
  6
Continuous
 62
     4
100
AcDbPoint
 10
3120.5474573534
 20
1501.041542525055
 30
0.0
 50
90.00000001175157
  0
POINT
  5
B86
330
1F
100
AcDbEntity
  8
RH0901_10
  6
Continuous
 62
     4
100
AcDbPoint
 10
3150.547456919702
 20
1436.041543499778
 30
0.0
 50
90.00000001175157
  0
POINT
  5
B87
330
1F
100
AcDbEntity
  8
RH0901_10
  6
Continuous
 62
     4
100
AcDbPoint
 10
3600.547450200839
 20
1501.041542623504
 30
0.0
 50
90.00000001175157
  0
POINT
  5
B88
330
1F
100
AcDbEntity
  8
RH0901_10
  6
Continuous
 62
     4
100
AcDbPoint
 10
3570.547450661201
 20
1436.041543585921
 30
0.0
 50
90.00000001175157
  0
POINT
  5
B89
330
1F
100
AcDbEntity
  8
RH0901_10
  6
Continuous
 62
     4
100
AcDbPoint
 10
3360.547453834549
 20
1221.04155240904
 30
0.0
 50
90.00000001175157
  0
POINT
  5
B8A
330
1F
100
AcDbEntity
  8
RH0901_10
  6
Continuous
 62
     4
100
AcDbPoint
 10
3360.547453834549
 20
1221.04155240904
 30
0.0
 50
90.00000001175157
  0
POINT
  5
B8B
330
1F
100
AcDbEntity
  8
RH0901_10
  6
Continuous
 62
     4
100
AcDbPoint
 10
3360.547453777119
 20
1501.04154257428
 30
0.0
 50
90.00000001175157
  0
LINE
  5
B8C
330
1F
100
AcDbEntity
  8
RH0901_10
  6
Continuous
 62
     7
100
AcDbLine
 10
3604.547389231193
 20
891.041551714035
 30
0.0
 11
3116.547442279332
 21
891.0415516139448
 31
0.0
1001
DEKIMAS
1000
実線（中）
1040
0.25
1001
DIMEXPLODE
1070
     0
  0
LINE
  5
B8D
330
1F
100
AcDbEntity
  8
RH0901_10
  6
Continuous
 62
     7
100
AcDbLine
 10
3405.547453228603
 20
906.0415514497014
 30
0.0
 11
3315.547454569709
 21
906.0415514312422
 31
0.0
1001
DEKIMAS
1000
実線（中）
1040
0.25
1001
DIMEXPLODE
1070
     0
  0
LINE
  5
B8E
330
1F
100
AcDbEntity
  8
RH0901_10
  6
CENTER2
 62
     1
100
AcDbLine
 10
3360.547453908711
 20
859.4568076812098
 30
0.0
 11
3360.547453771408
 21
1528.8873063195
 31
0.0
1001
DEKIMAS
1000
一点鎖線（細）
1040
0.15
1001
DIMEXPLODE
1070
     0
  0
LINE
  5
B8F
330
1F
100
AcDbEntity
  8
RH0901_10
  6
Continuous
 62
     7
100
AcDbLine
 10
3093.173256041466
 20
927.0540590913746
 30
0.0
 11
3305.671699029719
 21
915.9174487442369
 31
0.0
1001
DEKIMAS
1000
実線（中）
1040
0.25
1001
DIMEXPLODE
1070
     0
  0
LINE
  5
B90
330
1F
100
AcDbEntity
  8
RH0901_10
  6
Continuous
 62
     7
 48
0.5
100
AcDbLine
 10
3305.671375880337
 20
915.9172568058737
 30
0.0
 11
3315.547302870307
 21
906.0413231601261
 31
0.0
1001
DEKIMAS
1000
実線（中）
1040
0.25
1001
DIMEXPLODE
1070
     0
  0
LINE
  5
B91
330
1F
100
AcDbEntity
  8
RH0901_10
  6
Continuous
 62
     7
100
AcDbLine
 10
3624.847071420779
 20
1501.041542628488
 30
0.0
 11
3096.24775983952
 21
1501.041542520071
 31
0.0
1001
DEKIMAS
1000
実線（中）
1040
0.25
1001
DIMEXPLODE
1070
     0
  0
LINE
  5
B92
330
1F
100
AcDbEntity
  8
RH0901_10
  6
Continuous
 62
     7
 48
0.5
100
AcDbLine
 10
3115.54736985316
 20
913.0415550007745
 30
0.0
 11
3114.418850207115
 21
925.940643207957
 31
0.0
1001
DEKIMAS
1000
実線（中）
1040
0.25
1001
DIMEXPLODE
1070
     0
  0
LINE
  5
B93
330
1F
100
AcDbEntity
  8
RH0901_10
  6
HIDDEN2
 62
     4
 48
0.5
100
AcDbLine
 10
3125.54742993898
 20
913.0415762588976
 30
0.0
 11
3126.675947917374
 21
925.940645465636
 31
0.0
1001
DEKIMAS
1000
破線（細）
1040
0.15
1001
DIMEXPLODE
1070
     0
  0
LINE
  5
B94
330
1F
100
AcDbEntity
  8
RH0901_10
  6
CENTER2
 62
     1
100
AcDbLine
 10
3120.54745748044
 20
881.6451203087074
 30
0.0
 11
3120.547457470648
 21
929.3838671940852
 31
0.0
1001
DEKIMAS
1000
一点鎖線（細）
1040
0.15
1001
DIMEXPLODE
1070
     0
  0
LINE
  5
B95
330
1F
100
AcDbEntity
  8
RH0901_10
  6
Continuous
 62
     7
 48
0.5
100
AcDbLine
 10
3116.547995516663
 20
891.0415662321165
 30
0.0
 11
3115.548010790031
 21
913.0415656662135
 31
0.0
1001
DEKIMAS
1000
実線（中）
1040
0.25
1001
DIMEXPLODE
1070
     0
  0
LINE
  5
B96
330
1F
100
AcDbEntity
  8
RH0901_10
  6
HIDDEN2
 62
     4
 48
0.5
100
AcDbLine
 10
3124.547808418622
 20
891.0415347373504
 30
0.0
 11
3125.547793569261
 21
913.0415436987645
 31
0.0
1001
DEKIMAS
1000
破線（細）
1040
0.15
1001
DIMEXPLODE
1070
     0
  0
LINE
  5
B97
330
1F
100
AcDbEntity
  8
RH0901_10
  6
HIDDEN2
 62
     4
 48
0.5
100
AcDbLine
 10
3235.54738119212
 20
913.0415595379359
 30
0.0
 11
3234.971607049901
 21
919.6227134185049
 31
0.0
1001
DEKIMAS
1000
破線（細）
1040
0.15
1001
DIMEXPLODE
1070
     0
  0
LINE
  5
B98
330
1F
100
AcDbEntity
  8
RH0901_10
  6
HIDDEN2
 62
     4
 48
0.5
100
AcDbLine
 10
3245.54736568991
 20
913.041583170618
 30
0.0
 11
3246.07224343022
 21
919.0409863054677
 31
0.0
1001
DEKIMAS
1000
破線（細）
1040
0.15
1001
DIMEXPLODE
1070
     0
  0
LINE
  5
B99
330
1F
100
AcDbEntity
  8
RH0901_10
  6
CENTER2
 62
     1
100
AcDbLine
 10
3240.547455692301
 20
881.6451203333198
 30
0.0
 11
3240.547455682508
 21
929.3838672186975
 31
0.0
1001
DEKIMAS
1000
一点鎖線（細）
1040
0.15
1001
DIMEXPLODE
1070
     0
  0
LINE
  5
B9A
330
1F
100
AcDbEntity
  8
RH0901_10
  6
HIDDEN2
 62
     4
 48
0.5
100
AcDbLine
 10
3236.548093453322
 20
891.0415507889725
 30
0.0
 11
3235.5481087267
 21
913.0415502230702
 31
0.0
1001
DEKIMAS
1000
破線（細）
1040
0.15
1001
DIMEXPLODE
1070
     0
  0
LINE
  5
B9B
330
1F
100
AcDbEntity
  8
RH0901_10
  6
HIDDEN2
 62
     4
 48
0.5
100
AcDbLine
 10
3244.547981920992
 20
891.0415324750827
 30
0.0
 11
3245.54796663859
 21
913.04153190959
 31
0.0
1001
DEKIMAS
1000
破線（細）
1040
0.15
1001
DIMEXPLODE
1070
     0
  0
LINE
  5
B9C
330
1F
100
AcDbEntity
  8
RH0901_10
  6
HIDDEN2
 62
     4
 48
0.5
100
AcDbLine
 10
3356.548343170938
 20
891.0415565647419
 30
0.0
 11
3355.866535383098
 21
906.0415566119399
 31
0.0
1001
DEKIMAS
1000
破線（細）
1040
0.15
1001
DIMEXPLODE
1070
     0
  0
LINE
  5
B9D
330
1F
100
AcDbEntity
  8
RH0901_10
  6
HIDDEN2
 62
     4
 48
0.5
100
AcDbLine
 10
3364.548078558543
 20
891.0415193867324
 30
0.0
 11
3365.229886773266
 21
906.0415289611173
 31
0.0
1001
DEKIMAS
1000
破線（細）
1040
0.15
1001
DIMEXPLODE
1070
     0
  0
LINE
  5
B9E
330
1F
100
AcDbEntity
  8
RH0901_10
  6
CENTER2
 62
     1
100
AcDbLine
 10
3409.699369665514
 20
931.0415510780243
 30
0.0
 11
3310.780608932488
 21
931.0415510577357
 31
0.0
1001
DEKIMAS
1000
一点鎖線（細）
1040
0.15
1001
DIMEXPLODE
1070
     0
  0
LINE
  5
B9F
330
1F
100
AcDbEntity
  8
RH0901_10
  6
Continuous
 62
     7
100
AcDbLine
 10
3490.547451883031
 20
1291.041551392623
 30
0.0
 11
3230.547455757351
 21
1291.041551339296
 31
0.0
1001
DEKIMAS
1000
実線（中）
1040
0.25
1001
DIMEXPLODE
1070
     0
  0
LINE
  5
BA0
330
1F
100
AcDbEntity
  8
RH0901_10
  6
Continuous
 62
     7
100
AcDbLine
 10
3486.932034461236
 20
1251.041551987932
 30
0.0
 11
3234.162873192146
 21
1251.041551936088
 31
0.0
1001
DEKIMAS
1000
実線（中）
1040
0.25
1001
DIMEXPLODE
1070
     0
  0
LINE
  5
BA1
330
1F
100
AcDbEntity
  8
RH0901_10
  6
CENTER2
 62
     1
100
AcDbLine
 10
3692.329065091293
 20
1271.041551732039
 30
0.0
 11
3035.269443534603
 21
1271.041551597274
 31
0.0
1001
DEKIMAS
1000
一点鎖線（細）
1040
0.15
1001
DIMEXPLODE
1070
     0
  0
LINE
  5
BA2
330
1F
100
AcDbEntity
  8
RH0901_10
  6
CENTER2
 62
     1
100
AcDbLine
 10
3180.54745651817
 20
1214.161936690951
 30
0.0
 11
3180.547456500088
 21
1302.320123243501
 31
0.0
1001
DEKIMAS
1000
一点鎖線（細）
1040
0.15
1001
DIMEXPLODE
1070
     0
  0
LINE
  5
BA3
330
1F
100
AcDbEntity
  8
RH0901_10
  6
Continuous
 62
     7
100
AcDbLine
 10
3130.547457257716
 20
1241.041552063846
 30
0.0
 11
3130.547457249512
 21
1281.041551467796
 31
0.0
1001
DEKIMAS
1000
実線（中）
1040
0.25
1001
DIMEXPLODE
1070
     0
  0
LINE
  5
BA4
330
1F
100
AcDbEntity
  8
RH0901_10
  6
CENTER2
 62
     1
100
AcDbLine
 10
3702.851831058029
 20
1221.041552479247
 30
0.0
 11
3017.409641564889
 21
1221.041552338661
 31
0.0
1001
DEKIMAS
1000
一点鎖線（細）
1040
0.15
1001
DIMEXPLODE
1070
     0
  0
LINE
  5
BA5
330
1F
100
AcDbEntity
  8
RH0901_10
  6
Continuous
 62
     7
100
AcDbLine
 10
3220.547455918668
 20
1231.041552231315
 30
0.0
 11
3140.547457110757
 21
1231.041552214907
 31
0.0
1001
DEKIMAS
1000
実線（中）
1040
0.25
1001
DIMEXPLODE
1070
     0
  0
LINE
  5
BA6
330
1F
100
AcDbEntity
  8
RH0901_10
  6
Continuous
 62
     7
100
AcDbLine
 10
3230.547455767606
 20
1241.041552084357
 30
0.0
 11
3230.547455759403
 21
1281.041551488306
 31
0.0
1001
DEKIMAS
1000
実線（中）
1040
0.25
1001
DIMEXPLODE
1070
     0
  0
LINE
  5
BA7
330
1F
100
AcDbEntity
  8
RH0901_10
  6
Continuous
 62
     7
100
AcDbLine
 10
3130.547457247461
 20
1291.041551318786
 30
0.0
 11
3037.600091391211
 21
1291.041551299722
 31
0.0
1001
DEKIMAS
1000
実線（中）
1040
0.25
1001
DIMEXPLODE
1070
     0
  0
LINE
  5
BA8
330
1F
100
AcDbEntity
  8
RH0901_10
  6
Continuous
 62
     7
100
AcDbLine
 10
3220.547455906361
 20
1291.041551337245
 30
0.0
 11
3140.547457098451
 21
1291.041551320837
 31
0.0
1001
DEKIMAS
1000
実線（中）
1040
0.25
1001
DIMEXPLODE
1070
     0
  0
LINE
  5
BA9
330
1F
100
AcDbEntity
  8
RH0901_10
  6
Continuous
 62
     7
100
AcDbLine
 10
3125.380373592426
 20
1251.041551913776
 30
0.0
 11
3036.060363639436
 21
1251.041551895456
 31
0.0
1001
DEKIMAS
1000
実線（中）
1040
0.25
1001
DIMEXPLODE
1070
     0
  0
LINE
  5
BAA
330
1F
100
AcDbEntity
  8
RH0901_10
  6
Continuous
 62
     7
100
AcDbLine
 10
3627.921780561427
 20
927.0541060182674
 30
0.0
 11
3415.423489956516
 21
915.9175035698211
 31
0.0
1001
DEKIMAS
1000
実線（中）
1040
0.25
1001
DIMEXPLODE
1070
     0
  0
LINE
  5
BAB
330
1F
100
AcDbEntity
  8
RH0901_10
  6
Continuous
 62
     7
 48
0.5
100
AcDbLine
 10
3605.547096107891
 20
913.0416010547552
 30
0.0
 11
3606.675616579815
 21
925.9406987628528
 31
0.0
1001
DEKIMAS
1000
実線（中）
1040
0.25
1001
DIMEXPLODE
1070
     0
  0
LINE
  5
BAC
330
1F
100
AcDbEntity
  8
RH0901_10
  6
HIDDEN2
 62
     4
 48
0.5
100
AcDbLine
 10
3595.54764779136
 20
913.0415408452183
 30
0.0
 11
3594.419129807675
 21
925.9406100514937
 31
0.0
1001
DEKIMAS
1000
破線（細）
1040
0.15
1001
DIMEXPLODE
1070
     0
  0
LINE
  5
BAD
330
1F
100
AcDbEntity
  8
RH0901_10
  6
CENTER2
 62
     1
100
AcDbLine
 10
3600.54745032788
 20
881.6451204071571
 30
0.0
 11
3600.547450318089
 21
929.3838672925348
 31
0.0
1001
DEKIMAS
1000
一点鎖線（細）
1040
0.15
1001
DIMEXPLODE
1070
     0
  0
LINE
  5
BAE
330
1F
100
AcDbEntity
  8
RH0901_10
  6
Continuous
 62
     7
 48
0.5
100
AcDbLine
 10
3604.547814758663
 20
891.0415187591453
 30
0.0
 11
3605.54779925975
 21
913.0415134301994
 31
0.0
1001
DEKIMAS
1000
実線（中）
1040
0.25
1001
DIMEXPLODE
1070
     0
  0
LINE
  5
BAF
330
1F
100
AcDbEntity
  8
RH0901_10
  6
HIDDEN2
 62
     4
 48
0.5
100
AcDbLine
 10
3596.548535796503
 20
891.0415971302525
 30
0.0
 11
3595.548550636831
 21
913.0416060912565
 31
0.0
1001
DEKIMAS
1000
破線（細）
1040
0.15
1001
DIMEXPLODE
1070
     0
  0
LINE
  5
BB0
330
1F
100
AcDbEntity
  8
RH0901_10
  6
HIDDEN2
 62
     4
 48
0.5
100
AcDbLine
 10
3485.54715952578
 20
913.0415846425817
 30
0.0
 11
3486.122932002941
 21
919.62271952248
 31
0.0
1001
DEKIMAS
1000
破線（細）
1040
0.15
1001
DIMEXPLODE
1070
     0
  0
LINE
  5
BB1
330
1F
100
AcDbEntity
  8
RH0901_10
  6
HIDDEN2
 62
     4
 48
0.5
100
AcDbLine
 10
3475.5474055324
 20
913.0415496113526
 30
0.0
 11
3475.02252778963
 21
919.0409527459882
 31
0.0
1001
DEKIMAS
1000
破線（細）
1040
0.15
1001
DIMEXPLODE
1070
     0
  0
LINE
  5
BB2
330
1F
100
AcDbEntity
  8
RH0901_10
  6
CENTER2
 62
     1
100
AcDbLine
 10
3480.547452116019
 20
881.6451203825449
 30
0.0
 11
3480.547452106229
 21
929.3838672679225
 31
0.0
1001
DEKIMAS
1000
一点鎖線（細）
1040
0.15
1001
DIMEXPLODE
1070
     0
  0
LINE
  5
BB3
330
1F
100
AcDbEntity
  8
RH0901_10
  6
HIDDEN2
 62
     4
 48
0.5
100
AcDbLine
 10
3484.547641472813
 20
891.0415257848661
 30
0.0
 11
3485.54762683997
 21
913.041539509734
 31
0.0
1001
DEKIMAS
1000
破線（細）
1040
0.15
1001
DIMEXPLODE
1070
     0
  0
LINE
  5
BB4
330
1F
100
AcDbEntity
  8
RH0901_10
  6
HIDDEN2
 62
     4
 48
0.5
100
AcDbLine
 10
3476.548363376723
 20
891.0415710014934
 30
0.0
 11
3475.548378000541
 21
913.0415847259511
 31
0.0
1001
DEKIMAS
1000
破線（細）
1040
0.15
1001
DIMEXPLODE
1070
     0
  0
LINE
  5
BB5
330
1F
100
AcDbEntity
  8
RH0901_10
  6
Continuous
 62
     7
 48
0.5
100
AcDbLine
 10
3415.423369431147
 20
915.9178300254751
 30
0.0
 11
3405.547442445229
 21
906.0418963756763
 31
0.0
1001
DEKIMAS
1000
実線（中）
1040
0.25
1001
DIMEXPLODE
1070
     0
  0
LINE
  5
BB6
330
1F
100
AcDbEntity
  8
RH0901_10
  6
CENTER2
 62
     1
100
AcDbLine
 10
3540.54745115375
 20
1214.161936764788
 30
0.0
 11
3540.547451135668
 21
1302.320123317338
 31
0.0
1001
DEKIMAS
1000
一点鎖線（細）
1040
0.15
1001
DIMEXPLODE
1070
     0
  0
LINE
  5
BB7
330
1F
100
AcDbEntity
  8
RH0901_10
  6
Continuous
 62
     7
100
AcDbLine
 10
3590.547450403177
 20
1241.041552158194
 30
0.0
 11
3590.547450394973
 21
1281.041551562144
 31
0.0
1001
DEKIMAS
1000
実線（中）
1040
0.25
1001
DIMEXPLODE
1070
     0
  0
LINE
  5
BB8
330
1F
100
AcDbEntity
  8
RH0901_10
  6
Continuous
 62
     7
100
AcDbLine
 10
3500.547451746327
 20
1231.041552288745
 30
0.0
 11
3580.547450554237
 21
1231.041552305153
 31
0.0
1001
DEKIMAS
1000
実線（中）
1040
0.25
1001
DIMEXPLODE
1070
     0
  0
LINE
  5
BB9
330
1F
100
AcDbEntity
  8
RH0901_10
  6
Continuous
 62
     7
100
AcDbLine
 10
3590.547450392921
 20
1291.041551413133
 30
0.0
 11
3683.494816249171
 21
1291.041551432197
 31
0.0
1001
DEKIMAS
1000
実線（中）
1040
0.25
1001
DIMEXPLODE
1070
     0
  0
LINE
  5
BBA
330
1F
100
AcDbEntity
  8
RH0901_10
  6
Continuous
 62
     7
100
AcDbLine
 10
3500.547451734021
 20
1291.041551394674
 30
0.0
 11
3580.547450541931
 21
1291.041551411083
 31
0.0
1001
DEKIMAS
1000
実線（中）
1040
0.25
1001
DIMEXPLODE
1070
     0
  0
LINE
  5
BBB
330
1F
100
AcDbEntity
  8
RH0901_10
  6
Continuous
 62
     7
100
AcDbLine
 10
3595.714381476475
 20
1251.041552010243
 30
0.0
 11
3685.034544017355
 21
1251.041552028563
 31
0.0
1001
DEKIMAS
1000
実線（中）
1040
0.25
1001
DIMEXPLODE
1070
     0
  0
LINE
  5
BBC
330
1F
100
AcDbEntity
  8
RH0901_10
  6
HIDDEN2
 62
     4
100
AcDbLine
 10
3550.547450946915
 20
1496.041542687749
 30
0.0
 11
3170.547456609375
 21
1496.04154260981
 31
0.0
1001
DEKIMAS
1000
破線（細）
1040
0.15
1001
DIMEXPLODE
1070
     0
  0
LINE
  5
BBD
330
1F
100
AcDbEntity
  8
RH0901_10
  6
HIDDEN2
 62
     4
100
AcDbLine
 10
3125.909995765372
 20
1489.422692570325
 30
0.0
 11
3145.184917509638
 21
1447.660390247938
 31
0.0
1001
DEKIMAS
1000
破線（細）
1040
0.15
1001
DIMEXPLODE
1070
     0
  0
LINE
  5
BBE
330
1F
100
AcDbEntity
  8
RH0901_10
  6
HIDDEN2
 62
     4
100
AcDbLine
 10
3550.547450951017
 20
1476.041542985779
 30
0.0
 11
3170.547456613477
 21
1476.04154290784
 31
0.0
1001
DEKIMAS
1000
破線（細）
1040
0.15
1001
DIMEXPLODE
1070
     0
  0
LINE
  5
BBF
330
1F
100
AcDbEntity
  8
RH0901_10
  6
HIDDEN2
 62
     4
 48
0.5
100
AcDbLine
 10
3170.547456609375
 20
1496.04158075678
 30
0.0
 11
3170.547456613477
 21
1476.04158105481
 31
0.0
1001
DEKIMAS
1000
破線（細）
1040
0.15
1001
DIMEXPLODE
1070
     0
  0
LINE
  5
BC0
330
1F
100
AcDbEntity
  8
RH0901_10
  6
HIDDEN2
 62
     4
 48
0.5
100
AcDbLine
 10
3185.547456389957
 20
1476.041581057886
 30
0.0
 11
3185.547456394059
 21
1456.041581355906
 31
0.0
1001
DEKIMAS
1000
破線（細）
1040
0.15
1001
DIMEXPLODE
1070
     0
  0
LINE
  5
BC1
330
1F
100
AcDbEntity
  8
RH0901_10
  6
HIDDEN2
 62
     4
100
AcDbLine
 10
3069.252978760961
 20
1436.041543483104
 30
0.0
 11
3651.842005113881
 21
1436.041543602595
 31
0.0
1001
DEKIMAS
1000
破線（細）
1040
0.15
1001
DIMEXPLODE
1070
     0
  0
LINE
  5
BC2
330
1F
100
AcDbEntity
  8
RH0901_10
  6
HIDDEN2
 62
     4
 48
0.5
100
AcDbLine
 10
3535.547451174537
 20
1476.041504835723
 30
0.0
 11
3535.547451178639
 21
1456.041505133753
 31
0.0
1001
DEKIMAS
1000
破線（細）
1040
0.15
1001
DIMEXPLODE
1070
     0
  0
LINE
  5
BC3
330
1F
100
AcDbEntity
  8
RH0901_10
  6
HIDDEN2
 62
     4
100
AcDbLine
 10
3595.184953881942
 20
1489.422528187665
 30
0.0
 11
3575.910032154808
 21
1447.660225857372
 31
0.0
1001
DEKIMAS
1000
破線（細）
1040
0.15
1001
DIMEXPLODE
1070
     0
  0
LINE
  5
BC4
330
1F
100
AcDbEntity
  8
RH0901_10
  6
HIDDEN2
 62
     4
 48
0.5
100
AcDbLine
 10
3550.547450946915
 20
1496.041504540779
 30
0.0
 11
3550.547450951017
 21
1476.041504838799
 31
0.0
1001
DEKIMAS
1000
破線（細）
1040
0.15
1001
DIMEXPLODE
1070
     0
  0
LINE
  5
BC5
330
1F
100
AcDbEntity
  8
RH0901_10
  6
HIDDEN2
 62
     4
 48
0.5
100
AcDbLine
 10
3490.547451840985
 20
1496.041542675443
 30
0.0
 11
3490.547451839959
 21
1501.041542600943
 31
0.0
1001
DEKIMAS
1000
破線（細）
1040
0.15
1001
DIMEXPLODE
1070
     0
  0
LINE
  5
BC6
330
1F
100
AcDbEntity
  8
RH0901_10
  6
Continuous
 62
     7
100
AcDbLine
 10
3663.484766258645
 20
1008.041548075333
 30
0.0
 11
3550.537990597935
 21
1008.041548052168
 31
0.0
1001
DEKIMAS
1000
実線（中）
1040
0.25
1001
DIMEXPLODE
1070
     0
  0
LINE
  5
BC7
330
1F
100
AcDbEntity
  8
RH0901_10
  6
Continuous
 62
     7
100
AcDbLine
 10
3664.706690066515
 20
1018.041547926574
 30
0.0
 11
3553.547328929945
 21
1018.041547903774
 31
0.0
1001
DEKIMAS
1000
実線（中）
1040
0.25
1001
DIMEXPLODE
1070
     0
  0
LINE
  5
BC8
330
1F
100
AcDbEntity
  8
RH0901_10
  6
Continuous
 62
     7
100
AcDbLine
 10
3663.030969859201
 20
1103.04155619637
 30
0.0
 11
3573.547328614491
 21
1103.041556178017
 31
0.0
1001
DEKIMAS
1000
実線（中）
1040
0.25
1001
DIMEXPLODE
1070
     0
  0
LINE
  5
BC9
330
1F
100
AcDbEntity
  8
RH0901_10
  6
Continuous
 62
     7
100
AcDbLine
 10
3664.634973734372
 20
1138.041555675159
 30
0.0
 11
3551.547512040602
 21
1138.041555651964
 31
0.0
1001
DEKIMAS
1000
実線（中）
1040
0.25
1001
DIMEXPLODE
1070
     0
  0
LINE
  5
BCA
330
1F
100
AcDbEntity
  8
RH0901_10
  6
Continuous
 62
     7
100
AcDbLine
 10
3531.547512379039
 20
940.9825995770134
 30
0.0
 11
3531.547512342724
 21
1118.041555945892
 31
0.0
1001
DEKIMAS
1000
実線（中）
1040
0.25
1001
DIMEXPLODE
1070
     0
  0
LINE
  5
BCB
330
1F
100
AcDbEntity
  8
RH0901_10
  6
Continuous
 62
     7
 48
0.5
100
AcDbLine
 10
3556.546627100389
 20
1098.27028143333
 30
0.0
 11
3540.708985564791
 21
1123.466564796611
 31
0.0
1001
DEKIMAS
1000
実線（中）
1040
0.25
1001
DIMEXPLODE
1070
     0
  0
LINE
  5
BCC
330
1F
100
AcDbEntity
  8
RH0901_10
  6
Continuous
 62
     7
100
AcDbLine
 10
3553.547328929945
 20
1018.041547903774
 30
0.0
 11
3553.547328916613
 21
1083.041556471944
 31
0.0
1001
DEKIMAS
1000
実線（中）
1040
0.25
1001
DIMEXPLODE
1070
     0
  0
LINE
  5
BCD
330
1F
100
AcDbEntity
  8
RH0901_10
  6
Continuous
 62
     7
100
AcDbLine
 10
3550.537990611485
 20
941.9778540826797
 30
0.0
 11
3550.537990597935
 21
1008.041548052168
 31
0.0
1001
DEKIMAS
1000
実線（中）
1040
0.25
1001
DIMEXPLODE
1070
     0
  0
LINE
  5
BCE
330
1F
100
AcDbEntity
  8
RH0901_10
  6
Continuous
 62
     7
 48
0.5
100
AcDbLine
 10
3553.549420046435
 20
1018.041006924305
 30
0.0
 11
3550.539998682336
 21
1008.040984818608
 31
0.0
1001
DEKIMAS
1000
実線（中）
1040
0.25
1001
DIMEXPLODE
1070
     0
  0
LINE
  5
BCF
330
1F
100
AcDbEntity
  8
RH0901_10
  6
Continuous
 62
     7
100
AcDbLine
 10
3365.547453764145
 20
1201.041547045655
 30
0.0
 11
3365.547453805166
 21
1001.041540489135
 31
0.0
1001
DEKIMAS
1000
実線（中）
1040
0.25
1001
DIMEXPLODE
1070
     0
  0
LINE
  5
BD0
330
1F
100
AcDbEntity
  8
RH0901_10
  6
Continuous
 62
     7
 48
0.5
100
AcDbLine
 10
3335.547454240919
 20
1056.041549200162
 30
0.0
 11
3355.547453942897
 21
1056.041549204264
 31
0.0
1001
DEKIMAS
1000
実線（中）
1040
0.25
1001
DIMEXPLODE
1070
     0
  0
LINE
  5
BD1
330
1F
100
AcDbEntity
  8
RH0901_10
  6
Continuous
 62
     7
 48
0.5
100
AcDbLine
 10
3335.54745424297
 20
1046.041539812432
 30
0.0
 11
3355.547453944947
 21
1046.041539816535
 31
0.0
1001
DEKIMAS
1000
実線（中）
1040
0.25
1001
DIMEXPLODE
1070
     0
  0
LINE
  5
BD2
330
1F
100
AcDbEntity
  8
RH0901_10
  6
Continuous
 62
     7
 48
0.5
100
AcDbLine
 10
3355.547453876237
 20
1381.041544361395
 30
0.0
 11
3355.547453878288
 21
1371.041544510404
 31
0.0
1001
DEKIMAS
1000
実線（中）
1040
0.25
1001
DIMEXPLODE
1070
     0
  0
LINE
  5
BD3
330
1F
100
AcDbEntity
  8
RH0901_10
  6
Continuous
 62
     7
100
AcDbLine
 10
3365.547453727226
 20
1381.041544363445
 30
0.0
 11
3365.547453743634
 21
1301.041551217975
 31
0.0
1001
DEKIMAS
1000
実線（中）
1040
0.25
1001
DIMEXPLODE
1070
     0
  0
LINE
  5
BD4
330
1F
100
AcDbEntity
  8
RH0901_10
  6
Continuous
 62
     7
 48
0.5
100
AcDbLine
 10
3335.547454240919
 20
1056.041549200162
 30
0.0
 11
3335.54745424297
 21
1046.041539812432
 31
0.0
1001
DEKIMAS
1000
実線（中）
1040
0.25
1001
DIMEXPLODE
1070
     0
  0
LINE
  5
BD5
330
1F
100
AcDbEntity
  8
RH0901_10
  6
Continuous
 62
     7
 48
0.5
100
AcDbLine
 10
3355.547453954177
 20
1001.041540487084
 30
0.0
 11
3365.547453805166
 21
1001.041540489135
 31
0.0
1001
DEKIMAS
1000
実線（中）
1040
0.25
1001
DIMEXPLODE
1070
     0
  0
LINE
  5
BD6
330
1F
100
AcDbEntity
  8
RH0901_10
  6
Continuous
 62
     7
100
AcDbLine
 10
3355.547453944947
 20
1046.041539816535
 30
0.0
 11
3355.547453954177
 21
1001.041540487084
 31
0.0
1001
DEKIMAS
1000
実線（中）
1040
0.25
1001
DIMEXPLODE
1070
     0
  0
LINE
  5
BD7
330
1F
100
AcDbEntity
  8
RH0901_10
  6
Continuous
 62
     7
100
AcDbLine
 10
3315.547454519459
 20
1151.04154778045
 30
0.0
 11
3355.547453923411
 21
1151.041547788654
 31
0.0
1001
DEKIMAS
1000
実線（中）
1040
0.25
1001
DIMEXPLODE
1070
     0
  0
LINE
  5
BD8
330
1F
100
AcDbEntity
  8
RH0901_10
  6
Continuous
 62
     7
100
AcDbLine
 10
3315.547454517407
 20
1161.04154763144
 30
0.0
 11
3355.54745392136
 21
1161.041547639644
 31
0.0
1001
DEKIMAS
1000
実線（中）
1040
0.25
1001
DIMEXPLODE
1070
     0
  0
LINE
  5
BD9
330
1F
100
AcDbEntity
  8
RH0901_10
  6
Continuous
 62
     7
100
AcDbLine
 10
3315.547454476386
 20
1361.04154465121
 30
0.0
 11
3355.54745388034
 21
1361.041544659414
 31
0.0
1001
DEKIMAS
1000
実線（中）
1040
0.25
1001
DIMEXPLODE
1070
     0
  0
LINE
  5
BDA
330
1F
100
AcDbEntity
  8
RH0901_10
  6
Continuous
 62
     7
100
AcDbLine
 10
3315.547454474336
 20
1371.0415445022
 30
0.0
 11
3355.547453878288
 21
1371.041544510404
 31
0.0
1001
DEKIMAS
1000
実線（中）
1040
0.25
1001
DIMEXPLODE
1070
     0
  0
LINE
  5
BDB
330
1F
100
AcDbEntity
  8
RH0901_10
  6
Continuous
 62
     7
 48
0.5
100
AcDbLine
 10
3315.547454474336
 20
1371.04158264917
 30
0.0
 11
3315.547454476386
 21
1361.04158279818
 31
0.0
1001
DEKIMAS
1000
実線（中）
1040
0.25
1001
DIMEXPLODE
1070
     0
  0
LINE
  5
BDC
330
1F
100
AcDbEntity
  8
RH0901_10
  6
Continuous
 62
     7
 48
0.5
100
AcDbLine
 10
3315.547454517407
 20
1161.04154763144
 30
0.0
 11
3315.547454519459
 21
1151.04154778045
 31
0.0
1001
DEKIMAS
1000
実線（中）
1040
0.25
1001
DIMEXPLODE
1070
     0
  0
LINE
  5
BDD
330
1F
100
AcDbEntity
  8
RH0901_10
  6
Continuous
 62
     7
 48
0.5
100
AcDbLine
 10
3355.547453876237
 20
1381.041544361395
 30
0.0
 11
3365.547453727226
 21
1381.041544363445
 31
0.0
1001
DEKIMAS
1000
実線（中）
1040
0.25
1001
DIMEXPLODE
1070
     0
  0
LINE
  5
BDE
330
1F
100
AcDbEntity
  8
RH0901_10
  6
Continuous
 62
     7
100
AcDbLine
 10
3355.547453923411
 20
1151.041547788654
 30
0.0
 11
3355.547453942897
 21
1056.041549204264
 31
0.0
1001
DEKIMAS
1000
実線（中）
1040
0.25
1001
DIMEXPLODE
1070
     0
  0
LINE
  5
BDF
330
1F
100
AcDbEntity
  8
RH0901_10
  6
Continuous
 62
     7
100
AcDbLine
 10
3355.54745388034
 20
1361.041544659414
 30
0.0
 11
3355.547453892646
 21
1301.041551215924
 31
0.0
1001
DEKIMAS
1000
実線（中）
1040
0.25
1001
DIMEXPLODE
1070
     0
  0
LINE
  5
BE0
330
1F
100
AcDbEntity
  8
RH0901_10
  6
Continuous
 62
     7
 48
0.5
100
AcDbLine
 10
3355.547453892646
 20
1301.041551215924
 30
0.0
 11
3365.547453743634
 21
1301.041551217975
 31
0.0
1001
DEKIMAS
1000
実線（中）
1040
0.25
1001
DIMEXPLODE
1070
     0
  0
LINE
  5
BE1
330
1F
100
AcDbEntity
  8
RH0901_10
  6
Continuous
 62
     7
 48
0.5
100
AcDbLine
 10
3355.547453913157
 20
1201.041547043604
 30
0.0
 11
3365.547453764145
 21
1201.041547045655
 31
0.0
1001
DEKIMAS
1000
実線（中）
1040
0.25
1001
DIMEXPLODE
1070
     0
  0
LINE
  5
BE2
330
1F
100
AcDbEntity
  8
RH0901_10
  6
Continuous
 62
     7
100
AcDbLine
 10
3355.547453913157
 20
1201.041547043604
 30
0.0
 11
3355.54745392136
 21
1161.041547639644
 31
0.0
1001
DEKIMAS
1000
実線（中）
1040
0.25
1001
DIMEXPLODE
1070
     0
  0
LINE
  5
BE3
330
1F
100
AcDbEntity
  8
RH0901_10
  6
Continuous
 62
     4
100
AcDbLine
 10
3548.624843491165
 20
1800.916797543775
 30
0.0
 11
3817.466392219484
 21
1800.916797598915
 31
0.0
1001
DEKIMAS
1000
実線（細）
1040
0.15
1001
DIMEXPLODE
1070
     0
  0
LINE
  5
BE4
330
1F
100
AcDbEntity
  8
RH0901_10
  6
Continuous
 62
     7
100
AcDbLine
 10
3490.547451893287
 20
1241.041548765933
 30
0.0
 11
3490.547451885082
 21
1281.041554913383
 31
0.0
1001
DEKIMAS
1000
実線（中）
1040
0.25
1001
DIMEXPLODE
1070
     0
  0
CIRCLE
  5
BE5
330
1F
100
AcDbEntity
  8
RH0901_10
  6
Continuous
 62
     7
 48
0.5
100
AcDbCircle
 10
3360.547453894028
 20
931.041551067943
 30
0.0
 40
24.999999627471
1001
DEKIMAS
1000
実線（中）
1040
0.25
  0
CIRCLE
  5
BE6
330
1F
100
AcDbEntity
  8
RH0901_10
  6
Continuous
 62
     7
100
AcDbCircle
 10
3360.547453890439
 20
948.5415269653151
 30
0.0
 40
42.499975524843
1001
DEKIMAS
1000
実線（中）
1040
0.25
  0
CIRCLE
  5
BE7
330
1F
100
AcDbEntity
  8
RH0901_10
  6
Continuous
 62
     7
 48
0.5
100
AcDbCircle
 10
3360.547453894028
 20
931.041551067943
 30
0.0
 40
19.999999701976
1001
DEKIMAS
1000
実線（中）
1040
0.25
  0
ARC
  5
BE8
330
1F
100
AcDbEntity
  8
RH0901_10
  6
Continuous
 62
     7
100
AcDbCircle
 10
4595.547435433599
 20
1211.041547148913
 30
0.0
 40
1559.9999767541
100
AcDbArc
 50
170.5333628310817
 51
177.0665414044846
1001
DEKIMAS
1000
実線（中）
1040
0.25
1001
DIMEXPLODE
1070
     0
  0
ARC
  5
BE9
330
1F
100
AcDbEntity
  8
RH0901_10
  6
Continuous
 62
     7
100
AcDbCircle
 10
3096.247759847724
 20
1461.041543116111
 30
0.0
 40
39.999999403953
100
AcDbArc
 50
89.99998202565205
 51
170.5333628310817
1001
DEKIMAS
1000
実線（中）
1040
0.25
1001
DIMEXPLODE
1070
     0
  0
ARC
  5
BEA
330
1F
100
AcDbEntity
  8
RH0901_10
  6
Continuous
 62
     7
100
AcDbCircle
 10
3095.266467239063
 20
966.9993017518299
 30
0.0
 40
39.999999403953
100
AcDbArc
 50
189.2390416289024
 51
266.9999940086977
1001
DEKIMAS
1000
実線（中）
1040
0.25
1001
DIMEXPLODE
1070
     0
  0
ARC
  5
BEB
330
1F
100
AcDbEntity
  8
RH0901_10
  6
Continuous
 62
     7
 48
0.5
100
AcDbCircle
 10
3140.547457108706
 20
1241.041552065897
 30
0.0
 40
9.9999998509884
100
AcDbArc
 50
179.999981342409
 51
270.0000179978236
1001
DEKIMAS
1000
実線（中）
1040
0.25
1001
DIMEXPLODE
1070
     0
  0
ARC
  5
BEC
330
1F
100
AcDbEntity
  8
RH0901_10
  6
Continuous
 62
     7
 48
0.5
100
AcDbCircle
 10
3220.547455916616
 20
1241.041552082305
 30
0.0
 40
9.9999998509884
100
AcDbArc
 50
270.0000179978236
 51
0.000054653264212
1001
DEKIMAS
1000
実線（中）
1040
0.25
1001
DIMEXPLODE
1070
     0
  0
ARC
  5
BED
330
1F
100
AcDbEntity
  8
RH0901_10
  6
Continuous
 62
     7
 48
0.5
100
AcDbCircle
 10
3220.547455908413
 20
1281.041551486255
 30
0.0
 40
9.9999998509884
100
AcDbArc
 50
0.0000000117508519
 51
89.99998202565205
1001
DEKIMAS
1000
実線（中）
1040
0.25
1001
DIMEXPLODE
1070
     0
  0
ARC
  5
BEE
330
1F
100
AcDbEntity
  8
RH0901_10
  6
Continuous
 62
     7
 48
0.5
100
AcDbCircle
 10
3140.547457100502
 20
1281.041551469847
 30
0.0
 40
9.9999998509884
100
AcDbArc
 50
89.99998202565205
 51
179.9999640395662
1001
DEKIMAS
1000
実線（中）
1040
0.25
1001
DIMEXPLODE
1070
     0
  0
ARC
  5
BEF
330
1F
100
AcDbEntity
  8
RH0901_10
  6
Continuous
 62
     7
100
AcDbCircle
 10
3030.461933230224
 20
1271.234460834128
 30
0.0
 40
20.895826505186
100
AcDbArc
 50
285.5450802652025
 51
70.04991953083255
1001
DEKIMAS
1000
実線（中）
1040
0.25
1001
DIMEXPLODE
1070
     0
  0
ARC
  5
BF0
330
1F
100
AcDbEntity
  8
RH0901_10
  6
Continuous
 62
     7
100
AcDbCircle
 10
4595.547435433599
 20
1211.041547148913
 30
0.0
 40
1559.9999767541
100
AcDbArc
 50
178.5284583915803
 51
189.2390243260546
1001
DEKIMAS
1000
実線（中）
1040
0.25
1001
DIMEXPLODE
1070
     0
  0
ARC
  5
BF1
330
1F
100
AcDbEntity
  8
RH0901_10
  6
Continuous
 62
     7
100
AcDbCircle
 10
2125.547472239599
 20
1211.041546642307
 30
0.0
 40
1559.9999767541
100
AcDbArc
 50
350.760994366765
 51
1.471540846590702
1001
DEKIMAS
1000
実線（中）
1040
0.25
1001
DIMEXPLODE
1070
     0
  0
ARC
  5
BF2
330
1F
100
AcDbEntity
  8
RH0901_10
  6
Continuous
 62
     7
 48
0.5
100
AcDbCircle
 10
3500.547451744277
 20
1241.041552139734
 30
0.0
 40
9.9999998509884
100
AcDbArc
 50
179.9999806930637
 51
270.0000179978236
1001
DEKIMAS
1000
実線（中）
1040
0.25
1001
DIMEXPLODE
1070
     0
  0
ARC
  5
BF3
330
1F
100
AcDbEntity
  8
RH0901_10
  6
Continuous
 62
     7
100
AcDbCircle
 10
3690.632898124344
 20
1271.234460969531
 30
0.0
 40
20.895826505186
100
AcDbArc
 50
109.949862005625
 51
254.4551384598417
1001
DEKIMAS
1000
実線（中）
1040
0.25
1001
DIMEXPLODE
1070
     0
  0
ARC
  5
BF4
330
1F
100
AcDbEntity
  8
RH0901_10
  6
Continuous
 62
     7
 48
0.5
100
AcDbCircle
 10
3580.547450543982
 20
1281.041551560093
 30
0.0
 40
9.9999998509884
100
AcDbArc
 50
0.000054653264212
 51
90.00003666716541
1001
DEKIMAS
1000
実線（中）
1040
0.25
1001
DIMEXPLODE
1070
     0
  0
ARC
  5
BF5
330
1F
100
AcDbEntity
  8
RH0901_10
  6
Continuous
 62
     7
 48
0.5
100
AcDbCircle
 10
3500.547451736073
 20
1281.041551543684
 30
0.0
 40
9.9999998509884
100
AcDbArc
 50
90.00003666716541
 51
180.0000193304379
1001
DEKIMAS
1000
実線（中）
1040
0.25
1001
DIMEXPLODE
1070
     0
  0
ARC
  5
BF6
330
1F
100
AcDbEntity
  8
RH0901_10
  6
Continuous
 62
     7
100
AcDbCircle
 10
2125.547472239599
 20
1211.041546642307
 30
0.0
 40
1559.9999767541
100
AcDbArc
 50
2.9334596188808
 51
9.466642201394895
1001
DEKIMAS
1000
実線（中）
1040
0.25
1001
DIMEXPLODE
1070
     0
  0
ARC
  5
BF7
330
1F
100
AcDbEntity
  8
RH0901_10
  6
Continuous
 62
     7
100
AcDbCircle
 10
3624.847071428984
 20
1461.041543224528
 30
0.0
 40
39.999999403953
100
AcDbArc
 50
9.466642201394895
 51
90.00002300678705
1001
DEKIMAS
1000
実線（中）
1040
0.25
1001
DIMEXPLODE
1070
     0
  0
ARC
  5
BF8
330
1F
100
AcDbEntity
  8
RH0901_10
  6
Continuous
 62
     7
100
AcDbCircle
 10
3625.828364240293
 20
966.9993018606501
 30
0.0
 40
39.999999403953
100
AcDbArc
 50
273.0000419869847
 51
350.760994366765
1001
DEKIMAS
1000
実線（中）
1040
0.25
1001
DIMEXPLODE
1070
     0
  0
ARC
  5
BF9
330
1F
100
AcDbEntity
  8
RH0901_10
  6
Continuous
 62
     7
 48
0.5
100
AcDbCircle
 10
3580.547450552187
 20
1241.041552156143
 30
0.0
 40
9.9999998509884
100
AcDbArc
 50
270.0000179978236
 51
0.000054653264212
1001
DEKIMAS
1000
実線（中）
1040
0.25
1001
DIMEXPLODE
1070
     0
  0
ARC
  5
BFA
330
1F
100
AcDbEntity
  8
RH0901_10
  6
HIDDEN2
 62
     4
100
AcDbCircle
 10
3165.547456692079
 20
1456.041543204834
 30
0.0
 40
19.999999701976
100
AcDbArc
 50
269.9999633563363
 51
0.0000000117508519
1001
DEKIMAS
1000
破線（細）
1040
0.15
1001
DIMEXPLODE
1070
     0
  0
ARC
  5
BFB
330
1F
100
AcDbEntity
  8
RH0901_10
  6
HIDDEN2
 62
     4
 48
0.5
100
AcDbCircle
 10
3107.750826688811
 20
1481.04161911439
 30
0.0
 40
19.999999701976
100
AcDbArc
 50
24.7750768862466
 51
89.99998202565205
1001
DEKIMAS
1000
破線（細）
1040
0.15
1001
DIMEXPLODE
1070
     0
  0
ARC
  5
BFC
330
1F
100
AcDbEntity
  8
RH0901_10
  6
HIDDEN2
 62
     4
 48
0.5
100
AcDbCircle
 10
3163.344087584289
 20
1456.041543204383
 30
0.0
 40
19.999999701976
100
AcDbArc
 50
204.7750855376683
 51
269.9999565261211
1001
DEKIMAS
1000
破線（細）
1040
0.15
1001
DIMEXPLODE
1070
     0
  0
ARC
  5
BFD
330
1F
100
AcDbEntity
  8
RH0901_10
  6
HIDDEN2
 62
     4
100
AcDbCircle
 10
3555.547450880619
 20
1456.041505137855
 30
0.0
 40
19.999999701976
100
AcDbArc
 50
179.999981342409
 51
270.0000179978236
1001
DEKIMAS
1000
破線（細）
1040
0.15
1001
DIMEXPLODE
1070
     0
  0
ARC
  5
BFE
330
1F
100
AcDbEntity
  8
RH0901_10
  6
HIDDEN2
 62
     4
 48
0.5
100
AcDbCircle
 10
3557.750819988409
 20
1456.041505138307
 30
0.0
 40
19.999999701976
100
AcDbArc
 50
270.0000179978236
 51
335.2248906938511
1001
DEKIMAS
1000
破線（細）
1040
0.15
1001
DIMEXPLODE
1070
     0
  0
ARC
  5
BFF
330
1F
100
AcDbEntity
  8
RH0901_10
  6
HIDDEN2
 62
     4
 48
0.5
100
AcDbCircle
 10
3613.344080873632
 20
1481.041428483229
 30
0.0
 40
19.999999701976
100
AcDbArc
 50
89.99998202565205
 51
155.2248871650792
1001
DEKIMAS
1000
破線（細）
1040
0.15
1001
DIMEXPLODE
1070
     0
  0
ARC
  5
C00
330
1F
100
AcDbEntity
  8
RH0901_10
  6
HIDDEN2
 62
     4
 48
0.5
100
AcDbCircle
 10
3069.252978765063
 20
1416.041543781134
 30
0.0
 40
19.999999701976
100
AcDbArc
 50
89.99998202565205
 51
172.3502341314225
1001
DEKIMAS
1000
破線（細）
1040
0.15
1001
DIMEXPLODE
1070
     0
  0
ARC
  5
C01
330
1F
100
AcDbEntity
  8
RH0901_10
  6
HIDDEN2
 62
     4
 48
0.5
100
AcDbCircle
 10
3651.841852530093
 20
1416.041543900625
 30
0.0
 40
19.999999701976
100
AcDbArc
 50
7.64978456140709
 51
90.00003666716541
1001
DEKIMAS
1000
破線（細）
1040
0.15
1001
DIMEXPLODE
1070
     0
  0
ARC
  5
C02
330
1F
100
AcDbEntity
  8
RH0901_10
  6
Continuous
 62
     7
100
AcDbCircle
 10
3573.547328618593
 20
1083.041556476047
 30
0.0
 40
19.999999701976
100
AcDbArc
 50
89.99998202565205
 51
179.9999640395662
1001
DEKIMAS
1000
実線（中）
1040
0.25
1001
DIMEXPLODE
1070
     0
  0
ARC
  5
C03
330
1F
100
AcDbEntity
  8
RH0901_10
  6
Continuous
 62
     7
100
AcDbCircle
 10
3551.547512044705
 20
1118.041555949994
 30
0.0
 40
19.999999701976
100
AcDbArc
 50
89.99998202565205
 51
179.9999640395662
1001
DEKIMAS
1000
実線（中）
1040
0.25
1001
DIMEXPLODE
1070
     0
  0
ARC
  5
C04
330
1F
100
AcDbEntity
  8
RH0901_10
  6
Continuous
 62
     7
100
AcDbCircle
 10
3664.63497373027
 20
1158.041555377139
 30
0.0
 40
19.999999701976
100
AcDbArc
 50
270.0000179978236
 51
358.0277568488219
1001
DEKIMAS
1000
実線（中）
1040
0.25
1001
DIMEXPLODE
1070
     0
  0
ARC
  5
C05
330
1F
100
AcDbEntity
  8
RH0901_10
  6
Continuous
 62
     7
100
AcDbCircle
 10
3663.030969855098
 20
1123.04155589835
 30
0.0
 40
19.999999701976
100
AcDbArc
 50
270.0000179978236
 51
356.7241550546877
1001
DEKIMAS
1000
実線（中）
1040
0.25
1001
DIMEXPLODE
1070
     0
  0
ARC
  5
C06
330
1F
100
AcDbEntity
  8
RH0901_10
  6
Continuous
 62
     7
100
AcDbCircle
 10
3511.54751267707
 20
940.9825995729114
 30
0.0
 40
19.999999701976
100
AcDbArc
 50
273.0000966285035
 51
0.0000000117508519
1001
DEKIMAS
1000
実線（中）
1040
0.25
1001
DIMEXPLODE
1070
     0
  0
ARC
  5
C07
330
1F
100
AcDbEntity
  8
RH0901_10
  6
Continuous
 62
     7
 48
0.5
100
AcDbCircle
 10
3664.706537476574
 20
1028.041547777564
 30
0.0
 40
9.9999998509884
100
AcDbArc
 50
270.0000179978236
 51
353.2196575623094
1001
DEKIMAS
1000
実線（中）
1040
0.25
1001
DIMEXPLODE
1070
     0
  0
ARC
  5
C08
330
1F
100
AcDbEntity
  8
RH0901_10
  6
Continuous
 62
     7
 48
0.5
100
AcDbCircle
 10
3663.484613668705
 20
1018.041557463063
 30
0.0
 40
9.9999998509884
100
AcDbArc
 50
270.0000179978236
 51
352.8472231416765
1001
DEKIMAS
1000
実線（中）
1040
0.25
1001
DIMEXPLODE
1070
     0
  0
ARC
  5
C09
330
1F
100
AcDbEntity
  8
RH0901_10
  6
Continuous
 62
     7
100
AcDbCircle
 10
3530.537990909505
 20
941.9778540785777
 30
0.0
 40
19.999999701976
100
AcDbArc
 50
273.0000966285035
 51
0.0000000117508519
1001
DEKIMAS
1000
実線（中）
1040
0.25
1001
DIMEXPLODE
1070
     0
  0
MTEXT
  5
C0A
330
1F
100
AcDbEntity
  8
RH0901_10
  6
Continuous
 62
     4
100
AcDbMText
 10
3376.831965246919
 20
1368.97737370812
 30
0.0
 40
32.0
 41
0.0
 71
     4
 72
     5
  1
\T1.40;\W0.60;２００
  7
STD
 73
     1
 44
1.0
1001
DEKIMAS
1040
0.15
1001
ACAD
1000
MTEXTBEGIN
1070
    73
1070
     1
1070
    44
1040
1.0
1070
    74
1070
     0
1000
MTEXTEND
  0
MTEXT
  5
C0B
330
1F
100
AcDbEntity
  8
RH0901_10
  6
Continuous
 62
     4
100
AcDbMText
 10
3375.467219217175
 20
1156.06809801081
 30
0.0
 40
32.0
 41
0.0
 71
     4
 72
     5
  1
\T1.40;\W0.60;１００
  7
STD
 73
     1
 44
1.0
1001
DEKIMAS
1040
0.15
1001
ACAD
1000
MTEXTBEGIN
1070
    73
1070
     1
1070
    44
1040
1.0
1070
    74
1070
     0
1000
MTEXTEND
  0
MTEXT
  5
C0C
330
1F
100
AcDbEntity
  8
RH0901_10
  6
Continuous
 62
     4
100
AcDbMText
 10
3378.196711385555
 20
1050.97827299347
 30
0.0
 40
32.0
 41
0.0
 71
     4
 72
     5
  1
\T1.40;\W0.60;５０
  7
STD
 73
     1
 44
1.0
1001
DEKIMAS
1040
0.15
1001
ACAD
1000
MTEXTBEGIN
1070
    73
1070
     1
1070
    44
1040
1.0
1070
    74
1070
     0
1000
MTEXTEND
  0
MTEXT
  5
C0D
330
1F
100
AcDbEntity
  8
RH0901_10
  6
Continuous
 62
     4
100
AcDbMText
 10
3565.522605651487
 20
1828.554736588531
 30
0.0
 40
32.0
 41
0.0
 71
     4
 72
     5
  1
\T1.40;\W0.60;口径\U+2205２８０
  7
STD
 73
     1
 44
1.0
1001
DEKIMAS
1040
0.15
1001
ACAD
1000
MTEXTBEGIN
1070
    73
1070
     1
1070
    44
1040
1.0
1070
    74
1070
     0
1000
MTEXTEND
  0
LEADER
  5
C0E
330
1F
100
AcDbEntity
  8
RH0901_10
  6
Continuous
 62
     4
100
AcDbLeader
  3
ASKSTANDARD
 76
     3
 10
3360.547532728959
 20
1501.04161248262
 30
0.0
 10
3543.599767717601
 20
1858.705087993395
 30
0.0
 10
3817.890586537251
 20
1858.705035263283
 30
0.0
211
-0.0000000002051035
221
1.0
231
0.0
1001
DEKIMAS
1000
実線（細）
1040
0.15
1001
DIMEXPLODE
1070
     0
1001
ACAD
1000
DSTYLE
1002
{
1070
   173
1070
     1
1070
   341
1005
71F
1070
   176
1070
     0
1002
}
  0
MTEXT
  5
C0F
330
1F
100
AcDbEntity
  8
RH0901_10
  6
Continuous
 62
     4
100
AcDbMText
 10
3565.992355802606
 20
1866.705035807664
 30
0.0
 40
32.0
 41
0.0
 71
     7
 72
     5
  1
\T1.40;\W0.60;捻込式マンホ－ル
  7
STD
 73
     1
 44
1.0
1001
DEKIMAS
1040
0.15
1001
ACAD
1000
MTEXTBEGIN
1070
    73
1070
     1
1070
    44
1040
1.0
1070
    74
1070
     0
1000
MTEXTEND
  0
DIMENSION
  5
C59
330
1F
100
AcDbEntity
  8
LH2691_10
  6
Continuous
 62
     7
100
AcDbDimension
  2
*D9
 10
535.5474588107456
 20
1725.50137809675
 30
0.0
 11
860.547377779439
 21
1725.50137809675
 31
0.0
 70
   160
  1
<>
 71
     5
 42
649.9999140202901
  3
ASKSTANDARD
100
AcDbAlignedDimension
 13
1185.547372831035
 23
1211.041546828951
 33
0.0
 14
535.5474588107456
 24
1211.041546962268
 34
0.0
 50
359.9999999882492
100
AcDbRotatedDimension
1001
ACAD
1000
DSTYLE
1002
{
1070
    44
1040
2.286003112793104
1070
    40
1040
9.999999850988389
1070
   284
1070
     8
1070
   140
1040
3.0
1070
   271
1070
     0
1070
   173
1070
     1
1070
   343
1005
71F
1070
   344
1005
71F
1002
}
  0
DIMENSION
  5
C9C
330
1F
100
AcDbEntity
  8
LH2691_10
  6
Continuous
 62
     7
100
AcDbDimension
  2
*D10
 10
562.7396886896458
 20
1627.90494400418
 30
0.0
 11
860.5473777594216
 21
1627.90494400418
 31
0.0
 70
   160
  1
590
 71
     5
 42
595.6155306753998
  3
ASKSTANDARD
100
AcDbAlignedDimension
 13
1158.355219365046
 23
1501.041542513198
 33
0.0
 14
562.7396886896458
 24
1501.041504488381
 34
0.0
 50
359.9999999882492
100
AcDbRotatedDimension
1001
ACAD
1000
DSTYLE
1002
{
1070
    44
1040
2.286003112793104
1070
    40
1040
9.999999850988389
1070
   284
1070
     8
1070
   140
1040
3.0
1070
   271
1070
     0
1070
   173
1070
     1
1070
   343
1005
71F
1070
   344
1005
71F
1002
}
  0
DIMENSION
  5
CDF
330
1F
100
AcDbEntity
  8
LH2691_10
  6
Continuous
 62
     7
100
AcDbDimension
  2
*D11
 10
1100.547526617965
 20
767.2818927873298
 30
0.0
 11
860.547453876849
 21
767.2818927873298
 31
0.0
 70
   160
  1
<>
 71
     5
 42
480.0000691413799
  3
ASKSTANDARD
100
AcDbAlignedDimension
 13
620.5474574765853
 23
881.6450822601849
 33
0.0
 14
1100.547526617965
 24
881.6451584556794
 34
0.0
 50
359.9999999882492
100
AcDbRotatedDimension
1001
ACAD
1000
DSTYLE
1002
{
1070
    44
1040
2.285999298095044
1070
    40
1040
9.999999850988389
1070
   284
1070
     8
1070
   140
1040
3.0
1070
   271
1070
     0
1070
   173
1070
     1
1070
   343
1005
71F
1070
   344
1005
71F
1002
}
  0
DIMENSION
  5
D22
330
1F
100
AcDbEntity
  8
LH2691_10
  6
Continuous
 62
     7
100
AcDbDimension
  2
*D12
 10
1325.24501789692
 20
1501.041542520071
 30
0.0
 11
1325.24501789692
 21
1468.541543001587
 31
0.0
 70
   160
  1
<>
 71
     5
 42
64.99999903696653
  3
ASKSTANDARD
100
AcDbAlignedDimension
 13
1151.841929043504
 23
1436.041543483104
 33
0.0
 14
1124.847147964946
 24
1501.041542520071
 34
0.0
 50
269.9999999882491
100
AcDbRotatedDimension
1001
ACAD
1000
DSTYLE
1002
{
1070
    44
1040
2.286000000000056
1070
    40
1040
9.999999850988389
1070
   284
1070
     8
1070
   140
1040
3.0
1070
   271
1070
     0
1070
   173
1070
     1
1070
   343
1005
71F
1070
   344
1005
71F
1002
}
  0
DIMENSION
  5
D73
330
1F
100
AcDbEntity
  8
LH2691_10
  6
Continuous
 62
     7
100
AcDbDimension
  2
*D13
 10
1040.547451304377
 20
1341.381147565327
 30
0.0
 11
859.8302913770526
 21
1341.381147565327
 31
0.0
 70
   160
  1
<>
 71
     5
 42
359.9999946355802
  3
ASKSTANDARD
100
AcDbAlignedDimension
 13
680.5474566687971
 23
1302.320079656938
 33
0.0
 14
1040.547451304377
 24
1302.320155877041
 34
0.0
 50
359.9999999882492
100
AcDbRotatedDimension
1001
ACAD
1000
DSTYLE
1002
{
1070
    44
1040
2.286000000000051
1070
    40
1040
9.999999850988389
1070
   284
1070
     8
1070
   140
1040
3.0
1070
   271
1070
     0
1070
   173
1070
     1
1070
   343
1005
71F
1070
   344
1005
71F
1002
}
  0
DIMENSION
  5
DB6
330
1F
100
AcDbEntity
  8
LH2691_10
  6
Continuous
 62
     7
100
AcDbDimension
  2
*D14
 10
1325.245017817442
 20
891.0415516139446
 30
0.0
 11
1325.245017817442
 21
1081.041548811959
 31
0.0
 70
   160
  1
<>
 71
     5
 42
379.9999944685654
  3
ASKSTANDARD
100
AcDbAlignedDimension
 13
1192.329141541122
 23
1271.04154608251
 33
0.0
 14
1104.547541819072
 24
891.0415516139448
 34
0.0
 50
269.9999999882491
100
AcDbRotatedDimension
1001
ACAD
1000
DSTYLE
1002
{
1070
    44
1040
2.286000000000056
1070
    40
1040
9.999999850988389
1070
   284
1070
     8
1070
   140
1040
3.0
1070
   271
1070
     0
1070
   173
1070
     1
1070
   343
1005
71F
1070
   344
1005
71F
1002
}
  0
POINT
  5
DF9
330
1F
100
AcDbEntity
  8
LH2691_10
  6
Continuous
 62
     4
100
AcDbPoint
 10
860.5474539022324
 20
891.0415516639899
 30
0.0
 50
269.9999999882484
  0
POINT
  5
DFA
330
1F
100
AcDbEntity
  8
LH2691_10
  6
Continuous
 62
     4
100
AcDbPoint
 10
860.5474539022324
 20
891.0415516639899
 30
0.0
 50
269.9999999882484
  0
POINT
  5
DFB
330
1F
100
AcDbEntity
  8
LH2691_10
  6
Continuous
 62
     4
100
AcDbPoint
 10
561.3061253612013
 20
928.7241583377703
 30
0.0
 50
269.9999999882484
  0
POINT
  5
DFC
330
1F
100
AcDbEntity
  8
LH2691_10
  6
Continuous
 62
     4
100
AcDbPoint
 10
562.7396886896458
 20
1501.041504488381
 30
0.0
 50
269.9999999882484
  0
POINT
  5
DFD
330
1F
100
AcDbEntity
  8
LH2691_10
  6
Continuous
 62
     4
100
AcDbPoint
 10
1158.355219365046
 20
1501.041542513198
 30
0.0
 50
269.9999999882484
  0
POINT
  5
DFE
330
1F
100
AcDbEntity
  8
LH2691_10
  6
Continuous
 62
     4
100
AcDbPoint
 10
1159.788858752671
 20
928.7242535824494
 30
0.0
 50
269.9999999882484
  0
POINT
  5
DFF
330
1F
100
AcDbEntity
  8
LH2691_10
  6
Continuous
 62
     4
100
AcDbPoint
 10
860.5474539067449
 20
913.0415518130009
 30
0.0
 50
269.9999999882484
  0
POINT
  5
E00
330
1F
100
AcDbEntity
  8
LH2691_10
  6
Continuous
 62
     4
100
AcDbPoint
 10
855.547682863083
 20
913.0415518140264
 30
0.0
 50
269.9999999882484
  0
POINT
  5
E01
330
1F
100
AcDbEntity
  8
LH2691_10
  6
Continuous
 62
     4
100
AcDbPoint
 10
860.5474539116023
 20
936.7245296133258
 30
0.0
 50
269.9999999882484
  0
POINT
  5
E02
330
1F
100
AcDbEntity
  8
LH2691_10
  6
Continuous
 62
     4
100
AcDbPoint
 10
1163.995401663644
 20
952.6276731968636
 30
0.0
 50
269.9999999882484
  0
POINT
  5
E03
330
1F
100
AcDbEntity
  8
LH2691_10
  6
Continuous
 62
     4
100
AcDbPoint
 10
614.4189175379306
 20
925.9406023838577
 30
0.0
 50
269.9999999882484
  0
POINT
  5
E04
330
1F
100
AcDbEntity
  8
LH2691_10
  6
Continuous
 62
     4
100
AcDbPoint
 10
1106.676066574791
 20
925.9406142038232
 30
0.0
 50
269.9999999882484
  0
LINE
  5
E05
330
1F
100
AcDbEntity
  8
LH2691_10
  6
Continuous
 62
     7
100
AcDbLine
 10
1104.547541819072
 20
891.0415516139448
 30
0.0
 11
616.5475185732725
 21
891.041551714035
 31
0.0
1001
DEKIMAS
1000
実線（中）
1040
0.25
1001
DIMEXPLODE
1070
     0
  0
LINE
  5
E06
330
1F
100
AcDbEntity
  8
LH2691_10
  6
CENTER2
 62
     1
100
AcDbLine
 10
860.5474538957544
 20
859.4568052970238
 30
0.0
 11
860.5474539922582
 21
1329.96886548709
 31
0.0
1001
DEKIMAS
1000
一点鎖線（細）
1040
0.15
1001
DIMEXPLODE
1070
     0
  0
LINE
  5
E07
330
1F
100
AcDbEntity
  8
LH2691_10
  6
Continuous
 62
     7
 48
0.5
100
AcDbLine
 10
593.1732844579687
 20
927.0540544152291
 30
0.0
 11
610.0786425379271
 21
926.1680818174861
 31
0.0
1001
DEKIMAS
1000
実線（中）
1040
0.25
1001
DIMEXPLODE
1070
     0
  0
LINE
  5
E08
330
1F
100
AcDbEntity
  8
LH2691_10
  6
Continuous
 62
     7
100
AcDbLine
 10
1124.847147964946
 20
1501.041542520071
 30
0.0
 11
596.2478363836858
 21
1501.041542628488
 31
0.0
1001
DEKIMAS
1000
実線（中）
1040
0.25
1001
DIMEXPLODE
1070
     0
  0
LINE
  5
E09
330
1F
100
AcDbEntity
  8
LH2691_10
  6
Continuous
 62
     7
 48
0.5
100
AcDbLine
 10
615.5473354588848
 20
913.0415070501085
 30
0.0
 11
614.7976299496824
 21
921.6106971256712
 31
0.0
1001
DEKIMAS
1000
実線（中）
1040
0.25
1001
DIMEXPLODE
1070
     0
  0
LINE
  5
E0A
330
1F
100
AcDbEntity
  8
LH2691_10
  6
HIDDEN2
 62
     4
100
AcDbLine
 10
625.5475812146949
 20
913.0415092746202
 30
0.0
 11
628.6826855990746
 21
948.8761216271623
 31
0.0
1001
DEKIMAS
1000
破線（細）
1040
0.15
1001
DIMEXPLODE
1070
     0
  0
LINE
  5
E0B
330
1F
100
AcDbEntity
  8
LH2691_10
  6
CENTER2
 62
     1
100
AcDbLine
 10
620.5474574765853
 20
881.6450822601849
 30
0.0
 11
620.5474574931875
 21
962.5907278965957
 31
0.0
1001
DEKIMAS
1000
一点鎖線（細）
1040
0.15
1001
DIMEXPLODE
1070
     0
  0
LINE
  5
E0C
330
1F
100
AcDbEntity
  8
LH2691_10
  6
Continuous
 62
     7
 48
0.5
100
AcDbLine
 10
616.5469295729026
 20
891.0415101335342
 30
0.0
 11
615.5469412529348
 21
913.0415094043003
 31
0.0
1001
DEKIMAS
1000
実線（中）
1040
0.25
1001
DIMEXPLODE
1070
     0
  0
LINE
  5
E0D
330
1F
100
AcDbEntity
  8
LH2691_10
  6
HIDDEN2
 62
     4
 48
0.5
100
AcDbLine
 10
624.5472967672927
 20
891.0415361180659
 30
0.0
 11
625.5472778915548
 21
913.0415357159044
 31
0.0
1001
DEKIMAS
1000
破線（細）
1040
0.15
1001
DIMEXPLODE
1070
     0
  0
LINE
  5
E0E
330
1F
100
AcDbEntity
  8
LH2691_10
  6
HIDDEN2
 62
     4
100
AcDbLine
 10
735.5474232170649
 20
913.0415330319468
 30
0.0
 11
732.8901115529145
 21
943.4148042173969
 31
0.0
1001
DEKIMAS
1000
破線（細）
1040
0.15
1001
DIMEXPLODE
1070
     0
  0
LINE
  5
E0F
330
1F
100
AcDbEntity
  8
LH2691_10
  6
HIDDEN2
 62
     4
 48
0.5
100
AcDbLine
 10
745.5475161344447
 20
913.0415262313366
 30
0.0
 11
748.1349171363405
 21
942.6158244159621
 31
0.0
1001
DEKIMAS
1000
破線（細）
1040
0.15
1001
DIMEXPLODE
1070
     0
  0
LINE
  5
E10
330
1F
100
AcDbEntity
  8
LH2691_10
  6
CENTER2
 62
     1
100
AcDbLine
 10
740.5474556884453
 20
881.6451013090587
 30
0.0
 11
740.5474557050474
 21
962.5907278719834
 31
0.0
1001
DEKIMAS
1000
一点鎖線（細）
1040
0.15
1001
DIMEXPLODE
1070
     0
  0
LINE
  5
E11
330
1F
100
AcDbEntity
  8
LH2691_10
  6
HIDDEN2
 62
     4
 48
0.5
100
AcDbLine
 10
736.5474094519027
 20
891.0415125580589
 30
0.0
 11
735.5474211319349
 21
913.0415118288247
 31
0.0
1001
DEKIMAS
1000
破線（細）
1040
0.15
1001
DIMEXPLODE
1070
     0
  0
LINE
  5
E12
330
1F
100
AcDbEntity
  8
LH2691_10
  6
HIDDEN2
 62
     4
 48
0.5
100
AcDbLine
 10
744.5471643260625
 20
891.0415434956373
 30
0.0
 11
745.5471454503249
 21
913.0415430934759
 31
0.0
1001
DEKIMAS
1000
破線（細）
1040
0.15
1001
DIMEXPLODE
1070
     0
  0
LINE
  5
E13
330
1F
100
AcDbEntity
  8
LH2691_10
  6
HIDDEN2
 62
     4
 48
0.5
100
AcDbLine
 10
856.547277227178
 20
891.0415396662548
 30
0.0
 11
855.8654669893346
 21
906.0415396020911
 31
0.0
1001
DEKIMAS
1000
破線（細）
1040
0.15
1001
DIMEXPLODE
1070
     0
  0
LINE
  5
E14
330
1F
100
AcDbEntity
  8
LH2691_10
  6
HIDDEN2
 62
     4
 48
0.5
100
AcDbLine
 10
864.5474133941188
 20
891.0415430787935
 30
0.0
 11
865.2292187258039
 21
906.0415432376338
 31
0.0
1001
DEKIMAS
1000
破線（細）
1040
0.15
1001
DIMEXPLODE
1070
     0
  0
LINE
  5
E15
330
1F
100
AcDbEntity
  8
LH2691_10
  6
Continuous
 62
     7
100
AcDbLine
 10
990.5474520471139
 20
1291.041545825866
 30
0.0
 11
730.5474559214339
 21
1291.041545879193
 31
0.0
1001
DEKIMAS
1000
実線（中）
1040
0.25
1001
DIMEXPLODE
1070
     0
  0
LINE
  5
E16
330
1F
100
AcDbEntity
  8
LH2691_10
  6
Continuous
 62
     7
100
AcDbLine
 10
986.9320346089098
 20
1251.041546422658
 30
0.0
 11
734.1628733398199
 21
1251.041546474502
 31
0.0
1001
DEKIMAS
1000
実線（中）
1040
0.25
1001
DIMEXPLODE
1070
     0
  0
LINE
  5
E17
330
1F
100
AcDbEntity
  8
LH2691_10
  6
CENTER2
 62
     1
100
AcDbLine
 10
1192.329141541122
 20
1271.04154608251
 30
0.0
 11
535.2694436904819
 21
1271.041546217275
 31
0.0
1001
DEKIMAS
1000
一点鎖線（細）
1040
0.15
1001
DIMEXPLODE
1070
     0
  0
LINE
  5
E18
330
1F
100
AcDbEntity
  8
LH2691_10
  6
CENTER2
 62
     1
100
AcDbLine
 10
680.5474566507157
 20
1214.161912177868
 30
0.0
 11
680.5474566687971
 21
1302.320079656938
 31
0.0
1001
DEKIMAS
1000
一点鎖線（細）
1040
0.15
1001
DIMEXPLODE
1070
     0
  0
LINE
  5
E19
330
1F
100
AcDbEntity
  8
LH2691_10
  6
Continuous
 62
     7
100
AcDbLine
 10
630.5474574012887
 20
1241.041508497794
 30
0.0
 11
630.5474574094928
 21
1281.041507901744
 31
0.0
1001
DEKIMAS
1000
実線（中）
1040
0.25
1001
DIMEXPLODE
1070
     0
  0
LINE
  5
E1A
330
1F
100
AcDbEntity
  8
LH2691_10
  6
CENTER2
 62
     1
100
AcDbLine
 10
1202.851754897406
 20
1211.041546825402
 30
0.0
 11
517.4096416982056
 21
1211.041546965988
 31
0.0
1001
DEKIMAS
1000
一点鎖線（細）
1040
0.15
1001
DIMEXPLODE
1070
     0
  0
LINE
  5
E1B
330
1F
100
AcDbEntity
  8
LH2691_10
  6
Continuous
 62
     7
100
AcDbLine
 10
720.5474560581379
 20
1231.041546775314
 30
0.0
 11
640.5474572502278
 21
1231.041546791723
 31
0.0
1001
DEKIMAS
1000
実線（中）
1040
0.25
1001
DIMEXPLODE
1070
     0
  0
LINE
  5
E1C
330
1F
100
AcDbEntity
  8
LH2691_10
  6
Continuous
 62
     7
100
AcDbLine
 10
730.5474559111787
 20
1241.041546624253
 30
0.0
 11
730.5474559193828
 21
1281.041546028203
 31
0.0
1001
DEKIMAS
1000
実線（中）
1040
0.25
1001
DIMEXPLODE
1070
     0
  0
LINE
  5
E1D
330
1F
100
AcDbEntity
  8
LH2691_10
  6
Continuous
 62
     7
100
AcDbLine
 10
630.5474574115439
 20
1291.041545899703
 30
0.0
 11
537.6000051840939
 21
1291.041545918767
 31
0.0
1001
DEKIMAS
1000
実線（中）
1040
0.25
1001
DIMEXPLODE
1070
     0
  0
LINE
  5
E1E
330
1F
100
AcDbEntity
  8
LH2691_10
  6
Continuous
 62
     7
100
AcDbLine
 10
720.5474560704439
 20
1291.041545881244
 30
0.0
 11
640.5474572625339
 21
1291.041545897652
 31
0.0
1001
DEKIMAS
1000
実線（中）
1040
0.25
1001
DIMEXPLODE
1070
     0
  0
LINE
  5
E1F
330
1F
100
AcDbEntity
  8
LH2691_10
  6
Continuous
 62
     7
100
AcDbLine
 10
625.3805263279899
 20
1251.041546496813
 30
0.0
 11
536.0602824595198
 21
1251.041546515133
 31
0.0
1001
DEKIMAS
1000
実線（中）
1040
0.25
1001
DIMEXPLODE
1070
     0
  0
LINE
  5
E20
330
1F
100
AcDbEntity
  8
LH2691_10
  6
HIDDEN2
 62
     4
100
AcDbLine
 10
1107.844206761733
 20
926.0019160296765
 30
0.0
 11
860.5473308339847
 21
913.041550137045
 31
0.0
1001
DEKIMAS
1000
破線（細）
1040
0.15
1001
DIMEXPLODE
1070
     0
  0
LINE
  5
E21
330
1F
100
AcDbEntity
  8
LH2691_10
  6
Continuous
 62
     7
 48
0.5
100
AcDbLine
 10
1105.547706314465
 20
913.0416056073453
 30
0.0
 11
1106.297402379252
 21
921.6107199238127
 31
0.0
1001
DEKIMAS
1000
実線（中）
1040
0.25
1001
DIMEXPLODE
1070
     0
  0
LINE
  5
E22
330
1F
100
AcDbEntity
  8
LH2691_10
  6
HIDDEN2
 62
     4
100
AcDbLine
 10
1095.547610487955
 20
913.0416043280204
 30
0.0
 11
1092.412499818155
 21
948.8761539050466
 31
0.0
1001
DEKIMAS
1000
破線（細）
1040
0.15
1001
DIMEXPLODE
1070
     0
  0
LINE
  5
E23
330
1F
100
AcDbEntity
  8
LH2691_10
  6
CENTER2
 62
     1
100
AcDbLine
 10
1100.547526617965
 20
881.6451584556794
 30
0.0
 11
1100.547526634567
 21
962.5907277981461
 31
0.0
1001
DEKIMAS
1000
一点鎖線（細）
1040
0.15
1001
DIMEXPLODE
1070
     0
  0
LINE
  5
E24
330
1F
100
AcDbEntity
  8
LH2691_10
  6
Continuous
 62
     7
 48
0.5
100
AcDbLine
 10
1104.547455104792
 20
891.0415820845056
 30
0.0
 11
1105.547436120805
 21
913.0415793006177
 31
0.0
1001
DEKIMAS
1000
実線（中）
1040
0.25
1001
DIMEXPLODE
1070
     0
  0
LINE
  5
E25
330
1F
100
AcDbEntity
  8
LH2691_10
  6
HIDDEN2
 62
     4
 48
0.5
100
AcDbLine
 10
1096.547471151843
 20
891.0415908511167
 30
0.0
 11
1095.547482398835
 21
913.0415996487895
 31
0.0
1001
DEKIMAS
1000
破線（細）
1040
0.15
1001
DIMEXPLODE
1070
     0
  0
LINE
  5
E26
330
1F
100
AcDbEntity
  8
LH2691_10
  6
HIDDEN2
 62
     4
100
AcDbLine
 10
985.5476920663848
 20
913.0415572982329
 30
0.0
 11
988.2049904990344
 21
943.4147913485988
 31
0.0
1001
DEKIMAS
1000
破線（細）
1040
0.15
1001
DIMEXPLODE
1070
     0
  0
LINE
  5
E27
330
1F
100
AcDbEntity
  8
LH2691_10
  6
HIDDEN2
 62
     4
 48
0.5
100
AcDbLine
 10
975.5474458949747
 20
913.041581197193
 30
0.0
 11
972.9600373248507
 21
942.6158547867569
 31
0.0
1001
DEKIMAS
1000
破線（細）
1040
0.15
1001
DIMEXPLODE
1070
     0
  0
LINE
  5
E28
330
1F
100
AcDbEntity
  8
LH2691_10
  6
CENTER2
 62
     1
100
AcDbLine
 10
980.5474521121652
 20
881.6451394068057
 30
0.0
 11
980.5474521287676
 21
962.5907278227584
 31
0.0
1001
DEKIMAS
1000
一点鎖線（細）
1040
0.15
1001
DIMEXPLODE
1070
     0
  0
LINE
  5
E29
330
1F
100
AcDbEntity
  8
LH2691_10
  6
HIDDEN2
 62
     4
 48
0.5
100
AcDbLine
 10
984.5471293884425
 20
891.0415764387069
 30
0.0
 11
985.5471106209646
 21
913.0415784182719
 31
0.0
1001
DEKIMAS
1000
破線（細）
1040
0.15
1001
DIMEXPLODE
1070
     0
  0
LINE
  5
E2A
330
1F
100
AcDbEntity
  8
LH2691_10
  6
HIDDEN2
 62
     4
 48
0.5
100
AcDbLine
 10
976.5472216507426
 20
891.041560711834
 30
0.0
 11
975.5472331142549
 21
913.041564746053
 31
0.0
1001
DEKIMAS
1000
破線（細）
1040
0.15
1001
DIMEXPLODE
1070
     0
  0
LINE
  5
E2B
330
1F
100
AcDbEntity
  8
LH2691_10
  6
CENTER2
 62
     1
100
AcDbLine
 10
1040.547451286295
 20
1214.161969324491
 30
0.0
 11
1040.547451304377
 21
1302.320155877041
 31
0.0
1001
DEKIMAS
1000
一点鎖線（細）
1040
0.15
1001
DIMEXPLODE
1070
     0
  0
LINE
  5
E2C
330
1F
100
AcDbEntity
  8
LH2691_10
  6
Continuous
 62
     7
100
AcDbLine
 10
1090.547526840689
 20
1241.041584697386
 30
0.0
 11
1090.547526848893
 21
1281.041584101346
 31
0.0
1001
DEKIMAS
1000
実線（中）
1040
0.25
1001
DIMEXPLODE
1070
     0
  0
LINE
  5
E2D
330
1F
100
AcDbEntity
  8
LH2691_10
  6
Continuous
 62
     7
100
AcDbLine
 10
1000.547451885798
 20
1231.041546717885
 30
0.0
 11
1080.547526987648
 21
1231.041546701477
 31
0.0
1001
DEKIMAS
1000
実線（中）
1040
0.25
1001
DIMEXPLODE
1070
     0
  0
LINE
  5
E2E
330
1F
100
AcDbEntity
  8
LH2691_10
  6
Continuous
 62
     7
100
AcDbLine
 10
990.5474520368588
 20
1241.041584717896
 30
0.0
 11
990.547452045063
 21
1281.041584121856
 31
0.0
1001
DEKIMAS
1000
実線（中）
1040
0.25
1001
DIMEXPLODE
1070
     0
  0
LINE
  5
E2F
330
1F
100
AcDbEntity
  8
LH2691_10
  6
Continuous
 62
     7
100
AcDbLine
 10
1090.547526850944
 20
1291.041545805356
 30
0.0
 11
1183.494805922774
 21
1291.041545786292
 31
0.0
1001
DEKIMAS
1000
実線（中）
1040
0.25
1001
DIMEXPLODE
1070
     0
  0
LINE
  5
E30
330
1F
100
AcDbEntity
  8
LH2691_10
  6
Continuous
 62
     7
100
AcDbLine
 10
1000.547451898104
 20
1291.041545823815
 30
0.0
 11
1080.547526999954
 21
1291.041545807407
 31
0.0
1001
DEKIMAS
1000
実線（中）
1040
0.25
1001
DIMEXPLODE
1070
     0
  0
LINE
  5
E31
330
1F
100
AcDbEntity
  8
LH2691_10
  6
Continuous
 62
     7
100
AcDbLine
 10
1095.71445791809
 20
1251.041546400346
 30
0.0
 11
1185.03453892496
 21
1251.041546382026
 31
0.0
1001
DEKIMAS
1000
実線（中）
1040
0.25
1001
DIMEXPLODE
1070
     0
  0
LINE
  5
E32
330
1F
100
AcDbEntity
  8
LH2691_10
  6
HIDDEN2
 62
     4
100
AcDbLine
 10
1050.54745119509
 20
1496.04154260981
 30
0.0
 11
670.5474568575502
 21
1496.041542687749
 31
0.0
1001
DEKIMAS
1000
破線（細）
1040
0.15
1001
DIMEXPLODE
1070
     0
  0
LINE
  5
E33
330
1F
100
AcDbEntity
  8
LH2691_10
  6
HIDDEN2
 62
     4
100
AcDbLine
 10
625.9099752464526
 20
1489.422764483895
 30
0.0
 11
645.1849036670171
 21
1447.660465242871
 31
0.0
1001
DEKIMAS
1000
破線（細）
1040
0.15
1001
DIMEXPLODE
1070
     0
  0
LINE
  5
E34
330
1F
100
AcDbEntity
  8
LH2691_10
  6
HIDDEN2
 62
     4
100
AcDbLine
 10
1050.547451190988
 20
1476.04154290784
 30
0.0
 11
670.5474568534482
 21
1476.041542985779
 31
0.0
1001
DEKIMAS
1000
破線（細）
1040
0.15
1001
DIMEXPLODE
1070
     0
  0
LINE
  5
E35
330
1F
100
AcDbEntity
  8
LH2691_10
  6
HIDDEN2
 62
     4
 48
0.5
100
AcDbLine
 10
670.5474568575502
 20
1496.04158083472
 30
0.0
 11
670.5474568534482
 21
1476.041581132749
 31
0.0
1001
DEKIMAS
1000
破線（細）
1040
0.15
1001
DIMEXPLODE
1070
     0
  0
LINE
  5
E36
330
1F
100
AcDbEntity
  8
LH2691_10
  6
HIDDEN2
 62
     4
 48
0.5
100
AcDbLine
 10
685.5474566299281
 20
1476.041581129673
 30
0.0
 11
685.547456625826
 21
1456.041581427693
 31
0.0
1001
DEKIMAS
1000
破線（細）
1040
0.15
1001
DIMEXPLODE
1070
     0
  0
LINE
  5
E37
330
1F
100
AcDbEntity
  8
LH2691_10
  6
HIDDEN2
 62
     4
100
AcDbLine
 10
569.252902690584
 20
1436.041543602595
 30
0.0
 11
1151.841929043504
 21
1436.041543483104
 31
0.0
1001
DEKIMAS
1000
破線（細）
1040
0.15
1001
DIMEXPLODE
1070
     0
  0
LINE
  5
E38
330
1F
100
AcDbEntity
  8
LH2691_10
  6
HIDDEN2
 62
     4
 48
0.5
100
AcDbLine
 10
1035.547451414508
 20
1476.041504763936
 30
0.0
 11
1035.547451410406
 21
1456.041505061967
 31
0.0
1001
DEKIMAS
1000
破線（細）
1040
0.15
1001
DIMEXPLODE
1070
     0
  0
LINE
  5
E39
330
1F
100
AcDbEntity
  8
LH2691_10
  6
HIDDEN2
 62
     4
100
AcDbLine
 10
1095.184733540702
 20
1489.422715002665
 30
0.0
 11
1075.909786518247
 21
1447.660340319198
 31
0.0
1001
DEKIMAS
1000
破線（細）
1040
0.15
1001
DIMEXPLODE
1070
     0
  0
LINE
  5
E3A
330
1F
100
AcDbEntity
  8
LH2691_10
  6
HIDDEN2
 62
     4
 48
0.5
100
AcDbLine
 10
1050.54745119509
 20
1496.04150446284
 30
0.0
 11
1050.547451190988
 21
1476.04150476086
 31
0.0
1001
DEKIMAS
1000
破線（細）
1040
0.15
1001
DIMEXPLODE
1070
     0
  0
LINE
  5
E3B
330
1F
100
AcDbEntity
  8
LH2691_10
  6
HIDDEN2
 62
     4
 48
0.5
100
AcDbLine
 10
990.5474520891603
 20
1496.041580769086
 30
0.0
 11
990.5474520901858
 21
1501.041580694586
 31
0.0
1001
DEKIMAS
1000
破線（細）
1040
0.15
1001
DIMEXPLODE
1070
     0
  0
LINE
  5
E3C
330
1F
100
AcDbEntity
  8
LH2691_10
  6
HIDDEN2
 62
     4
 48
0.5
100
AcDbLine
 10
853.4431835417022
 20
937.09685056241
 30
0.0
 11
855.5477565429264
 21
913.0415525947634
 31
0.0
1001
DEKIMAS
1000
破線（細）
1040
0.15
1001
DIMEXPLODE
1070
     0
  0
LINE
  5
E3D
330
1F
100
AcDbEntity
  8
LH2691_10
  6
Continuous
 62
     7
100
AcDbLine
 10
1131.611172919636
 20
950.9304676507579
 30
0.0
 11
859.3096266722257
 21
936.6596538393979
 31
0.0
1001
DEKIMAS
1000
実線（中）
1040
0.25
1001
DIMEXPLODE
1070
     0
  0
LINE
  5
E3E
330
1F
100
AcDbEntity
  8
LH2691_10
  6
HIDDEN2
 62
     4
100
AcDbLine
 10
611.6033337913409
 20
926.0882424582531
 30
0.0
 11
860.5474242086843
 21
913.0415490383059
 31
0.0
1001
DEKIMAS
1000
破線（細）
1040
0.15
1001
DIMEXPLODE
1070
     0
  0
LINE
  5
E3F
330
1F
100
AcDbEntity
  8
LH2691_10
  6
Continuous
 62
     7
 48
0.5
100
AcDbLine
 10
1127.921514762239
 20
927.0540309999324
 30
0.0
 11
1111.016461439467
 21
926.1680743807948
 31
0.0
1001
DEKIMAS
1000
実線（中）
1040
0.25
1001
DIMEXPLODE
1070
     0
  0
LINE
  5
E40
330
1F
100
AcDbEntity
  8
LH2691_10
  6
Continuous
 62
     7
100
AcDbLine
 10
589.4835816394561
 20
950.930457139537
 30
0.0
 11
861.7851278810139
 21
936.6596432164781
 31
0.0
1001
DEKIMAS
1000
実線（中）
1040
0.25
1001
DIMEXPLODE
1070
     0
  0
LINE
  5
E41
330
1F
100
AcDbEntity
  8
LH2691_10
  6
HIDDEN2
 62
     4
 48
0.5
100
AcDbLine
 10
867.6518782105759
 20
937.0968362359707
 30
0.0
 11
865.5473060306688
 21
913.0415477696404
 31
0.0
1001
DEKIMAS
1000
破線（細）
1040
0.15
1001
DIMEXPLODE
1070
     0
  0
LINE
  5
E42
330
1F
100
AcDbEntity
  8
LH2691_10
  6
HIDDEN2
 62
     4
 48
0.5
100
AcDbLine
 10
614.4188145430305
 20
925.9405855730246
 30
0.0
 11
612.3372747683104
 21
949.7327409735007
 31
0.0
1001
DEKIMAS
1000
破線（細）
1040
0.15
1001
DIMEXPLODE
1070
     0
  0
LINE
  5
E43
330
1F
100
AcDbEntity
  8
LH2691_10
  6
HIDDEN2
 62
     4
 48
0.5
100
AcDbLine
 10
1106.67589341838
 20
925.9406161682951
 30
0.0
 11
1108.7574315405
 21
949.7327525670113
 31
0.0
1001
DEKIMAS
1000
破線（細）
1040
0.15
1001
DIMEXPLODE
1070
     0
  0
LINE
  5
E44
330
1F
100
AcDbEntity
  8
LH2691_10
  6
CENTER2
 62
     1
100
AcDbLine
 10
860.5474540057143
 20
1395.57546071548
 30
0.0
 11
860.547454033057
 21
1528.8873063195
 31
0.0
1001
DEKIMAS
1000
一点鎖線（細）
1040
0.15
1001
DIMEXPLODE
1070
     0
  0
ARC
  5
E45
330
1F
100
AcDbEntity
  8
LH2691_10
  6
Continuous
 62
     7
100
AcDbCircle
 10
2095.547359270966
 20
1211.041737377167
 30
0.0
 40
1559.9999767541
100
AcDbArc
 50
170.5334037887042
 51
177.0665478440399
1001
DEKIMAS
1000
実線（中）
1040
0.25
1001
DIMEXPLODE
1070
     0
  0
ARC
  5
E46
330
1F
100
AcDbEntity
  8
LH2691_10
  6
Continuous
 62
     7
100
AcDbCircle
 10
596.2478363754817
 20
1461.041505077558
 30
0.0
 40
39.999999403953
100
AcDbArc
 50
90.00002981347453
 51
170.5334037887042
1001
DEKIMAS
1000
実線（中）
1040
0.25
1001
DIMEXPLODE
1070
     0
  0
ARC
  5
E47
330
1F
100
AcDbEntity
  8
LH2691_10
  6
Continuous
 62
     7
100
AcDbCircle
 10
595.2665435641717
 20
966.9992637136781
 30
0.0
 40
39.999999403953
100
AcDbArc
 50
189.2390962469305
 51
267.0000417965086
1001
DEKIMAS
1000
実線（中）
1040
0.25
1001
DIMEXPLODE
1070
     0
  0
ARC
  5
E48
330
1F
100
AcDbEntity
  8
LH2691_10
  6
Continuous
 62
     7
 48
0.5
100
AcDbCircle
 10
640.5474572522787
 20
1241.041470348773
 30
0.0
 40
9.9999998509884
100
AcDbArc
 50
180.0000359604337
 51
270.0000657856461
1001
DEKIMAS
1000
実線（中）
1040
0.25
1001
DIMEXPLODE
1070
     0
  0
ARC
  5
E49
330
1F
100
AcDbEntity
  8
LH2691_10
  6
Continuous
 62
     7
 48
0.5
100
AcDbCircle
 10
720.5474560601888
 20
1241.041470332364
 30
0.0
 40
9.9999998509884
100
AcDbArc
 50
270.0000657856461
 51
0.0001024410866984
1001
DEKIMAS
1000
実線（中）
1040
0.25
1001
DIMEXPLODE
1070
     0
  0
ARC
  5
E4A
330
1F
100
AcDbEntity
  8
LH2691_10
  6
Continuous
 62
     7
 48
0.5
100
AcDbCircle
 10
720.5474560683929
 20
1281.041507883284
 30
0.0
 40
9.9999998509884
100
AcDbArc
 50
0.0000477995733382
 51
90.00002981347453
1001
DEKIMAS
1000
実線（中）
1040
0.25
1001
DIMEXPLODE
1070
     0
  0
ARC
  5
E4B
330
1F
100
AcDbEntity
  8
LH2691_10
  6
Continuous
 62
     7
 48
0.5
100
AcDbCircle
 10
640.547457260483
 20
1281.041507899692
 30
0.0
 40
9.9999998509884
100
AcDbArc
 50
90.00002981347453
 51
180.0000186575779
1001
DEKIMAS
1000
実線（中）
1040
0.25
1001
DIMEXPLODE
1070
     0
  0
ARC
  5
E4C
330
1F
100
AcDbEntity
  8
LH2691_10
  6
Continuous
 62
     7
100
AcDbCircle
 10
530.4620096801214
 20
1271.234417309131
 30
0.0
 40
20.895826505186
100
AcDbArc
 50
285.544625578343
 51
70.05039087813719
1001
DEKIMAS
1000
実線（中）
1040
0.25
1001
DIMEXPLODE
1070
     0
  0
ARC
  5
E4D
330
1F
100
AcDbEntity
  8
LH2691_10
  6
Continuous
 62
     7
100
AcDbCircle
 10
2095.547359270966
 20
1211.041737377167
 30
0.0
 40
1559.9999767541
100
AcDbArc
 50
178.5284686124341
 51
189.2390789440827
1001
DEKIMAS
1000
実線（中）
1040
0.25
1001
DIMEXPLODE
1070
     0
  0
ARC
  5
E4E
330
1F
100
AcDbEntity
  8
LH2691_10
  6
Continuous
 62
     7
100
AcDbCircle
 10
-374.4525276291343
 20
1211.041337340573
 30
0.0
 40
1559.9999767541
100
AcDbArc
 50
350.7610421545982
 51
1.471549794545311
1001
DEKIMAS
1000
実線（中）
1040
0.25
1001
DIMEXPLODE
1070
     0
  0
ARC
  5
E4F
330
1F
100
AcDbEntity
  8
LH2691_10
  6
Continuous
 62
     7
 48
0.5
100
AcDbCircle
 10
1000.547375593908
 20
1241.041584715845
 30
0.0
 40
9.9999998509884
100
AcDbArc
 50
180.0000359604337
 51
270.0000657856461
1001
DEKIMAS
1000
実線（中）
1040
0.25
1001
DIMEXPLODE
1070
     0
  0
ARC
  5
E50
330
1F
100
AcDbEntity
  8
LH2691_10
  6
Continuous
 62
     7
100
AcDbCircle
 10
1190.632898280301
 20
1271.234493467678
 30
0.0
 40
20.895826505186
100
AcDbArc
 50
109.949897560053
 51
254.455120583166
1001
DEKIMAS
1000
実線（中）
1040
0.25
1001
DIMEXPLODE
1070
     0
  0
ARC
  5
E51
330
1F
100
AcDbEntity
  8
LH2691_10
  6
Continuous
 62
     7
 48
0.5
100
AcDbCircle
 10
1080.547450703963
 20
1281.041584103397
 30
0.0
 40
9.9999998509884
100
AcDbArc
 50
0.0001024410866984
 51
90.00008445498787
1001
DEKIMAS
1000
実線（中）
1040
0.25
1001
DIMEXPLODE
1070
     0
  0
ARC
  5
E52
330
1F
100
AcDbEntity
  8
LH2691_10
  6
Continuous
 62
     7
 48
0.5
100
AcDbCircle
 10
1000.547375602113
 20
1281.041584119805
 30
0.0
 40
9.9999998509884
100
AcDbArc
 50
90.00008445498787
 51
180.0000732991043
1001
DEKIMAS
1000
実線（中）
1040
0.25
1001
DIMEXPLODE
1070
     0
  0
ARC
  5
E53
330
1F
100
AcDbEntity
  8
LH2691_10
  6
Continuous
 62
     7
100
AcDbCircle
 10
-374.4525276291343
 20
1211.041337340573
 30
0.0
 40
1559.9999767541
100
AcDbArc
 50
2.933468348669561
 51
9.466689989199299
1001
DEKIMAS
1000
実線（中）
1040
0.25
1001
DIMEXPLODE
1070
     0
  0
ARC
  5
E54
330
1F
100
AcDbEntity
  8
LH2691_10
  6
Continuous
 62
     7
100
AcDbCircle
 10
1124.847071662801
 20
1461.041543116111
 30
0.0
 40
39.999999403953
100
AcDbArc
 50
9.466689989199299
 51
90.00007079463562
1001
DEKIMAS
1000
実線（中）
1040
0.25
1001
DIMEXPLODE
1070
     0
  0
ARC
  5
E55
330
1F
100
AcDbEntity
  8
LH2691_10
  6
Continuous
 62
     7
100
AcDbCircle
 10
1125.828364271452
 20
966.9993446671726
 30
0.0
 40
39.999999403953
100
AcDbArc
 50
273.0000897748251
 51
350.7610421545982
1001
DEKIMAS
1000
実線（中）
1040
0.25
1001
DIMEXPLODE
1070
     0
  0
ARC
  5
E56
330
1F
100
AcDbEntity
  8
LH2691_10
  6
Continuous
 62
     7
 48
0.5
100
AcDbCircle
 10
1080.547450695759
 20
1241.041584699437
 30
0.0
 40
9.9999998509884
100
AcDbArc
 50
270.0000657856461
 51
0.0001024410866984
1001
DEKIMAS
1000
実線（中）
1040
0.25
1001
DIMEXPLODE
1070
     0
  0
ARC
  5
E57
330
1F
100
AcDbEntity
  8
LH2691_10
  6
HIDDEN2
 62
     4
100
AcDbCircle
 10
665.547456923846
 20
1456.041505137855
 30
0.0
 40
19.999999701976
100
AcDbArc
 50
270.0000111441327
 51
0.0000477995733382
1001
DEKIMAS
1000
破線（細）
1040
0.15
1001
DIMEXPLODE
1070
     0
  0
ARC
  5
E58
330
1F
100
AcDbEntity
  8
LH2691_10
  6
HIDDEN2
 62
     4
 48
0.5
100
AcDbCircle
 10
607.7508269308337
 20
1481.041542924149
 30
0.0
 40
19.999999701976
100
AcDbArc
 50
24.77512467407452
 51
90.00002981347453
1001
DEKIMAS
1000
破線（細）
1040
0.15
1001
DIMEXPLODE
1070
     0
  0
ARC
  5
E59
330
1F
100
AcDbEntity
  8
LH2691_10
  6
HIDDEN2
 62
     4
 48
0.5
100
AcDbCircle
 10
663.3440878160561
 20
1456.041505138307
 30
0.0
 40
19.999999701976
100
AcDbArc
 50
204.7751538160589
 51
270.0000111441327
1001
DEKIMAS
1000
破線（細）
1040
0.15
1001
DIMEXPLODE
1070
     0
  0
ARC
  5
E5A
330
1F
100
AcDbEntity
  8
LH2691_10
  6
HIDDEN2
 62
     4
100
AcDbCircle
 10
1055.547374818436
 20
1456.041543204834
 30
0.0
 40
19.999999701976
100
AcDbArc
 50
180.0000359604337
 51
270.0000657856461
1001
DEKIMAS
1000
破線（細）
1040
0.15
1001
DIMEXPLODE
1070
     0
  0
ARC
  5
E5B
330
1F
100
AcDbEntity
  8
LH2691_10
  6
HIDDEN2
 62
     4
 48
0.5
100
AcDbCircle
 10
1057.750743926236
 20
1456.041543204383
 30
0.0
 40
19.999999701976
100
AcDbArc
 50
270.0000657856461
 51
335.224943604317
1001
DEKIMAS
1000
破線（細）
1040
0.15
1001
DIMEXPLODE
1070
     0
  0
ARC
  5
E5C
330
1F
100
AcDbEntity
  8
LH2691_10
  6
HIDDEN2
 62
     4
 48
0.5
100
AcDbCircle
 10
1113.344081115654
 20
1481.04154282045
 30
0.0
 40
19.999999701976
100
AcDbArc
 50
90.00002981347453
 51
155.224928122715
1001
DEKIMAS
1000
破線（細）
1040
0.15
1001
DIMEXPLODE
1070
     0
  0
ARC
  5
E5D
330
1F
100
AcDbEntity
  8
LH2691_10
  6
HIDDEN2
 62
     4
 48
0.5
100
AcDbCircle
 10
569.2530552743719
 20
1416.041505753645
 30
0.0
 40
19.999999701976
100
AcDbArc
 50
90.00002981347453
 51
172.3502887494307
1001
DEKIMAS
1000
破線（細）
1040
0.15
1001
DIMEXPLODE
1070
     0
  0
ARC
  5
E5E
330
1F
100
AcDbEntity
  8
LH2691_10
  6
HIDDEN2
 62
     4
 48
0.5
100
AcDbCircle
 10
1151.841852745452
 20
1416.041543781134
 30
0.0
 40
19.999999701976
100
AcDbArc
 50
7.649832349223079
 51
90.00008445498787
1001
DEKIMAS
1000
破線（細）
1040
0.15
1001
DIMEXPLODE
1070
     0
  0
ARC
  5
E5F
330
1F
100
AcDbEntity
  8
LH2691_10
  6
Continuous
 62
     7
100
AcDbCircle
 10
1129.517786828799
 20
990.8756584738402
 30
0.0
 40
39.999999403953
100
AcDbArc
 50
272.9999873219869
 51
351.6716412671885
1001
DEKIMAS
1000
実線（中）
1040
0.25
1001
DIMEXPLODE
1070
     0
  0
ARC
  5
E60
330
1F
100
AcDbEntity
  8
LH2691_10
  6
Continuous
 62
     7
100
AcDbCircle
 10
591.5772736045089
 20
990.8756585841738
 30
0.0
 40
39.999999403953
100
AcDbArc
 50
188.328399804115
 51
267.0000554569
1001
DEKIMAS
1000
実線（中）
1040
0.25
1001
DIMEXPLODE
1070
     0
  0
ARC
  5
E61
330
1F
100
AcDbEntity
  8
LH2691_10
  6
Continuous
 62
     7
 48
0.5
100
AcDbCircle
 10
609.8168668242831
 20
921.1749321562857
 30
0.0
 40
4.9999999254942
100
AcDbArc
 50
5.000002404108343
 51
86.99990337149651
1001
DEKIMAS
1000
実線（中）
1040
0.25
1001
DIMEXPLODE
1070
     0
  0
ARC
  5
E62
330
1F
100
AcDbEntity
  8
LH2691_10
  6
Continuous
 62
     7
 48
0.5
100
AcDbCircle
 10
1111.278269874373
 20
921.174941590177
 30
0.0
 40
4.9999999254942
100
AcDbArc
 50
93.00011527433872
 51
175.0000196568122
1001
DEKIMAS
1000
実線（中）
1040
0.25
1001
DIMEXPLODE
1070
     0
  0
DIMENSION
  5
F44
330
1F
100
AcDbEntity
  8
TP1791_10
  6
Continuous
 62
     7
100
AcDbDimension
  2
*D15
 10
2410.547449259172
 20
1857.464623000528
 30
0.0
 11
2110.547453729518
 21
1857.464623123582
 31
0.0
 70
   160
  1
<>
 71
     5
 42
599.9999910592999
  3
ASKSTANDARD
100
AcDbAlignedDimension
 13
1810.547458270851
 23
2030.508443910285
 33
0.0
 14
2410.547449330151
 24
2030.50844366416
 34
0.0
 50
179.9999999764983
100
AcDbRotatedDimension
1001
ACAD
1000
DSTYLE
1002
{
1070
    44
1040
2.286003112793098
1070
    40
1040
9.999999850988389
1070
   284
1070
     8
1070
   140
1040
3.0
1070
   271
1070
     0
1070
   173
1070
     1
1070
   343
1005
71F
1070
   344
1005
71F
1002
}
  0
DIMENSION
  5
F87
330
1F
100
AcDbEntity
  8
TP1791_10
  6
Continuous
 62
     7
100
AcDbDimension
  2
*D16
 10
1575.802359894679
 20
2278.508470785036
 30
0.0
 11
1575.802359894679
 21
2163.508472542298
 31
0.0
 70
   160
  1
<>
 71
     5
 42
229.9999966218147
  3
ASKSTANDARD
100
AcDbAlignedDimension
 13
1801.805011509095
 23
2048.508474163221
 33
0.0
 14
1682.145894734162
 24
2278.508470785036
 34
0.0
 50
269.9999999764983
100
AcDbRotatedDimension
1001
ACAD
1000
DSTYLE
1002
{
1070
    44
1040
2.285999298096043
1070
    40
1040
9.999999850988389
1070
   284
1070
     8
1070
   140
1040
3.0
1070
   271
1070
     0
1070
   173
1070
     1
1070
   343
1005
71F
1070
   344
1005
71F
1002
}
  0
DIMENSION
  5
FCA
330
1F
100
AcDbEntity
  8
TP1791_10
  6
Continuous
 62
     7
100
AcDbDimension
  2
*D17
 10
3519.042916439687
 20
2588.738415359915
 30
0.0
 11
3221.542920872791
 21
2588.738415481945
 31
0.0
 70
   160
  1
<>
 71
     5
 42
594.99999113379
  3
ASKSTANDARD
100
AcDbAlignedDimension
 13
2924.042925251619
 23
2456.410841892221
 33
0.0
 14
3519.042916385409
 24
2456.410841648148
 34
0.0
 50
179.9999999764983
100
AcDbRotatedDimension
1001
ACAD
1000
DSTYLE
1002
{
1070
    44
1040
2.285995483397988
1070
    40
1040
9.999999850988389
1070
   284
1070
     8
1070
   140
1040
3.0
1070
   271
1070
     0
1070
   173
1070
     1
1070
   343
1005
71F
1070
   344
1005
71F
1002
}
  0
POINT
  5
100D
330
1F
100
AcDbEntity
  8
TP1791_10
  6
Continuous
 62
     4
100
AcDbPoint
 10
2110.547453902233
 20
2278.508470609303
 30
0.0
 50
179.9999999764969
  0
POINT
  5
100E
330
1F
100
AcDbEntity
  8
TP1791_10
  6
Continuous
 62
     4
100
AcDbPoint
 10
950.5474711876324
 20
2278.508471085142
 30
0.0
 50
179.9999999764969
  0
POINT
  5
100F
330
1F
100
AcDbEntity
  8
TP1791_10
  6
Continuous
 62
     4
100
AcDbPoint
 10
2476.317711990386
 20
1953.508475302141
 30
0.0
 50
179.9999999764969
  0
POINT
  5
1010
330
1F
100
AcDbEntity
  8
TP1791_10
  6
Continuous
 62
     4
100
AcDbPoint
 10
2454.1466918241
 20
1980.700628836705
 30
0.0
 50
179.9999999764969
  0
POINT
  5
1011
330
1F
100
AcDbEntity
  8
TP1791_10
  6
Continuous
 62
     4
100
AcDbPoint
 10
2511.047440304923
 20
2278.508470445014
 30
0.0
 50
179.9999999764969
  0
POINT
  5
1012
330
1F
100
AcDbEntity
  8
TP1791_10
  6
Continuous
 62
     4
100
AcDbPoint
 10
2494.956742319937
 20
2321.008469818315
 30
0.0
 50
179.9999999764969
  0
POINT
  5
1013
330
1F
100
AcDbEntity
  8
TP1791_10
  6
Continuous
 62
     4
100
AcDbPoint
 10
2511.047440304923
 20
2278.508470445014
 30
0.0
 50
179.9999999764969
  0
POINT
  5
1014
330
1F
100
AcDbEntity
  8
TP1791_10
  6
Continuous
 62
     4
100
AcDbPoint
 10
2511.047440315178
 20
2303.508470072486
 30
0.0
 50
179.9999999764969
  0
POINT
  5
1015
330
1F
100
AcDbEntity
  8
TP1791_10
  6
Continuous
 62
     4
100
AcDbPoint
 10
2120.54745380639
 20
2408.12333683785
 30
0.0
 50
179.9999999764969
  0
POINT
  5
1016
330
1F
100
AcDbEntity
  8
TP1791_10
  6
Continuous
 62
     4
100
AcDbPoint
 10
2240.162262918524
 20
2288.508470407122
 30
0.0
 50
179.9999999764969
  0
POINT
  5
1017
330
1F
100
AcDbEntity
  8
TP1791_10
  6
Continuous
 62
     4
100
AcDbPoint
 10
2040.547454823152
 20
1980.700629006367
 30
0.0
 50
179.9999999764969
  0
POINT
  5
1018
330
1F
100
AcDbEntity
  8
TP1791_10
  6
Continuous
 62
     4
100
AcDbPoint
 10
2040.547454851145
 20
2048.943654722867
 30
0.0
 50
179.9999999764969
  0
POINT
  5
1019
330
1F
100
AcDbEntity
  8
TP1791_10
  6
Continuous
 62
     4
100
AcDbPoint
 10
2070.547449645341
 20
2072.35323077775
 30
0.0
 50
179.9999999764969
  0
POINT
  5
101A
330
1F
100
AcDbEntity
  8
TP1791_10
  6
Continuous
 62
     4
100
AcDbPoint
 10
2070.547449603282
 20
1969.819739263621
 30
0.0
 50
179.9999999764969
  0
POINT
  5
101B
330
1F
100
AcDbEntity
  8
TP1791_10
  6
Continuous
 62
     4
100
AcDbPoint
 10
2330.547450496808
 20
1968.508475138417
 30
0.0
 50
179.9999999764969
  0
POINT
  5
101C
330
1F
100
AcDbEntity
  8
TP1791_10
  6
Continuous
 62
     4
100
AcDbPoint
 10
2310.547450788675
 20
1953.508475370141
 30
0.0
 50
179.9999999764969
  0
POINT
  5
101D
330
1F
100
AcDbEntity
  8
TP1791_10
  6
Continuous
 62
     4
100
AcDbPoint
 10
2350.547450192635
 20
1953.508475353733
 30
0.0
 50
179.9999999764969
  0
POINT
  5
101E
330
1F
100
AcDbEntity
  8
TP1791_10
  6
Continuous
 62
     4
100
AcDbPoint
 10
2300.547451148942
 20
2468.508467700133
 30
0.0
 50
179.9999999764969
  0
POINT
  5
101F
330
1F
100
AcDbEntity
  8
TP1791_10
  6
Continuous
 62
     4
100
AcDbPoint
 10
2322.371753465426
 20
2391.337753509091
 30
0.0
 50
179.9999999764969
  0
POINT
  5
1020
330
1F
100
AcDbEntity
  8
TP1791_10
  6
Continuous
 62
     4
100
AcDbPoint
 10
2292.747425290126
 20
2382.926651351652
 30
0.0
 50
179.9999999764969
  0
POINT
  5
1021
330
1F
100
AcDbEntity
  8
TP1791_10
  6
Continuous
 62
     4
100
AcDbPoint
 10
2428.047449250283
 20
2471.508498120712
 30
0.0
 50
179.9999999764969
  0
POINT
  5
1022
330
1F
100
AcDbEntity
  8
TP1791_10
  6
Continuous
 62
     4
100
AcDbPoint
 10
2501.146965974248
 20
2449.508376348236
 30
0.0
 50
179.9999999764969
  0
POINT
  5
1023
330
1F
100
AcDbEntity
  8
TP1791_10
  6
Continuous
 62
     4
100
AcDbPoint
 10
2428.047449250283
 20
2471.508650708602
 30
0.0
 50
179.9999999764969
  0
POINT
  5
1024
330
1F
100
AcDbEntity
  8
TP1791_10
  6
Continuous
 62
     4
100
AcDbPoint
 10
2438.047449100028
 20
2468.49900719466
 30
0.0
 50
179.9999999764969
  0
POINT
  5
1025
330
1F
100
AcDbEntity
  8
TP1791_10
  6
Continuous
 62
     4
100
AcDbPoint
 10
2501.146965974248
 20
2449.508528936126
 30
0.0
 50
179.9999999764969
  0
POINT
  5
1026
330
1F
100
AcDbEntity
  8
TP1791_10
  6
Continuous
 62
     4
100
AcDbPoint
 10
2428.04744930443
 20
2603.508465636182
 30
0.0
 50
179.9999999764969
  0
POINT
  5
1027
330
1F
100
AcDbEntity
  8
TP1791_10
  6
Continuous
 62
     4
100
AcDbPoint
 10
2438.04744915541
 20
2603.50846563208
 30
0.0
 50
179.9999999764969
  0
POINT
  5
1028
330
1F
100
AcDbEntity
  8
TP1791_10
  6
Continuous
 62
     4
100
AcDbPoint
 10
1988.245600552685
 20
2072.008458477782
 30
0.0
 50
179.9999999764969
  0
POINT
  5
1029
330
1F
100
AcDbEntity
  8
TP1791_10
  6
Continuous
 62
     4
100
AcDbPoint
 10
2040.547454841327
 20
2025.008489674257
 30
0.0
 50
179.9999999764969
  0
LINE
  5
102A
330
1F
100
AcDbEntity
  8
TP1791_10
  6
CENTER2
 62
     1
100
AcDbLine
 10
2110.547454043377
 20
2622.588818265303
 30
0.0
 11
2110.547453760048
 21
1931.891349309462
 31
0.0
1001
DEKIMAS
1000
一点鎖線（細）
1040
0.15
1001
DIMEXPLODE
1070
     0
  0
LINE
  5
102B
330
1F
100
AcDbEntity
  8
TP1791_10
  6
CENTER2
 62
     1
100
AcDbLine
 10
1682.145894734162
 20
2278.508470785036
 30
0.0
 11
2576.985397086043
 21
2278.508470417966
 31
0.0
1001
DEKIMAS
1000
一点鎖線（細）
1040
0.15
1001
DIMEXPLODE
1070
     0
  0
LINE
  5
102C
330
1F
100
AcDbEntity
  8
TP1791_10
  6
Continuous
 62
     7
100
AcDbLine
 10
1910.547456749155
 20
1953.508475534224
 30
0.0
 11
2310.547450788675
 21
1953.508475370141
 31
0.0
1001
DEKIMAS
1000
実線（中）
1040
0.25
1001
DIMEXPLODE
1070
     0
  0
LINE
  5
102D
330
1F
100
AcDbEntity
  8
TP1791_10
  6
Continuous
 62
     7
100
AcDbLine
 10
1910.547456760309
 20
1980.700629059693
 30
0.0
 11
2020.547455121175
 21
1980.700629014571
 31
0.0
1001
DEKIMAS
1000
実線（中）
1040
0.25
1001
DIMEXPLODE
1070
     0
  0
LINE
  5
102E
330
1F
100
AcDbEntity
  8
TP1791_10
  6
Continuous
 62
     7
100
AcDbLine
 10
1910.547457004635
 20
2576.316236029044
 30
0.0
 11
2020.5474553655
 21
2576.316235983922
 31
0.0
1001
DEKIMAS
1000
実線（中）
1040
0.25
1001
DIMEXPLODE
1070
     0
  0
LINE
  5
102F
330
1F
100
AcDbEntity
  8
TP1791_10
  6
Continuous
 62
     7
100
AcDbLine
 10
1910.54745701579
 20
2603.508465848464
 30
0.0
 11
2310.54745105531
 21
2603.508465684381
 31
0.0
1001
DEKIMAS
1000
実線（中）
1040
0.25
1001
DIMEXPLODE
1070
     0
  0
LINE
  5
1030
330
1F
100
AcDbEntity
  8
TP1791_10
  6
Continuous
 62
     7
 48
0.5
100
AcDbLine
 10
2511.047440294668
 20
2253.508470817544
 30
0.0
 11
2527.047424797457
 21
2253.50847081098
 31
0.0
1001
DEKIMAS
1000
実線（中）
1040
0.25
1001
DIMEXPLODE
1070
     0
  0
LINE
  5
1031
330
1F
100
AcDbEntity
  8
TP1791_10
  6
Continuous
 62
     7
 48
0.5
100
AcDbLine
 10
2511.047440315178
 20
2303.508470072486
 30
0.0
 11
2527.047424817968
 21
2303.508470065922
 31
0.0
1001
DEKIMAS
1000
実線（中）
1040
0.25
1001
DIMEXPLODE
1070
     0
  0
LINE
  5
1032
330
1F
100
AcDbEntity
  8
TP1791_10
  6
Continuous
 62
     7
100
AcDbLine
 10
2511.047440315178
 20
2303.508317484596
 30
0.0
 11
2511.047440294668
 21
2253.508318229656
 31
0.0
1001
DEKIMAS
1000
実線（中）
1040
0.25
1001
DIMEXPLODE
1070
     0
  0
LINE
  5
1033
330
1F
100
AcDbEntity
  8
TP1791_10
  6
Continuous
 62
     7
100
AcDbLine
 10
2516.047440240668
 20
2303.508317482545
 30
0.0
 11
2516.047440220158
 21
2253.508318227604
 31
0.0
1001
DEKIMAS
1000
実線（中）
1040
0.25
1001
DIMEXPLODE
1070
     0
  0
LINE
  5
1034
330
1F
100
AcDbEntity
  8
TP1791_10
  6
Continuous
 62
     4
 48
0.5
100
AcDbLine
 10
2516.047440221798
 20
2257.508562308622
 30
0.0
 11
2527.047424799099
 21
2257.50856230411
 31
0.0
1001
DEKIMAS
1000
実線（細）
1040
0.15
1001
DIMEXPLODE
1070
     0
  0
LINE
  5
1035
330
1F
100
AcDbEntity
  8
TP1791_10
  6
Continuous
 62
     4
 48
0.5
100
AcDbLine
 10
2516.047440239027
 20
2299.508378577305
 30
0.0
 11
2527.047424816327
 21
2299.508378572793
 31
0.0
1001
DEKIMAS
1000
実線（細）
1040
0.15
1001
DIMEXPLODE
1070
     0
  0
LINE
  5
1036
330
1F
100
AcDbEntity
  8
TP1791_10
  6
HIDDEN2
 62
     4
 48
0.5
100
AcDbLine
 10
2511.047470047208
 20
2303.508434091847
 30
0.0
 11
2494.956816231677
 21
2321.008385819451
 31
0.0
1001
DEKIMAS
1000
破線（細）
1040
0.15
1001
DIMEXPLODE
1070
     0
  0
LINE
  5
1037
330
1F
100
AcDbEntity
  8
TP1791_10
  6
HIDDEN2
 62
     4
 48
0.5
100
AcDbLine
 10
2511.047570684697
 20
2253.508407142561
 30
0.0
 11
2494.956813576519
 21
2236.008343104254
 31
0.0
1001
DEKIMAS
1000
破線（細）
1040
0.15
1001
DIMEXPLODE
1070
     0
  0
LINE
  5
1038
330
1F
100
AcDbEntity
  8
TP1791_10
  6
Continuous
 62
     7
100
AcDbLine
 10
2566.047439497659
 20
2308.508317387529
 30
0.0
 11
2566.047439473047
 21
2248.5083182816
 31
0.0
1001
DEKIMAS
1000
実線（中）
1040
0.25
1001
DIMEXPLODE
1070
     0
  0
LINE
  5
1039
330
1F
100
AcDbEntity
  8
TP1791_10
  6
Continuous
 62
     7
100
AcDbLine
 10
2527.047424820019
 20
2308.508317403527
 30
0.0
 11
2527.047424795406
 21
2248.508318297598
 31
0.0
1001
DEKIMAS
1000
実線（中）
1040
0.25
1001
DIMEXPLODE
1070
     0
  0
LINE
  5
103A
330
1F
100
AcDbEntity
  8
TP1791_10
  6
Continuous
 62
     7
100
AcDbLine
 10
2527.047424820019
 20
2308.508469991417
 30
0.0
 11
2566.047439497659
 21
2308.508469975418
 31
0.0
1001
DEKIMAS
1000
実線（中）
1040
0.25
1001
DIMEXPLODE
1070
     0
  0
LINE
  5
103B
330
1F
100
AcDbEntity
  8
TP1791_10
  6
Continuous
 62
     7
100
AcDbLine
 10
2527.047424795406
 20
2248.508470885487
 30
0.0
 11
2566.047439473047
 21
2248.508470869488
 31
0.0
1001
DEKIMAS
1000
実線（中）
1040
0.25
1001
DIMEXPLODE
1070
     0
  0
LINE
  5
103C
330
1F
100
AcDbEntity
  8
TP1791_10
  6
Continuous
 62
     7
100
AcDbLine
 10
2120.547530043063
 20
2268.508470754212
 30
0.0
 11
2120.547529998628
 21
2160.18693916521
 31
0.0
1001
DEKIMAS
1000
実線（中）
1040
0.25
1001
DIMEXPLODE
1070
     0
  0
LINE
  5
103D
330
1F
100
AcDbEntity
  8
TP1791_10
  6
Continuous
 62
     7
100
AcDbLine
 10
2228.868985338121
 20
2268.508470709778
 30
0.0
 11
2120.547453749119
 21
2268.508470754212
 31
0.0
1001
DEKIMAS
1000
実線（中）
1040
0.25
1001
DIMEXPLODE
1070
     0
  0
LINE
  5
103E
330
1F
100
AcDbEntity
  8
TP1791_10
  6
Continuous
 62
     7
100
AcDbLine
 10
2120.547453757323
 20
2288.508470456189
 30
0.0
 11
2228.869052103525
 21
2288.508470411755
 31
0.0
1001
DEKIMAS
1000
実線（中）
1040
0.25
1001
DIMEXPLODE
1070
     0
  0
LINE
  5
103F
330
1F
100
AcDbEntity
  8
TP1791_10
  6
Continuous
 62
     7
100
AcDbLine
 10
2120.547453801757
 20
2396.829849457301
 30
0.0
 11
2120.547453757323
 21
2288.5083178683
 31
0.0
1001
DEKIMAS
1000
実線（中）
1040
0.25
1001
DIMEXPLODE
1070
     0
  0
LINE
  5
1040
330
1F
100
AcDbEntity
  8
TP1791_10
  6
Continuous
 62
     7
100
AcDbLine
 10
2100.547454055346
 20
2288.508317876504
 30
0.0
 11
2100.54745409978
 21
2396.829849465504
 31
0.0
1001
DEKIMAS
1000
実線（中）
1040
0.25
1001
DIMEXPLODE
1070
     0
  0
LINE
  5
1041
330
1F
100
AcDbEntity
  8
TP1791_10
  6
Continuous
 62
     7
100
AcDbLine
 10
1992.225998760284
 20
2288.508317920939
 30
0.0
 11
2100.54753034929
 21
2288.508317876504
 31
0.0
1001
DEKIMAS
1000
実線（中）
1040
0.25
1001
DIMEXPLODE
1070
     0
  0
LINE
  5
1042
330
1F
100
AcDbEntity
  8
TP1791_10
  6
Continuous
 62
     7
100
AcDbLine
 10
2100.547530341086
 20
2268.508318174529
 30
0.0
 11
1992.22599875208
 21
2268.508318218963
 31
0.0
1001
DEKIMAS
1000
実線（中）
1040
0.25
1001
DIMEXPLODE
1070
     0
  0
LINE
  5
1043
330
1F
100
AcDbEntity
  8
TP1791_10
  6
Continuous
 62
     7
100
AcDbLine
 10
2100.547530296652
 20
2160.186939173414
 30
0.0
 11
2100.547530341086
 21
2268.508470762416
 31
0.0
1001
DEKIMAS
1000
実線（中）
1040
0.25
1001
DIMEXPLODE
1070
     0
  0
LINE
  5
1044
330
1F
100
AcDbEntity
  8
TP1791_10
  6
Continuous
 62
     7
 48
0.5
100
AcDbLine
 10
2040.547454837225
 20
2015.008489823268
 30
0.0
 11
2040.547454831356
 21
2000.700552414397
 31
0.0
1001
DEKIMAS
1000
実線（中）
1040
0.25
1001
DIMEXPLODE
1070
     0
  0
LINE
  5
1045
330
1F
100
AcDbEntity
  8
TP1791_10
  6
Continuous
 62
     7
100
AcDbLine
 10
2070.547449638827
 20
2056.472341121811
 30
0.0
 11
2070.547449611485
 21
1989.819662671651
 31
0.0
1001
DEKIMAS
1000
実線（中）
1040
0.25
1001
DIMEXPLODE
1070
     0
  0
LINE
  5
1046
330
1F
100
AcDbEntity
  8
TP1791_10
  6
Continuous
 62
     7
 48
0.5
100
AcDbLine
 10
2180.547452751061
 20
2015.008489765838
 30
0.0
 11
2180.547452745192
 21
2000.700552356968
 31
0.0
1001
DEKIMAS
1000
実線（中）
1040
0.25
1001
DIMEXPLODE
1070
     0
  0
LINE
  5
1047
330
1F
100
AcDbEntity
  8
TP1791_10
  6
Continuous
 62
     7
100
AcDbLine
 10
2150.547457983477
 20
2056.472341088994
 30
0.0
 11
2150.547457956136
 21
1989.819662638834
 31
0.0
1001
DEKIMAS
1000
実線（中）
1040
0.25
1001
DIMEXPLODE
1070
     0
  0
LINE
  5
1048
330
1F
100
AcDbEntity
  8
TP1791_10
  6
Continuous
 62
     7
100
AcDbLine
 10
2420.92510418437
 20
1980.700628850333
 30
0.0
 11
2349.97980418563
 21
1980.700628879435
 31
0.0
1001
DEKIMAS
1000
実線（中）
1040
0.25
1001
DIMEXPLODE
1070
     0
  0
LINE
  5
1049
330
1F
100
AcDbEntity
  8
TP1791_10
  6
Continuous
 62
     7
100
AcDbLine
 10
2040.547455045375
 20
2522.434706016897
 30
0.0
 11
2040.547455059273
 21
2556.316236273747
 31
0.0
1001
DEKIMAS
1000
実線（中）
1040
0.25
1001
DIMEXPLODE
1070
     0
  0
LINE
  5
104A
330
1F
100
AcDbEntity
  8
TP1791_10
  6
Continuous
 62
     7
100
AcDbLine
 10
2070.547449820988
 20
2500.544447541721
 30
0.0
 11
2070.54744984833
 21
2567.197278579771
 31
0.0
1001
DEKIMAS
1000
実線（中）
1040
0.25
1001
DIMEXPLODE
1070
     0
  0
LINE
  5
104B
330
1F
100
AcDbEntity
  8
TP1791_10
  6
Continuous
 62
     7
100
AcDbLine
 10
2150.547458165638
 20
2500.544447508904
 30
0.0
 11
2150.54745819298
 21
2567.197278546955
 31
0.0
1001
DEKIMAS
1000
実線（中）
1040
0.25
1001
DIMEXPLODE
1070
     0
  0
LINE
  5
104C
330
1F
100
AcDbEntity
  8
TP1791_10
  6
Continuous
 62
     7
100
AcDbLine
 10
2180.547452959211
 20
2522.434705959468
 30
0.0
 11
2180.547452973109
 21
2556.316236216318
 31
0.0
1001
DEKIMAS
1000
実線（中）
1040
0.25
1001
DIMEXPLODE
1070
     0
  0
LINE
  5
104D
330
1F
100
AcDbEntity
  8
TP1791_10
  6
Continuous
 62
     7
100
AcDbLine
 10
2310.547451044155
 20
2576.316235864962
 30
0.0
 11
2200.547452683291
 21
2576.316235910084
 31
0.0
1001
DEKIMAS
1000
実線（中）
1040
0.25
1001
DIMEXPLODE
1070
     0
  0
LINE
  5
104E
330
1F
100
AcDbEntity
  8
TP1791_10
  6
Continuous
 62
     7
 48
0.5
100
AcDbLine
 10
2310.547450797889
 20
1975.969412535451
 30
0.0
 11
2310.547450788675
 21
1953.508399076201
 31
0.0
1001
DEKIMAS
1000
実線（中）
1040
0.25
1001
DIMEXPLODE
1070
     0
  0
LINE
  5
104F
330
1F
100
AcDbEntity
  8
TP1791_10
  6
Continuous
 62
     7
 48
0.5
100
AcDbLine
 10
2350.547450201849
 20
1975.969412519043
 30
0.0
 11
2350.547450192635
 21
1953.508399059793
 31
0.0
1001
DEKIMAS
1000
実線（中）
1040
0.25
1001
DIMEXPLODE
1070
     0
  0
LINE
  5
1050
330
1F
100
AcDbEntity
  8
TP1791_10
  6
Continuous
 62
     7
100
AcDbLine
 10
2350.547450192635
 20
1953.508475353733
 30
0.0
 11
2443.589593581585
 21
1953.508475315566
 31
0.0
1001
DEKIMAS
1000
実線（中）
1040
0.25
1001
DIMEXPLODE
1070
     0
  0
LINE
  5
1051
330
1F
100
AcDbEntity
  8
TP1791_10
  6
Continuous
 62
     7
100
AcDbLine
 10
2311.11509681799
 20
1980.700628895378
 30
0.0
 11
2200.547452438965
 21
1980.700628940734
 31
0.0
1001
DEKIMAS
1000
実線（中）
1040
0.25
1001
DIMEXPLODE
1070
     0
  0
LINE
  5
1052
330
1F
100
AcDbEntity
  8
TP1791_10
  6
Continuous
 62
     7
 48
0.5
100
AcDbLine
 10
1870.547457354408
 20
1975.969412715942
 30
0.0
 11
1870.547457345195
 21
1953.508399256692
 31
0.0
1001
DEKIMAS
1000
実線（中）
1040
0.25
1001
DIMEXPLODE
1070
     0
  0
LINE
  5
1053
330
1F
100
AcDbEntity
  8
TP1791_10
  6
Continuous
 62
     7
 48
0.5
100
AcDbLine
 10
1910.547456758369
 20
1975.969412699534
 30
0.0
 11
1910.547456749155
 21
1953.508399240284
 31
0.0
1001
DEKIMAS
1000
実線（中）
1040
0.25
1001
DIMEXPLODE
1070
     0
  0
LINE
  5
1054
330
1F
100
AcDbEntity
  8
TP1791_10
  6
Continuous
 62
     7
100
AcDbLine
 10
1870.547457345195
 20
1953.508475550632
 30
0.0
 11
1777.505313956245
 21
1953.508475588799
 31
0.0
1001
DEKIMAS
1000
実線（中）
1040
0.25
1001
DIMEXPLODE
1070
     0
  0
LINE
  5
1055
330
1F
100
AcDbEntity
  8
TP1791_10
  6
Continuous
 62
     7
100
AcDbLine
 10
1800.169803375769
 20
1980.700629104972
 30
0.0
 11
1871.11510337451
 21
1980.700629075869
 31
0.0
1001
DEKIMAS
1000
実線（中）
1040
0.25
1001
DIMEXPLODE
1070
     0
  0
LINE
  5
1056
330
1F
100
AcDbEntity
  8
TP1791_10
  6
Continuous
 62
     7
 48
0.5
100
AcDbLine
 10
2350.547450450056
 20
2581.047375914773
 30
0.0
 11
2350.54745045927
 21
2603.508313080083
 31
0.0
1001
DEKIMAS
1000
実線（中）
1040
0.25
1001
DIMEXPLODE
1070
     0
  0
LINE
  5
1057
330
1F
100
AcDbEntity
  8
TP1791_10
  6
Continuous
 62
     7
 48
0.5
100
AcDbLine
 10
2310.547451046096
 20
2581.047375931181
 30
0.0
 11
2310.54745105531
 21
2603.508313096491
 31
0.0
1001
DEKIMAS
1000
実線（中）
1040
0.25
1001
DIMEXPLODE
1070
     0
  0
LINE
  5
1058
330
1F
100
AcDbEntity
  8
TP1791_10
  6
Continuous
 62
     7
 48
0.5
100
AcDbLine
 10
1910.547457006576
 20
2581.047376095265
 30
0.0
 11
1910.547457015789
 21
2603.508313260574
 31
0.0
1001
DEKIMAS
1000
実線（中）
1040
0.25
1001
DIMEXPLODE
1070
     0
  0
LINE
  5
1059
330
1F
100
AcDbEntity
  8
TP1791_10
  6
Continuous
 62
     7
 48
0.5
100
AcDbLine
 10
1870.547457602616
 20
2581.047376111673
 30
0.0
 11
1870.54745761183
 21
2603.508313276982
 31
0.0
1001
DEKIMAS
1000
実線（中）
1040
0.25
1001
DIMEXPLODE
1070
     0
  0
LINE
  5
105A
330
1F
100
AcDbEntity
  8
TP1791_10
  6
Continuous
 62
     7
100
AcDbLine
 10
1800.169803620095
 20
2576.316236074321
 30
0.0
 11
1871.115103618835
 21
2576.316236045219
 31
0.0
1001
DEKIMAS
1000
実線（中）
1040
0.25
1001
DIMEXPLODE
1070
     0
  0
LINE
  5
105B
330
1F
100
AcDbEntity
  8
TP1791_10
  6
Continuous
 62
     7
100
AcDbLine
 10
1870.54745761183
 20
2603.508465864872
 30
0.0
 11
1777.50531422288
 21
2603.508465903038
 31
0.0
1001
DEKIMAS
1000
実線（中）
1040
0.25
1001
DIMEXPLODE
1070
     0
  0
LINE
  5
105C
330
1F
100
AcDbEntity
  8
TP1791_10
  6
Continuous
 62
     7
100
AcDbLine
 10
2350.54745045927
 20
2603.508465667973
 30
0.0
 11
2443.58959384822
 21
2603.508465629806
 31
0.0
1001
DEKIMAS
1000
実線（中）
1040
0.25
1001
DIMEXPLODE
1070
     0
  0
LINE
  5
105D
330
1F
100
AcDbEntity
  8
TP1791_10
  6
Continuous
 62
     7
100
AcDbLine
 10
2420.925104428695
 20
2576.316235819684
 30
0.0
 11
2349.979804429956
 21
2576.316235848786
 31
0.0
1001
DEKIMAS
1000
実線（中）
1040
0.25
1001
DIMEXPLODE
1070
     0
  0
LINE
  5
105E
330
1F
100
AcDbEntity
  8
TP1791_10
  6
CENTER2
 62
     1
100
AcDbLine
 10
2300.547451167306
 20
2513.275465324073
 30
0.0
 11
2300.54745113115
 21
2425.137038903063
 31
0.0
1001
DEKIMAS
1000
一点鎖線（細）
1040
0.15
1001
DIMEXPLODE
1070
     0
  0
LINE
  5
105F
330
1F
100
AcDbEntity
  8
TP1791_10
  6
CENTER2
 62
     1
100
AcDbLine
 10
2249.045939388912
 20
2468.508467721259
 30
0.0
 11
2349.463160869262
 21
2468.508467680067
 31
0.0
1001
DEKIMAS
1000
一点鎖線（細）
1040
0.15
1001
DIMEXPLODE
1070
     0
  0
LINE
  5
1060
330
1F
100
AcDbEntity
  8
TP1791_10
  6
Continuous
 62
     7
100
AcDbLine
 10
2327.526278243171
 20
2396.492374549366
 30
0.0
 11
2350.044914235988
 21
2419.011010523709
 31
0.0
1001
DEKIMAS
1000
実線（中）
1040
0.25
1001
DIMEXPLODE
1070
     0
  0
LINE
  5
1061
330
1F
100
AcDbEntity
  8
TP1791_10
  6
Continuous
 62
     7
100
AcDbLine
 10
2298.057040356194
 20
2388.236231901425
 30
0.0
 11
2339.438366628558
 21
2429.61755813984
 31
0.0
1001
DEKIMAS
1000
実線（中）
1040
0.25
1001
DIMEXPLODE
1070
     0
  0
LINE
  5
1062
330
1F
100
AcDbEntity
  8
TP1791_10
  6
Continuous
 62
     7
100
AcDbLine
 10
2220.27529561661
 20
2466.017976704812
 30
0.0
 11
2261.656621888975
 21
2507.399302943226
 31
0.0
1001
DEKIMAS
1000
実線（中）
1040
0.25
1001
DIMEXPLODE
1070
     0
  0
LINE
  5
1063
330
1F
100
AcDbEntity
  8
TP1791_10
  6
Continuous
 62
     7
100
AcDbLine
 10
2228.531384340759
 20
2495.487268532985
 30
0.0
 11
2251.050020333586
 21
2518.005904507327
 31
0.0
1001
DEKIMAS
1000
実線（中）
1040
0.25
1001
DIMEXPLODE
1070
     0
  0
LINE
  5
1064
330
1F
100
AcDbEntity
  8
TP1791_10
  6
HIDDEN2
 62
     4
100
AcDbLine
 10
2438.047449147206
 20
2583.50831334221
 30
0.0
 11
2438.047449106127
 21
2483.36579774461
 31
0.0
1001
DEKIMAS
1000
破線（細）
1040
0.15
1001
DIMEXPLODE
1070
     0
  0
LINE
  5
1065
330
1F
100
AcDbEntity
  8
TP1791_10
  6
HIDDEN2
 62
     4
100
AcDbLine
 10
2428.047449296226
 20
2583.508313346312
 30
0.0
 11
2428.047449256381
 21
2486.375441258552
 31
0.0
1001
DEKIMAS
1000
破線（細）
1040
0.15
1001
DIMEXPLODE
1070
     0
  0
LINE
  5
1066
330
1F
100
AcDbEntity
  8
TP1791_10
  6
HIDDEN2
 62
     4
100
AcDbLine
 10
2442.283702386755
 20
2467.224320856622
 30
0.0
 11
2488.422423344869
 21
2453.338353610186
 31
0.0
1001
DEKIMAS
1000
破線（細）
1040
0.15
1001
DIMEXPLODE
1070
     0
  0
LINE
  5
1067
330
1F
100
AcDbEntity
  8
TP1791_10
  6
CENTER2
 62
     1
100
AcDbLine
 10
1801.805011509095
 20
2048.508474163221
 30
0.0
 11
2420.512468415115
 21
2048.508473909423
 31
0.0
1001
DEKIMAS
1000
一点鎖線（細）
1040
0.15
1001
DIMEXPLODE
1070
     0
  0
LINE
  5
1068
330
1F
100
AcDbEntity
  8
TP1791_10
  6
Continuous
 62
     7
100
AcDbLine
 10
1810.547458285618
 20
2066.508504408995
 30
0.0
 11
1855.547457615069
 21
2066.508504390535
 31
0.0
1001
DEKIMAS
1000
実線（中）
1040
0.25
1001
DIMEXPLODE
1070
     0
  0
LINE
  5
1069
330
1F
100
AcDbEntity
  8
TP1791_10
  6
Continuous
 62
     7
100
AcDbLine
 10
1810.547458270851
 20
2030.508443910285
 30
0.0
 11
1855.547457600301
 21
2030.508443891825
 31
0.0
1001
DEKIMAS
1000
実線（中）
1040
0.25
1001
DIMEXPLODE
1070
     0
  0
LINE
  5
106A
330
1F
100
AcDbEntity
  8
TP1791_10
  6
Continuous
 62
     7
100
AcDbLine
 10
1855.547457598045
 20
2025.008489750145
 30
0.0
 11
2038.50899509387
 21
2025.008489675093
 31
0.0
1001
DEKIMAS
1000
実線（中）
1040
0.25
1001
DIMEXPLODE
1070
     0
  0
LINE
  5
106B
330
1F
100
AcDbEntity
  8
TP1791_10
  6
Continuous
 62
     7
100
AcDbLine
 10
1855.547457617325
 20
2072.008458532215
 30
0.0
 11
2038.50899511315
 21
2072.008458457164
 31
0.0
1001
DEKIMAS
1000
実線（中）
1040
0.25
1001
DIMEXPLODE
1070
     0
  0
LINE
  5
106C
330
1F
100
AcDbEntity
  8
TP1791_10
  6
Continuous
 62
     7
100
AcDbLine
 10
1810.547458285618
 20
2066.508504408995
 30
0.0
 11
1810.547458270851
 21
2030.508443910285
 31
0.0
1001
DEKIMAS
1000
実線（中）
1040
0.25
1001
DIMEXPLODE
1070
     0
  0
LINE
  5
106D
330
1F
100
AcDbEntity
  8
TP1791_10
  6
Continuous
 62
     7
100
AcDbLine
 10
1855.547457617325
 20
2072.008458532215
 30
0.0
 11
1855.547457598045
 21
2025.008489750145
 31
0.0
1001
DEKIMAS
1000
実線（中）
1040
0.25
1001
DIMEXPLODE
1070
     0
  0
LINE
  5
106E
330
1F
100
AcDbEntity
  8
TP1791_10
  6
Continuous
 62
     7
100
AcDbLine
 10
2365.547449998445
 20
2025.00848954094
 30
0.0
 11
2182.58591250262
 21
2025.008489615992
 31
0.0
1001
DEKIMAS
1000
実線（中）
1040
0.25
1001
DIMEXPLODE
1070
     0
  0
LINE
  5
106F
330
1F
100
AcDbEntity
  8
TP1791_10
  6
Continuous
 62
     7
100
AcDbLine
 10
2365.547450017725
 20
2072.00845832301
 30
0.0
 11
2182.5859125219
 21
2072.008458398062
 31
0.0
1001
DEKIMAS
1000
実線（中）
1040
0.25
1001
DIMEXPLODE
1070
     0
  0
LINE
  5
1070
330
1F
100
AcDbEntity
  8
TP1791_10
  6
Continuous
 62
     7
 48
0.5
100
AcDbLine
 10
2180.547452751061
 20
2015.008489765838
 30
0.0
 11
2180.547452745192
 21
2000.700552356968
 31
0.0
1001
DEKIMAS
1000
実線（中）
1040
0.25
1001
DIMEXPLODE
1070
     0
  0
LINE
  5
1071
330
1F
100
AcDbEntity
  8
TP1791_10
  6
Continuous
 62
     7
100
AcDbLine
 10
2365.547450017725
 20
2072.00845832301
 30
0.0
 11
2365.547449998445
 21
2025.00848954094
 31
0.0
1001
DEKIMAS
1000
実線（中）
1040
0.25
1001
DIMEXPLODE
1070
     0
  0
LINE
  5
1072
330
1F
100
AcDbEntity
  8
TP1791_10
  6
Continuous
 62
     7
100
AcDbLine
 10
2410.547449344919
 20
2066.50850416287
 30
0.0
 11
2365.547450015469
 21
2066.50850418133
 31
0.0
1001
DEKIMAS
1000
実線（中）
1040
0.25
1001
DIMEXPLODE
1070
     0
  0
LINE
  5
1073
330
1F
100
AcDbEntity
  8
TP1791_10
  6
Continuous
 62
     7
100
AcDbLine
 10
2410.547449344919
 20
2066.50850416287
 30
0.0
 11
2410.547449330151
 21
2030.50844366416
 31
0.0
1001
DEKIMAS
1000
実線（中）
1040
0.25
1001
DIMEXPLODE
1070
     0
  0
LINE
  5
1074
330
1F
100
AcDbEntity
  8
TP1791_10
  6
Continuous
 62
     7
100
AcDbLine
 10
2410.547449330151
 20
2030.50844366416
 30
0.0
 11
2365.547450000701
 21
2030.50844368262
 31
0.0
1001
DEKIMAS
1000
実線（中）
1040
0.25
1001
DIMEXPLODE
1070
     0
  0
LINE
  5
1075
330
1F
100
AcDbEntity
  8
TP1791_10
  6
CENTER2
 62
     1
100
AcDbLine
 10
3528.845162326341
 20
2439.910902925157
 30
0.0
 11
2911.115984519501
 21
2439.910903178554
 31
0.0
1001
DEKIMAS
1000
一点鎖線（細）
1040
0.15
1001
DIMEXPLODE
1070
     0
  0
LINE
  5
1076
330
1F
100
AcDbEntity
  8
TP1791_10
  6
Continuous
 62
     7
 48
0.5
100
AcDbLine
 10
2924.042925240134
 20
2428.410964454271
 30
0.0
 11
2924.042925249569
 21
2451.410841892221
 31
0.0
1001
DEKIMAS
1000
実線（中）
1040
0.25
1001
DIMEXPLODE
1070
     0
  0
LINE
  5
1077
330
1F
100
AcDbEntity
  8
TP1791_10
  6
Continuous
 62
     7
100
AcDbLine
 10
3480.542855922474
 20
2452.910933268831
 30
0.0
 11
2962.542909417694
 21
2452.910933481318
 31
0.0
1001
DEKIMAS
1000
実線（中）
1040
0.25
1001
DIMEXPLODE
1070
     0
  0
LINE
  5
1078
330
1F
100
AcDbEntity
  8
TP1791_10
  6
Continuous
 62
     7
100
AcDbLine
 10
3480.542855911809
 20
2426.910872621101
 30
0.0
 11
2962.542909407029
 21
2426.910872833588
 31
0.0
1001
DEKIMAS
1000
実線（中）
1040
0.25
1001
DIMEXPLODE
1070
     0
  0
LINE
  5
1079
330
1F
100
AcDbEntity
  8
TP1791_10
  6
Continuous
 62
     7
100
AcDbLine
 10
2962.542909405593
 20
2423.410964438478
 30
0.0
 11
2962.54290941913
 21
2456.410841876428
 31
0.0
1001
DEKIMAS
1000
実線（中）
1040
0.25
1001
DIMEXPLODE
1070
     0
  0
LINE
  5
107A
330
1F
100
AcDbEntity
  8
TP1791_10
  6
Continuous
 62
     7
100
AcDbLine
 10
2962.54290941913
 20
2456.410841876428
 30
0.0
 11
2929.042925251619
 21
2456.41084189017
 31
0.0
1001
DEKIMAS
1000
実線（中）
1040
0.25
1001
DIMEXPLODE
1070
     0
  0
LINE
  5
107B
330
1F
100
AcDbEntity
  8
TP1791_10
  6
Continuous
 62
     7
100
AcDbLine
 10
2962.542909405593
 20
2423.410964438478
 30
0.0
 11
2929.042925238083
 21
2423.41096445222
 31
0.0
1001
DEKIMAS
1000
実線（中）
1040
0.25
1001
DIMEXPLODE
1070
     0
  0
LINE
  5
107C
330
1F
100
AcDbEntity
  8
TP1791_10
  6
Continuous
 62
     7
100
AcDbLine
 10
3480.542855910373
 20
2423.410964225991
 30
0.0
 11
3480.542855923909
 21
2456.410841663941
 31
0.0
1001
DEKIMAS
1000
実線（中）
1040
0.25
1001
DIMEXPLODE
1070
     0
  0
LINE
  5
107D
330
1F
100
AcDbEntity
  8
TP1791_10
  6
Continuous
 62
     7
100
AcDbLine
 10
3480.542855923909
 20
2456.410841663941
 30
0.0
 11
3514.04291638541
 21
2456.410841650199
 31
0.0
1001
DEKIMAS
1000
実線（中）
1040
0.25
1001
DIMEXPLODE
1070
     0
  0
LINE
  5
107E
330
1F
100
AcDbEntity
  8
TP1791_10
  6
Continuous
 62
     7
 48
0.5
100
AcDbLine
 10
3519.042916373924
 20
2428.410964210198
 30
0.0
 11
3519.042916383358
 21
2451.410841648148
 31
0.0
1001
DEKIMAS
1000
実線（中）
1040
0.25
1001
DIMEXPLODE
1070
     0
  0
LINE
  5
107F
330
1F
100
AcDbEntity
  8
TP1791_10
  6
Continuous
 62
     7
100
AcDbLine
 10
3480.542855910373
 20
2423.410964225991
 30
0.0
 11
3514.042916371873
 21
2423.410964212249
 31
0.0
1001
DEKIMAS
1000
実線（中）
1040
0.25
1001
DIMEXPLODE
1070
     0
  0
LINE
  5
1080
330
1F
100
AcDbEntity
  8
TP1791_10
  6
Continuous
 62
     4
100
AcDbLine
 10
3334.794032962748
 20
2310.724656150486
 30
0.0
 11
3074.595748876178
 21
2310.724656257221
 31
0.0
1001
DEKIMAS
1000
実線（細）
1040
0.15
1001
DIMEXPLODE
1070
     0
  0
ARC
  5
1081
330
1F
100
AcDbEntity
  8
TP1791_10
  6
Continuous
 62
     7
100
AcDbCircle
 10
950.5474711876324
 20
2278.508471085142
 30
0.0
 40
1559.9999767541
100
AcDbArc
 50
349.1930765962206
 51
10.80692335677734
1001
DEKIMAS
1000
実線（中）
1040
0.25
1001
DIMEXPLODE
1070
     0
  0
ARC
  5
1082
330
1F
100
AcDbEntity
  8
TP1791_10
  6
Continuous
 62
     7
100
AcDbCircle
 10
2443.589593597994
 20
1993.508474719526
 30
0.0
 40
39.999999403953
100
AcDbArc
 50
270.0000179625971
 51
349.1930868415003
1001
DEKIMAS
1000
実線（中）
1040
0.25
1001
DIMEXPLODE
1070
     0
  0
ARC
  5
1083
330
1F
100
AcDbEntity
  8
TP1791_10
  6
Continuous
 62
     7
100
AcDbCircle
 10
950.5474711876324
 20
2278.508471085142
 30
0.0
 40
1532.8078995226
100
AcDbArc
 50
350.0551608751524
 51
9.944833101442471
1001
DEKIMAS
1000
実線（中）
1040
0.25
1001
DIMEXPLODE
1070
     0
  0
ARC
  5
1084
330
1F
100
AcDbEntity
  8
TP1791_10
  6
Continuous
 62
     7
100
AcDbCircle
 10
2420.925104200778
 20
2020.700628254294
 30
0.0
 40
39.999999403953
100
AcDbArc
 50
270.0000179625971
 51
350.055113917581
1001
DEKIMAS
1000
実線（中）
1040
0.25
1001
DIMEXPLODE
1070
     0
  0
ARC
  5
1085
330
1F
100
AcDbEntity
  8
TP1791_10
  6
Continuous
 62
     7
100
AcDbCircle
 10
2420.925104412287
 20
2536.316236415733
 30
0.0
 40
39.999999403953
100
AcDbArc
 50
9.944837370304366
 51
89.9999341790753
1001
DEKIMAS
1000
実線（中）
1040
0.25
1001
DIMEXPLODE
1070
     0
  0
ARC
  5
1086
330
1F
100
AcDbEntity
  8
TP1791_10
  6
Continuous
 62
     7
100
AcDbCircle
 10
2443.589593831811
 20
2563.508466225846
 30
0.0
 40
39.999999403953
100
AcDbArc
 50
10.80686188507838
 51
89.99992734888612
1001
DEKIMAS
1000
実線（中）
1040
0.25
1001
DIMEXPLODE
1070
     0
  0
ARC
  5
1087
330
1F
100
AcDbEntity
  8
TP1791_10
  6
Continuous
 62
     7
100
AcDbCircle
 10
3270.547436616833
 20
2278.508470133463
 30
0.0
 40
1532.8078995226
100
AcDbArc
 50
170.0551266105019
 51
189.9448013981187
1001
DEKIMAS
1000
実線（中）
1040
0.25
1001
DIMEXPLODE
1070
     0
  0
ARC
  5
1088
330
1F
100
AcDbEntity
  8
TP1791_10
  6
Continuous
 62
     7
100
AcDbCircle
 10
3270.547436616833
 20
2278.508470133463
 30
0.0
 40
1559.9999767541
100
AcDbArc
 50
169.1930474542183
 51
190.8068942147799
1001
DEKIMAS
1000
実線（中）
1040
0.25
1001
DIMEXPLODE
1070
     0
  0
ARC
  5
1089
330
1F
100
AcDbEntity
  8
TP1791_10
  6
Continuous
 62
     7
100
AcDbCircle
 10
1800.169803392178
 20
2020.700628508931
 30
0.0
 40
39.999999403953
100
AcDbArc
 50
189.9448733424899
 51
269.9999701512469
1001
DEKIMAS
1000
実線（中）
1040
0.25
1001
DIMEXPLODE
1070
     0
  0
ARC
  5
108A
330
1F
100
AcDbEntity
  8
TP1791_10
  6
Continuous
 62
     7
100
AcDbCircle
 10
1777.505313972653
 20
1993.508474992759
 30
0.0
 40
39.999999403953
100
AcDbArc
 50
190.8068978572403
 51
269.9999633210837
1001
DEKIMAS
1000
実線（中）
1040
0.25
1001
DIMEXPLODE
1070
     0
  0
ARC
  5
108B
330
1F
100
AcDbEntity
  8
TP1791_10
  6
Continuous
 62
     7
100
AcDbCircle
 10
1800.169803603687
 20
2536.316236670371
 30
0.0
 40
39.999999403953
100
AcDbArc
 50
90.00002980172366
 51
170.0551266105019
1001
DEKIMAS
1000
実線（中）
1040
0.25
1001
DIMEXPLODE
1070
     0
  0
ARC
  5
108C
330
1F
100
AcDbEntity
  8
TP1791_10
  6
Continuous
 62
     7
100
AcDbCircle
 10
1777.505314206471
 20
2563.508466499079
 30
0.0
 40
39.999999403953
100
AcDbArc
 50
90.00003663191284
 51
169.193102095732
1001
DEKIMAS
1000
実線（中）
1040
0.25
1001
DIMEXPLODE
1070
     0
  0
ARC
  5
108D
330
1F
100
AcDbEntity
  8
TP1791_10
  6
Continuous
 62
     7
100
AcDbCircle
 10
2110.547453902233
 20
2278.508470609303
 30
0.0
 40
239.99999642372
100
AcDbArc
 50
110.2522646908636
 51
225.8326097126126
1001
DEKIMAS
1000
実線（中）
1040
0.25
1001
DIMEXPLODE
1070
     0
  0
ARC
  5
108E
330
1F
100
AcDbEntity
  8
TP1791_10
  6
Continuous
 62
     7
100
AcDbCircle
 10
2110.547453902233
 20
2278.508470609303
 30
0.0
 40
209.99999687075
100
AcDbArc
 50
105.1216861335415
 51
254.8782896864051
1001
DEKIMAS
1000
実線（中）
1040
0.25
1001
DIMEXPLODE
1070
     0
  0
CIRCLE
  5
108F
330
1F
100
AcDbEntity
  8
TP1791_10
  6
Continuous
 62
     7
100
AcDbCircle
 10
2110.547453902233
 20
2278.508470609303
 30
0.0
 40
189.99999716877
1001
DEKIMAS
1000
実線（中）
1040
0.25
  0
ARC
  5
1090
330
1F
100
AcDbEntity
  8
TP1791_10
  6
Continuous
 62
     7
100
AcDbCircle
 10
2110.547453902233
 20
2278.508470609303
 30
0.0
 40
129.99999806284
100
AcDbArc
 50
279.5940705009881
 51
350.4059474380776
1001
DEKIMAS
1000
実線（中）
1040
0.25
1001
DIMEXPLODE
1070
     0
  0
ARC
  5
1091
330
1F
100
AcDbEntity
  8
TP1791_10
  6
Continuous
 62
     7
 48
0.5
100
AcDbCircle
 10
2228.868985334019
 20
2258.508470858791
 30
0.0
 40
9.9999998509884
100
AcDbArc
 50
350.4059474380776
 51
89.99994100926446
1001
DEKIMAS
1000
実線（中）
1040
0.25
1001
DIMEXPLODE
1070
     0
  0
ARC
  5
1092
330
1F
100
AcDbEntity
  8
TP1791_10
  6
Continuous
 62
     7
 48
0.5
100
AcDbCircle
 10
2130.54744401893
 20
2160.186939161109
 30
0.0
 40
9.9999998509884
100
AcDbArc
 50
180.0000049854617
 51
279.5939029340086
1001
DEKIMAS
1000
実線（中）
1040
0.25
1001
DIMEXPLODE
1070
     0
  0
ARC
  5
1093
330
1F
100
AcDbEntity
  8
TP1791_10
  6
Continuous
 62
     7
 48
0.5
100
AcDbCircle
 10
2228.869052107627
 20
2298.508470262742
 30
0.0
 40
9.9999998509884
100
AcDbArc
 50
270.0000179625971
 51
9.593923595103344
1001
DEKIMAS
1000
実線（中）
1040
0.25
1001
DIMEXPLODE
1070
     0
  0
ARC
  5
1094
330
1F
100
AcDbEntity
  8
TP1791_10
  6
Continuous
 62
     7
100
AcDbCircle
 10
2110.547453902233
 20
2278.508470609303
 30
0.0
 40
129.99999806284
100
AcDbArc
 50
9.594056783796172
 51
80.4059294520022
1001
DEKIMAS
1000
実線（中）
1040
0.25
1001
DIMEXPLODE
1070
     0
  0
ARC
  5
1095
330
1F
100
AcDbEntity
  8
TP1791_10
  6
Continuous
 62
     7
 48
0.5
100
AcDbCircle
 10
2130.547453652745
 20
2396.830002041088
 30
0.0
 40
9.9999998509884
100
AcDbArc
 50
80.40596360293763
 51
179.9999640043007
1001
DEKIMAS
1000
実線（中）
1040
0.25
1001
DIMEXPLODE
1070
     0
  0
ARC
  5
1096
330
1F
100
AcDbEntity
  8
TP1791_10
  6
Continuous
 62
     7
 48
0.5
100
AcDbCircle
 10
2090.547463785536
 20
2396.830002057496
 30
0.0
 40
9.9999998509884
100
AcDbArc
 50
0.0000136368766363
 51
99.59391841559817
1001
DEKIMAS
1000
実線（中）
1040
0.25
1001
DIMEXPLODE
1070
     0
  0
ARC
  5
1097
330
1F
100
AcDbEntity
  8
TP1791_10
  6
Continuous
 62
     7
100
AcDbCircle
 10
2110.547453902233
 20
2278.508470609303
 30
0.0
 40
129.99999806284
100
AcDbArc
 50
99.59405501939095
 51
170.4059251262816
1001
DEKIMAS
1000
実線（中）
1040
0.25
1001
DIMEXPLODE
1070
     0
  0
ARC
  5
1098
330
1F
100
AcDbEntity
  8
TP1791_10
  6
Continuous
 62
     7
 48
0.5
100
AcDbCircle
 10
1992.225922470447
 20
2298.508470359815
 30
0.0
 40
9.9999998509884
100
AcDbArc
 50
170.4059524470386
 51
269.9999460182279
1001
DEKIMAS
1000
実線（中）
1040
0.25
1001
DIMEXPLODE
1070
     0
  0
ARC
  5
1099
330
1F
100
AcDbEntity
  8
TP1791_10
  6
Continuous
 62
     7
 48
0.5
100
AcDbCircle
 10
1992.225922454039
 20
2258.508470955863
 30
0.0
 40
9.9999998509884
100
AcDbArc
 50
90.00000931115616
 51
189.5939209201054
1001
DEKIMAS
1000
実線（中）
1040
0.25
1001
DIMEXPLODE
1070
     0
  0
ARC
  5
109A
330
1F
100
AcDbEntity
  8
TP1791_10
  6
Continuous
 62
     7
100
AcDbCircle
 10
2110.547453902233
 20
2278.508470609303
 30
0.0
 40
129.99999806284
100
AcDbArc
 50
189.5940748267118
 51
260.4059517638014
1001
DEKIMAS
1000
実線（中）
1040
0.25
1001
DIMEXPLODE
1070
     0
  0
ARC
  5
109B
330
1F
100
AcDbEntity
  8
TP1791_10
  6
Continuous
 62
     7
 48
0.5
100
AcDbCircle
 10
2090.547444614978
 20
2160.186939177517
 30
0.0
 40
9.9999998509884
100
AcDbArc
 50
260.4059517638014
 51
359.999945334985
1001
DEKIMAS
1000
実線（中）
1040
0.25
1001
DIMEXPLODE
1070
     0
  0
CIRCLE
  5
109C
330
1F
100
AcDbEntity
  8
TP1791_10
  6
HIDDEN2
 62
     4
100
AcDbCircle
 10
2110.547453902233
 20
2278.508470609303
 30
0.0
 40
174.99999739229
1001
DEKIMAS
1000
破線（細）
1040
0.15
  0
ARC
  5
109D
330
1F
100
AcDbEntity
  8
TP1791_10
  6
Continuous
 62
     7
100
AcDbCircle
 10
2020.547455129379
 20
2000.700628716551
 30
0.0
 40
19.999999701976
100
AcDbArc
 50
270.0000179625971
 51
359.9999999764983
1001
DEKIMAS
1000
実線（中）
1040
0.25
1001
DIMEXPLODE
1070
     0
  0
ARC
  5
109E
330
1F
100
AcDbEntity
  8
TP1791_10
  6
Continuous
 62
     7
 48
0.5
100
AcDbCircle
 10
2050.547449936851
 20
2056.472417423965
 30
0.0
 40
19.999999701976
100
AcDbArc
 50
359.9999999764983
 51
74.87831199820883
1001
DEKIMAS
1000
実線（中）
1040
0.25
1001
DIMEXPLODE
1070
     0
  0
ARC
  5
109F
330
1F
100
AcDbEntity
  8
TP1791_10
  6
Continuous
 62
     7
100
AcDbCircle
 10
2050.547449909509
 20
1989.819738973805
 30
0.0
 40
19.999999701976
100
AcDbArc
 50
270.0000179625971
 51
359.9999999764983
1001
DEKIMAS
1000
実線（中）
1040
0.25
1001
DIMEXPLODE
1070
     0
  0
ARC
  5
10A0
330
1F
100
AcDbEntity
  8
TP1791_10
  6
Continuous
 62
     7
 48
0.5
100
AcDbCircle
 10
2170.547457685453
 20
2056.47241737474
 30
0.0
 40
19.999999701976
100
AcDbArc
 50
105.1216519825975
 51
179.9999640043007
1001
DEKIMAS
1000
実線（中）
1040
0.25
1001
DIMEXPLODE
1070
     0
  0
ARC
  5
10A1
330
1F
100
AcDbEntity
  8
TP1791_10
  6
Continuous
 62
     7
100
AcDbCircle
 10
2170.547457658111
 20
1989.81973892458
 30
0.0
 40
19.999999701976
100
AcDbArc
 50
179.9999640043007
 51
269.9999460182279
1001
DEKIMAS
1000
実線（中）
1040
0.25
1001
DIMEXPLODE
1070
     0
  0
ARC
  5
10A2
330
1F
100
AcDbEntity
  8
TP1791_10
  6
Continuous
 62
     7
100
AcDbCircle
 10
2200.547452447169
 20
2000.700628642714
 30
0.0
 40
19.999999701976
100
AcDbArc
 50
179.9999640043007
 51
269.9999460182279
1001
DEKIMAS
1000
実線（中）
1040
0.25
1001
DIMEXPLODE
1070
     0
  0
ARC
  5
10A3
330
1F
100
AcDbEntity
  8
TP1791_10
  6
Continuous
 62
     7
 48
0.5
100
AcDbCircle
 10
2050.547450119013
 20
2500.544447549925
 30
0.0
 40
19.999999701976
100
AcDbArc
 50
285.1216333132677
 51
359.999945334985
1001
DEKIMAS
1000
実線（中）
1040
0.25
1001
DIMEXPLODE
1070
     0
  0
ARC
  5
10A4
330
1F
100
AcDbEntity
  8
TP1791_10
  6
Continuous
 62
     7
 48
0.5
100
AcDbCircle
 10
2020.547455343398
 20
2522.434706025102
 30
0.0
 40
19.999999701976
100
AcDbArc
 50
290.25218454984
 51
359.999945334985
1001
DEKIMAS
1000
実線（中）
1040
0.25
1001
DIMEXPLODE
1070
     0
  0
ARC
  5
10A5
330
1F
100
AcDbEntity
  8
TP1791_10
  6
Continuous
 62
     7
100
AcDbCircle
 10
2050.547450146353
 20
2567.197278587975
 30
0.0
 40
19.999999701976
100
AcDbArc
 50
359.999945334985
 51
89.99992734888612
1001
DEKIMAS
1000
実線（中）
1040
0.25
1001
DIMEXPLODE
1070
     0
  0
ARC
  5
10A6
330
1F
100
AcDbEntity
  8
TP1791_10
  6
Continuous
 62
     7
100
AcDbCircle
 10
2020.547455357296
 20
2556.316236281951
 30
0.0
 40
19.999999701976
100
AcDbArc
 50
359.999945334985
 51
89.99992734888612
1001
DEKIMAS
1000
実線（中）
1040
0.25
1001
DIMEXPLODE
1070
     0
  0
ARC
  5
10A7
330
1F
100
AcDbEntity
  8
TP1791_10
  6
Continuous
 62
     7
100
AcDbCircle
 10
2110.547453902233
 20
2278.508470609303
 30
0.0
 40
209.99999687075
100
AcDbArc
 50
285.1216742943978
 51
27.81518722038852
1001
DEKIMAS
1000
実線（中）
1040
0.25
1001
DIMEXPLODE
1070
     0
  0
ARC
  5
10A8
330
1F
100
AcDbEntity
  8
TP1791_10
  6
Continuous
 62
     7
100
AcDbCircle
 10
2110.547453902233
 20
2278.508470609303
 30
0.0
 40
239.99999642372
100
AcDbArc
 50
314.1673542682158
 51
26.33707281227229
1001
DEKIMAS
1000
実線（中）
1040
0.25
1001
DIMEXPLODE
1070
     0
  0
ARC
  5
10A9
330
1F
100
AcDbEntity
  8
TP1791_10
  6
Continuous
 62
     7
 48
0.5
100
AcDbCircle
 10
2170.547457867614
 20
2500.5444475007
 30
0.0
 40
19.999999701976
100
AcDbArc
 50
180.0000359486698
 51
254.8783616307637
1001
DEKIMAS
1000
実線（中）
1040
0.25
1001
DIMEXPLODE
1070
     0
  0
ARC
  5
10AA
330
1F
100
AcDbEntity
  8
TP1791_10
  6
Continuous
 62
     7
100
AcDbCircle
 10
2170.547457894956
 20
2567.19727853875
 30
0.0
 40
19.999999701976
100
AcDbArc
 50
90.00003663191284
 51
180.0000186458401
1001
DEKIMAS
1000
実線（中）
1040
0.25
1001
DIMEXPLODE
1070
     0
  0
ARC
  5
10AB
330
1F
100
AcDbEntity
  8
TP1791_10
  6
Continuous
 62
     7
100
AcDbCircle
 10
2200.547452675087
 20
2556.316236208114
 30
0.0
 40
19.999999701976
100
AcDbArc
 50
90.00003663191284
 51
180.0000186458401
1001
DEKIMAS
1000
実線（中）
1040
0.25
1001
DIMEXPLODE
1070
     0
  0
ARC
  5
10AC
330
1F
100
AcDbEntity
  8
TP1791_10
  6
Continuous
 62
     7
 48
0.5
100
AcDbCircle
 10
2200.547452661188
 20
2522.434705951264
 30
0.0
 40
19.999999701976
100
AcDbArc
 50
180.0000359486698
 51
249.7477967338155
1001
DEKIMAS
1000
実線（中）
1040
0.25
1001
DIMEXPLODE
1070
     0
  0
ARC
  5
10AD
330
1F
100
AcDbEntity
  8
TP1791_10
  6
Continuous
 62
     7
100
AcDbCircle
 10
2330.547450488262
 20
1947.675116684217
 30
0.0
 40
20.833332228163
100
AcDbArc
 50
16.26027104107771
 51
163.7397424586229
1001
DEKIMAS
1000
実線（中）
1040
0.25
1001
DIMEXPLODE
1070
     0
  0
ARC
  5
10AE
330
1F
100
AcDbEntity
  8
TP1791_10
  6
Continuous
 62
     7
100
AcDbCircle
 10
2330.547450499869
 20
1975.969488821187
 30
0.0
 40
19.999999701976
100
AcDbArc
 50
359.9999999764983
 51
179.9999640043007
1001
DEKIMAS
1000
実線（中）
1040
0.25
1001
DIMEXPLODE
1070
     0
  0
ARC
  5
10AF
330
1F
100
AcDbEntity
  8
TP1791_10
  6
Continuous
 62
     7
100
AcDbCircle
 10
1890.547457044782
 20
1947.675116864708
 30
0.0
 40
20.833332228163
100
AcDbArc
 50
16.26022152219998
 51
163.7396878171148
1001
DEKIMAS
1000
実線（中）
1040
0.25
1001
DIMEXPLODE
1070
     0
  0
ARC
  5
10B0
330
1F
100
AcDbEntity
  8
TP1791_10
  6
Continuous
 62
     7
100
AcDbCircle
 10
1890.547457056389
 20
1975.969489001678
 30
0.0
 40
19.999999701976
100
AcDbArc
 50
359.9999999764983
 51
179.9999640043007
1001
DEKIMAS
1000
実線（中）
1040
0.25
1001
DIMEXPLODE
1070
     0
  0
ARC
  5
10B1
330
1F
100
AcDbEntity
  8
TP1791_10
  6
Continuous
 62
     7
100
AcDbCircle
 10
2330.547450748076
 20
2581.047375922977
 30
0.0
 40
19.999999701976
100
AcDbArc
 50
179.9999813071565
 51
359.999945334985
1001
DEKIMAS
1000
実線（中）
1040
0.25
1001
DIMEXPLODE
1070
     0
  0
ARC
  5
10B2
330
1F
100
AcDbEntity
  8
TP1791_10
  6
Continuous
 62
     7
100
AcDbCircle
 10
2330.547450759683
 20
2609.341748059957
 30
0.0
 40
20.833332228163
100
AcDbArc
 50
196.2602028528769
 51
343.7396691477772
1001
DEKIMAS
1000
実線（中）
1040
0.25
1001
DIMEXPLODE
1070
     0
  0
ARC
  5
10B3
330
1F
100
AcDbEntity
  8
TP1791_10
  6
Continuous
 62
     7
100
AcDbCircle
 10
1890.547457316202
 20
2609.341748240448
 30
0.0
 40
20.833332228163
100
AcDbArc
 50
196.2602574943705
 51
343.7397237892927
1001
DEKIMAS
1000
実線（中）
1040
0.25
1001
DIMEXPLODE
1070
     0
  0
ARC
  5
10B4
330
1F
100
AcDbEntity
  8
TP1791_10
  6
Continuous
 62
     7
100
AcDbCircle
 10
1890.547457304596
 20
2581.047376103468
 30
0.0
 40
19.999999701976
100
AcDbArc
 50
179.9999813071565
 51
359.999945334985
1001
DEKIMAS
1000
実線（中）
1040
0.25
1001
DIMEXPLODE
1070
     0
  0
CIRCLE
  5
10B5
330
1F
100
AcDbEntity
  8
TP1791_10
  6
Continuous
 62
     7
 48
0.5
100
AcDbCircle
 10
2300.547451148942
 20
2468.508467700133
 30
0.0
 40
29.999999552965
1001
DEKIMAS
1000
実線（中）
1040
0.25
  0
CIRCLE
  5
10B6
330
1F
100
AcDbEntity
  8
TP1791_10
  6
HIDDEN2
 62
     4
 48
0.5
100
AcDbCircle
 10
2300.547451148942
 20
2468.508467700133
 30
0.0
 40
19.999999701976
1001
DEKIMAS
1000
破線（細）
1040
0.15
  0
ARC
  5
10B7
330
1F
100
AcDbEntity
  8
TP1791_10
  6
Continuous
 62
     7
100
AcDbCircle
 10
2300.547451148942
 20
2468.508467700133
 30
0.0
 40
54.999999180436
100
AcDbArc
 50
315.0000294601279
 51
135.0000412992651
1001
DEKIMAS
1000
実線（中）
1040
0.25
1001
DIMEXPLODE
1070
     0
  0
ARC
  5
10B8
330
1F
100
AcDbEntity
  8
TP1791_10
  6
Continuous
 62
     7
100
AcDbCircle
 10
2300.547451148942
 20
2468.508467700133
 30
0.0
 40
69.999998956918
100
AcDbArc
 50
314.9999679884005
 51
134.9999866577296
1001
DEKIMAS
1000
実線（中）
1040
0.25
1001
DIMEXPLODE
1070
     0
  0
ARC
  5
10B9
330
1F
100
AcDbEntity
  8
TP1791_10
  6
Continuous
 62
     7
 48
0.5
100
AcDbCircle
 10
2110.547453902233
 20
2278.508470609303
 30
0.0
 40
239.99999642372
100
AcDbArc
 50
63.66290232442311
 51
69.74770612013897
1001
DEKIMAS
1000
実線（中）
1040
0.25
1001
DIMEXPLODE
1070
     0
  0
ARC
  5
10BA
330
1F
100
AcDbEntity
  8
TP1791_10
  6
Continuous
 62
     7
100
AcDbCircle
 10
2110.547453902233
 20
2278.508470609303
 30
0.0
 40
209.99999687075
100
AcDbArc
 50
62.18476059558907
 51
74.87827101709367
1001
DEKIMAS
1000
実線（中）
1040
0.25
1001
DIMEXPLODE
1070
     0
  0
ARC
  5
10BB
330
1F
100
AcDbEntity
  8
TP1791_10
  6
Continuous
 62
     7
 48
0.5
100
AcDbCircle
 10
2334.59732396117
 20
2389.421249626376
 30
0.0
 40
9.9999998509884
100
AcDbArc
 50
135.000013978502
 51
206.3370231797319
1001
DEKIMAS
1000
実線（中）
1040
0.25
1001
DIMEXPLODE
1070
     0
  0
ARC
  5
10BC
330
1F
100
AcDbEntity
  8
TP1791_10
  6
Continuous
 62
     7
 48
0.5
100
AcDbCircle
 10
2305.128025080503
 20
2381.165176763444
 30
0.0
 40
9.9999998509884
100
AcDbArc
 50
134.9999456766057
 51
207.8155678897375
1001
DEKIMAS
1000
実線（中）
1040
0.25
1001
DIMEXPLODE
1070
     0
  0
ARC
  5
10BD
330
1F
100
AcDbEntity
  8
TP1791_10
  6
Continuous
 62
     7
 48
0.5
100
AcDbCircle
 10
2213.204274656931
 20
2473.089003556382
 30
0.0
 40
9.9999998509884
100
AcDbArc
 50
242.184810228152
 51
315.0002719318286
1001
DEKIMAS
1000
実線（中）
1040
0.25
1001
DIMEXPLODE
1070
     0
  0
ARC
  5
10BE
330
1F
100
AcDbEntity
  8
TP1791_10
  6
Continuous
 62
     7
 48
0.5
100
AcDbCircle
 10
2221.46034754404
 20
2502.558302430275
 30
0.0
 40
9.9999998509884
100
AcDbArc
 50
243.6627812022592
 51
315.0003094978728
1001
DEKIMAS
1000
実線（中）
1040
0.25
1001
DIMEXPLODE
1070
     0
  0
ARC
  5
10BF
330
1F
100
AcDbEntity
  8
TP1791_10
  6
HIDDEN2
 62
     4
 48
0.5
100
AcDbCircle
 10
2448.047448958352
 20
2486.375441250348
 30
0.0
 40
19.999999701976
100
AcDbArc
 50
179.9999813071565
 51
253.2503040798371
1001
DEKIMAS
1000
破線（細）
1040
0.15
1001
DIMEXPLODE
1070
     0
  0
ARC
  5
10C0
330
1F
100
AcDbEntity
  8
TP1791_10
  6
HIDDEN2
 62
     4
 48
0.5
100
AcDbCircle
 10
2458.047448808106
 20
2483.365950324296
 30
0.0
 40
19.999999701976
100
AcDbArc
 50
179.9999813071565
 51
253.2502016269925
1001
DEKIMAS
1000
破線（細）
1040
0.15
1001
DIMEXPLODE
1070
     0
  0
ARC
  5
10C1
330
1F
100
AcDbEntity
  8
TP1791_10
  6
HIDDEN2
 62
     4
 48
0.5
100
AcDbCircle
 10
2482.658501888003
 20
2434.18656872281
 30
0.0
 40
19.999999701976
100
AcDbArc
 50
5.801913558472833
 51
73.25022029632939
1001
DEKIMAS
1000
破線（細）
1040
0.15
1001
DIMEXPLODE
1070
     0
  0
ARC
  5
10C2
330
1F
100
AcDbEntity
  8
TP1791_10
  6
HIDDEN2
 62
     4
100
AcDbCircle
 10
2408.047449594246
 20
2583.508465942407
 30
0.0
 40
19.999999701976
100
AcDbArc
 50
359.9999999764983
 51
89.99998199039948
1001
DEKIMAS
1000
破線（細）
1040
0.15
1001
DIMEXPLODE
1070
     0
  0
ARC
  5
10C3
330
1F
100
AcDbEntity
  8
TP1791_10
  6
HIDDEN2
 62
     4
100
AcDbCircle
 10
2418.047449445236
 20
2583.508465938304
 30
0.0
 40
19.999999701976
100
AcDbArc
 50
359.9999999764983
 51
89.99998199039948
1001
DEKIMAS
1000
破線（細）
1040
0.15
1001
DIMEXPLODE
1070
     0
  0
ARC
  5
10C4
330
1F
100
AcDbEntity
  8
TP1791_10
  6
Continuous
 62
     7
100
AcDbCircle
 10
1929.390764020299
 20
2092.008458203894
 30
0.0
 40
19.999999701976
100
AcDbArc
 50
270.0000179625971
 51
45.83266617535495
1001
DEKIMAS
1000
実線（中）
1040
0.25
1001
DIMEXPLODE
1070
     0
  0
ARC
  5
10C5
330
1F
100
AcDbEntity
  8
TP1791_10
  6
Continuous
 62
     7
 48
0.5
100
AcDbCircle
 10
2030.547454986236
 20
2015.008489827369
 30
0.0
 40
9.9999998509884
100
AcDbArc
 50
359.9999999764983
 51
89.99998199039948
1001
DEKIMAS
1000
実線（中）
1040
0.25
1001
DIMEXPLODE
1070
     0
  0
ARC
  5
10C6
330
1F
100
AcDbEntity
  8
TP1791_10
  6
Continuous
 62
     7
100
AcDbCircle
 10
2038.50899510351
 20
2048.508474066123
 30
0.0
 40
23.499984391033
100
AcDbArc
 50
270.0000179625971
 51
89.99998199039948
1001
DEKIMAS
1000
実線（中）
1040
0.25
1001
DIMEXPLODE
1070
     0
  0
ARC
  5
10C7
330
1F
100
AcDbEntity
  8
TP1791_10
  6
Continuous
 62
     7
100
AcDbCircle
 10
2182.58591251226
 20
2048.508474007022
 30
0.0
 40
23.499984391033
100
AcDbArc
 50
89.99998199039948
 51
269.9999460182279
1001
DEKIMAS
1000
実線（中）
1040
0.25
1001
DIMEXPLODE
1070
     0
  0
ARC
  5
10C8
330
1F
100
AcDbEntity
  8
TP1791_10
  6
Continuous
 62
     7
 48
0.5
100
AcDbCircle
 10
2190.54745260205
 20
2015.008489761736
 30
0.0
 40
9.9999998509884
100
AcDbArc
 50
89.99998199039948
 51
179.9999640043007
1001
DEKIMAS
1000
実線（中）
1040
0.25
1001
DIMEXPLODE
1070
     0
  0
ARC
  5
10C9
330
1F
100
AcDbEntity
  8
TP1791_10
  6
Continuous
 62
     7
100
AcDbCircle
 10
2291.704143631159
 20
2092.008458055271
 30
0.0
 40
19.999999701976
100
AcDbArc
 50
134.1672909752641
 51
269.9999460182279
1001
DEKIMAS
1000
実線（中）
1040
0.25
1001
DIMEXPLODE
1070
     0
  0
ARC
  5
10CA
330
1F
100
AcDbEntity
  8
TP1791_10
  6
Continuous
 62
     7
 48
0.5
100
AcDbCircle
 10
2929.042925249568
 20
2451.41084189017
 30
0.0
 40
5.0
100
AcDbArc
 50
89.9999999764983
 51
179.9999999764983
1001
DEKIMAS
1000
実線（中）
1040
0.25
1001
DIMEXPLODE
1070
     0
  0
ARC
  5
10CB
330
1F
100
AcDbEntity
  8
TP1791_10
  6
Continuous
 62
     7
 48
0.5
100
AcDbCircle
 10
2929.042925240134
 20
2428.41096445222
 30
0.0
 40
5.0
100
AcDbArc
 50
179.9999999764983
 51
269.9999999764983
1001
DEKIMAS
1000
実線（中）
1040
0.25
1001
DIMEXPLODE
1070
     0
  0
ARC
  5
10CC
330
1F
100
AcDbEntity
  8
TP1791_10
  6
Continuous
 62
     7
 48
0.5
100
AcDbCircle
 10
3514.042916383358
 20
2451.410841650199
 30
0.0
 40
5.0
100
AcDbArc
 50
359.9999999764983
 51
89.9999999764983
1001
DEKIMAS
1000
実線（中）
1040
0.25
1001
DIMEXPLODE
1070
     0
  0
ARC
  5
10CD
330
1F
100
AcDbEntity
  8
TP1791_10
  6
Continuous
 62
     7
 48
0.5
100
AcDbCircle
 10
3514.042916373924
 20
2428.410964212249
 30
0.0
 40
5.0
100
AcDbArc
 50
269.9999999764983
 51
359.9999999764983
1001
DEKIMAS
1000
実線（中）
1040
0.25
1001
DIMEXPLODE
1070
     0
  0
MTEXT
  5
10CE
330
1F
100
AcDbEntity
  8
TP1791_10
  6
Continuous
 62
     4
100
AcDbMText
 10
3123.633479503779
 20
2477.833418395428
 30
0.0
 40
32.0
 41
0.0
 71
     4
 72
     5
  1
\T1.40;\W0.60;\A1;ＶＰ２０\H.75x;\SＡ^ 
  7
STD
 73
     1
 44
1.0
1001
DEKIMAS
1040
0.15
1001
ACAD
1000
MTEXTBEGIN
1070
    73
1070
     1
1070
    44
1040
1.0
1070
    74
1070
     0
1000
MTEXTEND
  0
MTEXT
  5
10CF
330
1F
100
AcDbEntity
  8
TP1791_10
  6
Continuous
 62
     4
100
AcDbMText
 10
3092.35731108776
 20
2334.201218400107
 30
0.0
 40
32.0
 41
0.0
 71
     4
 72
     5
  1
\T1.40;\W0.60;攪拌棒（ＰＶＣ）
  7
STD
 73
     1
 44
1.0
1001
DEKIMAS
1040
0.15
1001
ACAD
1000
MTEXTBEGIN
1070
    73
1070
     1
1070
    44
1040
1.0
1070
    74
1070
     0
1000
MTEXTEND
  0
LEADER
  5
10D0
330
1F
100
AcDbEntity
  8
TP1791_10
  6
Continuous
 62
     4
100
AcDbLeader
  3
ASKSTANDARD
 76
     3
 10
1828.184576063845
 20
2048.508490031
 30
0.0
 10
1646.614633273053
 20
1853.018058587661
 30
0.0
 10
1400.764749460533
 20
1853.0180597603
 30
0.0
211
-1.0
221
0.0000000004102069
231
0.0
1001
DEKIMAS
1000
実線（細）
1040
0.15
1001
DIMEXPLODE
1070
     0
1001
ACAD
1000
DSTYLE
1002
{
1070
   173
1070
     1
1070
   341
1005
10D1
1070
   176
1070
     0
1002
}
  0
MTEXT
  5
10D5
330
1F
100
AcDbEntity
  8
TP1791_10
  6
Continuous
 62
     4
100
AcDbMText
 10
1626.618594854216
 20
1893.018060263699
 30
0.0
 40
32.0
 41
0.0
 71
     3
 72
     5
  1
\T1.40;\W0.60;攪拌棒収納位置
  7
STD
 73
     1
 44
1.0
1001
DEKIMAS
1040
0.15
1001
ACAD
1000
MTEXTBEGIN
1070
    73
1070
     1
1070
    44
1040
1.0
1070
    74
1070
     0
1000
MTEXTEND
  0
LEADER
  5
10D6
330
1F
100
AcDbEntity
  8
TP1791_10
  6
Continuous
 62
     4
100
AcDbLeader
  3
ASKSTANDARD
 76
     3
 10
2324.37288251506
 20
2486.73880612459
 30
0.0
 10
2438.210184461525
 20
2686.650069712193
 30
0.0
 10
2616.501158993735
 20
2686.650096400047
 30
0.0
211
-1.0
221
0.0000000004102069
231
0.0
1001
DEKIMAS
1000
実線（細）
1040
0.15
1001
DIMEXPLODE
1070
     0
1001
ACAD
1000
DSTYLE
1002
{
1070
   173
1070
     1
1070
   341
1005
71F
1070
   176
1070
     0
1002
}
  0
MTEXT
  5
10D7
330
1F
100
AcDbEntity
  8
TP1791_10
  6
Continuous
 62
     4
100
AcDbMText
 10
2460.367239581152
 20
2694.650097060141
 30
0.0
 40
32.0
 41
0.0
 71
     7
 72
     5
  1
\T1.40;\W0.60;エア－抜キ
  7
STD
 73
     1
 44
1.0
1001
DEKIMAS
1040
0.15
1001
ACAD
1000
MTEXTBEGIN
1070
    73
1070
     1
1070
    44
1040
1.0
1070
    74
1070
     0
1000
MTEXTEND
  0
LEADER
  5
10D8
330
1F
100
AcDbEntity
  8
TP1791_10
  6
Continuous
 62
     4
100
AcDbLeader
  3
ASKSTANDARD
 76
     3
 10
3500.22457497661
 20
2456.410881238867
 30
0.0
 10
3582.508774799534
 20
2583.968343454374
 30
0.0
 10
3824.799747819035
 20
2583.968365256734
 30
0.0
211
-1.0
221
0.0000000004102069
231
0.0
1001
DEKIMAS
1000
実線（細）
1040
0.15
1001
DIMEXPLODE
1070
     0
1001
ACAD
1000
DSTYLE
1002
{
1070
   173
1070
     1
1070
   341
1005
71F
1070
   176
1070
     0
1002
}
  0
MTEXT
  5
10D9
330
1F
100
AcDbEntity
  8
TP1791_10
  6
Continuous
 62
     4
100
AcDbMText
 10
3597.363797003184
 20
2603.968366244099
 30
0.0
 40
32.0
 41
0.0
 71
     7
 72
     5
  1
\T1.40;\W0.60;\A1;２０\H.75x;\SＡ^ ;\H1.33x;キャップ
  7
STD
 73
     1
 44
1.0
1001
DEKIMAS
1040
0.15
1001
ACAD
1000
MTEXTBEGIN
1070
    73
1070
     1
1070
    44
1040
1.0
1070
    74
1070
     0
1000
MTEXTEND
  0
POINT
  5
1148
330
1F
100
AcDbEntity
  8
F00001_1
  6
Continuous
 62
     4
100
AcDbPoint
 10
3114.999953583124
 20
424.999921588539
 30
0.0
1001
ASKOBJSC
1000
1/1
1001
ASKDWGSC
1040
10.0
  0
POINT
  5
1149
330
1F
100
AcDbEntity
  8
F00001_1
  6
Continuous
 62
     4
100
AcDbPoint
 10
2984.999955520305
 20
424.999921588539
 30
0.0
1001
ASKOBJSC
1000
1/1
1001
ASKDWGSC
1040
10.0
  0
POINT
  5
114A
330
1F
100
AcDbEntity
  8
F00001_1
  6
Continuous
 62
     4
100
AcDbPoint
 10
2854.999957457456
 20
424.999921588539
 30
0.0
1001
ASKOBJSC
1000
1/1
1001
ASKDWGSC
1040
10.0
  0
POINT
  5
114B
330
1F
100
AcDbEntity
  8
F00001_1
  6
Continuous
 62
     4
100
AcDbPoint
 10
3178.635206541085
 20
340.9098044333797
 30
0.0
1001
ASKOBJSC
1000
1/1
1001
ASKDWGSC
1040
10.0
  0
POINT
  5
114C
330
1F
100
AcDbEntity
  8
F00001_1
  6
Continuous
 62
     4
100
AcDbPoint
 10
3226.364850605258
 20
309.0900417239312
 30
0.0
1001
ASKOBJSC
1000
1/1
1001
ASKDWGSC
1040
10.0
  0
POINT
  5
114D
330
1F
100
AcDbEntity
  8
F00001_1
  6
Continuous
 62
     4
100
AcDbPoint
 10
2942.499956153604
 20
324.9999230786551
 30
0.0
1001
ASKOBJSC
1000
1/1
1001
ASKDWGSC
1040
10.0
  0
POINT
  5
114E
330
1F
100
AcDbEntity
  8
F00001_1
  6
Continuous
 62
     4
100
AcDbPoint
 10
3244.999951645973
 20
424.999921588539
 30
0.0
1001
ASKOBJSC
1000
1/1
1001
ASKDWGSC
1040
10.0
  0
POINT
  5
114F
330
1F
100
AcDbEntity
  8
F00001_1
  6
Continuous
 62
     4
100
AcDbPoint
 10
3424.999948963764
 20
324.9999230786551
 30
0.0
1001
ASKOBJSC
1000
1/1
1001
ASKDWGSC
1040
10.0
  0
POINT
  5
1150
330
1F
100
AcDbEntity
  8
F00001_1
  6
Continuous
 62
     4
100
AcDbPoint
 10
3424.999948963764
 20
424.999921588539
 30
0.0
1001
ASKOBJSC
1000
1/1
1001
ASKDWGSC
1040
10.0
  0
POINT
  5
1151
330
1F
100
AcDbEntity
  8
F00001_1
  6
Continuous
 62
     4
100
AcDbPoint
 10
3109.99995365766
 20
587.4999191671003
 30
0.0
1001
ASKOBJSC
1000
1/1
1001
ASKDWGSC
1040
10.0
  0
POINT
  5
1152
330
1F
100
AcDbEntity
  8
F00001_1
  6
Continuous
 62
     4
100
AcDbPoint
 10
3955.000398829842
 20
204.5852672802033
 30
0.0
1001
ASKOBJSC
1000
1/1
1001
ASKDWGSC
1040
10.0
  0
POINT
  5
1153
330
1F
100
AcDbEntity
  8
F00001_1
  6
Continuous
 62
     4
100
AcDbPoint
 10
3409.999949187282
 20
212.4999247550357
 30
0.0
1001
ASKOBJSC
1000
1/1
1001
ASKDWGSC
1040
10.0
  0
POINT
  5
1154
330
1F
100
AcDbEntity
  8
F00001_1
  6
Continuous
 62
     4
100
AcDbPoint
 10
2109.999968558827
 20
1494.999905644287
 30
0.0
1001
ASKOBJSC
1000
1/1
1001
ASKDWGSC
1040
10.0
  0
POINT
  5
1155
330
1F
100
AcDbEntity
  8
F00001_1
  6
Continuous
 62
     4
100
AcDbPoint
 10
4219.999937117341
 20
0.0000042155414803
 30
0.0
1001
ASKOBJSC
1000
1/1
1001
ASKDWGSC
1040
10.0
  0
POINT
  5
1156
330
1F
100
AcDbEntity
  8
F00001_1
  6
Continuous
 62
     4
100
AcDbPoint
 10
4009.999940246585
 20
649.9999182357777
 30
0.0
1001
ASKOBJSC
1000
1/1
1001
ASKDWGSC
1040
10.0
  0
POINT
  5
1157
330
1F
100
AcDbEntity
  8
F00001_1
  6
Continuous
 62
     4
100
AcDbPoint
 10
277.4999958652684
 20
2742.499963349007
 30
0.0
1001
ASKOBJSC
1000
1/1
1001
ASKDWGSC
1040
10.0
  0
POINT
  5
1158
330
1F
100
AcDbEntity
  8
F00001_1
  6
Continuous
 62
     4
100
AcDbPoint
 10
887.4999867755601
 20
2742.499963349007
 30
0.0
1001
ASKOBJSC
1000
1/1
1001
ASKDWGSC
1040
10.0
  0
POINT
  5
1159
330
1F
100
AcDbEntity
  8
F00001_1
  6
Continuous
 62
     4
100
AcDbPoint
 10
1034.999984577638
 20
2742.499963349007
 30
0.0
1001
ASKOBJSC
1000
1/1
1001
ASKDWGSC
1040
10.0
  0
POINT
  5
115A
330
1F
100
AcDbEntity
  8
F00001_1
  6
Continuous
 62
     4
100
AcDbPoint
 10
1164.999982640428
 20
2742.499963349007
 30
0.0
1001
ASKOBJSC
1000
1/1
1001
ASKDWGSC
1040
10.0
  0
POINT
  5
115B
330
1F
100
AcDbEntity
  8
F00001_1
  6
Continuous
 62
     4
100
AcDbPoint
 10
376.9999638650031
 20
2742.499963349007
 30
0.0
1001
ASKOBJSC
1000
1/1
1001
ASKDWGSC
1040
10.0
  0
POINT
  5
115C
330
1F
100
AcDbEntity
  8
F00001_1
  6
Continuous
 62
     4
100
AcDbPoint
 10
209.9999968710967
 20
2774.999962864719
 30
0.0
1001
ASKOBJSC
1000
1/1
1001
ASKDWGSC
1040
10.0
  0
LINE
  5
115D
330
1F
100
AcDbEntity
  8
F00001_1
  6
Continuous
 62
     4
100
AcDbLine
 10
9.999999851328993
 20
2979.999959809982
 30
0.0
 11
9.999999851328993
 21
2879.999961300098
 31
0.0
1001
DEKIMAS
1000
実線（細）
1040
0.15
1001
DIMEXPLODE
1070
     0
1001
ASKOBJSC
1000
1/1
1001
ASKDWGSC
1040
10.0
  0
LINE
  5
115E
330
1F
100
AcDbEntity
  8
F00001_1
  6
Continuous
 62
     4
100
AcDbLine
 10
4209.999937266352
 20
2979.999959809982
 30
0.0
 11
4209.999937266352
 21
2879.999961300098
 31
0.0
1001
DEKIMAS
1000
実線（細）
1040
0.15
1001
DIMEXPLODE
1070
     0
1001
ASKOBJSC
1000
1/1
1001
ASKDWGSC
1040
10.0
  0
LINE
  5
115F
330
1F
100
AcDbEntity
  8
F00001_1
  6
Continuous
 62
     4
100
AcDbLine
 10
9.999999851328993
 20
2979.999959809982
 30
0.0
 11
109.9999983612126
 21
2979.999959809982
 31
0.0
1001
DEKIMAS
1000
実線（細）
1040
0.15
1001
DIMEXPLODE
1070
     0
1001
ASKOBJSC
1000
1/1
1001
ASKDWGSC
1040
10.0
  0
LINE
  5
1160
330
1F
100
AcDbEntity
  8
F00001_1
  6
Continuous
 62
     4
100
AcDbLine
 10
9.999999851328993
 20
10.00000406652987
 30
0.0
 11
109.9999983612126
 21
10.00000406652987
 31
0.0
1001
DEKIMAS
1000
実線（細）
1040
0.15
1001
DIMEXPLODE
1070
     0
1001
ASKOBJSC
1000
1/1
1001
ASKDWGSC
1040
10.0
  0
LINE
  5
1161
330
1F
100
AcDbEntity
  8
F00001_1
  6
Continuous
 62
     2
100
AcDbLine
 10
2789.999958426032
 20
649.9999182357777
 30
0.0
 11
2789.999958426032
 21
150.0000019803673
 31
0.0
1001
DEKIMAS
1000
実線（太）
1040
0.5
1001
DIMEXPLODE
1070
     0
1001
ASKOBJSC
1000
1/1
1001
ASKDWGSC
1040
10.0
  0
LINE
  5
1162
330
1F
100
AcDbEntity
  8
F00001_1
  6
Continuous
 62
     2
100
AcDbLine
 10
2789.999958426032
 20
649.9999182357777
 30
0.0
 11
4009.999940246585
 21
649.9999182357777
 31
0.0
1001
DEKIMAS
1000
実線（太）
1040
0.5
1001
DIMEXPLODE
1070
     0
1001
ASKOBJSC
1000
1/1
1001
ASKDWGSC
1040
10.0
  0
LINE
  5
1163
330
1F
100
AcDbEntity
  8
F00001_1
  6
Continuous
 62
     4
100
AcDbLine
 10
2789.999958426032
 20
524.9999200984229
 30
0.0
 11
4009.999940246585
 21
524.9999200984229
 31
0.0
1001
DEKIMAS
1000
実線（細）
1040
0.15
1001
DIMEXPLODE
1070
     0
1001
ASKOBJSC
1000
1/1
1001
ASKDWGSC
1040
10.0
  0
LINE
  5
1164
330
1F
100
AcDbEntity
  8
F00001_1
  6
Continuous
 62
     4
100
AcDbLine
 10
2789.999958426032
 20
274.9999238237132
 30
0.0
 11
4009.999940246585
 21
274.9999238237132
 31
0.0
1001
DEKIMAS
1000
実線（細）
1040
0.15
1001
DIMEXPLODE
1070
     0
1001
ASKOBJSC
1000
1/1
1001
ASKDWGSC
1040
10.0
  0
LINE
  5
1165
330
1F
100
AcDbEntity
  8
F00001_1
  6
Continuous
 62
     4
100
AcDbLine
 10
3049.99995455173
 20
649.9999182357777
 30
0.0
 11
3049.99995455173
 21
274.9999238237132
 31
0.0
1001
DEKIMAS
1000
実線（細）
1040
0.15
1001
DIMEXPLODE
1070
     0
1001
ASKOBJSC
1000
1/1
1001
ASKDWGSC
1040
10.0
  0
LINE
  5
1166
330
1F
100
AcDbEntity
  8
F00001_1
  6
Continuous
 62
     4
100
AcDbLine
 10
2919.99995648888
 20
524.9999200984229
 30
0.0
 11
2919.99995648888
 21
374.999922333597
 31
0.0
1001
DEKIMAS
1000
実線（細）
1040
0.15
1001
DIMEXPLODE
1070
     0
1001
ASKOBJSC
1000
1/1
1001
ASKDWGSC
1040
10.0
  0
LINE
  5
1167
330
1F
100
AcDbEntity
  8
F00001_1
  6
Continuous
 62
     4
100
AcDbLine
 10
2789.999958426032
 20
474.9999208434809
 30
0.0
 11
3309.999950677398
 21
474.9999208434809
 31
0.0
1001
DEKIMAS
1000
実線（細）
1040
0.15
1001
DIMEXPLODE
1070
     0
1001
ASKOBJSC
1000
1/1
1001
ASKDWGSC
1040
10.0
  0
LINE
  5
1168
330
1F
100
AcDbEntity
  8
F00001_1
  6
Continuous
 62
     4
100
AcDbLine
 10
2789.999958426032
 20
374.999922333597
 30
0.0
 11
3309.999950677398
 21
374.999922333597
 31
0.0
1001
DEKIMAS
1000
実線（細）
1040
0.15
1001
DIMEXPLODE
1070
     0
1001
ASKOBJSC
1000
1/1
1001
ASKDWGSC
1040
10.0
  0
LINE
  5
1169
330
1F
100
AcDbEntity
  8
F00001_1
  6
Continuous
 62
     4
100
AcDbLine
 10
2834.999957755479
 20
374.999922333597
 30
0.0
 11
2834.999957755479
 21
274.9999238237132
 31
0.0
1001
DEKIMAS
1000
実線（細）
1040
0.15
1001
DIMEXPLODE
1070
     0
1001
ASKOBJSC
1000
1/1
1001
ASKDWGSC
1040
10.0
  0
LINE
  5
116A
330
1F
100
AcDbEntity
  8
F00001_1
  6
Continuous
 62
     4
100
AcDbLine
 10
3094.999953881177
 20
374.999922333597
 30
0.0
 11
3094.999953881177
 21
274.9999238237132
 31
0.0
1001
DEKIMAS
1000
実線（細）
1040
0.15
1001
DIMEXPLODE
1070
     0
1001
ASKOBJSC
1000
1/1
1001
ASKDWGSC
1040
10.0
  0
LINE
  5
116B
330
1F
100
AcDbEntity
  8
F00001_1
  6
Continuous
 62
     4
100
AcDbLine
 10
3309.999950677398
 20
524.9999200984229
 30
0.0
 11
3309.999950677398
 21
150.0000019803673
 31
0.0
1001
DEKIMAS
1000
実線（細）
1040
0.15
1001
DIMEXPLODE
1070
     0
1001
ASKOBJSC
1000
1/1
1001
ASKDWGSC
1040
10.0
  0
LINE
  5
116C
330
1F
100
AcDbEntity
  8
F00001_1
  6
Continuous
 62
     4
100
AcDbLine
 10
3179.999952614549
 20
524.9999200984229
 30
0.0
 11
3179.999952614549
 21
374.999922333597
 31
0.0
1001
DEKIMAS
1000
実線（細）
1040
0.15
1001
DIMEXPLODE
1070
     0
1001
ASKOBJSC
1000
1/1
1001
ASKDWGSC
1040
10.0
  0
LINE
  5
116D
330
1F
100
AcDbEntity
  8
F00001_1
  6
Continuous
 62
     4
100
AcDbLine
 10
3364.999949857834
 20
524.9999200984229
 30
0.0
 11
3364.999949857834
 21
150.0000019803673
 31
0.0
1001
DEKIMAS
1000
実線（細）
1040
0.15
1001
DIMEXPLODE
1070
     0
1001
ASKOBJSC
1000
1/1
1001
ASKDWGSC
1040
10.0
  0
LINE
  5
116E
330
1F
100
AcDbEntity
  8
F00001_1
  6
Continuous
 62
     4
100
AcDbLine
 10
2789.999958426032
 20
719.9999171926964
 30
0.0
 11
2789.999958426032
 21
649.9999182357777
 31
0.0
1001
DEKIMAS
1000
実線（細）
1040
0.15
1001
DIMEXPLODE
1070
     0
1001
ASKOBJSC
1000
1/1
1001
ASKDWGSC
1040
10.0
  0
LINE
  5
116F
330
1F
100
AcDbEntity
  8
F00001_1
  6
Continuous
 62
     4
100
AcDbLine
 10
2789.999958426032
 20
719.9999171926964
 30
0.0
 11
4009.999940246585
 21
719.9999171926964
 31
0.0
1001
DEKIMAS
1000
実線（細）
1040
0.15
1001
DIMEXPLODE
1070
     0
1001
ASKOBJSC
1000
1/1
1001
ASKDWGSC
1040
10.0
  0
LINE
  5
1170
330
1F
100
AcDbEntity
  8
F00001_1
  6
Continuous
 62
     2
100
AcDbLine
 10
209.9999968710967
 20
2839.999961896145
 30
0.0
 11
209.9999968710967
 21
150.0000019803673
 31
0.0
1001
DEKIMAS
1000
実線（太）
1040
0.5
1001
DIMEXPLODE
1070
     0
1001
ASKOBJSC
1000
1/1
1001
ASKDWGSC
1040
10.0
  0
LINE
  5
1171
330
1F
100
AcDbEntity
  8
F00001_1
  6
Continuous
 62
     2
100
AcDbLine
 10
4009.999940246585
 20
2839.999961896145
 30
0.0
 11
4009.999940246585
 21
150.0000019803673
 31
0.0
1001
DEKIMAS
1000
実線（太）
1040
0.5
1001
DIMEXPLODE
1070
     0
1001
ASKOBJSC
1000
1/1
1001
ASKDWGSC
1040
10.0
  0
LINE
  5
1172
330
1F
100
AcDbEntity
  8
F00001_1
  6
Continuous
 62
     2
100
AcDbLine
 10
209.9999968710967
 20
2839.999961896145
 30
0.0
 11
4009.999940246585
 21
2839.999961896145
 31
0.0
1001
DEKIMAS
1000
実線（太）
1040
0.5
1001
DIMEXPLODE
1070
     0
1001
ASKOBJSC
1000
1/1
1001
ASKDWGSC
1040
10.0
  0
LINE
  5
1173
330
1F
100
AcDbEntity
  8
F00001_1
  6
Continuous
 62
     2
100
AcDbLine
 10
209.9999968710967
 20
150.0000019803673
 30
0.0
 11
4009.999940246585
 21
150.0000019803673
 31
0.0
1001
DEKIMAS
1000
実線（太）
1040
0.5
1001
DIMEXPLODE
1070
     0
1001
ASKOBJSC
1000
1/1
1001
ASKDWGSC
1040
10.0
  0
LINE
  5
1174
330
1F
100
AcDbEntity
  8
F00001_1
  6
Continuous
 62
     4
100
AcDbLine
 10
209.9999968710967
 20
2774.999962864719
 30
0.0
 11
1099.999983609063
 21
2774.999962864719
 31
0.0
1001
DEKIMAS
1000
実線（細）
1040
0.15
1001
DIMEXPLODE
1070
     0
1001
ASKOBJSC
1000
1/1
1001
ASKDWGSC
1040
10.0
  0
LINE
  5
1175
330
1F
100
AcDbEntity
  8
F00001_1
  6
Continuous
 62
     4
100
AcDbLine
 10
1099.999983609063
 20
2839.999961896145
 30
0.0
 11
1099.999983609063
 21
2774.999962864719
 31
0.0
1001
DEKIMAS
1000
実線（細）
1040
0.15
1001
DIMEXPLODE
1070
     0
1001
ASKOBJSC
1000
1/1
1001
ASKDWGSC
1040
10.0
  0
LINE
  5
1176
330
1F
100
AcDbEntity
  8
F00001_1
  6
Continuous
 62
     4
100
AcDbLine
 10
969.9999855462142
 20
2839.999961896145
 30
0.0
 11
969.9999855462142
 21
2774.999962864719
 31
0.0
1001
DEKIMAS
1000
実線（細）
1040
0.15
1001
DIMEXPLODE
1070
     0
1001
ASKOBJSC
1000
1/1
1001
ASKDWGSC
1040
10.0
  0
LINE
  5
1177
330
1F
100
AcDbEntity
  8
F00001_1
  6
Continuous
 62
     4
100
AcDbLine
 10
804.9999880049059
 20
2839.999961896145
 30
0.0
 11
804.9999880049059
 21
2774.999962864719
 31
0.0
1001
DEKIMAS
1000
実線（細）
1040
0.15
1001
DIMEXPLODE
1070
     0
1001
ASKOBJSC
1000
1/1
1001
ASKDWGSC
1040
10.0
  0
LINE
  5
1178
330
1F
100
AcDbEntity
  8
F00001_1
  6
Continuous
 62
     4
100
AcDbLine
 10
344.99999485944
 20
2839.999961896145
 30
0.0
 11
344.99999485944
 21
2774.999962864719
 31
0.0
1001
DEKIMAS
1000
実線（細）
1040
0.15
1001
DIMEXPLODE
1070
     0
1001
ASKOBJSC
1000
1/1
1001
ASKDWGSC
1040
10.0
  0
LINE
  5
1179
330
1F
100
AcDbEntity
  8
F00001_1
  6
Continuous
 62
     4
100
AcDbLine
 10
3170.68045911012
 20
293.1799636882096
 30
0.0
 11
3234.320071150815
 21
356.8195703644855
 31
0.0
1001
DEKIMAS
1000
実線（細）
1040
0.15
1001
DIMEXPLODE
1070
     0
1001
ASKOBJSC
1000
1/1
1001
ASKDWGSC
1040
10.0
  0
LINE
  5
117A
330
1F
100
AcDbEntity
  8
F00001_1
  6
Continuous
 62
     7
100
AcDbLine
 10
3919.99994158769
 20
184.3783584016199
 30
0.0
 11
3989.999940544608
 21
184.3783584016199
 31
0.0
1001
DEKIMAS
1000
実線（中）
1040
0.25
1001
DIMEXPLODE
1070
     0
1001
ASKOBJSC
1000
1/1
1001
ASKDWGSC
1040
10.0
  0
LINE
  5
117B
330
1F
100
AcDbEntity
  8
F00001_1
  6
Continuous
 62
     7
100
AcDbLine
 10
3920.000909948275
 20
184.3775280244623
 30
0.0
 11
3955.000893953635
 21
244.9992702711078
 31
0.0
1001
DEKIMAS
1000
実線（中）
1040
0.25
1001
DIMEXPLODE
1070
     0
1001
ASKOBJSC
1000
1/1
1001
ASKDWGSC
1040
10.0
  0
LINE
  5
117C
330
1F
100
AcDbEntity
  8
F00001_1
  6
Continuous
 62
     7
100
AcDbLine
 10
3955.000125780546
 20
245.0000580568761
 30
0.0
 11
3990.000128859405
 21
184.3782827739809
 31
0.0
1001
DEKIMAS
1000
実線（中）
1040
0.25
1001
DIMEXPLODE
1070
     0
1001
ASKOBJSC
1000
1/1
1001
ASKDWGSC
1040
10.0
  0
LINE
  5
117D
330
1F
100
AcDbEntity
  8
F00001_1
  6
Continuous
 62
     4
100
AcDbLine
 10
9.999999851328993
 20
110.0000025764137
 30
0.0
 11
9.999999851328993
 21
10.00000406652987
 31
0.0
1001
DEKIMAS
1000
実線（細）
1040
0.15
1001
DIMEXPLODE
1070
     0
1001
ASKOBJSC
1000
1/1
1001
ASKDWGSC
1040
10.0
  0
LINE
  5
117E
330
1F
100
AcDbEntity
  8
F00001_1
  6
Continuous
 62
     4
100
AcDbLine
 10
4109.999938756469
 20
2979.999959809982
 30
0.0
 11
4209.999937266352
 21
2979.999959809982
 31
0.0
1001
DEKIMAS
1000
実線（細）
1040
0.15
1001
DIMEXPLODE
1070
     0
1001
ASKOBJSC
1000
1/1
1001
ASKDWGSC
1040
10.0
  0
LINE
  5
117F
330
1F
100
AcDbEntity
  8
F00001_1
  6
Continuous
 62
     4
100
AcDbLine
 10
4209.999937266352
 20
110.0000025764137
 30
0.0
 11
4209.999937266352
 21
10.00000406652987
 31
0.0
1001
DEKIMAS
1000
実線（細）
1040
0.15
1001
DIMEXPLODE
1070
     0
1001
ASKOBJSC
1000
1/1
1001
ASKDWGSC
1040
10.0
  0
LINE
  5
1180
330
1F
100
AcDbEntity
  8
F00001_1
  6
Continuous
 62
     4
100
AcDbLine
 10
4109.999938756469
 20
10.00000406652987
 30
0.0
 11
4209.999937266352
 21
10.00000406652987
 31
0.0
1001
DEKIMAS
1000
実線（細）
1040
0.15
1001
DIMEXPLODE
1070
     0
1001
ASKOBJSC
1000
1/1
1001
ASKDWGSC
1040
10.0
  0
LINE
  5
1181
330
1F
100
AcDbEntity
  8
F00001_1
  6
Continuous
 62
     4
100
AcDbLine
 10
2909.999956637892
 20
719.9999171926964
 30
0.0
 11
2909.999956637892
 21
649.9999182357777
 31
0.0
1001
DEKIMAS
1000
実線（細）
1040
0.15
1001
DIMEXPLODE
1070
     0
1001
ASKOBJSC
1000
1/1
1001
ASKDWGSC
1040
10.0
  0
LINE
  5
1182
330
1F
100
AcDbEntity
  8
F00001_1
  6
Continuous
 62
     4
100
AcDbLine
 10
3209.999952167514
 20
719.9999171926964
 30
0.0
 11
3209.999952167514
 21
649.9999182357777
 31
0.0
1001
DEKIMAS
1000
実線（細）
1040
0.15
1001
DIMEXPLODE
1070
     0
1001
ASKOBJSC
1000
1/1
1001
ASKDWGSC
1040
10.0
  0
LINE
  5
1183
330
1F
100
AcDbEntity
  8
F00001_1
  6
Continuous
 62
     4
100
AcDbLine
 10
3359.99994993234
 20
719.9999171926964
 30
0.0
 11
3359.99994993234
 21
649.9999182357777
 31
0.0
1001
DEKIMAS
1000
実線（細）
1040
0.15
1001
DIMEXPLODE
1070
     0
1001
ASKOBJSC
1000
1/1
1001
ASKDWGSC
1040
10.0
  0
LINE
  5
1184
330
1F
100
AcDbEntity
  8
F00001_1
  6
Continuous
 62
     4
100
AcDbLine
 10
3509.999947697166
 20
719.9999171926964
 30
0.0
 11
3509.999947697166
 21
649.9999182357777
 31
0.0
1001
DEKIMAS
1000
実線（細）
1040
0.15
1001
DIMEXPLODE
1070
     0
1001
ASKOBJSC
1000
1/1
1001
ASKDWGSC
1040
10.0
  0
LINE
  5
1185
330
1F
100
AcDbEntity
  8
F00001_1
  6
Continuous
 62
     4
100
AcDbLine
 10
3659.999945461991
 20
719.9999171926964
 30
0.0
 11
3659.999945461991
 21
649.9999182357777
 31
0.0
1001
DEKIMAS
1000
実線（細）
1040
0.15
1001
DIMEXPLODE
1070
     0
1001
ASKOBJSC
1000
1/1
1001
ASKDWGSC
1040
10.0
  0
LINE
  5
1186
330
1F
100
AcDbEntity
  8
F00001_1
  6
Continuous
 62
     4
100
AcDbLine
 10
1862.238894369898
 20
194.1853345738444
 30
0.0
 11
2628.870829177812
 21
194.1853345738444
 31
0.0
1001
DEKIMAS
1000
実線（細）
1040
0.15
1001
DIMEXPLODE
1070
     0
1001
ASKOBJSC
1000
1/1
1001
ASKDWGSC
1040
10.0
  0
LINE
  5
1187
330
1F
100
AcDbEntity
  8
F00001_1
  6
Continuous
 62
     4
100
AcDbLine
 10
2810.464764305012
 20
424.999921588539
 30
0.0
 11
2902.391232598881
 21
424.999921588539
 31
0.0
1001
DEKIMAS
1000
実線（細）
1040
0.15
1001
DIMEXPLODE
1070
     0
1001
ASKOBJSC
1000
1/1
1001
ASKDWGSC
1040
10.0
  0
LINE
  5
1188
330
1F
100
AcDbEntity
  8
画層1
  6
Continuous
 62
     4
100
AcDbLine
 10
1099.999983609063
 20
2774.999962864719
 30
0.0
 11
1099.999983609063
 21
2714.999963758789
 31
0.0
1001
DEKIMAS
1000
実線（細）
1040
0.15
1001
DIMEXPLODE
1070
     0
1001
ASKOBJSC
1000
1/1
1001
ASKDWGSC
1040
10.0
  0
LINE
  5
1189
330
1F
100
AcDbEntity
  8
画層1
  6
Continuous
 62
     4
100
AcDbLine
 10
969.9999855462142
 20
2774.999962864719
 30
0.0
 11
969.9999855462142
 21
2714.999963758789
 31
0.0
1001
DEKIMAS
1000
実線（細）
1040
0.15
1001
DIMEXPLODE
1070
     0
1001
ASKOBJSC
1000
1/1
1001
ASKDWGSC
1040
10.0
  0
LINE
  5
118A
330
1F
100
AcDbEntity
  8
画層1
  6
Continuous
 62
     4
100
AcDbLine
 10
804.9999880049059
 20
2774.999962864719
 30
0.0
 11
804.9999880049059
 21
2714.999963758789
 31
0.0
1001
DEKIMAS
1000
実線（細）
1040
0.15
1001
DIMEXPLODE
1070
     0
1001
ASKOBJSC
1000
1/1
1001
ASKDWGSC
1040
10.0
  0
LINE
  5
118B
330
1F
100
AcDbEntity
  8
画層1
  6
Continuous
 62
     4
100
AcDbLine
 10
344.99999485944
 20
2774.999962864719
 30
0.0
 11
344.99999485944
 21
2714.999963758789
 31
0.0
1001
DEKIMAS
1000
実線（細）
1040
0.15
1001
DIMEXPLODE
1070
     0
1001
ASKOBJSC
1000
1/1
1001
ASKDWGSC
1040
10.0
  0
LINE
  5
118C
330
1F
100
AcDbEntity
  8
画層1
  6
Continuous
 62
     4
100
AcDbLine
 10
209.9999968710967
 20
2714.999963758789
 30
0.0
 11
1099.999983609063
 21
2714.999963758789
 31
0.0
1001
DEKIMAS
1000
実線（細）
1040
0.15
1001
DIMEXPLODE
1070
     0
1001
ASKOBJSC
1000
1/1
1001
ASKDWGSC
1040
10.0
  0
LINE
  5
118D
330
1F
100
AcDbEntity
  8
画層1
  6
Continuous
 62
     4
100
AcDbLine
 10
302.4287953429003
 20
2725.563704031977
 30
0.0
 11
277.500151769066
 21
2768.798155187333
 31
0.0
1001
DEKIMAS
1000
実線（細）
1040
0.15
1001
DIMEXPLODE
1070
     0
1001
ASKOBJSC
1000
1/1
1001
ASKDWGSC
1040
10.0
  0
LINE
  5
118E
330
1F
100
AcDbEntity
  8
画層1
  6
Continuous
 62
     4
100
AcDbLine
 10
277.5001892224655
 20
2768.798006614237
 30
0.0
 11
252.4970942171405
 21
2725.563488477681
 31
0.0
1001
DEKIMAS
1000
実線（細）
1040
0.15
1001
DIMEXPLODE
1070
     0
1001
ASKOBJSC
1000
1/1
1001
ASKDWGSC
1040
10.0
  0
LINE
  5
118F
330
1F
100
AcDbEntity
  8
画層1
  6
Continuous
 62
     4
100
AcDbLine
 10
252.4969444800429
 20
2725.563623269379
 30
0.0
 11
302.4287369489012
 21
2725.563623269379
 31
0.0
1001
DEKIMAS
1000
実線（細）
1040
0.15
1001
DIMEXPLODE
1070
     0
1001
ASKOBJSC
1000
1/1
1001
ASKDWGSC
1040
10.0
  0
MTEXT
  5
1190
330
1F
100
AcDbEntity
  8
F00001_1
  6
Continuous
 62
     4
100
AcDbMText
 10
280.2354121295725
 20
2807.499962380432
 30
0.0
 40
24.99999962747097
 41
0.0
 71
     5
 72
     5
  1
\T1.40;\W0.60;記　号
  7
STD
 73
     1
 44
1.0
1001
DEKIMAS
1040
0.15
1001
ASKOBJSC
1000
1/1
1001
ASKDWGSC
1040
10.0
1001
ACAD
1000
MTEXTBEGIN
1070
    73
1070
     1
1070
    44
1040
1.0
1070
    74
1070
     0
1000
MTEXTEND
  0
MTEXT
  5
1191
330
1F
100
AcDbEntity
  8
F00001_1
  6
Continuous
 62
     4
100
AcDbMText
 10
578.7354076815758
 20
2807.499962380432
 30
0.0
 40
24.99999962747097
 41
0.0
 71
     5
 72
     5
  1
\T1.40;\W0.60;来　　　　　　　　　　　歴
  7
STD
 73
     1
 44
1.0
1001
DEKIMAS
1040
0.15
1001
ASKOBJSC
1000
1/1
1001
ASKDWGSC
1040
10.0
1001
ACAD
1000
MTEXTBEGIN
1070
    73
1070
     1
1070
    44
1040
1.0
1070
    74
1070
     0
1000
MTEXTEND
  0
MTEXT
  5
1192
330
1F
100
AcDbEntity
  8
F00001_1
  6
Continuous
 62
     4
100
AcDbMText
 10
889.4354030517854
 20
2807.499962380432
 30
0.0
 40
24.99999962747097
 41
0.0
 71
     5
 72
     5
  1
\T1.40;\W0.60;年　月　日
  7
STD
 73
     1
 44
1.0
1001
DEKIMAS
1040
0.15
1001
ASKOBJSC
1000
1/1
1001
ASKDWGSC
1040
10.0
1001
ACAD
1000
MTEXTBEGIN
1070
    73
1070
     1
1070
    44
1040
1.0
1070
    74
1070
     0
1000
MTEXTEND
  0
MTEXT
  5
1193
330
1F
100
AcDbEntity
  8
F00001_1
  6
Continuous
 62
     4
100
AcDbMText
 10
1037.735400841943
 20
2807.499962380432
 30
0.0
 40
24.99999962747097
 41
0.0
 71
     5
 72
     5
  1
\T1.40;\W0.60;記　入
  7
STD
 73
     1
 44
1.0
1001
DEKIMAS
1040
0.15
1001
ASKOBJSC
1000
1/1
1001
ASKDWGSC
1040
10.0
1001
ACAD
1000
MTEXTBEGIN
1070
    73
1070
     1
1070
    44
1040
1.0
1070
    74
1070
     0
1000
MTEXTEND
  0
MTEXT
  5
1194
330
1F
100
AcDbEntity
  8
F00001_1
  6
Continuous
 62
     4
100
AcDbMText
 10
2853.282457168336
 20
684.9999177142371
 30
0.0
 40
29.99999955296517
 41
0.0
 71
     5
 72
     5
  1
\T1.40;\W0.60;品　番
  7
STD
 73
     1
 44
1.0
1001
DEKIMAS
1040
0.15
1001
ASKOBJSC
1000
1/1
1001
ASKDWGSC
1040
10.0
1001
ACAD
1000
MTEXTBEGIN
1070
    73
1070
     1
1070
    44
1040
1.0
1070
    74
1070
     0
1000
MTEXTEND
  0
MTEXT
  5
1195
330
1F
100
AcDbEntity
  8
F00001_1
  6
Continuous
 62
     4
100
AcDbMText
 10
3063.76245403194
 20
684.9999177142371
 30
0.0
 40
29.99999955296517
 41
0.0
 71
     5
 72
     5
  1
\T1.40;\W0.60;名　　　　　称
  7
STD
 73
     1
 44
1.0
1001
DEKIMAS
1040
0.15
1001
ASKOBJSC
1000
1/1
1001
ASKDWGSC
1040
10.0
1001
ACAD
1000
MTEXTBEGIN
1070
    73
1070
     1
1070
    44
1040
1.0
1070
    74
1070
     0
1000
MTEXTEND
  0
MTEXT
  5
1196
330
1F
100
AcDbEntity
  8
F00001_1
  6
Continuous
 62
     4
100
AcDbMText
 10
3438.282448451127
 20
684.9999177142371
 30
0.0
 40
29.99999955296517
 41
0.0
 71
     5
 72
     5
  1
\T1.40;\W0.60;材　質
  7
STD
 73
     1
 44
1.0
1001
DEKIMAS
1040
0.15
1001
ASKOBJSC
1000
1/1
1001
ASKDWGSC
1040
10.0
1001
ACAD
1000
MTEXTBEGIN
1070
    73
1070
     1
1070
    44
1040
1.0
1070
    74
1070
     0
1000
MTEXTEND
  0
MTEXT
  5
1197
330
1F
100
AcDbEntity
  8
F00001_1
  6
Continuous
 62
     4
100
AcDbMText
 10
3588.282446215953
 20
684.9999177142371
 30
0.0
 40
29.99999955296517
 41
0.0
 71
     5
 72
     5
  1
\T1.40;\W0.60;個　数
  7
STD
 73
     1
 44
1.0
1001
DEKIMAS
1040
0.15
1001
ASKOBJSC
1000
1/1
1001
ASKDWGSC
1040
10.0
1001
ACAD
1000
MTEXTBEGIN
1070
    73
1070
     1
1070
    44
1040
1.0
1070
    74
1070
     0
1000
MTEXTEND
  0
MTEXT
  5
1198
330
1F
100
AcDbEntity
  8
F00001_1
  6
Continuous
 62
     4
100
AcDbMText
 10
3838.83101391106
 20
684.9999177142371
 30
0.0
 40
29.99999955296517
 41
0.0
 71
     5
 72
     5
  1
\T1.40;\W0.60;摘　　　　　　　要
  7
STD
 73
     1
 44
1.0
1001
DEKIMAS
1040
0.15
1001
ASKOBJSC
1000
1/1
1001
ASKDWGSC
1040
10.0
1001
ACAD
1000
MTEXTBEGIN
1070
    73
1070
     1
1070
    44
1040
1.0
1070
    74
1070
     0
1000
MTEXTEND
  0
MTEXT
  5
1199
330
1F
100
AcDbEntity
  8
F00001_1
  6
Continuous
 62
     4
100
AcDbMText
 10
2924.696622864626
 20
587.4999191671003
 30
0.0
 40
39.99999940395356
 41
0.0
 71
     5
 72
     5
  1
\T1.40;\W0.60;納　入　先
  7
STD
 73
     1
 44
1.0
1001
DEKIMAS
1040
0.15
1001
ASKOBJSC
1000
1/1
1001
ASKDWGSC
1040
10.0
1001
ACAD
1000
MTEXTBEGIN
1070
    73
1070
     1
1070
    44
1040
1.0
1070
    74
1070
     0
1000
MTEXTEND
  0
MTEXT
  5
119A
330
1F
100
AcDbEntity
  8
F00001_1
  6
Continuous
 62
     4
100
AcDbMText
 10
3055.432130365202
 20
212.4999247550357
 30
0.0
 40
39.99999940395356
 41
0.0
 71
     5
 72
     5
  1
\T1.40;\W0.46;ス　イ　コ　ー　株　式　会　社
  7
STD
 73
     1
 44
1.0
1001
DEKIMAS
1040
0.15
1001
ASKOBJSC
1000
1/1
1001
ASKDWGSC
1040
10.0
1001
ACAD
1000
MTEXTBEGIN
1070
    73
1070
     1
1070
    44
1040
1.0
1070
    74
1070
     0
1000
MTEXTEND
  0
MTEXT
  5
119B
330
1F
100
AcDbEntity
  8
F00001_1
  6
Continuous
 62
     4
100
AcDbMText
 10
3075.035370781761
 20
299.9999234511841
 30
0.0
 40
24.99999962747097
 41
0.0
 71
     5
 72
     5
  1
\T1.40;\W0.60;度
  7
STD
 73
     1
 44
1.0
1001
DEKIMAS
1040
0.15
1001
ASKOBJSC
1000
1/1
1001
ASKDWGSC
1040
10.0
1001
ACAD
1000
MTEXTBEGIN
1070
    73
1070
     1
1070
    44
1040
1.0
1070
    74
1070
     0
1000
MTEXTEND
  0
MTEXT
  5
119C
330
1F
100
AcDbEntity
  8
F00001_1
  6
Continuous
 62
     4
100
AcDbMText
 10
2857.735374019783
 20
499.9999204709519
 30
0.0
 40
24.99999962747097
 41
0.0
 71
     5
 72
     5
  1
\T1.40;\W0.60;設　計
  7
STD
 73
     1
 44
1.0
1001
DEKIMAS
1040
0.15
1001
ASKOBJSC
1000
1/1
1001
ASKDWGSC
1040
10.0
1001
ACAD
1000
MTEXTBEGIN
1070
    73
1070
     1
1070
    44
1040
1.0
1070
    74
1070
     0
1000
MTEXTEND
  0
MTEXT
  5
119D
330
1F
100
AcDbEntity
  8
F00001_1
  6
Continuous
 62
     4
100
AcDbMText
 10
2987.235372090083
 20
499.9999204709519
 30
0.0
 40
24.99999962747097
 41
0.0
 71
     5
 72
     5
  1
\T1.40;\W0.60;製　図
  7
STD
 73
     1
 44
1.0
1001
DEKIMAS
1040
0.15
1001
ASKOBJSC
1000
1/1
1001
ASKDWGSC
1040
10.0
1001
ACAD
1000
MTEXTBEGIN
1070
    73
1070
     1
1070
    44
1040
1.0
1070
    74
1070
     0
1000
MTEXTEND
  0
MTEXT
  5
119E
330
1F
100
AcDbEntity
  8
F00001_1
  6
Continuous
 62
     4
100
AcDbMText
 10
3117.235370152902
 20
499.9999204709519
 30
0.0
 40
24.99999962747097
 41
0.0
 71
     5
 72
     5
  1
\T1.40;\W0.60;検　図
  7
STD
 73
     1
 44
1.0
1001
DEKIMAS
1040
0.15
1001
ASKOBJSC
1000
1/1
1001
ASKDWGSC
1040
10.0
1001
ACAD
1000
MTEXTBEGIN
1070
    73
1070
     1
1070
    44
1040
1.0
1070
    74
1070
     0
1000
MTEXTEND
  0
MTEXT
  5
119F
330
1F
100
AcDbEntity
  8
F00001_1
  6
Continuous
 62
     4
100
AcDbMText
 10
3247.735368208301
 20
499.9999204709519
 30
0.0
 40
24.99999962747097
 41
0.0
 71
     5
 72
     5
  1
\T1.40;\W0.60;承　認
  7
STD
 73
     1
 44
1.0
1001
DEKIMAS
1040
0.15
1001
ASKOBJSC
1000
1/1
1001
ASKDWGSC
1040
10.0
1001
ACAD
1000
MTEXTBEGIN
1070
    73
1070
     1
1070
    44
1040
1.0
1070
    74
1070
     0
1000
MTEXTEND
  0
MTEXT
  5
11A0
330
1F
100
AcDbEntity
  8
F00001_1
  6
Continuous
 62
     4
100
AcDbMText
 10
3340.542449907566
 20
337.4999228923906
 30
0.0
 40
29.99999955296517
 41
0.0
 71
     5
 72
     5
  1
\T1.40;\W0.60;称
  7
STD
 73
     1
 44
1.0
1001
DEKIMAS
1040
0.15
1001
ASKOBJSC
1000
1/1
1001
ASKDWGSC
1040
10.0
1001
ACAD
1000
MTEXTBEGIN
1070
    73
1070
     1
1070
    44
1040
1.0
1070
    74
1070
     0
1000
MTEXTEND
  0
MTEXT
  5
11A1
330
1F
100
AcDbEntity
  8
F00001_1
  6
Continuous
 62
     4
100
AcDbMText
 10
3339.342449925448
 20
243.7499242893744
 30
0.0
 40
29.99999955296517
 41
0.0
 71
     5
 72
     5
  1
\T1.40;\W0.60;図
  7
STD
 73
     1
 44
1.0
1001
DEKIMAS
1040
0.15
1001
ASKOBJSC
1000
1/1
1001
ASKDWGSC
1040
10.0
1001
ACAD
1000
MTEXTBEGIN
1070
    73
1070
     1
1070
    44
1040
1.0
1070
    74
1070
     0
1000
MTEXTEND
  0
MTEXT
  5
11A2
330
1F
100
AcDbEntity
  8
F00001_1
  6
Continuous
 62
     4
100
AcDbMText
 10
3340.542449907566
 20
181.250001514646
 30
0.0
 40
29.99999955296517
 41
0.0
 71
     5
 72
     5
  1
\T1.40;\W0.60;番
  7
STD
 73
     1
 44
1.0
1001
DEKIMAS
1040
0.15
1001
ASKOBJSC
1000
1/1
1001
ASKDWGSC
1040
10.0
1001
ACAD
1000
MTEXTBEGIN
1070
    73
1070
     1
1070
    44
1040
1.0
1070
    74
1070
     0
1000
MTEXTEND
  0
MTEXT
  5
11A3
330
1F
100
AcDbEntity
  8
F00001_1
  6
Continuous
 62
     4
100
AcDbMText
 10
3339.942449916507
 20
462.4999210297454
 30
0.0
 40
29.99999955296517
 41
0.0
 71
     5
 72
     5
  1
\T1.40;\W0.60;名
  7
STD
 73
     1
 44
1.0
1001
DEKIMAS
1040
0.15
1001
ASKOBJSC
1000
1/1
1001
ASKDWGSC
1040
10.0
1001
ACAD
1000
MTEXTBEGIN
1070
    73
1070
     1
1070
    44
1040
1.0
1070
    74
1070
     0
1000
MTEXTEND
  0
MTEXT
  5
11A4
330
1F
100
AcDbEntity
  8
F00001_1
  6
Continuous
 62
     4
100
AcDbMText
 10
3075.035370483738
 20
349.9999227061261
 30
0.0
 40
24.99999962747097
 41
0.0
 71
     5
 72
     5
  1
\T1.40;\W0.60;尺
  7
STD
 73
     1
 44
1.0
1001
DEKIMAS
1040
0.15
1001
ASKOBJSC
1000
1/1
1001
ASKDWGSC
1040
10.0
1001
ACAD
1000
MTEXTBEGIN
1070
    73
1070
     1
1070
    44
1040
1.0
1070
    74
1070
     0
1000
MTEXTEND
  0
MTEXT
  5
11A5
330
1F
100
AcDbEntity
  8
F00001_1
  6
Continuous
 62
     4
100
AcDbMText
 10
2813.728290997294
 20
324.9999230786551
 30
0.0
 40
19.99999970197678
 41
0.0
 71
     5
 72
     5
  1
\T1.40;\W0.60;月
  7
STD
 73
     1
 44
1.0
1001
DEKIMAS
1040
0.15
1001
ASKOBJSC
1000
1/1
1001
ASKDWGSC
1040
10.0
1001
ACAD
1000
MTEXTBEGIN
1070
    73
1070
     1
1070
    44
1040
1.0
1070
    74
1070
     0
1000
MTEXTEND
  0
MTEXT
  5
11A6
330
1F
100
AcDbEntity
  8
F00001_1
  6
Continuous
 62
     4
100
AcDbMText
 10
2812.928291009215
 20
291.9998930528142
 30
0.0
 40
19.99999970197678
 41
0.0
 71
     5
 72
     5
  1
\T1.40;\W0.60;日
  7
STD
 73
     1
 44
1.0
1001
DEKIMAS
1040
0.15
1001
ASKOBJSC
1000
1/1
1001
ASKDWGSC
1040
10.0
1001
ACAD
1000
MTEXTBEGIN
1070
    73
1070
     1
1070
    44
1040
1.0
1070
    74
1070
     0
1000
MTEXTEND
  0
MTEXT
  5
11A7
330
1F
100
AcDbEntity
  8
F00001_1
  6
Continuous
 62
     4
100
AcDbMText
 10
2814.528290985374
 20
308.4998317717958
 30
0.0
 40
19.99999970197678
 41
0.0
 71
     5
 72
     5
  1
\T1.40;\W0.60;・
  7
STD
 73
     1
 44
1.0
1001
DEKIMAS
1040
0.15
1001
ASKOBJSC
1000
1/1
1001
ASKDWGSC
1040
10.0
1001
ACAD
1000
MTEXTBEGIN
1070
    73
1070
     1
1070
    44
1040
1.0
1070
    74
1070
     0
1000
MTEXTEND
  0
MTEXT
  5
11A8
330
1F
100
AcDbEntity
  8
F00001_1
  6
Continuous
 62
     4
100
AcDbMText
 10
2814.528290985374
 20
341.5000143855146
 30
0.0
 40
19.99999970197678
 41
0.0
 71
     5
 72
     5
  1
\T1.40;\W0.60;・
  7
STD
 73
     1
 44
1.0
1001
DEKIMAS
1040
0.15
1001
ASKOBJSC
1000
1/1
1001
ASKDWGSC
1040
10.0
1001
ACAD
1000
MTEXTBEGIN
1070
    73
1070
     1
1070
    44
1040
1.0
1070
    74
1070
     0
1000
MTEXTEND
  0
MTEXT
  5
11A9
330
1F
100
AcDbEntity
  8
F00001_1
  6
Continuous
 62
     4
100
AcDbMText
 10
2814.528290985374
 20
357.9998005166086
 30
0.0
 40
19.99999970197678
 41
0.0
 71
     5
 72
     5
  1
\T1.40;\W0.60;年
  7
STD
 73
     1
 44
1.0
1001
DEKIMAS
1040
0.15
1001
ASKOBJSC
1000
1/1
1001
ASKDWGSC
1040
10.0
1001
ACAD
1000
MTEXTBEGIN
1070
    73
1070
     1
1070
    44
1040
1.0
1070
    74
1070
     0
1000
MTEXTEND
  0
MTEXT
  5
11AA
330
1F
100
AcDbEntity
  8
F00001_1
  6
Continuous
 62
     4
100
AcDbMText
 10
3288.282450686301
 20
684.9999177142371
 30
0.0
 40
29.99999955296517
 41
0.0
 71
     5
 72
     5
  1
\T1.40;\W0.60;サイズ
  7
STD
 73
     1
 44
1.0
1001
DEKIMAS
1040
0.15
1001
ASKOBJSC
1000
1/1
1001
ASKDWGSC
1040
10.0
1001
ACAD
1000
MTEXTBEGIN
1070
    73
1070
     1
1070
    44
1040
1.0
1070
    74
1070
     0
1000
MTEXTEND
  0
MTEXT
  5
11AB
330
1F
100
AcDbEntity
  8
F00001_1
  6
Continuous
 62
     4
100
AcDbMText
 10
3399.284324060854
 20
212.4999247550357
 30
0.0
 40
59.99999910593034
 41
0.0
 71
     4
 72
     5
  1
\T1.40;\W0.60;２４０４０５－１２
  7
STD
 73
     1
 44
1.0
1001
DEKIMAS
1040
0.15
1001
ASKOBJSC
1000
1/1
1001
ASKDWGSC
1040
10.0
1001
ACAD
1000
MTEXTBEGIN
1070
    73
1070
     1
1070
    44
1040
1.0
1070
    74
1070
     0
1000
MTEXTEND
  0
MTEXT
  5
11AC
330
1F
100
AcDbEntity
  8
F00001_1
  6
Continuous
 62
     4
100
AcDbMText
 10
3414.134787706765
 20
384.2214950721649
 30
0.0
 40
59.99999910593034
 41
0.0
 71
     4
 72
     5
  1
\T1.40;\W0.60;\A1;除草剤タンク２００\H.75x;\SＬ^ 
  7
STD
 73
     1
 44
1.0
1001
DEKIMAS
1040
0.15
1001
ASKOBJSC
1000
1/1
1001
ASKDWGSC
1040
10.0
1001
ACAD
1000
MTEXTBEGIN
1070
    73
1070
     1
1070
    44
1040
1.0
1070
    74
1070
     0
1000
MTEXTEND
  0
MTEXT
  5
11AD
330
1F
100
AcDbEntity
  8
F00001_1
  6
Continuous
 62
     4
100
AcDbMText
 10
3220.649850657039
 20
309.0900417239312
 30
0.0
 40
31.99999952316285
 41
0.0
 71
     4
 72
     5
  1
\T1.40;\W0.60;１０
  7
STD
 73
     1
 44
1.0
1001
DEKIMAS
1040
0.15
1001
ASKOBJSC
1000
1/1
1001
ASKDWGSC
1040
10.0
1001
ACAD
1000
MTEXTBEGIN
1070
    73
1070
     1
1070
    44
1040
1.0
1070
    74
1070
     0
1000
MTEXTEND
  0
MTEXT
  5
11AE
330
1F
100
AcDbEntity
  8
F00001_1
  6
Continuous
 62
     4
100
AcDbMText
 10
3172.920206592867
 20
340.9098044333797
 30
0.0
 40
31.99999952316285
 41
0.0
 71
     4
 72
     5
  1
\T1.40;\W0.60;１
  7
STD
 73
     1
 44
1.0
1001
DEKIMAS
1040
0.15
1001
ASKOBJSC
1000
1/1
1001
ASKDWGSC
1040
10.0
1001
ACAD
1000
MTEXTBEGIN
1070
    73
1070
     1
1070
    44
1040
1.0
1070
    74
1070
     0
1000
MTEXTEND
  0
MTEXT
  5
11AF
330
1F
100
AcDbEntity
  8
F00001_1
  6
Continuous
 62
     4
100
AcDbMText
 10
2943.496242645317
 20
324.9999230786551
 30
0.0
 40
31.99999952316285
 41
0.0
 71
     5
 72
     5
  1
\T1.40;\W0.41;Ｓ６１．１２．２３
  7
STD
 73
     1
 44
1.0
1001
DEKIMAS
1040
0.15
1001
ASKOBJSC
1000
1/1
1001
ASKDWGSC
1040
10.0
1001
ACAD
1000
MTEXTBEGIN
1070
    73
1070
     1
1070
    44
1040
1.0
1070
    74
1070
     0
1000
MTEXTEND
  0
MTEXT
  5
11B0
330
1F
100
AcDbEntity
  8
F00001_1
  6
Continuous
 62
     4
100
AcDbMText
 10
1882.948251322961
 20
229.1853340523038
 30
0.0
 40
31.99999952316285
 41
0.0
 71
     4
 72
     5
  1
\T1.40;\W0.60;注記　１．タンク寸法公差ハ、±１．５％トスル。
  7
STD
 73
     1
 44
1.0
1001
DEKIMAS
1040
0.15
1001
ASKOBJSC
1000
1/1
1001
ASKDWGSC
1040
10.0
1001
ACAD
1000
MTEXTBEGIN
1070
    73
1070
     1
1070
    44
1040
1.0
1070
    74
1070
     0
1000
MTEXTEND
  0
MTEXT
  5
11B1
330
1F
100
AcDbEntity
  8
F00001_1
  6
Continuous
 62
     4
100
AcDbMText
 10
2964.741289910474
 20
427.6489447990055
 30
0.0
 40
31.99999952316285
 41
0.0
 71
     4
 72
     5
  1
\T1.40;\W0.60;小倉
  7
STD
 73
     1
 44
1.0
1001
DEKIMAS
1040
0.15
1001
ASKOBJSC
1000
1/1
1001
ASKDWGSC
1040
10.0
1001
ACAD
1000
MTEXTBEGIN
1070
    73
1070
     1
1070
    44
1040
1.0
1070
    74
1070
     0
1000
MTEXTEND
  0
MTEXT
  5
11B2
330
1F
100
AcDbEntity
  8
画層1
  6
Continuous
 62
     4
100
AcDbMText
 10
273.0351523606137
 20
2742.499963349007
 30
0.0
 40
24.99999962747097
 41
0.0
 71
     4
 72
     5
  1
\T1.40;\W0.60;１
  7
STD
 73
     1
 44
1.0
1001
DEKIMAS
1040
0.15
1001
ASKOBJSC
1000
1/1
1001
ASKDWGSC
1040
10.0
1001
ACAD
1000
MTEXTBEGIN
1070
    73
1070
     1
1070
    44
1040
1.0
1070
    74
1070
     0
1000
MTEXTEND
  0
MTEXT
  5
11B3
330
1F
100
AcDbEntity
  8
画層1
  6
Continuous
 62
     4
100
AcDbMText
 10
371.2849639167848
 20
2742.499963349007
 30
0.0
 40
31.99999952316285
 41
0.0
 71
     4
 72
     5
  1
\T1.40;\W0.60;ＣＡＤ図面
  7
STD
 73
     1
 44
1.0
1001
DEKIMAS
1040
0.15
1001
ASKOBJSC
1000
1/1
1001
ASKDWGSC
1040
10.0
1001
ACAD
1000
MTEXTBEGIN
1070
    73
1070
     1
1070
    44
1040
1.0
1070
    74
1070
     0
1000
MTEXTEND
  0
MTEXT
  5
11B4
330
1F
100
AcDbEntity
  8
画層1
  6
Continuous
 62
     4
100
AcDbMText
 10
888.1447021056763
 20
2742.499963349007
 30
0.0
 40
31.99999952316285
 41
0.0
 71
     5
 72
     5
  1
\T1.09;\W0.39;Ｈ１９．４．１７
  7
STD
 73
     1
 44
1.0
1001
DEKIMAS
1040
0.15
1001
ASKOBJSC
1000
1/1
1001
ASKDWGSC
1040
10.0
1001
ACAD
1000
MTEXTBEGIN
1070
    73
1070
     1
1070
    44
1040
1.0
1070
    74
1070
     0
1000
MTEXTEND
  0
MTEXT
  5
11B5
330
1F
100
AcDbEntity
  8
画層1
  6
Continuous
 62
     4
100
AcDbMText
 10
1038.37298425558
 20
2742.499963349007
 30
0.0
 40
31.99999952316285
 41
0.0
 71
     5
 72
     5
  1
\T1.40;\W0.60;小倉
  7
STD
 73
     1
 44
1.0
1001
DEKIMAS
1040
0.15
1001
ASKOBJSC
1000
1/1
1001
ASKDWGSC
1040
10.0
1001
ACAD
1000
MTEXTBEGIN
1070
    73
1070
     1
1070
    44
1040
1.0
1070
    74
1070
     0
1000
MTEXTEND
  0
MTEXT
  5
11B6
330
1F
100
AcDbEntity
  8
画層1
  6
Continuous
 62
     4
100
AcDbMText
 10
3949.80302554921
 20
208.5027203290987
 30
0.0
 40
31.99999952316285
 41
0.0
 71
     4
 72
     5
  1
{\T1.4;２}
  7
STD
 73
     1
 44
1.0
1001
DEKIMAS
1040
0.15
1001
ASKOBJSC
1000
1/1
1001
ASKDWGSC
1040
10.0
1001
ACAD
1000
MTEXTBEGIN
1070
    73
1070
     1
1070
    44
1040
1.0
1070
    74
1070
     0
1000
MTEXTEND
  0
LINE
  5
12F6
330
1F
100
AcDbEntity
  8
画層1
  6
Continuous
 62
     4
100
AcDbLine
 10
1099.999983609063
 20
2714.999963758789
 30
0.0
 11
1099.999983609063
 21
2654.999964652859
 31
0.0
1001
DEKIMAS
1000
実線（細）
1040
0.15
1001
DIMEXPLODE
1070
     0
1001
ASKOBJSC
1000
1/1
1001
ASKDWGSC
1040
10.0
  0
LINE
  5
12F7
330
1F
100
AcDbEntity
  8
画層1
  6
Continuous
 62
     4
100
AcDbLine
 10
969.9999855462142
 20
2714.999963758789
 30
0.0
 11
969.9999855462142
 21
2654.999964652859
 31
0.0
1001
DEKIMAS
1000
実線（細）
1040
0.15
1001
DIMEXPLODE
1070
     0
1001
ASKOBJSC
1000
1/1
1001
ASKDWGSC
1040
10.0
  0
LINE
  5
12F8
330
1F
100
AcDbEntity
  8
画層1
  6
Continuous
 62
     4
100
AcDbLine
 10
804.9999880049059
 20
2714.999963758789
 30
0.0
 11
804.9999880049059
 21
2654.999964652859
 31
0.0
1001
DEKIMAS
1000
実線（細）
1040
0.15
1001
DIMEXPLODE
1070
     0
1001
ASKOBJSC
1000
1/1
1001
ASKDWGSC
1040
10.0
  0
LINE
  5
12F9
330
1F
100
AcDbEntity
  8
画層1
  6
Continuous
 62
     4
100
AcDbLine
 10
344.99999485944
 20
2714.999963758789
 30
0.0
 11
344.99999485944
 21
2654.999964652859
 31
0.0
1001
DEKIMAS
1000
実線（細）
1040
0.15
1001
DIMEXPLODE
1070
     0
1001
ASKOBJSC
1000
1/1
1001
ASKDWGSC
1040
10.0
  0
LINE
  5
12FA
330
1F
100
AcDbEntity
  8
画層1
  6
Continuous
 62
     4
100
AcDbLine
 10
209.9999968710967
 20
2654.999964652859
 30
0.0
 11
1099.999983609063
 21
2654.999964652859
 31
0.0
1001
DEKIMAS
1000
実線（細）
1040
0.15
1001
DIMEXPLODE
1070
     0
1001
ASKOBJSC
1000
1/1
1001
ASKDWGSC
1040
10.0
  0
LINE
  5
12FB
330
1F
100
AcDbEntity
  8
画層1
  6
Continuous
 62
     4
100
AcDbLine
 10
302.4287953429003
 20
2665.563704926047
 30
0.0
 11
277.500151769066
 21
2708.798156081404
 31
0.0
1001
DEKIMAS
1000
実線（細）
1040
0.15
1001
DIMEXPLODE
1070
     0
1001
ASKOBJSC
1000
1/1
1001
ASKDWGSC
1040
10.0
  0
LINE
  5
12FC
330
1F
100
AcDbEntity
  8
画層1
  6
Continuous
 62
     4
100
AcDbLine
 10
277.5001892224655
 20
2708.798007508306
 30
0.0
 11
252.4970942171405
 21
2665.563489371751
 31
0.0
1001
DEKIMAS
1000
実線（細）
1040
0.15
1001
DIMEXPLODE
1070
     0
1001
ASKOBJSC
1000
1/1
1001
ASKDWGSC
1040
10.0
  0
LINE
  5
12FD
330
1F
100
AcDbEntity
  8
画層1
  6
Continuous
 62
     4
100
AcDbLine
 10
252.4969444800429
 20
2665.563624163449
 30
0.0
 11
302.4287369489012
 21
2665.563624163449
 31
0.0
1001
DEKIMAS
1000
実線（細）
1040
0.15
1001
DIMEXPLODE
1070
     0
1001
ASKOBJSC
1000
1/1
1001
ASKDWGSC
1040
10.0
  0
MTEXT
  5
12FE
330
1F
100
AcDbEntity
  8
画層1
  6
Continuous
 62
     4
100
AcDbMText
 10
273.0351523606137
 20
2682.499964243077
 30
0.0
 40
24.99999962747097
 41
0.0
 71
     4
 72
     5
  1
{\T1.4;２}
  7
STD
 73
     1
 44
1.0
1001
DEKIMAS
1040
0.15
1001
ASKOBJSC
1000
1/1
1001
ASKDWGSC
1040
10.0
1001
ACAD
1000
MTEXTBEGIN
1070
    73
1070
     1
1070
    44
1040
1.0
1070
    74
1070
     0
1000
MTEXTEND
  0
MTEXT
  5
12FF
330
1F
100
AcDbEntity
  8
画層1
  6
Continuous
 62
     4
100
AcDbMText
 10
371.2849639167848
 20
2682.499964243077
 30
0.0
 40
31.99999952316285
 41
0.0
 71
     4
 72
     5
  1
{\T1.3;ドレン・エアー抜き、口径追加}
  7
STD
 73
     1
 44
1.0
1001
DEKIMAS
1040
0.15
1001
ASKOBJSC
1000
1/1
1001
ASKDWGSC
1040
10.0
1001
ACAD
1000
MTEXTBEGIN
1070
    73
1070
     1
1070
    44
1040
1.0
1070
    74
1070
     0
1000
MTEXTEND
  0
MTEXT
  5
1300
330
1F
100
AcDbEntity
  8
画層1
  6
Continuous
 62
     4
100
AcDbMText
 10
888.1447021056763
 20
2682.499964243077
 30
0.0
 40
31.99999952316285
 41
0.0
 71
     5
 72
     5
  1
{\W0.39;\T1.09;Ｈ２５．３．１５}
  7
STD
 73
     1
 44
1.0
1001
DEKIMAS
1040
0.15
1001
ASKOBJSC
1000
1/1
1001
ASKDWGSC
1040
10.0
1001
ACAD
1000
MTEXTBEGIN
1070
    73
1070
     1
1070
    44
1040
1.0
1070
    74
1070
     0
1000
MTEXTEND
  0
MTEXT
  5
1301
330
1F
100
AcDbEntity
  8
画層1
  6
Continuous
 62
     4
100
AcDbMText
 10
1038.37298425558
 20
2682.499964243077
 30
0.0
 40
31.99999952316285
 41
0.0
 71
     5
 72
     5
  1
{\T1.4;山崎}
  7
STD
 73
     1
 44
1.0
1001
DEKIMAS
1040
0.15
1001
ASKOBJSC
1000
1/1
1001
ASKDWGSC
1040
10.0
1001
ACAD
1000
MTEXTBEGIN
1070
    73
1070
     1
1070
    44
1040
1.0
1070
    74
1070
     0
1000
MTEXTEND
  0
INSERT
  5
1315
330
1F
100
AcDbEntity
  8
画層1
  6
Continuous
 62
     7
100
AcDbBlockReference
  2
訂正記号-2
 10
2661.987951118448
 20
2686.39726024417
 30
0.0
 41
9.999999850990002
 42
9.999999850990002
 43
9.999999850990002
  0
INSERT
  5
1316
330
1F
100
AcDbEntity
  8
画層1
  6
Continuous
 62
     7
100
AcDbBlockReference
  2
訂正記号-2
 10
2947.385508258896
 20
1110.501790684742
 30
0.0
 41
9.999999850990002
 42
9.999999850990002
 43
9.999999850990002
  0
MTEXT
  5
1317
330
1F
100
AcDbEntity
  8
TP1791_10
  6
Continuous
 62
     4
100
AcDbMText
 10
2461.314259104198
 20
2645.449886334714
 30
0.0
 40
32.0
 41
0.0
 71
     7
 72
     5
  1
{\T1.4;口径φ２８}
  7
STD
 73
     1
 44
1.0
1001
DEKIMAS
1040
0.15
1001
ACAD
1000
MTEXTBEGIN
1070
    73
1070
     1
1070
    44
1040
1.0
1070
    74
1070
     0
1000
MTEXTEND
  0
MTEXT
  5
1318
330
1F
100
AcDbEntity
  8
TP1791_10
  6
Continuous
 62
     4
100
AcDbMText
 10
2652.889667469463
 20
1059.864103683409
 30
0.0
 40
32.0
 41
0.0
 71
     7
 72
     5
  1
{\T1.4;口径φ２８}
  7
STD
 73
     1
 44
1.0
1001
DEKIMAS
1040
0.15
1001
ACAD
1000
MTEXTBEGIN
1070
    73
1070
     1
1070
    44
1040
1.0
1070
    74
1070
     0
1000
MTEXTEND
  0
ENDSEC
  0
SECTION
  2
OBJECTS
  0
DICTIONARY
  5
C
330
0
100
AcDbDictionary
281
     1
  3
ACAD_2007HEADERVARS_RT
350
1328
  3
ACAD_COLOR
350
6B
  3
ACAD_GROUP
350
D
  3
ACAD_IMAGE_VARS
350
731
  3
ACAD_LAYOUT
350
1A
  3
ACAD_MATERIAL
350
6A
  3
ACAD_MLEADERSTYLE
350
402
  3
ACAD_MLINESTYLE
350
17
  3
ACAD_PLOTSETTINGS
350
19
  3
ACAD_PLOTSTYLENAME
350
E
  3
ACAD_SCALELIST
350
3E0
  3
ACAD_TABLESTYLE
350
7E
  3
ACAD_VISUALSTYLE
350
F2
  3
ACDB_RECOMPOSE_DATA
350
675
  3
AcDbVariableDictionary
350
5E
  3
AEC_PROPERTY_SET_DEFS
350
130B
  3
ASKSYSVAR
350
6E7
  3
DWGPROPS
350
1327
  3
SAKAE_DICT
350
124B
  0
DICTIONARY
  5
688
330
2
100
AcDbDictionary
280
     1
281
     1
  3
ACAD_LAYERFILTERS
360
12ED
  3
ACLYDICTIONARY
360
12EC
  0
DICTIONARY
  5
785
330
10
100
AcDbDictionary
280
     1
281
     1
  3
ADSK_XREC_LAYER_RECONCILED
360
7F6
  0
DICTIONARY
  5
318
330
1F
100
AcDbDictionary
280
     1
281
     1
  0
DICTIONARY
  5
1311
330
130C
100
AcDbDictionary
280
     1
281
     1
  3
ACAD_SORTENTS
360
1312
  0
DICTIONARY
  5
1338
330
1283
100
AcDbDictionary
280
     1
281
     1
  3
ACAD_MTEXT_RT
360
1339
  0
DICTIONARY
  5
133A
330
128C
100
AcDbDictionary
280
     1
281
     1
  3
ACAD_MTEXT_RT
360
133B
  0
DICTIONARY
  5
1328
102
{ACAD_REACTORS
330
C
102
}
330
C
100
AcDbDictionary
281
     1
  3
DIMFXL
350
1329
  3
DIMJOGANG
350
132A
  0
DICTIONARY
  5
6B
102
{ACAD_REACTORS
330
C
102
}
330
C
100
AcDbDictionary
281
     1
  0
DICTIONARY
  5
D
102
{ACAD_REACTORS
330
C
102
}
330
C
100
AcDbDictionary
281
     1
  0
RASTERVARIABLES
  5
731
102
{ACAD_REACTORS
330
C
102
}
330
C
100
AcDbRasterVariables
 90
        0
 70
     3
 71
     1
 72
     1
  0
DICTIONARY
  5
1A
102
{ACAD_REACTORS
330
C
102
}
330
C
100
AcDbDictionary
281
     1
  3
Model
350
22
  3
レイアウト1
350
D3
  3
レイアウト2
350
D7
  0
DICTIONARY
  5
6A
102
{ACAD_REACTORS
330
C
102
}
330
C
100
AcDbDictionary
281
     1
  3
ByBlock
350
F0
  3
ByLayer
350
EF
  3
Global
350
F1
  0
DICTIONARY
  5
402
102
{ACAD_REACTORS
330
C
102
}
330
C
100
AcDbDictionary
281
     1
  3
Standard
350
403
  0
DICTIONARY
  5
17
102
{ACAD_REACTORS
330
C
102
}
330
C
100
AcDbDictionary
281
     1
  3
Standard
350
18
  0
DICTIONARY
  5
19
102
{ACAD_REACTORS
330
C
102
}
330
C
100
AcDbDictionary
281
     1
  0
ACDBDICTIONARYWDFLT
  5
E
102
{ACAD_REACTORS
330
C
102
}
330
C
100
AcDbDictionary
281
     1
  3
Normal
350
F
100
AcDbDictionaryWithDefault
340
F
  0
DICTIONARY
  5
3E0
102
{ACAD_REACTORS
330
C
102
}
330
C
100
AcDbDictionary
281
     1
  3
A0
350
3E1
  3
A1
350
3E2
  3
A2
350
3E3
  3
A3
350
3E4
  3
A4
350
3E5
  3
A5
350
3E6
  3
A6
350
3E7
  3
A7
350
3E8
  3
A8
350
3E9
  3
A9
350
3EA
  3
B0
350
3EB
  3
B1
350
3EC
  3
B2
350
3ED
  3
B3
350
3EE
  3
B4
350
3EF
  3
B5
350
3F0
  3
B6
350
3F1
  3
B7
350
3F2
  3
B8
350
3F3
  3
B9
350
3F4
  3
C0
350
3F5
  3
C1
350
3F6
  3
C2
350
3F7
  3
C3
350
3F8
  3
C4
350
3F9
  3
C5
350
3FA
  3
C6
350
3FB
  3
C7
350
3FC
  3
C8
350
3FD
  3
C9
350
3FE
  3
D0
350
3FF
  3
D1
350
400
  3
D2
350
401
  0
DICTIONARY
  5
7E
102
{ACAD_REACTORS
330
C
102
}
330
C
100
AcDbDictionary
281
     1
  3
Standard
350
7F
  0
DICTIONARY
  5
F2
102
{ACAD_REACTORS
330
C
102
}
330
C
100
AcDbDictionary
281
     1
  3
2dWireframe
350
F8
  3
3D Hidden
350
FA
  3
3dWireframe
350
F9
  3
Basic
350
F7
  3
Brighten
350
FE
  3
ColorChange
350
102
  3
Conceptual
350
FB
  3
Dim
350
FD
  3
Facepattern
350
101
  3
Flat
350
F3
  3
FlatWithEdges
350
F4
  3
Gouraud
350
F5
  3
GouraudWithEdges
350
F6
  3
Linepattern
350
100
  3
Realistic
350
FC
  3
Thicken
350
FF
  0
XRECORD
  5
675
102
{ACAD_REACTORS
330
C
102
}
330
C
100
AcDbXrecord
280
     1
 90
        1
330
7F
  0
DICTIONARY
  5
5E
102
{ACAD_REACTORS
330
C
102
}
330
C
100
AcDbDictionary
281
     1
  3
CANNOSCALE
350
678
  3
CMLEADERSTYLE
350
676
  3
CTABLESTYLE
350
84
  3
DIMASSOC
350
5F
  3
HIDETEXT
350
63
  3
INDEXCTL
350
1323
  3
LIGHTINGUNITS
350
679
  3
MSLTSCALE
350
677
  3
PSOLHEIGHT
350
1325
  3
PSOLWIDTH
350
1324
  3
SORTENTS
350
1322
  0
DICTIONARY
  5
130B
102
{ACAD_REACTORS
330
C
102
}
330
C
100
AcDbDictionary
281
     1
  0
DICTIONARY
  5
6E7
102
{ACAD_REACTORS
330
C
102
}
330
C
100
AcDbDictionary
281
     1
  3
ASK_SUMMARY
350
6E8
  3
ASKCURSC
350
7D3
  0
XRECORD
  5
1327
102
{ACAD_REACTORS
330
C
102
}
330
C
100
AcDbXrecord
280
     1
  1
DWGPROPS COOKIE
  2

  3

  4

  6

  7

  8
Administrator
  9

300
=
301
=
302
=
303
=
304
=
305
=
306
=
307
=
308
=
309
=
 40
0.1967075694444444
 41
2454497.602825139
 42
2456367.607867651
  1

 90
        0
  0
DICTIONARY
  5
124B
102
{ACAD_REACTORS
330
C
102
}
330
C
100
AcDbDictionary
281
     1
  3
XREC1
350
124C
  0
DICTIONARY
  5
12ED
102
{ACAD_REACTORS
330
688
102
}
330
688
100
AcDbDictionary
281
     1
  0
DICTIONARY
  5
12EC
102
{ACAD_REACTORS
330
688
102
}
330
688
100
AcDbDictionary
281
     1
1001
ACAD
1000
<All
  0
XRECORD
  5
7F6
102
{ACAD_REACTORS
330
785
102
}
330
785
100
AcDbXrecord
280
     1
290
     1
  0
SORTENTSTABLE
  5
1312
102
{ACAD_REACTORS
330
1311
102
}
330
1311
100
AcDbSortentsTable
330
130C
  0
XRECORD
  5
1339
102
{ACAD_REACTORS
330
1338
102
}
330
1338
100
AcDbXrecord
280
     1
 40
5813.0
  1
\A1;\U+2205480
  0
XRECORD
  5
133B
102
{ACAD_REACTORS
330
133A
102
}
330
133A
100
AcDbXrecord
280
     1
 40
5735.0
  1
\A1;\U+2205420
  0
XRECORD
  5
1329
102
{ACAD_REACTORS
330
1328
102
}
330
1328
100
AcDbXrecord
280
     1
 40
2.0
  0
XRECORD
  5
132A
102
{ACAD_REACTORS
330
1328
102
}
330
1328
100
AcDbXrecord
280
     1
 40
1.570796326794896
  0
LAYOUT
  5
22
102
{ACAD_XDICTIONARY
360
132B
102
}
102
{ACAD_REACTORS
330
1A
102
}
330
1A
100
AcDbPlotSettings
  1

  2
none_device
  4
ISO_A4_(210.00_x_297.00_MM)
  6

 40
7.5
 41
20.0
 42
7.5
 43
20.0
 44
210.0
 45
297.0
 46
0.0
 47
59.55357142857143
 48
0.0
 49
0.0
140
0.0
141
0.0
142
1.0
143
2.153846153846153
 70
 11956
 72
     1
 73
     0
 74
     2
  7
C:\Documents and Settings\tomiya\Application Data\Autodesk\AutoCAD Mechanical 2008\R17.1\jpn\Plot Styles\SUIKO.ctb
 75
     0
147
0.4642857142857144
148
0.0
149
0.0
100
AcDbLayout
  1
Model
 70
     1
 71
     0
 10
0.0
 20
0.0
 11
12.0
 21
9.0
 12
0.0
 22
0.0
 32
0.0
 14
0.0
 24
0.0
 34
0.0
 15
0.0
 25
0.0
 35
0.0
146
0.0
 13
0.0
 23
0.0
 33
0.0
 16
1.0
 26
0.0
 36
0.0
 17
0.0
 27
1.0
 37
0.0
 76
     0
330
1F
331
ED
1001
ACAD_PSEXT
1000
なし
1000
なし
1000
適切ではありません
1000
新しいプロッタ環境設定名を選択しない限り、レイアウトは印刷されません。
1070
     0
  0
LAYOUT
  5
D3
102
{ACAD_XDICTIONARY
360
132E
102
}
102
{ACAD_REACTORS
330
1A
102
}
330
1A
100
AcDbPlotSettings
  1

  2
C:\Documents and Settings\basas\Application Data\Autodesk\AutoCAD 2005\R16.1\enu\plotters\Default Windows System Printer.pc3
  4

  6

 40
0.0
 41
0.0
 42
0.0
 43
0.0
 44
0.0
 45
0.0
 46
0.0
 47
0.0
 48
0.0
 49
0.0
140
0.0
141
0.0
142
1.0
143
1.0
 70
   688
 72
     0
 73
     0
 74
     5
  7
C:\Documents and Settings\tomiya\Application Data\Autodesk\AutoCAD Mechanical 2008\R17.1\jpn\Plot Styles\SUIKO.ctb
 75
    16
147
1.0
148
0.0
149
0.0
100
AcDbLayout
  1
レイアウト1
 70
     1
 71
     1
 10
0.0
 20
0.0
 11
12.0
 21
9.0
 12
0.0
 22
0.0
 32
0.0
 14
0.0
 24
0.0
 34
0.0
 15
0.0
 25
0.0
 35
0.0
146
0.0
 13
0.0
 23
0.0
 33
0.0
 16
1.0
 26
0.0
 36
0.0
 17
0.0
 27
1.0
 37
0.0
 76
     0
330
D2
  0
LAYOUT
  5
D7
102
{ACAD_XDICTIONARY
360
1330
102
}
102
{ACAD_REACTORS
330
1A
102
}
330
1A
100
AcDbPlotSettings
  1

  2
C:\Documents and Settings\basas\Application Data\Autodesk\AutoCAD 2005\R16.1\enu\plotters\Default Windows System Printer.pc3
  4

  6

 40
0.0
 41
0.0
 42
0.0
 43
0.0
 44
0.0
 45
0.0
 46
0.0
 47
0.0
 48
0.0
 49
0.0
140
0.0
141
0.0
142
1.0
143
1.0
 70
   688
 72
     0
 73
     0
 74
     5
  7
C:\Documents and Settings\tomiya\Application Data\Autodesk\AutoCAD Mechanical 2008\R17.1\jpn\Plot Styles\SUIKO.ctb
 75
    16
147
1.0
148
0.0
149
0.0
100
AcDbLayout
  1
レイアウト2
 70
     1
 71
     2
 10
0.0
 20
0.0
 11
12.0
 21
9.0
 12
0.0
 22
0.0
 32
0.0
 14
0.0
 24
0.0
 34
0.0
 15
0.0
 25
0.0
 35
0.0
146
0.0
 13
0.0
 23
0.0
 33
0.0
 16
1.0
 26
0.0
 36
0.0
 17
0.0
 27
1.0
 37
0.0
 76
     0
330
D6
  0
MATERIAL
  5
F0
102
{ACAD_XDICTIONARY
360
1334
102
}
102
{ACAD_REACTORS
330
6A
102
}
330
6A
100
AcDbMaterial
  1
ByBlock
 73
     1
 78
     1
172
     1
176
     1
270
     1
274
     1
  0
MATERIAL
  5
EF
102
{ACAD_XDICTIONARY
360
1332
102
}
102
{ACAD_REACTORS
330
6A
102
}
330
6A
100
AcDbMaterial
  1
ByLayer
 73
     1
 78
     1
172
     1
176
     1
270
     1
274
     1
  0
MATERIAL
  5
F1
102
{ACAD_XDICTIONARY
360
1336
102
}
102
{ACAD_REACTORS
330
6A
102
}
330
6A
100
AcDbMaterial
  1
Global
 73
     1
 78
     1
172
     1
176
     1
270
     1
274
     1
  0
MLEADERSTYLE
  5
403
102
{ACAD_REACTORS
330
402
102
}
330
402
100
AcDbMLeaderStyle
170
     2
171
     1
172
     0
 90
        2
 40
0.0
 41
0.0
173
     1
 91
-1056964608
340
14
 92
       -2
290
     1
 42
2.0
291
     1
 43
0.36
  3
Standard
 44
4.0
300

342
11
174
     1
178
     6
175
     1
176
     0
 93
-1056964608
 45
4.0
292
     0
297
     0
 46
4.0
 94
-1056964608
 47
1.0
 49
1.0
140
1.0
293
     1
141
0.0
294
     1
177
     0
142
1.0
295
     0
296
     0
143
0.125
1001
ACAD_MLEADERVER
1070
     2
  0
MLINESTYLE
  5
18
102
{ACAD_REACTORS
330
17
102
}
330
17
100
AcDbMlineStyle
  2
STANDARD
 70
     0
  3

 62
   256
 51
90.0
 52
90.0
 71
     2
 49
0.5
 62
   256
  6
BYLAYER
 49
-0.5
 62
   256
  6
BYLAYER
  0
ACDBPLACEHOLDER
  5
F
102
{ACAD_REACTORS
330
E
102
}
330
E
  0
SCALE
  5
3E1
102
{ACAD_REACTORS
330
3E0
102
}
330
3E0
100
AcDbScale
 70
     0
300
1:1
140
1.0
141
1.0
290
     1
  0
SCALE
  5
3E2
102
{ACAD_REACTORS
330
3E0
102
}
330
3E0
100
AcDbScale
 70
     0
300
1:2
140
1.0
141
2.0
290
     0
  0
SCALE
  5
3E3
102
{ACAD_REACTORS
330
3E0
102
}
330
3E0
100
AcDbScale
 70
     0
300
1:4
140
1.0
141
4.0
290
     0
  0
SCALE
  5
3E4
102
{ACAD_REACTORS
330
3E0
102
}
330
3E0
100
AcDbScale
 70
     0
300
1:5
140
1.0
141
5.0
290
     0
  0
SCALE
  5
3E5
102
{ACAD_REACTORS
330
3E0
102
}
330
3E0
100
AcDbScale
 70
     0
300
1:8
140
1.0
141
8.0
290
     0
  0
SCALE
  5
3E6
102
{ACAD_REACTORS
330
3E0
102
}
330
3E0
100
AcDbScale
 70
     0
300
1:10
140
1.0
141
10.0
290
     0
  0
SCALE
  5
3E7
102
{ACAD_REACTORS
330
3E0
102
}
330
3E0
100
AcDbScale
 70
     0
300
1:16
140
1.0
141
16.0
290
     0
  0
SCALE
  5
3E8
102
{ACAD_REACTORS
330
3E0
102
}
330
3E0
100
AcDbScale
 70
     0
300
1:20
140
1.0
141
20.0
290
     0
  0
SCALE
  5
3E9
102
{ACAD_REACTORS
330
3E0
102
}
330
3E0
100
AcDbScale
 70
     0
300
1:30
140
1.0
141
30.0
290
     0
  0
SCALE
  5
3EA
102
{ACAD_REACTORS
330
3E0
102
}
330
3E0
100
AcDbScale
 70
     0
300
1:40
140
1.0
141
40.0
290
     0
  0
SCALE
  5
3EB
102
{ACAD_REACTORS
330
3E0
102
}
330
3E0
100
AcDbScale
 70
     0
300
1:50
140
1.0
141
50.0
290
     0
  0
SCALE
  5
3EC
102
{ACAD_REACTORS
330
3E0
102
}
330
3E0
100
AcDbScale
 70
     0
300
1:100
140
1.0
141
100.0
290
     0
  0
SCALE
  5
3ED
102
{ACAD_REACTORS
330
3E0
102
}
330
3E0
100
AcDbScale
 70
     0
300
2:1
140
2.0
141
1.0
290
     0
  0
SCALE
  5
3EE
102
{ACAD_REACTORS
330
3E0
102
}
330
3E0
100
AcDbScale
 70
     0
300
4:1
140
4.0
141
1.0
290
     0
  0
SCALE
  5
3EF
102
{ACAD_REACTORS
330
3E0
102
}
330
3E0
100
AcDbScale
 70
     0
300
8:1
140
8.0
141
1.0
290
     0
  0
SCALE
  5
3F0
102
{ACAD_REACTORS
330
3E0
102
}
330
3E0
100
AcDbScale
 70
     0
300
10:1
140
10.0
141
1.0
290
     0
  0
SCALE
  5
3F1
102
{ACAD_REACTORS
330
3E0
102
}
330
3E0
100
AcDbScale
 70
     0
300
100:1
140
100.0
141
1.0
290
     0
  0
SCALE
  5
3F2
102
{ACAD_REACTORS
330
3E0
102
}
330
3E0
100
AcDbScale
 70
     0
300
1/128" = 1'-0"
140
0.0078125
141
12.0
290
     0
  0
SCALE
  5
3F3
102
{ACAD_REACTORS
330
3E0
102
}
330
3E0
100
AcDbScale
 70
     0
300
1/64" = 1'-0"
140
0.015625
141
12.0
290
     0
  0
SCALE
  5
3F4
102
{ACAD_REACTORS
330
3E0
102
}
330
3E0
100
AcDbScale
 70
     0
300
1/32" = 1'-0"
140
0.03125
141
12.0
290
     0
  0
SCALE
  5
3F5
102
{ACAD_REACTORS
330
3E0
102
}
330
3E0
100
AcDbScale
 70
     0
300
1/16" = 1'-0"
140
0.0625
141
12.0
290
     0
  0
SCALE
  5
3F6
102
{ACAD_REACTORS
330
3E0
102
}
330
3E0
100
AcDbScale
 70
     0
300
3/32" = 1'-0"
140
0.09375
141
12.0
290
     0
  0
SCALE
  5
3F7
102
{ACAD_REACTORS
330
3E0
102
}
330
3E0
100
AcDbScale
 70
     0
300
1/8" = 1'-0"
140
0.125
141
12.0
290
     0
  0
SCALE
  5
3F8
102
{ACAD_REACTORS
330
3E0
102
}
330
3E0
100
AcDbScale
 70
     0
300
3/16" = 1'-0"
140
0.1875
141
12.0
290
     0
  0
SCALE
  5
3F9
102
{ACAD_REACTORS
330
3E0
102
}
330
3E0
100
AcDbScale
 70
     0
300
1/4" = 1'-0"
140
0.25
141
12.0
290
     0
  0
SCALE
  5
3FA
102
{ACAD_REACTORS
330
3E0
102
}
330
3E0
100
AcDbScale
 70
     0
300
3/8" = 1'-0"
140
0.375
141
12.0
290
     0
  0
SCALE
  5
3FB
102
{ACAD_REACTORS
330
3E0
102
}
330
3E0
100
AcDbScale
 70
     0
300
1/2" = 1'-0"
140
0.5
141
12.0
290
     0
  0
SCALE
  5
3FC
102
{ACAD_REACTORS
330
3E0
102
}
330
3E0
100
AcDbScale
 70
     0
300
3/4" = 1'-0"
140
0.75
141
12.0
290
     0
  0
SCALE
  5
3FD
102
{ACAD_REACTORS
330
3E0
102
}
330
3E0
100
AcDbScale
 70
     0
300
1" = 1'-0"
140
1.0
141
12.0
290
     0
  0
SCALE
  5
3FE
102
{ACAD_REACTORS
330
3E0
102
}
330
3E0
100
AcDbScale
 70
     0
300
1-1/2" = 1'-0"
140
1.5
141
12.0
290
     0
  0
SCALE
  5
3FF
102
{ACAD_REACTORS
330
3E0
102
}
330
3E0
100
AcDbScale
 70
     0
300
3" = 1'-0"
140
3.0
141
12.0
290
     0
  0
SCALE
  5
400
102
{ACAD_REACTORS
330
3E0
102
}
330
3E0
100
AcDbScale
 70
     0
300
6" = 1'-0"
140
6.0
141
12.0
290
     0
  0
SCALE
  5
401
102
{ACAD_REACTORS
330
3E0
102
}
330
3E0
100
AcDbScale
 70
     0
300
1'-0" = 1'-0"
140
12.0
141
12.0
290
     0
  0
TABLESTYLE
  5
7F
102
{ACAD_XDICTIONARY
360
673
102
}
102
{ACAD_REACTORS
330
7E
102
}
330
7E
100
AcDbTableStyle
  3
Standard
 70
     0
 71
     0
 40
1.5
 41
1.5
280
     0
281
     0
  7
Standard
140
4.5
170
     2
 62
     0
 63
     7
283
     0
274
    -2
284
     1
 64
     0
275
    -2
285
     1
 65
     0
276
    -2
286
     1
 66
     0
277
    -2
287
     1
 67
     0
278
    -2
288
     1
 68
     0
279
    -2
289
     1
 69
     0
  7
Standard
140
6.0
170
     5
 62
     0
 63
     7
283
     0
274
    -2
284
     1
 64
     0
275
    -2
285
     1
 65
     0
276
    -2
286
     1
 66
     0
277
    -2
287
     1
 67
     0
278
    -2
288
     1
 68
     0
279
    -2
289
     1
 69
     0
  7
Standard
140
4.5
170
     5
 62
     0
 63
     7
283
     0
274
    -2
284
     1
 64
     0
275
    -2
285
     1
 65
     0
276
    -2
286
     1
 66
     0
277
    -2
287
     1
 67
     0
278
    -2
288
     1
 68
     0
279
    -2
289
     1
 69
     0
  0
VISUALSTYLE
  5
F8
102
{ACAD_REACTORS
330
F2
102
}
330
F2
100
AcDbVisualStyle
  2
2dWireframe
 70
     4
 71
     0
 72
     2
 73
     1
 90
        0
 40
-0.6
 41
-30.0
 62
     5
 63
     7
 74
     1
 91
        4
 64
     7
 65
   257
 75
     1
175
     1
 42
1.0
 92
        0
 66
   257
 43
1.0
 76
     1
 77
     6
 78
     2
 67
     7
 79
     5
170
     0
171
     0
290
     0
174
     0
 93
        1
 44
0.0
173
     0
291
     0
 45
0.0
1001
ACAD
1000
AcDbSavedByObjectVersion
1070
     0
  0
VISUALSTYLE
  5
FA
102
{ACAD_REACTORS
330
F2
102
}
330
F2
100
AcDbVisualStyle
  2
3D Hidden
 70
     6
 71
     1
 72
     2
 73
     2
 90
        0
 40
-0.6
 41
-30.0
 62
     5
 63
     7
 74
     2
 91
        2
 64
     7
 65
   257
 75
     2
175
     1
 42
40.0
 92
        0
 66
   257
 43
1.0
 76
     1
 77
     6
 78
     2
 67
     7
 79
     3
170
     0
171
     0
290
     0
174
     0
 93
        1
 44
0.0
173
     0
291
     0
 45
0.0
1001
ACAD
1000
AcDbSavedByObjectVersion
1070
     0
  0
VISUALSTYLE
  5
F9
102
{ACAD_REACTORS
330
F2
102
}
330
F2
100
AcDbVisualStyle
  2
3dWireframe
 70
     5
 71
     0
 72
     2
 73
     1
 90
        0
 40
-0.6
 41
-30.0
 62
     5
 63
     7
 74
     1
 91
        4
 64
     7
 65
   257
 75
     1
175
     1
 42
1.0
 92
        0
 66
   257
 43
1.0
 76
     1
 77
     6
 78
     2
 67
     7
 79
     5
170
     0
171
     0
290
     0
174
     0
 93
        1
 44
0.0
173
     0
291
     0
 45
0.0
1001
ACAD
1000
AcDbSavedByObjectVersion
1070
     0
  0
VISUALSTYLE
  5
F7
102
{ACAD_REACTORS
330
F2
102
}
330
F2
100
AcDbVisualStyle
  2
Basic
 70
     7
 71
     1
 72
     0
 73
     1
 90
        0
 40
-0.6
 41
-30.0
 62
     5
 63
     7
 74
     0
 91
        4
 64
     7
 65
   257
 75
     1
175
     1
 42
1.0
 92
        8
 66
     7
 43
1.0
 76
     1
 77
     6
 78
     2
 67
     7
 79
     5
170
     0
171
     0
290
     0
174
     0
 93
        1
 44
0.0
173
     0
291
     1
 45
0.0
1001
ACAD
1000
AcDbSavedByObjectVersion
1070
     0
  0
VISUALSTYLE
  5
FE
102
{ACAD_REACTORS
330
F2
102
}
330
F2
100
AcDbVisualStyle
  2
Brighten
 70
    12
 71
     2
 72
     2
 73
     1
 90
        0
 40
-0.6
 41
-30.0
 62
     5
 63
     7
 74
     1
 91
        4
 64
     7
 65
   257
 75
     1
175
     1
 42
1.0
 92
        8
 66
     7
 43
1.0
 76
     1
 77
     6
 78
     2
 67
     7
 79
     5
170
     0
171
     0
290
     0
174
     0
 93
        1
 44
50.0
173
     0
291
     1
 45
0.0
1001
ACAD
1000
AcDbSavedByObjectVersion
1070
     0
  0
VISUALSTYLE
  5
102
102
{ACAD_REACTORS
330
F2
102
}
330
F2
100
AcDbVisualStyle
  2
ColorChange
 70
    16
 71
     2
 72
     2
 73
     3
 90
        0
 40
-0.6
 41
-30.0
 62
     5
 63
     8
 74
     1
 91
        4
 64
     7
 65
   257
 75
     1
175
     1
 42
1.0
 92
        8
 66
     8
 43
1.0
 76
     1
 77
     6
 78
     2
 67
     7
 79
     5
170
     0
171
     0
290
     0
174
     0
 93
        1
 44
0.0
173
     0
291
     1
 45
0.0
1001
ACAD
1000
AcDbSavedByObjectVersion
1070
     0
  0
VISUALSTYLE
  5
FB
102
{ACAD_REACTORS
330
F2
102
}
330
F2
100
AcDbVisualStyle
  2
Conceptual
 70
     9
 71
     3
 72
     2
 73
     1
 90
        0
 40
-0.6
 41
-30.0
 62
     5
 63
     7
 74
     2
 91
        2
 64
     7
 65
   257
 75
     1
175
     1
 42
40.0
 92
        8
 66
     7
 43
1.0
 76
     1
 77
     6
 78
     2
 67
     7
 79
     3
170
     0
171
     0
290
     0
174
     0
 93
        1
 44
0.0
173
     0
291
     0
 45
0.0
1001
ACAD
1000
AcDbSavedByObjectVersion
1070
     0
  0
VISUALSTYLE
  5
FD
102
{ACAD_REACTORS
330
F2
102
}
330
F2
100
AcDbVisualStyle
  2
Dim
 70
    11
 71
     2
 72
     2
 73
     1
 90
        0
 40
-0.6
 41
-30.0
 62
     5
 63
     7
 74
     1
 91
        4
 64
     7
 65
   257
 75
     1
175
     1
 42
1.0
 92
        8
 66
     7
 43
1.0
 76
     1
 77
     6
 78
     2
 67
     7
 79
     5
170
     0
171
     0
290
     0
174
     0
 93
        1
 44
-50.0
173
     0
291
     1
 45
0.0
1001
ACAD
1000
AcDbSavedByObjectVersion
1070
     0
  0
VISUALSTYLE
  5
101
102
{ACAD_REACTORS
330
F2
102
}
330
F2
100
AcDbVisualStyle
  2
Facepattern
 70
    15
 71
     2
 72
     2
 73
     1
 90
        0
 40
-0.6
 41
-30.0
 62
     5
 63
     7
 74
     1
 91
        4
 64
     7
 65
   257
 75
     1
175
     1
 42
1.0
 92
        8
 66
     7
 43
1.0
 76
     1
 77
     6
 78
     2
 67
     7
 79
     5
170
     0
171
     0
290
     0
174
     0
 93
        1
 44
0.0
173
     0
291
     1
 45
0.0
1001
ACAD
1000
AcDbSavedByObjectVersion
1070
     0
  0
VISUALSTYLE
  5
F3
102
{ACAD_REACTORS
330
F2
102
}
330
F2
100
AcDbVisualStyle
  2
Flat
 70
     0
 71
     2
 72
     1
 73
     1
 90
        2
 40
-0.6
 41
30.0
 62
     5
 63
     7
 74
     0
 91
        4
 64
     7
 65
   257
 75
     1
175
     1
 42
1.0
 92
        8
 66
     7
 43
1.0
 76
     1
 77
     6
 78
     2
 67
     7
 79
     5
170
     0
171
     0
290
     0
174
     0
 93
       13
 44
0.0
173
     0
291
     1
 45
0.0
1001
ACAD
1000
AcDbSavedByObjectVersion
1070
     0
  0
VISUALSTYLE
  5
F4
102
{ACAD_REACTORS
330
F2
102
}
330
F2
100
AcDbVisualStyle
  2
FlatWithEdges
 70
     1
 71
     2
 72
     1
 73
     1
 90
        2
 40
-0.6
 41
30.0
 62
     5
 63
     7
 74
     1
 91
        4
 64
     7
 65
   257
 75
     1
175
     1
 42
1.0
 92
        0
 66
   257
 43
1.0
 76
     1
 77
     6
 78
     2
 67
     7
 79
     5
170
     0
171
     0
290
     0
174
     0
 93
       13
 44
0.0
173
     0
291
     1
 45
0.0
1001
ACAD
1000
AcDbSavedByObjectVersion
1070
     0
  0
VISUALSTYLE
  5
F5
102
{ACAD_REACTORS
330
F2
102
}
330
F2
100
AcDbVisualStyle
  2
Gouraud
 70
     2
 71
     2
 72
     2
 73
     1
 90
        2
 40
-0.6
 41
30.0
 62
     5
 63
     7
 74
     0
 91
        4
 64
     7
 65
   257
 75
     1
175
     1
 42
1.0
 92
        0
 66
     7
 43
1.0
 76
     1
 77
     6
 78
     2
 67
     7
 79
     5
170
     0
171
     0
290
     0
174
     0
 93
       13
 44
0.0
173
     0
291
     1
 45
0.0
1001
ACAD
1000
AcDbSavedByObjectVersion
1070
     0
  0
VISUALSTYLE
  5
F6
102
{ACAD_REACTORS
330
F2
102
}
330
F2
100
AcDbVisualStyle
  2
GouraudWithEdges
 70
     3
 71
     2
 72
     2
 73
     1
 90
        2
 40
-0.6
 41
30.0
 62
     5
 63
     7
 74
     1
 91
        4
 64
     7
 65
   257
 75
     1
175
     1
 42
1.0
 92
        0
 66
   257
 43
1.0
 76
     1
 77
     6
 78
     2
 67
     7
 79
     5
170
     0
171
     0
290
     0
174
     0
 93
       13
 44
0.0
173
     0
291
     1
 45
0.0
1001
ACAD
1000
AcDbSavedByObjectVersion
1070
     0
  0
VISUALSTYLE
  5
100
102
{ACAD_REACTORS
330
F2
102
}
330
F2
100
AcDbVisualStyle
  2
Linepattern
 70
    14
 71
     2
 72
     2
 73
     1
 90
        0
 40
-0.6
 41
-30.0
 62
     5
 63
     7
 74
     1
 91
        4
 64
     7
 65
   257
 75
     7
175
     7
 42
1.0
 92
        8
 66
     7
 43
1.0
 76
     1
 77
     6
 78
     2
 67
     7
 79
     5
170
     0
171
     0
290
     0
174
     0
 93
        1
 44
0.0
173
     0
291
     1
 45
0.0
1001
ACAD
1000
AcDbSavedByObjectVersion
1070
     0
  0
VISUALSTYLE
  5
FC
102
{ACAD_REACTORS
330
F2
102
}
330
F2
100
AcDbVisualStyle
  2
Realistic
 70
     8
 71
     2
 72
     2
 73
     1
 90
        0
 40
-0.6
 41
-30.0
 62
     5
 63
     7
 74
     1
 91
        0
 64
     7
 65
   257
 75
     1
175
     1
 42
1.0
 92
        8
 66
     8
 43
1.0
 76
     1
 77
     6
 78
     2
 67
     7
 79
     5
170
     0
171
     0
290
     0
174
     0
 93
       13
 44
0.0
173
     0
291
     0
 45
0.0
1001
ACAD
1000
AcDbSavedByObjectVersion
1070
     0
  0
VISUALSTYLE
  5
FF
102
{ACAD_REACTORS
330
F2
102
}
330
F2
100
AcDbVisualStyle
  2
Thicken
 70
    13
 71
     2
 72
     2
 73
     1
 90
        0
 40
-0.6
 41
-30.0
 62
     5
 63
     7
 74
     1
 91
        4
 64
     7
 65
   257
 75
     1
175
     1
 42
1.0
 92
       12
 66
     7
 43
1.0
 76
     1
 77
     6
 78
     2
 67
     7
 79
     5
170
     0
171
     0
290
     0
174
     0
 93
        1
 44
0.0
173
     0
291
     1
 45
0.0
1001
ACAD
1000
AcDbSavedByObjectVersion
1070
     0
  0
DICTIONARYVAR
  5
678
102
{ACAD_REACTORS
330
5E
102
}
330
5E
100
DictionaryVariables
280
     0
  1
1:1
  0
DICTIONARYVAR
  5
676
102
{ACAD_REACTORS
330
5E
102
}
330
5E
100
DictionaryVariables
280
     0
  1
STANDARD
  0
DICTIONARYVAR
  5
84
102
{ACAD_REACTORS
330
5E
102
}
330
5E
100
DictionaryVariables
280
     0
  1
STANDARD
  0
DICTIONARYVAR
  5
5F
102
{ACAD_REACTORS
330
5E
102
}
330
5E
100
DictionaryVariables
280
     0
  1
1
  0
DICTIONARYVAR
  5
63
102
{ACAD_REACTORS
330
5E
102
}
330
5E
100
DictionaryVariables
280
     0
  1
1
  0
DICTIONARYVAR
  5
1323
102
{ACAD_REACTORS
330
5E
102
}
330
5E
100
DictionaryVariables
280
     0
  1
0
  0
DICTIONARYVAR
  5
679
102
{ACAD_REACTORS
330
5E
102
}
330
5E
100
DictionaryVariables
280
     0
  1
0
  0
DICTIONARYVAR
  5
677
102
{ACAD_REACTORS
330
5E
102
}
330
5E
100
DictionaryVariables
280
     0
  1
0
  0
DICTIONARYVAR
  5
1325
102
{ACAD_REACTORS
330
5E
102
}
330
5E
100
DictionaryVariables
280
     0
  1
80.000000
  0
DICTIONARYVAR
  5
1324
102
{ACAD_REACTORS
330
5E
102
}
330
5E
100
DictionaryVariables
280
     0
  1
5.000000
  0
DICTIONARYVAR
  5
1322
102
{ACAD_REACTORS
330
5E
102
}
330
5E
100
DictionaryVariables
280
     0
  1
127
  0
XRECORD
  5
6E8
102
{ACAD_REACTORS
330
6E7
102
}
330
6E7
100
AcDbXrecord
280
     1
300
ASK2000BIKOU>>A3横 1/9.9999998<<555                                                                                                                                                                                                                                                                             
  0
XRECORD
  5
7D3
102
{ACAD_REACTORS
330
6E7
102
}
330
6E7
100
AcDbXrecord
280
     1
  1
DwgScale
  0
XRECORD
  5
124C
102
{ACAD_REACTORS
330
124B
102
}
330
124B
100
AcDbXrecord
280
     1
  1

 40
0.1000000014901161
 50
-12092.54633725899
 51
-5105.292104187427
 52
12086.27261726118
 53
12026.14597022361
  0
DICTIONARY
  5
132B
330
22
100
AcDbDictionary
280
     1
281
     1
  3
ACAD_XREC_ROUNDTRIP
360
132C
  0
DICTIONARY
  5
132E
330
D3
100
AcDbDictionary
280
     1
281
     1
  3
ACAD_XREC_ROUNDTRIP
360
132F
  0
DICTIONARY
  5
1330
330
D7
100
AcDbDictionary
280
     1
281
     1
  3
ACAD_XREC_ROUNDTRIP
360
1331
  0
DICTIONARY
  5
1334
330
F0
100
AcDbDictionary
280
     1
281
     1
  3
ACAD_XREC_ROUNDTRIP
360
1335
  0
DICTIONARY
  5
1332
330
EF
100
AcDbDictionary
280
     1
281
     1
  3
ACAD_XREC_ROUNDTRIP
360
1333
  0
DICTIONARY
  5
1336
330
F1
100
AcDbDictionary
280
     1
281
     1
  3
ACAD_XREC_ROUNDTRIP
360
1337
  0
DICTIONARY
  5
673
330
7F
100
AcDbDictionary
280
     1
281
     1
  3
ACAD_ROUNDTRIP_2008_TABLESTYLE_CELLSTYLEMAP
360
1326
  3
ACAD_XREC_ROUNDTRIP
360
132D
  0
XRECORD
  5
132C
102
{ACAD_REACTORS
330
132B
102
}
330
132B
100
AcDbXrecord
280
     1
102
SHADEPLOT
 70
     0
102
SHADEPLOTRESLEVEL
 70
     2
102
SHADEPLOTCUSTOMDPI
 70
   300
  0
XRECORD
  5
132F
102
{ACAD_REACTORS
330
132E
102
}
330
132E
100
AcDbXrecord
280
     1
102
SHADEPLOT
 70
     0
102
SHADEPLOTRESLEVEL
 70
     2
102
SHADEPLOTCUSTOMDPI
 70
   300
  0
XRECORD
  5
1331
102
{ACAD_REACTORS
330
1330
102
}
330
1330
100
AcDbXrecord
280
     1
102
SHADEPLOT
 70
     0
102
SHADEPLOTRESLEVEL
 70
     2
102
SHADEPLOTCUSTOMDPI
 70
   300
  0
XRECORD
  5
1335
102
{ACAD_REACTORS
330
1334
102
}
330
1334
100
AcDbXrecord
280
     1
102
MATERIAL
148
0.0
149
0.0
149
0.0
 93
        0
 94
       63
282
     0
 72
     1
 77
     1
171
     1
175
     1
179
     1
273
     0
  0
XRECORD
  5
1333
102
{ACAD_REACTORS
330
1332
102
}
330
1332
100
AcDbXrecord
280
     1
102
MATERIAL
148
0.0
149
0.0
149
0.0
 93
        0
 94
       63
282
     0
 72
     1
 77
     1
171
     1
175
     1
179
     1
273
     0
  0
XRECORD
  5
1337
102
{ACAD_REACTORS
330
1336
102
}
330
1336
100
AcDbXrecord
280
     1
102
MATERIAL
148
0.0
149
0.0
149
0.0
 93
        0
 94
       63
282
     0
 72
     1
 77
     1
171
     1
175
     1
179
     1
273
     0
  0
CELLSTYLEMAP
  5
1326
102
{ACAD_REACTORS
330
673
102
}
330
673
100
AcDbCellStyleMap
 90
        3
300
CELLSTYLE
  1
TABLEFORMAT_BEGIN
 90
        5
170
     1
 91
        0
 92
    32768
 62
   257
 93
        1
300
CONTENTFORMAT
  1
CONTENTFORMAT_BEGIN
 90
        0
 91
        0
 92
      512
 93
        0
300

 40
0.0
140
1.0
 94
        5
 62
     0
340
11
144
6.0
309
CONTENTFORMAT_END
171
     1
301
MARGIN
  1
CELLMARGIN_BEGIN
 40
1.5
 40
1.5
 40
1.5
 40
1.5
 40
0.18
 40
0.18
309
CELLMARGIN_END
 94
        6
 95
        1
302
GRIDFORMAT
  1
GRIDFORMAT_BEGIN
 90
        0
 91
        1
 62
     0
 92
       -2
340
0
 93
        0
 40
0.045
309
GRIDFORMAT_END
 95
        2
302
GRIDFORMAT
  1
GRIDFORMAT_BEGIN
 90
        0
 91
        1
 62
     0
 92
       -2
340
0
 93
        0
 40
0.045
309
GRIDFORMAT_END
 95
        4
302
GRIDFORMAT
  1
GRIDFORMAT_BEGIN
 90
        0
 91
        1
 62
     0
 92
       -2
340
0
 93
        0
 40
0.045
309
GRIDFORMAT_END
 95
        8
302
GRIDFORMAT
  1
GRIDFORMAT_BEGIN
 90
        0
 91
        1
 62
     0
 92
       -2
340
0
 93
        0
 40
0.045
309
GRIDFORMAT_END
 95
       16
302
GRIDFORMAT
  1
GRIDFORMAT_BEGIN
 90
        0
 91
        1
 62
     0
 92
       -2
340
0
 93
        0
 40
0.045
309
GRIDFORMAT_END
 95
       32
302
GRIDFORMAT
  1
GRIDFORMAT_BEGIN
 90
        0
 91
        1
 62
     0
 92
       -2
340
0
 93
        0
 40
0.045
309
GRIDFORMAT_END
309
TABLEFORMAT_END
  1
CELLSTYLE_BEGIN
 90
        1
 91
        1
300
_TITLE
309
CELLSTYLE_END
300
CELLSTYLE
  1
TABLEFORMAT_BEGIN
 90
        5
170
     1
 91
        0
 92
        0
 62
   257
 93
        1
300
CONTENTFORMAT
  1
CONTENTFORMAT_BEGIN
 90
        0
 91
        0
 92
      512
 93
        0
300

 40
0.0
140
1.0
 94
        5
 62
     0
340
11
144
4.5
309
CONTENTFORMAT_END
171
     1
301
MARGIN
  1
CELLMARGIN_BEGIN
 40
1.5
 40
1.5
 40
1.5
 40
1.5
 40
0.18
 40
0.18
309
CELLMARGIN_END
 94
        6
 95
        1
302
GRIDFORMAT
  1
GRIDFORMAT_BEGIN
 90
        0
 91
        1
 62
     0
 92
       -2
340
0
 93
        0
 40
0.045
309
GRIDFORMAT_END
 95
        2
302
GRIDFORMAT
  1
GRIDFORMAT_BEGIN
 90
        0
 91
        1
 62
     0
 92
       -2
340
0
 93
        0
 40
0.045
309
GRIDFORMAT_END
 95
        4
302
GRIDFORMAT
  1
GRIDFORMAT_BEGIN
 90
        0
 91
        1
 62
     0
 92
       -2
340
0
 93
        0
 40
0.045
309
GRIDFORMAT_END
 95
        8
302
GRIDFORMAT
  1
GRIDFORMAT_BEGIN
 90
        0
 91
        1
 62
     0
 92
       -2
340
0
 93
        0
 40
0.045
309
GRIDFORMAT_END
 95
       16
302
GRIDFORMAT
  1
GRIDFORMAT_BEGIN
 90
        0
 91
        1
 62
     0
 92
       -2
340
0
 93
        0
 40
0.045
309
GRIDFORMAT_END
 95
       32
302
GRIDFORMAT
  1
GRIDFORMAT_BEGIN
 90
        0
 91
        1
 62
     0
 92
       -2
340
0
 93
        0
 40
0.045
309
GRIDFORMAT_END
309
TABLEFORMAT_END
  1
CELLSTYLE_BEGIN
 90
        2
 91
        1
300
_HEADER
309
CELLSTYLE_END
300
CELLSTYLE
  1
TABLEFORMAT_BEGIN
 90
        5
170
     1
 91
        0
 92
        0
 62
   257
 93
        1
300
CONTENTFORMAT
  1
CONTENTFORMAT_BEGIN
 90
        0
 91
        0
 92
      512
 93
        0
300

 40
0.0
140
1.0
 94
        2
 62
     0
340
11
144
4.5
309
CONTENTFORMAT_END
171
     1
301
MARGIN
  1
CELLMARGIN_BEGIN
 40
1.5
 40
1.5
 40
1.5
 40
1.5
 40
0.18
 40
0.18
309
CELLMARGIN_END
 94
        6
 95
        1
302
GRIDFORMAT
  1
GRIDFORMAT_BEGIN
 90
        0
 91
        1
 62
     0
 92
       -2
340
0
 93
        0
 40
0.045
309
GRIDFORMAT_END
 95
        2
302
GRIDFORMAT
  1
GRIDFORMAT_BEGIN
 90
        0
 91
        1
 62
     0
 92
       -2
340
0
 93
        0
 40
0.045
309
GRIDFORMAT_END
 95
        4
302
GRIDFORMAT
  1
GRIDFORMAT_BEGIN
 90
        0
 91
        1
 62
     0
 92
       -2
340
0
 93
        0
 40
0.045
309
GRIDFORMAT_END
 95
        8
302
GRIDFORMAT
  1
GRIDFORMAT_BEGIN
 90
        0
 91
        1
 62
     0
 92
       -2
340
0
 93
        0
 40
0.045
309
GRIDFORMAT_END
 95
       16
302
GRIDFORMAT
  1
GRIDFORMAT_BEGIN
 90
        0
 91
        1
 62
     0
 92
       -2
340
0
 93
        0
 40
0.045
309
GRIDFORMAT_END
 95
       32
302
GRIDFORMAT
  1
GRIDFORMAT_BEGIN
 90
        0
 91
        1
 62
     0
 92
       -2
340
0
 93
        0
 40
0.045
309
GRIDFORMAT_END
309
TABLEFORMAT_END
  1
CELLSTYLE_BEGIN
 90
        3
 91
        2
300
_DATA
309
CELLSTYLE_END
  0
XRECORD
  5
132D
102
{ACAD_REACTORS
330
673
102
}
330
673
100
AcDbXrecord
280
     1
102
ACAD_ROUNDTRIP_PRE2007_TABLESTYLE
 90
      512
 91
        0
  1

 92
      512
 93
        0
  2

 94
      512
 95
        0
  3

  0
ENDSEC
  0
EOF
