  0
SECTION
  2
HEADER
  9
$ACADVER
  1
AC1015
  9
$ACADMAINTVER
 70
    18
  9
$DWGCODEPAGE
  3
ANSI_932
  9
$INSBASE
 10
0.0
 20
0.0
 30
0.0
  9
$EXTMIN
 10
2.99995004635403
 20
2.999995130491228
 30
0.0
  9
$EXTMAX
 10
1262.999958271767
 20
893.9999914647771
 30
0.0
  9
$LIMMIN
 10
0.0
 20
0.0
  9
$LIMMAX
 10
1259.999962449229
 20
890.9999734462406
  9
$ORTHOMODE
 70
     1
  9
$REGENMODE
 70
     1
  9
$FILLMODE
 70
     1
  9
$QTEXTMODE
 70
     0
  9
$MIRRTEXT
 70
     1
  9
$LTSCALE
 40
3.0
  9
$ATTMODE
 70
     1
  9
$TEXTSIZE
 40
3.299999999999998
  9
$TRACEWID
 40
0.05
  9
$TEXTSTYLE
  7
STD
  9
$CLAYER
  8
0
  9
$CELTYPE
  6
CONTINUOUS
  9
$CECOLOR
 62
     7
  9
$CELTSCALE
 40
1.0
  9
$DISPSILH
 70
     0
  9
$DIMSCALE
 40
3.0
  9
$DIMASZ
 40
2.0
  9
$DIMEXO
 40
1.0
  9
$DIMDLI
 40
4.0
  9
$DIMRND
 40
0.0
  9
$DIMDLE
 40
0.0
  9
$DIMEXE
 40
1.0
  9
$DIMTP
 40
0.0
  9
$DIMTM
 40
0.0
  9
$DIMTXT
 40
2.799999999999999
  9
$DIMCEN
 40
0.0
  9
$DIMTSZ
 40
0.0
  9
$DIMTOL
 70
     0
  9
$DIMLIM
 70
     0
  9
$DIMTIH
 70
     0
  9
$DIMTOH
 70
     0
  9
$DIMSE1
 70
     0
  9
$DIMSE2
 70
     0
  9
$DIMTAD
 70
     3
  9
$DIMZIN
 70
     8
  9
$DIMBLK
  1
Open
  9
$DIMASO
 70
     1
  9
$DIMSHO
 70
     1
  9
$DIMPOST
  1

  9
$DIMAPOST
  1

  9
$DIMALT
 70
     0
  9
$DIMALTD
 70
     2
  9
$DIMALTF
 40
25.4
  9
$DIMLFAC
 40
1.0
  9
$DIMTOFL
 70
     1
  9
$DIMTVP
 40
1.0
  9
$DIMTIX
 70
     0
  9
$DIMSOXD
 70
     0
  9
$DIMSAH
 70
     0
  9
$DIMBLK1
  1

  9
$DIMBLK2
  1

  9
$DIMSTYLE
  2
ASKSTANDARD
  9
$DIMCLRD
 70
     3
  9
$DIMCLRE
 70
     3
  9
$DIMCLRT
 70
     4
  9
$DIMTFAC
 40
0.7
  9
$DIMGAP
 40
0.8
  9
$DIMJUST
 70
     0
  9
$DIMSD1
 70
     0
  9
$DIMSD2
 70
     0
  9
$DIMTOLJ
 70
     1
  9
$DIMTZIN
 70
     0
  9
$DIMALTZ
 70
     8
  9
$DIMALTTZ
 70
     0
  9
$DIMUPT
 70
     0
  9
$DIMDEC
 70
     2
  9
$DIMTDEC
 70
     2
  9
$DIMALTU
 70
     2
  9
$DIMALTTD
 70
     2
  9
$DIMTXSTY
  7
SUNPOU
  9
$DIMAUNIT
 70
     0
  9
$DIMADEC
 70
     0
  9
$DIMALTRND
 40
0.0
  9
$DIMAZIN
 70
     0
  9
$DIMDSEP
 70
    46
  9
$DIMATFIT
 70
     0
  9
$DIMFRAC
 70
     0
  9
$DIMLDRBLK
  1
DotSmall
  9
$DIMLUNIT
 70
     2
  9
$DIMLWD
 70
    -2
  9
$DIMLWE
 70
    -2
  9
$DIMTMOVE
 70
     0
  9
$LUNITS
 70
     2
  9
$LUPREC
 70
     1
  9
$SKETCHINC
 40
0.1
  9
$FILLETRAD
 40
10.0
  9
$AUNITS
 70
     0
  9
$AUPREC
 70
     1
  9
$MENU
  1
SK
  9
$ELEVATION
 40
0.0
  9
$PELEVATION
 40
0.0
  9
$THICKNESS
 40
0.0
  9
$LIMCHECK
 70
     0
  9
$CHAMFERA
 40
0.0
  9
$CHAMFERB
 40
0.0
  9
$CHAMFERC
 40
0.0
  9
$CHAMFERD
 40
0.0
  9
$SKPOLY
 70
     0
  9
$TDCREATE
 40
2452647.771902442
  9
$TDUCREATE
 40
2452647.396902442
  9
$TDUPDATE
 40
2454970.347560035
  9
$TDUUPDATE
 40
2454969.972560035
  9
$TDINDWG
 40
0.2202398958
  9
$TDUSRTIMER
 40
0.2202398958
  9
$USRTIMER
 70
     1
  9
$ANGBASE
 50
0.0
  9
$ANGDIR
 70
     0
  9
$PDMODE
 70
     0
  9
$PDSIZE
 40
0.0
  9
$PLINEWID
 40
0.0
  9
$SPLFRAME
 70
     0
  9
$SPLINETYPE
 70
     6
  9
$SPLINESEGS
 70
     8
  9
$HANDSEED
  5
5EF3
  9
$SURFTAB1
 70
     6
  9
$SURFTAB2
 70
     6
  9
$SURFTYPE
 70
     6
  9
$SURFU
 70
     6
  9
$SURFV
 70
     6
  9
$UCSBASE
  2

  9
$UCSNAME
  2

  9
$UCSORG
 10
0.0
 20
0.0
 30
0.0
  9
$UCSXDIR
 10
1.0
 20
0.0
 30
0.0
  9
$UCSYDIR
 10
0.0
 20
1.0
 30
0.0
  9
$UCSORTHOREF
  2

  9
$UCSORTHOVIEW
 70
     0
  9
$UCSORGTOP
 10
0.0
 20
0.0
 30
0.0
  9
$UCSORGBOTTOM
 10
0.0
 20
0.0
 30
0.0
  9
$UCSORGLEFT
 10
0.0
 20
0.0
 30
0.0
  9
$UCSORGRIGHT
 10
0.0
 20
0.0
 30
0.0
  9
$UCSORGFRONT
 10
0.0
 20
0.0
 30
0.0
  9
$UCSORGBACK
 10
0.0
 20
0.0
 30
0.0
  9
$PUCSBASE
  2

  9
$PUCSNAME
  2

  9
$PUCSORG
 10
0.0
 20
0.0
 30
0.0
  9
$PUCSXDIR
 10
1.0
 20
0.0
 30
0.0
  9
$PUCSYDIR
 10
0.0
 20
1.0
 30
0.0
  9
$PUCSORTHOREF
  2

  9
$PUCSORTHOVIEW
 70
     0
  9
$PUCSORGTOP
 10
0.0
 20
0.0
 30
0.0
  9
$PUCSORGBOTTOM
 10
0.0
 20
0.0
 30
0.0
  9
$PUCSORGLEFT
 10
0.0
 20
0.0
 30
0.0
  9
$PUCSORGRIGHT
 10
0.0
 20
0.0
 30
0.0
  9
$PUCSORGFRONT
 10
0.0
 20
0.0
 30
0.0
  9
$PUCSORGBACK
 10
0.0
 20
0.0
 30
0.0
  9
$USERI1
 70
     0
  9
$USERI2
 70
     0
  9
$USERI3
 70
     0
  9
$USERI4
 70
     0
  9
$USERI5
 70
    15
  9
$USERR1
 40
0.0
  9
$USERR2
 40
0.0
  9
$USERR3
 40
0.0
  9
$USERR4
 40
0.0
  9
$USERR5
 40
0.0
  9
$WORLDVIEW
 70
     1
  9
$SHADEDGE
 70
     3
  9
$SHADEDIF
 70
    70
  9
$TILEMODE
 70
     1
  9
$MAXACTVP
 70
    16
  9
$PINSBASE
 10
0.0
 20
0.0
 30
0.0
  9
$PLIMCHECK
 70
     0
  9
$PEXTMIN
 10
-20.7356711386019
 20
-16.86524932993649
 30
0.0
  9
$PEXTMAX
 10
278.8824131630237
 20
208.7472719961056
 30
0.0
  9
$PLIMMIN
 10
-20.0
 20
-7.5
  9
$PLIMMAX
 10
277.0
 20
202.5
  9
$UNITMODE
 70
     0
  9
$VISRETAIN
 70
     0
  9
$PLINEGEN
 70
     0
  9
$PSLTSCALE
 70
     0
  9
$TREEDEPTH
 70
  3020
  9
$CMLSTYLE
  2
STANDARD
  9
$CMLJUST
 70
     0
  9
$CMLSCALE
 40
1.0
  9
$PROXYGRAPHICS
 70
     1
  9
$MEASUREMENT
 70
     1
  9
$CELWEIGHT
370
    -1
  9
$ENDCAPS
280
     0
  9
$JOINSTYLE
280
     0
  9
$LWDISPLAY
290
     0
  9
$INSUNITS
 70
     0
  9
$HYPERLINKBASE
  1

  9
$STYLESHEET
  1
SUIKO.ctb
  9
$XEDIT
290
     1
  9
$CEPSNTYPE
380
     0
  9
$PSTYLEMODE
290
     1
  9
$FINGERPRINTGUID
  2
{28696131-211B-44C7-BFDE-7BFF7D1B273B}
  9
$VERSIONGUID
  2
{601B52EB-3DEE-43BF-A93B-0F4786514670}
  9
$EXTNAMES
290
     1
  9
$PSVPSCALE
 40
0.0
  9
$OLESTARTUP
290
     0
  0
ENDSEC
  0
SECTION
  2
CLASSES
  0
CLASS
  1
DICTIONARYVAR
  2
AcDbDictionaryVar
  3
ObjectDBX Classes
 90
        0
280
     0
281
     0
  0
CLASS
  1
ACDBDICTIONARYWDFLT
  2
AcDbDictionaryWithDefault
  3
ObjectDBX Classes
 90
        0
280
     0
281
     0
  0
CLASS
  1
ACDBPLACEHOLDER
  2
AcDbPlaceHolder
  3
ObjectDBX Classes
 90
        0
280
     0
281
     0
  0
CLASS
  1
LAYOUT
  2
AcDbLayout
  3
ObjectDBX Classes
 90
        0
280
     0
281
     0
  0
CLASS
  1
TABLESTYLE
  2
AcDbTableStyle
  3
ObjectDBX Classes
 90
     4095
280
     0
281
     0
  0
CLASS
  1
MATERIAL
  2
AcDbMaterial
  3
ObjectDBX Classes
 90
     1153
280
     0
281
     0
  0
CLASS
  1
VISUALSTYLE
  2
AcDbVisualStyle
  3
ObjectDBX Classes
 90
     4095
280
     0
281
     0
  0
CLASS
  1
SCALE
  2
AcDbScale
  3
ObjectDBX Classes
 90
     1153
280
     0
281
     0
  0
CLASS
  1
MLEADERSTYLE
  2
AcDbMLeaderStyle
  3
ACDB_MLEADERSTYLE_CLASS
 90
     4095
280
     0
281
     0
  0
CLASS
  1
CELLSTYLEMAP
  2
AcDbCellStyleMap
  3
ObjectDBX Classes
 90
     1152
280
     0
281
     0
  0
CLASS
  1
MULTILEADER
  2
AcDbMLeader
  3
ACDB_MLEADER_CLASS
 90
    33793
280
     0
281
     1
  0
CLASS
  1
SORTENTSTABLE
  2
AcDbSortentsTable
  3
ObjectDBX Classes
 90
        0
280
     0
281
     0
  0
ENDSEC
  0
SECTION
  2
TABLES
  0
TABLE
  2
VPORT
  5
8
330
0
100
AcDbSymbolTable
 70
     1
  0
VPORT
  5
1866
330
8
100
AcDbSymbolTableRecord
100
AcDbViewportTableRecord
  2
*Active
 70
     0
 10
0.0
 20
0.0
 11
1.0
 21
1.0
 12
629.9999812246145
 22
445.4999867231203
 13
0.0
 23
0.0
 14
10.0
 24
10.0
 15
0.0
 25
0.0
 16
0.0
 26
0.0
 36
1.0
 17
0.0
 27
0.0
 37
0.0
 40
947.8707256867441
 41
1.329295154185021
 42
50.0
 43
0.0
 44
0.0
 50
0.0
 51
0.0
 71
     0
 72
   500
 73
     1
 74
     0
 75
     0
 76
     0
 77
     0
 78
     0
281
     0
 65
     1
110
0.0
120
0.0
130
0.0
111
1.0
121
0.0
131
0.0
112
0.0
122
1.0
132
0.0
 79
     0
146
0.0
  0
ENDTAB
  0
TABLE
  2
LTYPE
  5
5
330
0
100
AcDbSymbolTable
 70
     3
  0
LTYPE
  5
12
330
5
100
AcDbSymbolTableRecord
100
AcDbLinetypeTableRecord
  2
BYBLOCK
 70
     0
  3

 72
    65
 73
     0
 40
0.0
  0
LTYPE
  5
13
330
5
100
AcDbSymbolTableRecord
100
AcDbLinetypeTableRecord
  2
BYLAYER
 70
     0
  3

 72
    65
 73
     0
 40
0.0
  0
LTYPE
  5
14
330
5
100
AcDbSymbolTableRecord
100
AcDbLinetypeTableRecord
  2
CONTINUOUS
 70
     0
  3
実線
 72
    65
 73
     0
 40
0.0
  0
LTYPE
  5
1742
330
5
100
AcDbSymbolTableRecord
100
AcDbLinetypeTableRecord
  2
HIDDEN
 70
     0
  3
__ __ __ __ __ __ __ __ __ __ __ __ __ __ __ __
 72
    65
 73
     2
 40
0.375
 49
0.25
 74
     0
 49
-0.125
 74
     0
  0
LTYPE
  5
29A9
330
5
100
AcDbSymbolTableRecord
100
AcDbLinetypeTableRecord
  2
CENTER2
 70
     0
  3
Center (.5x) ___ _ ___ _ ___ _ ___ _ ___ _ ___
 72
    65
 73
     4
 40
28.575
 49
19.05
 74
     0
 49
-3.174999999999999
 74
     0
 49
3.174999999999999
 74
     0
 49
-3.174999999999999
 74
     0
  0
ENDTAB
  0
TABLE
  2
LAYER
  5
2
102
{ACAD_XDICTIONARY
360
2822
102
}
330
0
100
AcDbSymbolTable
 70
     6
  0
LAYER
  5
F
102
{ACAD_XDICTIONARY
360
18E7
102
}
330
2
100
AcDbSymbolTableRecord
100
AcDbLayerTableRecord
  2
0
 70
     0
 62
     7
  6
CONTINUOUS
370
    -3
390
44D
  0
LAYER
  5
106D
330
2
100
AcDbSymbolTableRecord
100
AcDbLayerTableRecord
  2
Defpoints
 70
     0
 62
     7
  6
CONTINUOUS
290
     0
370
    -3
390
44D
  0
LAYER
  5
265E
330
2
100
AcDbSymbolTableRecord
100
AcDbLayerTableRecord
  2
PV
 70
     0
 62
     7
  6
CONTINUOUS
370
    -3
390
44D
  0
LAYER
  5
268F
330
2
100
AcDbSymbolTableRecord
100
AcDbLayerTableRecord
  2
RH
 70
     0
 62
     7
  6
CONTINUOUS
370
    -3
390
44D
  0
LAYER
  5
26DD
330
2
100
AcDbSymbolTableRecord
100
AcDbLayerTableRecord
  2
TP
 70
     0
 62
     7
  6
CONTINUOUS
370
    -3
390
44D
  0
LAYER
  5
2734
330
2
100
AcDbSymbolTableRecord
100
AcDbLayerTableRecord
  2
FO
 70
     0
 62
     7
  6
CONTINUOUS
370
    -3
390
44D
  0
ENDTAB
  0
TABLE
  2
STYLE
  5
3
330
0
100
AcDbSymbolTable
 70
     3
  0
STYLE
  5
10
330
3
100
AcDbSymbolTableRecord
100
AcDbTextStyleTableRecord
  2
STANDARD
 70
     0
 40
0.0
 41
1.0
 50
0.0
 71
     0
 42
3.299999999999998
  3
romans.shx
  4
extfont.shx
  0
STYLE
  5
2AB
330
3
100
AcDbSymbolTableRecord
100
AcDbTextStyleTableRecord
  2
STD
 70
     0
 40
0.0
 41
1.0
 50
0.0
 71
     0
 42
3.299999999999998
  3
monotxt.shx
  4
extfont.shx
  0
STYLE
  5
16F4
330
3
100
AcDbSymbolTableRecord
100
AcDbTextStyleTableRecord
  2
SUNPOU
 70
     0
 40
0.0
 41
0.7
 50
0.0
 71
     0
 42
3.299999999999998
  3
monotxt.shx
  4
extfont2.shx
  0
ENDTAB
  0
TABLE
  2
VIEW
  5
6
330
0
100
AcDbSymbolTable
 70
     1
  0
VIEW
  5
C5
330
6
100
AcDbSymbolTableRecord
100
AcDbViewTableRecord
  2
V0
 70
     0
 40
297.0
 10
210.0
 20
148.5
 41
420.0
 11
0.0
 21
0.0
 31
1.0
 12
0.0
 22
0.0
 32
0.0
 42
50.0
 43
0.0
 44
0.0
 50
0.0
 71
     0
281
     0
 72
     0
  0
ENDTAB
  0
TABLE
  2
UCS
  5
7
330
0
100
AcDbSymbolTable
 70
     2
  0
UCS
  5
1D1
330
7
100
AcDbSymbolTableRecord
100
AcDbUCSTableRecord
  2
ASKMOVEUCS
 70
     0
 10
0.0
 20
0.0
 30
0.0
 11
1.0
 21
0.0
 31
0.0
 12
0.0
 22
1.0
 32
0.0
 79
     0
146
0.0
  0
UCS
  5
1D4
330
7
100
AcDbSymbolTableRecord
100
AcDbUCSTableRecord
  2
UCS_SET
 70
     0
 10
0.0
 20
0.0
 30
0.0
 11
1.0
 21
0.0
 31
0.0
 12
0.0
 22
1.0
 32
0.0
 79
     0
146
0.0
  0
ENDTAB
  0
TABLE
  2
APPID
  5
9
330
0
100
AcDbSymbolTable
 70
    17
  0
APPID
  5
11
330
9
100
AcDbSymbolTableRecord
100
AcDbRegAppTableRecord
  2
ACAD
 70
     0
  0
APPID
  5
C6
330
9
100
AcDbSymbolTableRecord
100
AcDbRegAppTableRecord
  2
AUTO_SEKKEIYA
 70
     0
  0
APPID
  5
17FB
330
9
100
AcDbSymbolTableRecord
100
AcDbRegAppTableRecord
  2
ACAD_DSTYLE_DIMTEXT_FILL
 70
     0
  0
APPID
  5
18B5
330
9
100
AcDbSymbolTableRecord
100
AcDbRegAppTableRecord
  2
ACAD_MLEADERVER
 70
     0
  0
APPID
  5
18C0
330
9
100
AcDbSymbolTableRecord
100
AcDbRegAppTableRecord
  2
AcadAnnoPO
 70
     0
  0
APPID
  5
18C1
330
9
100
AcDbSymbolTableRecord
100
AcDbRegAppTableRecord
  2
ACAD_DSTYLE_DIMJAG
 70
     0
  0
APPID
  5
18C2
330
9
100
AcDbSymbolTableRecord
100
AcDbRegAppTableRecord
  2
ACAD_DSTYLE_DIMTALN
 70
     0
  0
APPID
  5
1ABA
330
9
100
AcDbSymbolTableRecord
100
AcDbRegAppTableRecord
  2
DEKIMAS
 70
     0
  0
APPID
  5
1ABB
330
9
100
AcDbSymbolTableRecord
100
AcDbRegAppTableRecord
  2
DIMEXPLODE
 70
     0
  0
APPID
  5
265C
330
9
100
AcDbSymbolTableRecord
100
AcDbRegAppTableRecord
  2
ASKOBJSC
 70
     0
  0
APPID
  5
265D
330
9
100
AcDbSymbolTableRecord
100
AcDbRegAppTableRecord
  2
ASKDWGSC
 70
     0
  0
APPID
  5
2819
330
9
100
AcDbSymbolTableRecord
100
AcDbRegAppTableRecord
  2
ACAD_PSEXT
 70
     0
  0
APPID
  5
29B9
330
9
100
AcDbSymbolTableRecord
100
AcDbRegAppTableRecord
  2
ACAD_DSTYLE_DIMBREAK
 70
     0
  0
APPID
  5
3492
330
9
100
AcDbSymbolTableRecord
100
AcDbRegAppTableRecord
  2
AcAecLayerStandard
 70
     0
  0
APPID
  5
4632
330
9
100
AcDbSymbolTableRecord
100
AcDbRegAppTableRecord
  2
ACAD_DSTYLE_DIMRADIAL_EXTENSION
 70
     0
  0
APPID
  5
5C6A
330
9
100
AcDbSymbolTableRecord
100
AcDbRegAppTableRecord
  2
ACAD_EXEMPT_FROM_CAD_STANDARDS
 70
     0
  0
APPID
  5
5E21
330
9
100
AcDbSymbolTableRecord
100
AcDbRegAppTableRecord
  2
ACAD_DSTYLE_DIMJOGGED_JOGANGLE_SYMBOL
 70
     0
  0
ENDTAB
  0
TABLE
  2
DIMSTYLE
  5
A
330
0
100
AcDbSymbolTable
 70
     2
100
AcDbDimStyleTable
 71
     1
340
3CE
  0
DIMSTYLE
105
3CE
102
{ACAD_REACTORS
330
4A78
330
4A79
330
4A7A
330
4A7B
330
4AF4
330
4AFA
330
4B34
330
4B35
330
4B36
330
5185
330
5192
330
519F
330
5234
330
5255
330
527D
330
52C5
330
52D2
330
52FC
330
5342
330
5370
330
5AD8
330
5B39
102
}
330
A
100
AcDbSymbolTableRecord
100
AcDbDimStyleTableRecord
  2
ASKSTANDARD
 70
     0
 40
2.999999910593035
 41
2.0
 42
1.0
 43
4.0
 44
1.0
 73
     0
 74
     0
 77
     3
 78
     8
140
2.799999999999999
141
0.0
145
1.0
146
0.7
147
0.8
172
     1
176
     3
177
     3
178
     4
271
     2
272
     2
285
     8
289
     0
340
16F4
341
1249
342
1442
1001
ACAD_DSTYLE_DIMJAG
1070
   388
1040
1.5
1001
ACAD_DSTYLE_DIMTALN
1070
   392
1070
     0
  0
DIMSTYLE
105
29B5
330
A
100
AcDbSymbolTableRecord
100
AcDbDimStyleTableRecord
  2
Standard
 70
     0
 41
2.5
 42
1.0
 43
7.0
 44
2.0
 73
     0
 74
     0
 77
     1
 78
     8
 79
     2
140
2.0
141
2.5
143
0.03937007874016
147
1.0
171
     3
172
     1
178
     2
179
     2
271
     2
272
     2
274
     3
283
     0
284
     8
289
     0
340
10
341
1914
342
1914
1001
ACAD_DSTYLE_DIMJAG
1070
   388
1040
1.5
1001
ACAD_DSTYLE_DIMTALN
1070
   392
1070
     0
  0
ENDTAB
  0
TABLE
  2
BLOCK_RECORD
  5
1
330
0
100
AcDbSymbolTable
 70
    25
  0
BLOCK_RECORD
  5
18
102
{ACAD_XDICTIONARY
360
4441
102
}
330
1
100
AcDbSymbolTableRecord
100
AcDbBlockTableRecord
  2
*MODEL_SPACE
340
450
  0
BLOCK_RECORD
  5
15
330
1
100
AcDbSymbolTableRecord
100
AcDbBlockTableRecord
  2
*PAPER_SPACE
340
451
  0
BLOCK_RECORD
  5
1249
330
1
100
AcDbSymbolTableRecord
100
AcDbBlockTableRecord
  2
_DotSmall
340
0
  0
BLOCK_RECORD
  5
1442
330
1
100
AcDbSymbolTableRecord
100
AcDbBlockTableRecord
  2
_Open
340
0
102
{BLKREFS
331
5B77
331
5B78
331
5E2B
331
5E32
331
5E33
331
5E3B
331
5E3C
331
5E44
331
5E45
331
5E4D
331
5E4E
331
5E56
331
5E57
331
5E73
331
5E74
331
5E7C
331
5E7D
331
5E85
331
5E86
331
5E8E
331
5E8F
331
5E97
331
5E98
331
5EA0
331
5EA1
331
5EB7
331
5EB8
102
}
  0
BLOCK_RECORD
  5
1914
330
1
100
AcDbSymbolTableRecord
100
AcDbBlockTableRecord
  2
_Open30
340
0
102
{BLKREFS
331
5E5E
331
5E5F
331
5E67
331
5E6D
331
5EA8
331
5EAE
331
5EAF
331
5EBF
331
5EC5
331
5ECB
331
5ECC
331
5ED4
331
5ED5
102
}
  0
BLOCK_RECORD
  5
4C3B
330
1
100
AcDbSymbolTableRecord
100
AcDbBlockTableRecord
  2
*D3
340
0
  0
BLOCK_RECORD
  5
4C47
330
1
100
AcDbSymbolTableRecord
100
AcDbBlockTableRecord
  2
*D4
340
0
  0
BLOCK_RECORD
  5
4C53
330
1
100
AcDbSymbolTableRecord
100
AcDbBlockTableRecord
  2
*D5
340
0
  0
BLOCK_RECORD
  5
4C5C
330
1
100
AcDbSymbolTableRecord
100
AcDbBlockTableRecord
  2
*D6
340
0
  0
BLOCK_RECORD
  5
4CD3
330
1
100
AcDbSymbolTableRecord
100
AcDbBlockTableRecord
  2
*D7
340
0
  0
BLOCK_RECORD
  5
4D17
330
1
100
AcDbSymbolTableRecord
100
AcDbBlockTableRecord
  2
*D8
340
0
  0
BLOCK_RECORD
  5
4D1F
330
1
100
AcDbSymbolTableRecord
100
AcDbBlockTableRecord
  2
*D9
340
0
  0
BLOCK_RECORD
  5
4D28
330
1
100
AcDbSymbolTableRecord
100
AcDbBlockTableRecord
  2
*D10
340
0
  0
BLOCK_RECORD
  5
4D31
330
1
100
AcDbSymbolTableRecord
100
AcDbBlockTableRecord
  2
*D11
340
0
  0
BLOCK_RECORD
  5
5186
330
1
100
AcDbSymbolTableRecord
100
AcDbBlockTableRecord
  2
*D12
340
0
  0
BLOCK_RECORD
  5
5193
330
1
100
AcDbSymbolTableRecord
100
AcDbBlockTableRecord
  2
*D13
340
0
  0
BLOCK_RECORD
  5
51A0
330
1
100
AcDbSymbolTableRecord
100
AcDbBlockTableRecord
  2
*D14
340
0
  0
BLOCK_RECORD
  5
5235
330
1
100
AcDbSymbolTableRecord
100
AcDbBlockTableRecord
  2
*D15
340
0
  0
BLOCK_RECORD
  5
5256
330
1
100
AcDbSymbolTableRecord
100
AcDbBlockTableRecord
  2
*D16
340
0
  0
BLOCK_RECORD
  5
527E
330
1
100
AcDbSymbolTableRecord
100
AcDbBlockTableRecord
  2
*D17
340
0
  0
BLOCK_RECORD
  5
52C6
330
1
100
AcDbSymbolTableRecord
100
AcDbBlockTableRecord
  2
*D18
340
0
  0
BLOCK_RECORD
  5
52D3
330
1
100
AcDbSymbolTableRecord
100
AcDbBlockTableRecord
  2
*D19
340
0
  0
BLOCK_RECORD
  5
52FD
330
1
100
AcDbSymbolTableRecord
100
AcDbBlockTableRecord
  2
*D20
340
0
  0
BLOCK_RECORD
  5
5343
330
1
100
AcDbSymbolTableRecord
100
AcDbBlockTableRecord
  2
*D21
340
0
  0
BLOCK_RECORD
  5
5371
330
1
100
AcDbSymbolTableRecord
100
AcDbBlockTableRecord
  2
*D22
340
0
  0
BLOCK_RECORD
  5
5AD9
330
1
100
AcDbSymbolTableRecord
100
AcDbBlockTableRecord
  2
*D23
340
0
  0
BLOCK_RECORD
  5
5B3A
330
1
100
AcDbSymbolTableRecord
100
AcDbBlockTableRecord
  2
*D24
340
0
  0
ENDTAB
  0
ENDSEC
  0
SECTION
  2
BLOCKS
  0
BLOCK
  5
24
330
18
100
AcDbEntity
  8
0
 62
     7
100
AcDbBlockBegin
  2
*MODEL_SPACE
 70
     0
 10
0.0
 20
0.0
 30
0.0
  3
*MODEL_SPACE
  1

  0
ENDBLK
  5
25
330
18
100
AcDbEntity
  8
0
 62
     7
100
AcDbBlockEnd
  0
BLOCK
  5
22
330
15
100
AcDbEntity
 67
     1
  8
0
 62
     7
100
AcDbBlockBegin
  2
*PAPER_SPACE
 70
     0
 10
0.0
 20
0.0
 30
0.0
  3
*PAPER_SPACE
  1

  0
ENDBLK
  5
23
330
15
100
AcDbEntity
 67
     1
  8
0
 62
     7
100
AcDbBlockEnd
  0
BLOCK
  5
124B
330
1249
100
AcDbEntity
  8
0
 62
     7
100
AcDbBlockBegin
  2
_DotSmall
 70
     0
 10
0.0
 20
0.0
 30
0.0
  3
_DotSmall
  1

  0
LWPOLYLINE
  5
124A
330
1249
100
AcDbEntity
  8
0
  6
ByBlock
 62
     0
100
AcDbPolyline
 90
        2
 70
     1
 43
0.5
 10
-0.0625
 20
0.0
 42
1.0
 10
0.0625
 20
0.0
 42
1.0
  0
ENDBLK
  5
124C
330
1249
100
AcDbEntity
  8
0
 62
     7
100
AcDbBlockEnd
  0
BLOCK
  5
1446
330
1442
100
AcDbEntity
  8
0
 62
     7
100
AcDbBlockBegin
  2
_Open
 70
     0
 10
0.0
 20
0.0
 30
0.0
  3
_Open
  1

  0
LINE
  5
1443
330
1442
100
AcDbEntity
  8
0
  6
ByBlock
 62
     0
370
    -2
100
AcDbLine
 10
-1.0
 20
0.1666666666666666
 30
0.0
 11
0.0
 21
0.0
 31
0.0
  0
LINE
  5
1444
330
1442
100
AcDbEntity
  8
0
  6
ByBlock
 62
     0
370
    -2
100
AcDbLine
 10
-1.0
 20
-0.1666666666666666
 30
0.0
 11
0.0
 21
0.0
 31
0.0
  0
LINE
  5
1445
330
1442
100
AcDbEntity
  8
0
  6
ByBlock
 62
     0
370
    -2
100
AcDbLine
 10
0.0
 20
0.0
 30
0.0
 11
-1.0
 21
0.0
 31
0.0
  0
ENDBLK
  5
1447
330
1442
100
AcDbEntity
  8
0
 62
     7
100
AcDbBlockEnd
  0
BLOCK
  5
1918
330
1914
100
AcDbEntity
  8
0
 62
     7
100
AcDbBlockBegin
  2
_Open30
 70
     0
 10
0.0
 20
0.0
 30
0.0
  3
_Open30
  1

  0
LINE
  5
1915
330
1914
100
AcDbEntity
  8
0
  6
ByBlock
 62
     0
370
    -2
100
AcDbLine
 10
-1.0
 20
0.26794919
 30
0.0
 11
0.0
 21
0.0
 31
0.0
  0
LINE
  5
1916
330
1914
100
AcDbEntity
  8
0
  6
ByBlock
 62
     0
370
    -2
100
AcDbLine
 10
0.0
 20
0.0
 30
0.0
 11
-1.0
 21
-0.26794919
 31
0.0
  0
LINE
  5
1917
330
1914
100
AcDbEntity
  8
0
  6
ByBlock
 62
     0
370
    -2
100
AcDbLine
 10
0.0
 20
0.0
 30
0.0
 11
-1.0
 21
0.0
 31
0.0
  0
ENDBLK
  5
1919
330
1914
100
AcDbEntity
  8
0
 62
     7
100
AcDbBlockEnd
  0
BLOCK
  5
4C3C
330
4C3B
100
AcDbEntity
  8
0
 62
     7
100
AcDbBlockBegin
  2
*D3
 70
     1
 10
0.0
 20
0.0
 30
0.0
  3
*D3
  1

  0
LINE
  5
5ED1
330
4C3B
100
AcDbEntity
  8
RH
 62
     4
370
    -2
100
AcDbLine
 10
261.5348933888999
 20
471.5842820721396
 30
0.0
 11
261.5348933888999
 21
516.0571106378317
 31
0.0
  0
LINE
  5
5ED2
330
4C3B
100
AcDbEntity
  8
RH
 62
     4
370
    -2
100
AcDbLine
 10
415.0203857433446
 20
471.6097127215193
 30
0.0
 11
415.0203857433446
 21
516.0571106378317
 31
0.0
  0
LINE
  5
5ED3
330
4C3B
100
AcDbEntity
  8
RH
 62
     4
370
    -2
100
AcDbLine
 10
267.5348932100859
 20
509.1991089288517
 30
0.0
 11
409.0203859221585
 21
509.1991089288517
 31
0.0
  0
INSERT
  5
5ED4
330
4C3B
100
AcDbEntity
  8
RH
 62
     4
370
    -2
100
AcDbBlockReference
  2
_Open30
 10
261.5348933888999
 20
509.1991089288517
 30
0.0
 41
5.999999821186071
 42
5.999999821186071
 43
5.999999821186071
 50
180.0
  0
INSERT
  5
5ED5
330
4C3B
100
AcDbEntity
  8
RH
 62
     4
370
    -2
100
AcDbBlockReference
  2
_Open30
 10
415.0203857433446
 20
509.1991089288517
 30
0.0
 41
5.999999821186071
 42
5.999999821186071
 43
5.999999821186071
  0
MTEXT
  5
5ED6
330
4C3B
100
AcDbEntity
  8
RH
 62
     4
100
AcDbMText
 10
338.2777505310798
 20
516.0991087232157
 30
0.0
 40
8.999999731779105
 41
0.0
 71
     5
 72
     1
  1
\A1;153
  7
SUNPOU
 73
     1
 44
1.0
1001
ACAD
1000
MTEXTBEGIN
1070
    73
1070
     1
1070
    44
1040
1.0
1070
    74
1070
     0
1000
MTEXTEND
  0
POINT
  5
5ED7
330
4C3B
100
AcDbEntity
  8
Defpoints
 62
     0
100
AcDbPoint
 10
261.5348933888999
 20
468.5842821615465
 30
0.0
  0
POINT
  5
5ED8
330
4C3B
100
AcDbEntity
  8
Defpoints
 62
     0
100
AcDbPoint
 10
415.0203857433446
 20
468.6097128109263
 30
0.0
  0
POINT
  5
5ED9
330
4C3B
100
AcDbEntity
  8
Defpoints
 62
     0
100
AcDbPoint
 10
415.0203857433446
 20
509.1991089288517
 30
0.0
  0
ENDBLK
  5
4C3D
330
4C3B
100
AcDbEntity
  8
0
 62
     7
100
AcDbBlockEnd
  0
BLOCK
  5
4C48
330
4C47
100
AcDbEntity
  8
0
 62
     7
100
AcDbBlockBegin
  2
*D4
 70
     1
 10
0.0
 20
0.0
 30
0.0
  3
*D4
  1

  0
LINE
  5
5EC8
330
4C47
100
AcDbEntity
  8
RH
 62
     4
370
    -2
100
AcDbLine
 10
267.8491791031297
 20
193.5842822533534
 30
0.0
 11
267.8491791031297
 21
153.8870570840457
 31
0.0
  0
LINE
  5
5EC9
330
4C47
100
AcDbEntity
  8
RH
 62
     4
370
    -2
100
AcDbLine
 10
408.7063219590297
 20
193.5842822533534
 30
0.0
 11
408.7063219590297
 21
153.8870570840457
 31
0.0
  0
LINE
  5
5ECA
330
4C47
100
AcDbEntity
  8
RH
 62
     4
370
    -2
100
AcDbLine
 10
273.8491789243158
 20
160.7450587930298
 30
0.0
 11
402.7063221378437
 21
160.7450587930298
 31
0.0
  0
INSERT
  5
5ECB
330
4C47
100
AcDbEntity
  8
RH
 62
     4
370
    -2
100
AcDbBlockReference
  2
_Open30
 10
267.8491791031297
 20
160.7450587930298
 30
0.0
 41
5.999999821186071
 42
5.999999821186071
 43
5.999999821186071
 50
180.0
  0
INSERT
  5
5ECC
330
4C47
100
AcDbEntity
  8
RH
 62
     4
370
    -2
100
AcDbBlockReference
  2
_Open30
 10
408.7063219590297
 20
160.7450587930298
 30
0.0
 41
5.999999821186071
 42
5.999999821186071
 43
5.999999821186071
  0
MTEXT
  5
5ECD
330
4C47
100
AcDbEntity
  8
RH
 62
     4
100
AcDbMText
 10
337.2140823072994
 20
167.6450585873937
 30
0.0
 40
8.999999731779105
 41
0.0
 71
     5
 72
     1
  1
\A1;141
  7
SUNPOU
 73
     1
 44
1.0
1001
ACAD
1000
MTEXTBEGIN
1070
    73
1070
     1
1070
    44
1040
1.0
1070
    74
1070
     0
1000
MTEXTEND
  0
POINT
  5
5ECE
330
4C47
100
AcDbEntity
  8
Defpoints
 62
     0
100
AcDbPoint
 10
267.8491791031297
 20
196.5842821639464
 30
0.0
  0
POINT
  5
5ECF
330
4C47
100
AcDbEntity
  8
Defpoints
 62
     0
100
AcDbPoint
 10
408.7063219590297
 20
196.5842821639464
 30
0.0
  0
POINT
  5
5ED0
330
4C47
100
AcDbEntity
  8
Defpoints
 62
     0
100
AcDbPoint
 10
408.7063219590297
 20
160.7450587930298
 30
0.0
  0
ENDBLK
  5
4C49
330
4C47
100
AcDbEntity
  8
0
 62
     7
100
AcDbBlockEnd
  0
BLOCK
  5
4C54
330
4C53
100
AcDbEntity
  8
0
 62
     7
100
AcDbBlockBegin
  2
*D5
 70
     1
 10
0.0
 20
0.0
 30
0.0
  3
*D5
  1

  0
LINE
  5
5EC2
330
4C53
100
AcDbEntity
  8
RH
 62
     4
370
    -2
100
AcDbLine
 10
442.569582627771
 20
492.2357690927039
 30
0.0
 11
415.6012779600536
 21
469.1014830332041
 31
0.0
  0
MTEXT
  5
5EC3
330
4C53
100
AcDbEntity
  8
RH
 62
     4
100
AcDbMText
 10
429.8798634023338
 20
490.4410501204117
 30
0.0
 40
8.999999731779105
 41
0.0
 71
     5
 72
     1
  1
\A1;R10
  7
SUNPOU
 11
0.7589979326710785
 21
0.6510930334453205
 31
0.0
 73
     1
 44
1.0
1001
ACAD
1000
MTEXTBEGIN
1070
    73
1070
     1
1070
    44
1040
1.0
1070
    74
1070
     0
1000
MTEXTEND
  0
LINE
  5
5EC4
330
4C53
100
AcDbEntity
  8
RH
 62
     4
370
    -2
100
AcDbLine
 10
403.6741734343829
 20
458.8700260929864
 30
0.0
 11
411.0472904997465
 21
465.1949249489567
 31
0.0
  0
INSERT
  5
5EC5
330
4C53
100
AcDbEntity
  8
RH
 62
     4
370
    -2
100
AcDbBlockReference
  2
_Open30
 10
411.0472904997465
 20
465.1949249489567
 30
0.0
 41
5.999999821186071
 42
5.999999821186071
 43
5.999999821186071
 50
220.624062690298
  0
POINT
  5
5EC6
330
4C53
100
AcDbEntity
  8
Defpoints
 62
     0
100
AcDbPoint
 10
411.0472904997465
 20
465.1949249489567
 30
0.0
  0
POINT
  5
5EC7
330
4C53
100
AcDbEntity
  8
Defpoints
 62
     0
100
AcDbPoint
 10
403.6741734343829
 20
458.8700260929864
 30
0.0
  0
ENDBLK
  5
4C55
330
4C53
100
AcDbEntity
  8
0
 62
     7
100
AcDbBlockEnd
  0
BLOCK
  5
4C5D
330
4C5C
100
AcDbEntity
  8
0
 62
     7
100
AcDbBlockBegin
  2
*D6
 70
     1
 10
0.0
 20
0.0
 30
0.0
  3
*D6
  1

  0
LINE
  5
5EBD
330
4C5C
100
AcDbEntity
  8
RH
 62
     4
370
    -2
100
AcDbLine
 10
327.7652673590601
 20
426.9356970089852
 30
0.0
 11
311.4665437722956
 21
440.6485224800621
 31
0.0
  0
MTEXT
  5
5EBE
330
4C5C
100
AcDbEntity
  8
RH
 62
     4
100
AcDbMText
 10
326.3536833361345
 20
437.140594079521
 30
0.0
 40
8.999999731779105
 41
0.0
 71
     5
 72
     1
  1
\A1;R5
  7
SUNPOU
 11
0.7651983132631109
 21
-0.6437946422418333
 31
0.0
 73
     1
 44
1.0
1001
ACAD
1000
MTEXTBEGIN
1070
    73
1070
     1
1070
    44
1040
1.0
1070
    74
1070
     0
1000
MTEXTEND
  0
INSERT
  5
5EBF
330
4C5C
100
AcDbEntity
  8
RH
 62
     4
370
    -2
100
AcDbBlockReference
  2
_Open30
 10
306.8753540295451
 20
444.5112902183937
 30
0.0
 41
5.999999821186071
 42
5.999999821186071
 43
5.999999821186071
 50
139.9246380670972
  0
POINT
  5
5EC0
330
4C5C
100
AcDbEntity
  8
Defpoints
 62
     0
100
AcDbPoint
 10
306.8753540295451
 20
444.5112902183937
 30
0.0
  0
POINT
  5
5EC1
330
4C5C
100
AcDbEntity
  8
Defpoints
 62
     0
100
AcDbPoint
 10
310.5920380984645
 20
441.3842821617866
 30
0.0
  0
ENDBLK
  5
4C5E
330
4C5C
100
AcDbEntity
  8
0
 62
     7
100
AcDbBlockEnd
  0
BLOCK
  5
4CD4
330
4CD3
100
AcDbEntity
  8
0
 62
     7
100
AcDbBlockBegin
  2
*D7
 70
     1
 10
0.0
 20
0.0
 30
0.0
  3
*D7
  1

  0
LINE
  5
5EAB
330
4CD3
100
AcDbEntity
  8
PV
 62
     4
370
    -2
100
AcDbLine
 10
603.9476800652084
 20
199.4527570429043
 30
0.0
 11
603.9476800652084
 21
170.346648431611
 31
0.0
  0
LINE
  5
5EAC
330
4CD3
100
AcDbEntity
  8
PV
 62
     4
370
    -2
100
AcDbLine
 10
626.2905075610158
 20
199.4527606913914
 30
0.0
 11
626.2905075610158
 21
170.346648431611
 31
0.0
  0
LINE
  5
5EAD
330
4CD3
100
AcDbEntity
  8
PV
 62
     4
370
    -2
100
AcDbLine
 10
609.9476798863945
 20
177.204646325898
 30
0.0
 11
620.2905077398297
 21
177.204646325898
 31
0.0
  0
INSERT
  5
5EAE
330
4CD3
100
AcDbEntity
  8
PV
 62
     4
370
    -2
100
AcDbBlockReference
  2
_Open30
 10
603.9476800652084
 20
177.204646325898
 30
0.0
 41
5.999999821186071
 42
5.999999821186071
 43
5.999999821186071
 50
180.0
  0
INSERT
  5
5EAF
330
4CD3
100
AcDbEntity
  8
PV
 62
     4
370
    -2
100
AcDbBlockReference
  2
_Open30
 10
626.2905075610158
 20
177.204646325898
 30
0.0
 41
5.999999821186071
 42
5.999999821186071
 43
5.999999821186071
  0
MTEXT
  5
5EB0
330
4CD3
100
AcDbEntity
  8
PV
 62
     4
100
AcDbMText
 10
615.0441199623783
 20
184.104646120262
 30
0.0
 40
8.999999731779105
 41
0.0
 71
     5
 72
     1
  1
\A1;22
  7
SUNPOU
 73
     1
 44
1.0
1001
ACAD
1000
MTEXTBEGIN
1070
    73
1070
     1
1070
    44
1040
1.0
1070
    74
1070
     0
1000
MTEXTEND
  0
POINT
  5
5EB1
330
4CD3
100
AcDbEntity
  8
Defpoints
 62
     0
100
AcDbPoint
 10
603.9476800652084
 20
202.4527569534973
 30
0.0
  0
POINT
  5
5EB2
330
4CD3
100
AcDbEntity
  8
Defpoints
 62
     0
100
AcDbPoint
 10
626.2905075610158
 20
202.4527606019844
 30
0.0
  0
POINT
  5
5EB3
330
4CD3
100
AcDbEntity
  8
Defpoints
 62
     0
100
AcDbPoint
 10
626.2905075610158
 20
177.204646325898
 30
0.0
  0
ENDBLK
  5
4CD5
330
4CD3
100
AcDbEntity
  8
0
 62
     7
100
AcDbBlockEnd
  0
BLOCK
  5
4D18
330
4D17
100
AcDbEntity
  8
0
 62
     7
100
AcDbBlockBegin
  2
*D8
 70
     1
 10
0.0
 20
0.0
 30
0.0
  3
*D8
  1

  0
LINE
  5
5EA6
330
4D17
100
AcDbEntity
  8
PV
 62
     4
370
    -2
100
AcDbLine
 10
649.0895855310925
 20
423.6398427590517
 30
0.0
 11
631.9603045618834
 21
440.5806379061224
 31
0.0
  0
MTEXT
  5
5EA7
330
4D17
100
AcDbEntity
  8
PV
 62
     4
100
AcDbMText
 10
648.5023459317616
 20
433.9251547779934
 30
0.0
 40
8.999999731779105
 41
0.0
 71
     5
 72
     1
  1
\A1;R5
  7
SUNPOU
 11
0.7110078262030393
 21
-0.70318409472771
 31
0.0
 73
     1
 44
1.0
1001
ACAD
1000
MTEXTBEGIN
1070
    73
1070
     1
1070
    44
1040
1.0
1070
    74
1070
     0
1000
MTEXTEND
  0
INSERT
  5
5EA8
330
4D17
100
AcDbEntity
  8
PV
 62
     4
370
    -2
100
AcDbBlockReference
  2
_Open30
 10
627.6942577318034
 20
444.7997423487495
 30
0.0
 41
5.999999821186071
 42
5.999999821186071
 43
5.999999821186071
 50
135.3169741063877
  0
POINT
  5
5EA9
330
4D17
100
AcDbEntity
  8
Defpoints
 62
     0
100
AcDbPoint
 10
627.6942577318034
 20
444.7997423487495
 30
0.0
  0
POINT
  5
5EAA
330
4D17
100
AcDbEntity
  8
Defpoints
 62
     0
100
AcDbPoint
 10
631.1477338467057
 20
441.3842673201697
 30
0.0
  0
ENDBLK
  5
4D19
330
4D17
100
AcDbEntity
  8
0
 62
     7
100
AcDbBlockEnd
  0
BLOCK
  5
4D20
330
4D1F
100
AcDbEntity
  8
0
 62
     7
100
AcDbBlockBegin
  2
*D9
 70
     1
 10
0.0
 20
0.0
 30
0.0
  3
*D9
  1

  0
LINE
  5
5E6A
330
4D1F
100
AcDbEntity
  8
TP
 62
     4
370
    -2
100
AcDbLine
 10
699.7234426774488
 20
745.0957824291428
 30
0.0
 11
672.1890060865996
 21
730.2023891404412
 31
0.0
  0
MTEXT
  5
5E6B
330
4D1F
100
AcDbEntity
  8
TP
 62
     4
100
AcDbMText
 10
686.941285346978
 20
746.0266122680638
 30
0.0
 40
8.999999731779105
 41
0.0
 71
     5
 72
     1
  1
\A1;R10
  7
SUNPOU
 11
0.8795739991670227
 21
0.4757621044065303
 31
0.0
 73
     1
 44
1.0
1001
ACAD
1000
MTEXTBEGIN
1070
    73
1070
     1
1070
    44
1040
1.0
1070
    74
1070
     0
1000
MTEXTEND
  0
LINE
  5
5E6C
330
4D1F
100
AcDbEntity
  8
TP
 62
     4
370
    -2
100
AcDbLine
 10
658.3671203949852
 20
722.726122868659
 30
0.0
 11
666.9115622488775
 21
727.347816599075
 31
0.0
  0
INSERT
  5
5E6D
330
4D1F
100
AcDbEntity
  8
TP
 62
     4
370
    -2
100
AcDbBlockReference
  2
_Open30
 10
666.9115622488775
 20
727.347816599075
 30
0.0
 41
5.999999821186071
 42
5.999999821186071
 43
5.999999821186071
 50
208.4089821730251
  0
POINT
  5
5E6E
330
4D1F
100
AcDbEntity
  8
Defpoints
 62
     0
100
AcDbPoint
 10
666.9115622488775
 20
727.347816599075
 30
0.0
  0
POINT
  5
5E6F
330
4D1F
100
AcDbEntity
  8
Defpoints
 62
     0
100
AcDbPoint
 10
658.3671203949852
 20
722.726122868659
 30
0.0
  0
ENDBLK
  5
4D21
330
4D1F
100
AcDbEntity
  8
0
 62
     7
100
AcDbBlockEnd
  0
BLOCK
  5
4D29
330
4D28
100
AcDbEntity
  8
0
 62
     7
100
AcDbBlockBegin
  2
*D10
 70
     1
 10
0.0
 20
0.0
 30
0.0
  3
*D10
  1

  0
LINE
  5
5E64
330
4D28
100
AcDbEntity
  8
TP
 62
     4
370
    -2
100
AcDbLine
 10
730.1451264762716
 20
603.4884618370898
 30
0.0
 11
706.5812997906175
 21
617.8587793883488
 31
0.0
  0
MTEXT
  5
5E65
330
4D28
100
AcDbEntity
  8
TP
 62
     4
100
AcDbMText
 10
724.5170780305695
 20
615.0025862459525
 30
0.0
 40
8.999999731779105
 41
0.0
 71
     5
 72
     1
  1
\A1;R10
  7
SUNPOU
 11
0.8537618618808295
 21
-0.520663694910428
 31
0.0
 73
     1
 44
1.0
1001
ACAD
1000
MTEXTBEGIN
1070
    73
1070
     1
1070
    44
1040
1.0
1070
    74
1070
     0
1000
MTEXTEND
  0
LINE
  5
5E66
330
4D28
100
AcDbEntity
  8
TP
 62
     4
370
    -2
100
AcDbLine
 10
693.1650550739973
 20
626.0406294543488
 30
0.0
 11
701.458728771997
 21
620.9827614647094
 31
0.0
  0
INSERT
  5
5E67
330
4D28
100
AcDbEntity
  8
TP
 62
     4
370
    -2
100
AcDbBlockReference
  2
_Open30
 10
701.458728771997
 20
620.9827614647094
 30
0.0
 41
5.999999821186071
 42
5.999999821186071
 43
5.999999821186071
 50
148.6232186245415
  0
POINT
  5
5E68
330
4D28
100
AcDbEntity
  8
Defpoints
 62
     0
100
AcDbPoint
 10
701.458728771997
 20
620.9827614647094
 30
0.0
  0
POINT
  5
5E69
330
4D28
100
AcDbEntity
  8
Defpoints
 62
     0
100
AcDbPoint
 10
693.1650550739973
 20
626.0406294543488
 30
0.0
  0
ENDBLK
  5
4D2A
330
4D28
100
AcDbEntity
  8
0
 62
     7
100
AcDbBlockEnd
  0
BLOCK
  5
4D32
330
4D31
100
AcDbEntity
  8
0
 62
     7
100
AcDbBlockBegin
  2
*D11
 70
     1
 10
0.0
 20
0.0
 30
0.0
  3
*D11
  1

  0
LINE
  5
5E5C
330
4D31
100
AcDbEntity
  8
TP
 62
     4
370
    -2
100
AcDbLine
 10
632.5071343353601
 20
606.7944400015772
 30
0.0
 11
653.6171533222575
 21
606.7944400015772
 31
0.0
  0
LINE
  5
5E5D
330
4D31
100
AcDbEntity
  8
TP
 62
     4
370
    -2
100
AcDbLine
 10
646.7591668720626
 20
600.7944401803911
 30
0.0
 11
646.7591668720626
 21
583.3199071323922
 31
0.0
  0
INSERT
  5
5E5E
330
4D31
100
AcDbEntity
  8
TP
 62
     4
370
    -2
100
AcDbBlockReference
  2
_Open30
 10
646.7591668720626
 20
606.7944400015772
 30
0.0
 41
5.999999821186071
 42
5.999999821186071
 43
5.999999821186071
 50
90.0
  0
INSERT
  5
5E5F
330
4D31
100
AcDbEntity
  8
TP
 62
     4
370
    -2
100
AcDbBlockReference
  2
_Open30
 10
646.7591668720626
 20
577.3199073112062
 30
0.0
 41
5.999999821186071
 42
5.999999821186071
 43
5.999999821186071
 50
270.0
  0
MTEXT
  5
5E60
330
4D31
100
AcDbEntity
  8
TP
 62
     4
100
AcDbMText
 10
639.8591670776984
 20
592.0571736519382
 30
0.0
 40
8.999999731779105
 41
0.0
 71
     5
 72
     1
  1
\A1;28
  7
SUNPOU
 11
0.0000000000000001
 21
1.0
 31
0.0
 73
     1
 44
1.0
1001
ACAD
1000
MTEXTBEGIN
1070
    73
1070
     1
1070
    44
1040
1.0
1070
    74
1070
     0
1000
MTEXTEND
  0
POINT
  5
5E61
330
4D31
100
AcDbEntity
  8
Defpoints
 62
     0
100
AcDbPoint
 10
629.5071344247672
 20
606.7944400015772
 30
0.0
  0
POINT
  5
5E62
330
4D31
100
AcDbEntity
  8
Defpoints
 62
     0
100
AcDbPoint
 10
658.3672165138827
 20
577.3199073112062
 30
0.0
  0
POINT
  5
5E63
330
4D31
100
AcDbEntity
  8
Defpoints
 62
     0
100
AcDbPoint
 10
646.7591668720626
 20
577.3199073112062
 30
0.0
  0
ENDBLK
  5
4D33
330
4D31
100
AcDbEntity
  8
0
 62
     7
100
AcDbBlockEnd
  0
BLOCK
  5
5187
330
5186
100
AcDbEntity
  8
0
 62
     7
100
AcDbBlockBegin
  2
*D12
 70
     1
 10
0.0
 20
0.0
 30
0.0
  3
*D12
  1

  0
LINE
  5
5EB4
330
5186
100
AcDbEntity
  8
RH
  6
Continuous
 62
     4
370
    -2
100
AcDbLine
 10
408.7063221003988
 20
196.5842821119843
 30
0.0
 11
436.9269564360858
 21
196.5842821119843
 31
0.0
  0
LINE
  5
5EB5
330
5186
100
AcDbEntity
  8
RH
  6
Continuous
 62
     4
370
    -2
100
AcDbLine
 10
406.6741616610333
 20
468.5842821615461
 30
0.0
 11
436.9269564360859
 21
468.5842821615461
 31
0.0
  0
LINE
  5
5EB6
330
5186
100
AcDbEntity
  8
RH
  6
Continuous
 62
     4
370
    -2
100
AcDbLine
 10
433.9269564360858
 20
202.5842821119843
 30
0.0
 11
433.9269564360859
 21
462.584282161546
 31
0.0
  0
INSERT
  5
5EB7
330
5186
100
AcDbEntity
  8
RH
  6
Continuous
 62
     4
370
    -2
100
AcDbBlockReference
  2
_Open
 10
433.9269564360858
 20
196.5842821119843
 30
0.0
 41
6.0
 42
6.0
 43
6.0
 50
270.0
  0
INSERT
  5
5EB8
330
5186
100
AcDbEntity
  8
RH
  6
Continuous
 62
     4
370
    -2
100
AcDbBlockReference
  2
_Open
 10
433.9269564360859
 20
468.5842821615461
 30
0.0
 41
6.0
 42
6.0
 43
6.0
 50
90.0
  0
MTEXT
  5
5EB9
330
5186
100
AcDbEntity
  8
RH
  6
Continuous
 62
     4
100
AcDbMText
 10
427.3269564360857
 20
332.5842821367653
 30
0.0
 40
8.399999999999998
 41
0.0
 71
     5
 72
     1
  1
\A1;272
  7
SUNPOU
 11
0.0000000000000001
 21
1.0
 31
0.0
 73
     1
 44
1.0
1001
ACAD
1000
MTEXTBEGIN
1070
    73
1070
     1
1070
    44
1040
1.0
1070
    74
1070
     0
1000
MTEXTEND
  0
POINT
  5
5EBA
330
5186
100
AcDbEntity
  8
Defpoints
  6
Continuous
 62
     0
100
AcDbPoint
 10
405.7063221003988
 20
196.5842821119843
 30
0.0
  0
POINT
  5
5EBB
330
5186
100
AcDbEntity
  8
Defpoints
  6
Continuous
 62
     0
100
AcDbPoint
 10
403.6741616610333
 20
468.5842821615461
 30
0.0
  0
POINT
  5
5EBC
330
5186
100
AcDbEntity
  8
Defpoints
  6
Continuous
 62
     0
100
AcDbPoint
 10
433.9269564360859
 20
468.5842821615461
 30
0.0
  0
ENDBLK
  5
5188
330
5186
100
AcDbEntity
  8
0
 62
     7
100
AcDbBlockEnd
  0
BLOCK
  5
5194
330
5193
100
AcDbEntity
  8
0
 62
     7
100
AcDbBlockBegin
  2
*D13
 70
     1
 10
0.0
 20
0.0
 30
0.0
  3
*D13
  1

  0
LINE
  5
5E53
330
5193
100
AcDbEntity
  8
TP
  6
Continuous
 62
     4
370
    -2
100
AcDbLine
 10
527.1190939491871
 20
686.7196726565473
 30
0.0
 11
527.1190939491871
 21
788.5559148644956
 31
0.0
  0
LINE
  5
5E54
330
5193
100
AcDbEntity
  8
TP
  6
Continuous
 62
     4
370
    -2
100
AcDbLine
 10
703.1190939491871
 20
686.7196723791928
 30
0.0
 11
703.1190939491871
 21
788.5559148644956
 31
0.0
  0
LINE
  5
5E55
330
5193
100
AcDbEntity
  8
TP
  6
Continuous
 62
     4
370
    -2
100
AcDbLine
 10
533.1190939491871
 20
785.5559148644957
 30
0.0
 11
697.119093949187
 21
785.5559148644957
 31
0.0
  0
INSERT
  5
5E56
330
5193
100
AcDbEntity
  8
TP
  6
Continuous
 62
     4
370
    -2
100
AcDbBlockReference
  2
_Open
 10
527.1190939491871
 20
785.5559148644957
 30
0.0
 41
6.0
 42
6.0
 43
6.0
 50
180.0
  0
INSERT
  5
5E57
330
5193
100
AcDbEntity
  8
TP
  6
Continuous
 62
     4
370
    -2
100
AcDbBlockReference
  2
_Open
 10
703.1190939491871
 20
785.5559148644957
 30
0.0
 41
6.0
 42
6.0
 43
6.0
  0
MTEXT
  5
5E58
330
5193
100
AcDbEntity
  8
TP
  6
Continuous
 62
     4
100
AcDbMText
 10
615.1190939491871
 20
792.1559148644957
 30
0.0
 40
8.399999999999998
 41
0.0
 71
     5
 72
     1
  1
\A1;176
  7
SUNPOU
 73
     1
 44
1.0
1001
ACAD
1000
MTEXTBEGIN
1070
    73
1070
     1
1070
    44
1040
1.0
1070
    74
1070
     0
1000
MTEXTEND
  0
POINT
  5
5E59
330
5193
100
AcDbEntity
  8
Defpoints
  6
Continuous
 62
     0
100
AcDbPoint
 10
527.1190939491871
 20
683.7196726565473
 30
0.0
  0
POINT
  5
5E5A
330
5193
100
AcDbEntity
  8
Defpoints
  6
Continuous
 62
     0
100
AcDbPoint
 10
703.1190939491871
 20
683.7196723791928
 30
0.0
  0
POINT
  5
5E5B
330
5193
100
AcDbEntity
  8
Defpoints
  6
Continuous
 62
     0
100
AcDbPoint
 10
703.1190939491871
 20
785.5559148644957
 30
0.0
  0
ENDBLK
  5
5195
330
5193
100
AcDbEntity
  8
0
 62
     7
100
AcDbBlockEnd
  0
BLOCK
  5
51A1
330
51A0
100
AcDbEntity
  8
0
 62
     7
100
AcDbBlockBegin
  2
*D14
 70
     1
 10
0.0
 20
0.0
 30
0.0
  3
*D14
  1

  0
LINE
  5
5E4A
330
51A0
100
AcDbEntity
  8
TP
  6
Continuous
 62
     4
370
    -2
100
AcDbLine
 10
528.8661156213086
 20
622.3801544370169
 30
0.0
 11
495.7948621399447
 21
622.3801544370169
 31
0.0
  0
LINE
  5
5E4B
330
51A0
100
AcDbEntity
  8
TP
  6
Continuous
 62
     4
370
    -2
100
AcDbLine
 10
528.4986294211951
 20
687.3801544375794
 30
0.0
 11
495.7948621399448
 21
687.3801544375794
 31
0.0
  0
LINE
  5
5E4C
330
51A0
100
AcDbEntity
  8
TP
  6
Continuous
 62
     4
370
    -2
100
AcDbLine
 10
498.7948621399447
 20
628.3801544370169
 30
0.0
 11
498.7948621399448
 21
681.3801544375794
 31
0.0
  0
INSERT
  5
5E4D
330
51A0
100
AcDbEntity
  8
TP
  6
Continuous
 62
     4
370
    -2
100
AcDbBlockReference
  2
_Open
 10
498.7948621399447
 20
622.3801544370169
 30
0.0
 41
6.0
 42
6.0
 43
6.0
 50
270.0
  0
INSERT
  5
5E4E
330
51A0
100
AcDbEntity
  8
TP
  6
Continuous
 62
     4
370
    -2
100
AcDbBlockReference
  2
_Open
 10
498.7948621399448
 20
687.3801544375794
 30
0.0
 41
6.0
 42
6.0
 43
6.0
 50
90.0
  0
MTEXT
  5
5E4F
330
51A0
100
AcDbEntity
  8
TP
  6
Continuous
 62
     4
100
AcDbMText
 10
492.1948621399446
 20
654.8801544372983
 30
0.0
 40
8.399999999999998
 41
0.0
 71
     5
 72
     1
  1
\A1;65
  7
SUNPOU
 11
0.0000000000000001
 21
1.0
 31
0.0
 73
     1
 44
1.0
1001
ACAD
1000
MTEXTBEGIN
1070
    73
1070
     1
1070
    44
1040
1.0
1070
    74
1070
     0
1000
MTEXTEND
  0
POINT
  5
5E50
330
51A0
100
AcDbEntity
  8
Defpoints
  6
Continuous
 62
     0
100
AcDbPoint
 10
531.8661156213086
 20
622.3801544370169
 30
0.0
  0
POINT
  5
5E51
330
51A0
100
AcDbEntity
  8
Defpoints
  6
Continuous
 62
     0
100
AcDbPoint
 10
531.4986294211951
 20
687.3801544375794
 30
0.0
  0
POINT
  5
5E52
330
51A0
100
AcDbEntity
  8
Defpoints
  6
Continuous
 62
     0
100
AcDbPoint
 10
498.7948621399448
 20
687.3801544375794
 30
0.0
  0
ENDBLK
  5
51A2
330
51A0
100
AcDbEntity
  8
0
 62
     7
100
AcDbBlockEnd
  0
BLOCK
  5
5236
330
5235
100
AcDbEntity
  8
0
 62
     7
100
AcDbBlockBegin
  2
*D15
 70
     1
 10
0.0
 20
0.0
 30
0.0
  3
*D15
  1

  0
LINE
  5
5E41
330
5235
100
AcDbEntity
  8
TP
  6
Continuous
 62
     4
370
    -2
100
AcDbLine
 10
565.119094043414
 20
683.1920903214036
 30
0.0
 11
565.119094043414
 21
757.2783099179564
 31
0.0
  0
LINE
  5
5E42
330
5235
100
AcDbEntity
  8
TP
  6
Continuous
 62
     4
370
    -2
100
AcDbLine
 10
615.119094043414
 20
746.4313111739024
 30
0.0
 11
615.119094043414
 21
757.2783099179564
 31
0.0
  0
LINE
  5
5E43
330
5235
100
AcDbEntity
  8
TP
  6
Continuous
 62
     4
370
    -2
100
AcDbLine
 10
571.1190940434139
 20
754.2783099179565
 30
0.0
 11
609.1190940434139
 21
754.2783099179565
 31
0.0
  0
INSERT
  5
5E44
330
5235
100
AcDbEntity
  8
TP
  6
Continuous
 62
     4
370
    -2
100
AcDbBlockReference
  2
_Open
 10
565.119094043414
 20
754.2783099179565
 30
0.0
 41
6.0
 42
6.0
 43
6.0
 50
180.0
  0
INSERT
  5
5E45
330
5235
100
AcDbEntity
  8
TP
  6
Continuous
 62
     4
370
    -2
100
AcDbBlockReference
  2
_Open
 10
615.119094043414
 20
754.2783099179565
 30
0.0
 41
6.0
 42
6.0
 43
6.0
  0
MTEXT
  5
5E46
330
5235
100
AcDbEntity
  8
TP
  6
Continuous
 62
     4
100
AcDbMText
 10
590.119094043414
 20
760.8783099179564
 30
0.0
 40
8.399999999999998
 41
0.0
 71
     5
 72
     1
  1
\A1;50
  7
SUNPOU
 73
     1
 44
1.0
1001
ACAD
1000
MTEXTBEGIN
1070
    73
1070
     1
1070
    44
1040
1.0
1070
    74
1070
     0
1000
MTEXTEND
  0
POINT
  5
5E47
330
5235
100
AcDbEntity
  8
Defpoints
  6
Continuous
 62
     0
100
AcDbPoint
 10
565.119094043414
 20
680.1920903214035
 30
0.0
  0
POINT
  5
5E48
330
5235
100
AcDbEntity
  8
Defpoints
  6
Continuous
 62
     0
100
AcDbPoint
 10
615.119094043414
 20
743.4313111739024
 30
0.0
  0
POINT
  5
5E49
330
5235
100
AcDbEntity
  8
Defpoints
  6
Continuous
 62
     0
100
AcDbPoint
 10
615.119094043414
 20
754.2783099179565
 30
0.0
  0
ENDBLK
  5
5237
330
5235
100
AcDbEntity
  8
0
 62
     7
100
AcDbBlockEnd
  0
BLOCK
  5
5257
330
5256
100
AcDbEntity
  8
0
 62
     7
100
AcDbBlockBegin
  2
*D16
 70
     1
 10
0.0
 20
0.0
 30
0.0
  3
*D16
  1

  0
LINE
  5
5E38
330
5256
100
AcDbEntity
  8
TP
  6
Continuous
 62
     4
370
    -2
100
AcDbLine
 10
615.119094043414
 20
746.4313111739024
 30
0.0
 11
615.119094043414
 21
757.2783099179564
 31
0.0
  0
LINE
  5
5E39
330
5256
100
AcDbEntity
  8
TP
  6
Continuous
 62
     4
370
    -2
100
AcDbLine
 10
665.119094043414
 20
685.2372626093742
 30
0.0
 11
665.119094043414
 21
757.2783099179564
 31
0.0
  0
LINE
  5
5E3A
330
5256
100
AcDbEntity
  8
TP
  6
Continuous
 62
     4
370
    -2
100
AcDbLine
 10
621.1190940434139
 20
754.2783099179565
 30
0.0
 11
659.1190940434139
 21
754.2783099179565
 31
0.0
  0
INSERT
  5
5E3B
330
5256
100
AcDbEntity
  8
TP
  6
Continuous
 62
     4
370
    -2
100
AcDbBlockReference
  2
_Open
 10
615.119094043414
 20
754.2783099179565
 30
0.0
 41
6.0
 42
6.0
 43
6.0
 50
180.0
  0
INSERT
  5
5E3C
330
5256
100
AcDbEntity
  8
TP
  6
Continuous
 62
     4
370
    -2
100
AcDbBlockReference
  2
_Open
 10
665.119094043414
 20
754.2783099179565
 30
0.0
 41
6.0
 42
6.0
 43
6.0
  0
MTEXT
  5
5E3D
330
5256
100
AcDbEntity
  8
TP
  6
Continuous
 62
     4
100
AcDbMText
 10
640.119094043414
 20
760.8783099179564
 30
0.0
 40
8.399999999999998
 41
0.0
 71
     5
 72
     1
  1
\A1;50
  7
SUNPOU
 73
     1
 44
1.0
1001
ACAD
1000
MTEXTBEGIN
1070
    73
1070
     1
1070
    44
1040
1.0
1070
    74
1070
     0
1000
MTEXTEND
  0
POINT
  5
5E3E
330
5256
100
AcDbEntity
  8
Defpoints
  6
Continuous
 62
     0
100
AcDbPoint
 10
615.119094043414
 20
743.4313111739024
 30
0.0
  0
POINT
  5
5E3F
330
5256
100
AcDbEntity
  8
Defpoints
  6
Continuous
 62
     0
100
AcDbPoint
 10
665.119094043414
 20
682.2372626093742
 30
0.0
  0
POINT
  5
5E40
330
5256
100
AcDbEntity
  8
Defpoints
  6
Continuous
 62
     0
100
AcDbPoint
 10
665.119094043414
 20
754.2783099179565
 30
0.0
  0
ENDBLK
  5
5258
330
5256
100
AcDbEntity
  8
0
 62
     7
100
AcDbBlockEnd
  0
BLOCK
  5
527F
330
527E
100
AcDbEntity
  8
0
 62
     7
100
AcDbBlockBegin
  2
*D17
 70
     1
 10
0.0
 20
0.0
 30
0.0
  3
*D17
  1

  0
LINE
  5
5E2F
330
527E
100
AcDbEntity
  8
TP
  6
Continuous
 62
     4
370
    -2
100
AcDbLine
 10
662.4474397006243
 20
577.3801542417129
 30
0.0
 11
747.151356668721
 21
577.3801542417129
 31
0.0
  0
LINE
  5
5E30
330
527E
100
AcDbEntity
  8
TP
  6
Continuous
 62
     4
370
    -2
100
AcDbLine
 10
662.4474399078165
 20
732.3801542417132
 30
0.0
 11
747.151356668721
 21
732.3801542417132
 31
0.0
  0
LINE
  5
5E31
330
527E
100
AcDbEntity
  8
TP
  6
Continuous
 62
     4
370
    -2
100
AcDbLine
 10
744.151356668721
 20
583.3801542417129
 30
0.0
 11
744.151356668721
 21
726.3801542417131
 31
0.0
  0
INSERT
  5
5E32
330
527E
100
AcDbEntity
  8
TP
  6
Continuous
 62
     4
370
    -2
100
AcDbBlockReference
  2
_Open
 10
744.151356668721
 20
577.3801542417129
 30
0.0
 41
6.0
 42
6.0
 43
6.0
 50
270.0
  0
INSERT
  5
5E33
330
527E
100
AcDbEntity
  8
TP
  6
Continuous
 62
     4
370
    -2
100
AcDbBlockReference
  2
_Open
 10
744.151356668721
 20
732.3801542417132
 30
0.0
 41
6.0
 42
6.0
 43
6.0
 50
90.0
  0
MTEXT
  5
5E34
330
527E
100
AcDbEntity
  8
TP
  6
Continuous
 62
     4
100
AcDbMText
 10
737.5513566687209
 20
654.8801542417131
 30
0.0
 40
8.399999999999998
 41
0.0
 71
     5
 72
     1
  1
\A1;155
  7
SUNPOU
 11
0.0000000000000001
 21
1.0
 31
0.0
 73
     1
 44
1.0
1001
ACAD
1000
MTEXTBEGIN
1070
    73
1070
     1
1070
    44
1040
1.0
1070
    74
1070
     0
1000
MTEXTEND
  0
POINT
  5
5E35
330
527E
100
AcDbEntity
  8
Defpoints
  6
Continuous
 62
     0
100
AcDbPoint
 10
659.4474397006242
 20
577.3801542417129
 30
0.0
  0
POINT
  5
5E36
330
527E
100
AcDbEntity
  8
Defpoints
  6
Continuous
 62
     0
100
AcDbPoint
 10
659.4474399078165
 20
732.3801542417132
 30
0.0
  0
POINT
  5
5E37
330
527E
100
AcDbEntity
  8
Defpoints
  6
Continuous
 62
     0
100
AcDbPoint
 10
744.151356668721
 20
732.3801542417132
 30
0.0
  0
ENDBLK
  5
5280
330
527E
100
AcDbEntity
  8
0
 62
     7
100
AcDbBlockEnd
  0
BLOCK
  5
52C7
330
52C6
100
AcDbEntity
  8
0
 62
     7
100
AcDbBlockBegin
  2
*D18
 70
     1
 10
0.0
 20
0.0
 30
0.0
  3
*D18
  1

  0
LINE
  5
5E9D
330
52C6
100
AcDbEntity
  8
PV
  6
Continuous
 62
     4
370
    -2
100
AcDbLine
 10
616.2905075904284
 20
342.4176200980605
 30
0.0
 11
610.2905075904284
 21
342.4176200980605
 31
0.0
  0
LINE
  5
5E9E
330
52C6
100
AcDbEntity
  8
PV
  6
Continuous
 62
     4
370
    -2
100
AcDbLine
 10
632.2905075904284
 20
342.4176200980605
 30
0.0
 11
647.0105075904284
 21
342.4176200980605
 31
0.0
  0
LINE
  5
5E9F
330
52C6
100
AcDbEntity
  8
PV
  6
Continuous
 62
     4
370
    -2
100
AcDbLine
 10
622.2905075904284
 20
342.4176200980605
 30
0.0
 11
626.2905075904284
 21
342.4176200980605
 31
0.0
  0
INSERT
  5
5EA0
330
52C6
100
AcDbEntity
  8
PV
  6
Continuous
 62
     4
370
    -2
100
AcDbBlockReference
  2
_Open
 10
622.2905075904284
 20
342.4176200980605
 30
0.0
 41
6.0
 42
6.0
 43
6.0
  0
INSERT
  5
5EA1
330
52C6
100
AcDbEntity
  8
PV
  6
Continuous
 62
     4
370
    -2
100
AcDbBlockReference
  2
_Open
 10
626.2905075904284
 20
342.4176200980605
 30
0.0
 41
6.0
 42
6.0
 43
6.0
 50
180.0
  0
MTEXT
  5
5EA2
330
52C6
100
AcDbEntity
  8
PV
  6
Continuous
 62
     4
100
AcDbMText
 10
642.6505075904284
 20
349.0176200980605
 30
0.0
 40
8.399999999999998
 41
0.0
 71
     5
 72
     1
  1
\A1;4
  7
SUNPOU
 73
     1
 44
1.0
1001
ACAD
1000
MTEXTBEGIN
1070
    73
1070
     1
1070
    44
1040
1.0
1070
    74
1070
     0
1000
MTEXTEND
  0
POINT
  5
5EA3
330
52C6
100
AcDbEntity
  8
Defpoints
  6
Continuous
 62
     0
100
AcDbPoint
 10
622.2905075904284
 20
342.4176200980605
 30
0.0
  0
POINT
  5
5EA4
330
52C6
100
AcDbEntity
  8
Defpoints
  6
Continuous
 62
     0
100
AcDbPoint
 10
626.2905075904284
 20
342.4176200980605
 30
0.0
  0
POINT
  5
5EA5
330
52C6
100
AcDbEntity
  8
Defpoints
  6
Continuous
 62
     0
100
AcDbPoint
 10
626.2905075904284
 20
342.4176200980605
 30
0.0
  0
ENDBLK
  5
52C8
330
52C6
100
AcDbEntity
  8
0
 62
     7
100
AcDbBlockEnd
  0
BLOCK
  5
52D4
330
52D3
100
AcDbEntity
  8
0
 62
     7
100
AcDbBlockBegin
  2
*D19
 70
     1
 10
0.0
 20
0.0
 30
0.0
  3
*D19
  1

  0
LINE
  5
5E94
330
52D3
100
AcDbEntity
  8
PV
  6
Continuous
 62
     4
370
    -2
100
AcDbLine
 10
530.1198668328354
 20
461.6965646148555
 30
0.0
 11
530.1198668328354
 21
512.6449876175902
 31
0.0
  0
LINE
  5
5E95
330
52D3
100
AcDbEntity
  8
PV
  6
Continuous
 62
     4
370
    -2
100
AcDbLine
 10
700.11829796708
 20
461.696569377508
 30
0.0
 11
700.11829796708
 21
512.6449876175902
 31
0.0
  0
LINE
  5
5E96
330
52D3
100
AcDbEntity
  8
PV
  6
Continuous
 62
     4
370
    -2
100
AcDbLine
 10
536.1198668328354
 20
509.6449876175902
 30
0.0
 11
694.11829796708
 21
509.6449876175902
 31
0.0
  0
INSERT
  5
5E97
330
52D3
100
AcDbEntity
  8
PV
  6
Continuous
 62
     4
370
    -2
100
AcDbBlockReference
  2
_Open
 10
530.1198668328354
 20
509.6449876175902
 30
0.0
 41
6.0
 42
6.0
 43
6.0
 50
180.0
  0
INSERT
  5
5E98
330
52D3
100
AcDbEntity
  8
PV
  6
Continuous
 62
     4
370
    -2
100
AcDbBlockReference
  2
_Open
 10
700.11829796708
 20
509.6449876175902
 30
0.0
 41
6.0
 42
6.0
 43
6.0
  0
MTEXT
  5
5E99
330
52D3
100
AcDbEntity
  8
PV
  6
Continuous
 62
     4
100
AcDbMText
 10
615.1190823999577
 20
516.2449876175903
 30
0.0
 40
8.399999999999998
 41
0.0
 71
     5
 72
     1
  1
\A1;170
  7
SUNPOU
 73
     1
 44
1.0
1001
ACAD
1000
MTEXTBEGIN
1070
    73
1070
     1
1070
    44
1040
1.0
1070
    74
1070
     0
1000
MTEXTEND
  0
POINT
  5
5E9A
330
52D3
100
AcDbEntity
  8
Defpoints
  6
Continuous
 62
     0
100
AcDbPoint
 10
530.1198668328354
 20
458.6965646148555
 30
0.0
  0
POINT
  5
5E9B
330
52D3
100
AcDbEntity
  8
Defpoints
  6
Continuous
 62
     0
100
AcDbPoint
 10
700.11829796708
 20
458.696569377508
 30
0.0
  0
POINT
  5
5E9C
330
52D3
100
AcDbEntity
  8
Defpoints
  6
Continuous
 62
     0
100
AcDbPoint
 10
700.11829796708
 20
509.6449876175902
 30
0.0
  0
ENDBLK
  5
52D5
330
52D3
100
AcDbEntity
  8
0
 62
     7
100
AcDbBlockEnd
  0
BLOCK
  5
52FE
330
52FD
100
AcDbEntity
  8
0
 62
     7
100
AcDbBlockBegin
  2
*D20
 70
     1
 10
0.0
 20
0.0
 30
0.0
  3
*D20
  1

  0
LINE
  5
5E8B
330
52FD
100
AcDbEntity
  8
PV
  6
Continuous
 62
     4
370
    -2
100
AcDbLine
 10
535.1190938173702
 20
199.4527457140871
 30
0.0
 11
535.1190938173702
 21
149.4405103050935
 31
0.0
  0
LINE
  5
5E8C
330
52FD
100
AcDbEntity
  8
PV
  6
Continuous
 62
     4
370
    -2
100
AcDbLine
 10
695.1190938166321
 20
195.5842821296971
 30
0.0
 11
695.1190938166321
 21
149.4405103050935
 31
0.0
  0
LINE
  5
5E8D
330
52FD
100
AcDbEntity
  8
PV
  6
Continuous
 62
     4
370
    -2
100
AcDbLine
 10
541.1190938173701
 20
152.4405103050935
 30
0.0
 11
689.1190938166321
 21
152.4405103050935
 31
0.0
  0
INSERT
  5
5E8E
330
52FD
100
AcDbEntity
  8
PV
  6
Continuous
 62
     4
370
    -2
100
AcDbBlockReference
  2
_Open
 10
535.1190938173702
 20
152.4405103050935
 30
0.0
 41
6.0
 42
6.0
 43
6.0
 50
180.0
  0
INSERT
  5
5E8F
330
52FD
100
AcDbEntity
  8
PV
  6
Continuous
 62
     4
370
    -2
100
AcDbBlockReference
  2
_Open
 10
695.1190938166321
 20
152.4405103050935
 30
0.0
 41
6.0
 42
6.0
 43
6.0
  0
MTEXT
  5
5E90
330
52FD
100
AcDbEntity
  8
PV
  6
Continuous
 62
     4
100
AcDbMText
 10
615.1190938170011
 20
159.0405103050935
 30
0.0
 40
8.399999999999998
 41
0.0
 71
     5
 72
     1
  1
\A1;160
  7
SUNPOU
 73
     1
 44
1.0
1001
ACAD
1000
MTEXTBEGIN
1070
    73
1070
     1
1070
    44
1040
1.0
1070
    74
1070
     0
1000
MTEXTEND
  0
POINT
  5
5E91
330
52FD
100
AcDbEntity
  8
Defpoints
  6
Continuous
 62
     0
100
AcDbPoint
 10
535.1190938173702
 20
202.4527457140871
 30
0.0
  0
POINT
  5
5E92
330
52FD
100
AcDbEntity
  8
Defpoints
  6
Continuous
 62
     0
100
AcDbPoint
 10
695.1190938166321
 20
198.5842821296971
 30
0.0
  0
POINT
  5
5E93
330
52FD
100
AcDbEntity
  8
Defpoints
  6
Continuous
 62
     0
100
AcDbPoint
 10
695.1190938166321
 20
152.4405103050935
 30
0.0
  0
ENDBLK
  5
52FF
330
52FD
100
AcDbEntity
  8
0
 62
     7
100
AcDbBlockEnd
  0
BLOCK
  5
5344
330
5343
100
AcDbEntity
  8
0
 62
     7
100
AcDbBlockBegin
  2
*D21
 70
     1
 10
0.0
 20
0.0
 30
0.0
  3
*D21
  1

  0
LINE
  5
5E82
330
5343
100
AcDbEntity
  8
PV
  6
Continuous
 62
     4
370
    -2
100
AcDbLine
 10
693.6634699486947
 20
446.5814249878697
 30
0.0
 11
749.0171091108006
 21
446.5814249878697
 31
0.0
  0
LINE
  5
5E83
330
5343
100
AcDbEntity
  8
PV
  6
Continuous
 62
     4
370
    -2
100
AcDbLine
 10
693.7155849410315
 20
468.584282130537
 30
0.0
 11
749.0171091108006
 21
468.584282130537
 31
0.0
  0
LINE
  5
5E84
330
5343
100
AcDbEntity
  8
PV
  6
Continuous
 62
     4
370
    -2
100
AcDbLine
 10
746.0171091108007
 20
452.5814249878696
 30
0.0
 11
746.0171091108007
 21
462.584282130537
 31
0.0
  0
INSERT
  5
5E85
330
5343
100
AcDbEntity
  8
PV
  6
Continuous
 62
     4
370
    -2
100
AcDbBlockReference
  2
_Open
 10
746.0171091108007
 20
446.5814249878697
 30
0.0
 41
6.0
 42
6.0
 43
6.0
 50
270.0
  0
INSERT
  5
5E86
330
5343
100
AcDbEntity
  8
PV
  6
Continuous
 62
     4
370
    -2
100
AcDbBlockReference
  2
_Open
 10
746.0171091108007
 20
468.584282130537
 30
0.0
 41
6.0
 42
6.0
 43
6.0
 50
90.0
  0
MTEXT
  5
5E87
330
5343
100
AcDbEntity
  8
PV
  6
Continuous
 62
     4
100
AcDbMText
 10
739.4171091108005
 20
457.5828535592035
 30
0.0
 40
8.399999999999998
 41
0.0
 71
     5
 72
     1
  1
\A1;22
  7
SUNPOU
 11
0.0000000000000001
 21
1.0
 31
0.0
 73
     1
 44
1.0
1001
ACAD
1000
MTEXTBEGIN
1070
    73
1070
     1
1070
    44
1040
1.0
1070
    74
1070
     0
1000
MTEXTEND
  0
POINT
  5
5E88
330
5343
100
AcDbEntity
  8
Defpoints
  6
Continuous
 62
     0
100
AcDbPoint
 10
690.6634699486946
 20
446.5814249878697
 30
0.0
  0
POINT
  5
5E89
330
5343
100
AcDbEntity
  8
Defpoints
  6
Continuous
 62
     0
100
AcDbPoint
 10
690.7155849410314
 20
468.584282130537
 30
0.0
  0
POINT
  5
5E8A
330
5343
100
AcDbEntity
  8
Defpoints
  6
Continuous
 62
     0
100
AcDbPoint
 10
746.0171091108007
 20
468.584282130537
 30
0.0
  0
ENDBLK
  5
5345
330
5343
100
AcDbEntity
  8
0
 62
     7
100
AcDbBlockEnd
  0
BLOCK
  5
5372
330
5371
100
AcDbEntity
  8
0
 62
     7
100
AcDbBlockBegin
  2
*D22
 70
     1
 10
0.0
 20
0.0
 30
0.0
  3
*D22
  1

  0
LINE
  5
5E79
330
5371
100
AcDbEntity
  8
PV
  6
Continuous
 62
     4
370
    -2
100
AcDbLine
 10
698.1190938173702
 20
198.5842821296971
 30
0.0
 11
749.0171091108005
 21
198.5842821296971
 31
0.0
  0
LINE
  5
5E7A
330
5371
100
AcDbEntity
  8
PV
  6
Continuous
 62
     4
370
    -2
100
AcDbLine
 10
696.6634699486946
 20
446.5814249878697
 30
0.0
 11
749.0171091108006
 21
446.5814249878697
 31
0.0
  0
LINE
  5
5E7B
330
5371
100
AcDbEntity
  8
PV
  6
Continuous
 62
     4
370
    -2
100
AcDbLine
 10
746.0171091108005
 20
204.5842821296971
 30
0.0
 11
746.0171091108007
 21
440.5814249878696
 31
0.0
  0
INSERT
  5
5E7C
330
5371
100
AcDbEntity
  8
PV
  6
Continuous
 62
     4
370
    -2
100
AcDbBlockReference
  2
_Open
 10
746.0171091108005
 20
198.5842821296971
 30
0.0
 41
6.0
 42
6.0
 43
6.0
 50
270.0
  0
INSERT
  5
5E7D
330
5371
100
AcDbEntity
  8
PV
  6
Continuous
 62
     4
370
    -2
100
AcDbBlockReference
  2
_Open
 10
746.0171091108007
 20
446.5814249878697
 30
0.0
 41
6.0
 42
6.0
 43
6.0
 50
90.0
  0
MTEXT
  5
5E7E
330
5371
100
AcDbEntity
  8
PV
  6
Continuous
 62
     4
100
AcDbMText
 10
739.4171091108005
 20
322.5828535587835
 30
0.0
 40
8.399999999999998
 41
0.0
 71
     5
 72
     1
  1
\A1;248
  7
SUNPOU
 11
0.0000000000000001
 21
1.0
 31
0.0
 73
     1
 44
1.0
1001
ACAD
1000
MTEXTBEGIN
1070
    73
1070
     1
1070
    44
1040
1.0
1070
    74
1070
     0
1000
MTEXTEND
  0
POINT
  5
5E7F
330
5371
100
AcDbEntity
  8
Defpoints
  6
Continuous
 62
     0
100
AcDbPoint
 10
695.1190938173701
 20
198.5842821296971
 30
0.0
  0
POINT
  5
5E80
330
5371
100
AcDbEntity
  8
Defpoints
  6
Continuous
 62
     0
100
AcDbPoint
 10
693.6634699486947
 20
446.5814249878697
 30
0.0
  0
POINT
  5
5E81
330
5371
100
AcDbEntity
  8
Defpoints
  6
Continuous
 62
     0
100
AcDbPoint
 10
746.0171091108007
 20
446.5814249878697
 30
0.0
  0
ENDBLK
  5
5373
330
5371
100
AcDbEntity
  8
0
 62
     7
100
AcDbBlockEnd
  0
BLOCK
  5
5ADA
330
5AD9
100
AcDbEntity
  8
0
 62
     7
100
AcDbBlockBegin
  2
*D23
 70
     1
 10
0.0
 20
0.0
 30
0.0
  3
*D23
  1

  0
LINE
  5
5E70
330
5AD9
100
AcDbEntity
  8
PV
  6
Continuous
 62
     4
370
    -2
100
AcDbLine
 10
696.7155849410314
 20
468.584282130537
 30
0.0
 11
769.7336652689212
 21
468.584282130537
 31
0.0
  0
LINE
  5
5E71
330
5AD9
100
AcDbEntity
  8
PV
  6
Continuous
 62
     4
370
    -2
100
AcDbLine
 10
698.1190938173702
 20
198.5842821296971
 30
0.0
 11
769.7336652689211
 21
198.5842821296971
 31
0.0
  0
LINE
  5
5E72
330
5AD9
100
AcDbEntity
  8
PV
  6
Continuous
 62
     4
370
    -2
100
AcDbLine
 10
766.7336652689213
 20
462.584282130537
 30
0.0
 11
766.7336652689211
 21
204.5842821296971
 31
0.0
  0
INSERT
  5
5E73
330
5AD9
100
AcDbEntity
  8
PV
  6
Continuous
 62
     4
370
    -2
100
AcDbBlockReference
  2
_Open
 10
766.7336652689213
 20
468.584282130537
 30
0.0
 41
6.0
 42
6.0
 43
6.0
 50
90.0
  0
INSERT
  5
5E74
330
5AD9
100
AcDbEntity
  8
PV
  6
Continuous
 62
     4
370
    -2
100
AcDbBlockReference
  2
_Open
 10
766.7336652689211
 20
198.5842821296971
 30
0.0
 41
6.0
 42
6.0
 43
6.0
 50
270.0
  0
MTEXT
  5
5E75
330
5AD9
100
AcDbEntity
  8
PV
  6
Continuous
 62
     4
100
AcDbMText
 10
760.1336652689211
 20
333.5842821301172
 30
0.0
 40
8.399999999999998
 41
0.0
 71
     5
 72
     1
  1
\A1;270
  7
SUNPOU
 11
0.0000000000000001
 21
1.0
 31
0.0
 73
     1
 44
1.0
1001
ACAD
1000
MTEXTBEGIN
1070
    73
1070
     1
1070
    44
1040
1.0
1070
    74
1070
     0
1000
MTEXTEND
  0
POINT
  5
5E76
330
5AD9
100
AcDbEntity
  8
Defpoints
  6
Continuous
 62
     0
100
AcDbPoint
 10
693.7155849410315
 20
468.584282130537
 30
0.0
  0
POINT
  5
5E77
330
5AD9
100
AcDbEntity
  8
Defpoints
  6
Continuous
 62
     0
100
AcDbPoint
 10
695.1190938173701
 20
198.5842821296971
 30
0.0
  0
POINT
  5
5E78
330
5AD9
100
AcDbEntity
  8
Defpoints
  6
Continuous
 62
     0
100
AcDbPoint
 10
766.7336652689211
 20
198.5842821296971
 30
0.0
  0
ENDBLK
  5
5ADB
330
5AD9
100
AcDbEntity
  8
0
 62
     7
100
AcDbBlockEnd
  0
BLOCK
  5
5B3B
330
5B3A
100
AcDbEntity
  8
0
 62
     7
100
AcDbBlockBegin
  2
*D24
 70
     1
 10
0.0
 20
0.0
 30
0.0
  3
*D24
  1

  0
LINE
  5
5E29
330
5B3A
100
AcDbEntity
  8
TP
  6
Continuous
 62
     4
370
    -2
100
AcDbLine
 10
707.2789497456424
 20
691.0598400395371
 30
0.0
 11
730.7135109958667
 21
703.3891441159838
 31
0.0
  0
LINE
  5
5E2A
330
5B3A
100
AcDbEntity
  8
TP
  6
Continuous
 62
     4
370
    -2
100
AcDbLine
 10
693.1190940053236
 20
683.6101094797495
 30
0.0
 11
701.9690038430235
 21
688.2661910796171
 31
0.0
  0
INSERT
  5
5E2B
330
5B3A
100
AcDbEntity
  8
TP
  6
Continuous
 62
     4
370
    -2
100
AcDbBlockReference
  2
_Open
 10
701.9690038430235
 20
688.2661910796171
 30
0.0
 41
6.0
 42
6.0
 43
6.0
 50
207.7495882203939
  0
MTEXT
  5
5E2C
330
5B3A
100
AcDbEntity
  8
TP
  6
Continuous
 62
     4
100
AcDbMText
 10
718.578189466152
 20
704.4622570506009
 30
0.0
 40
8.399999999999998
 41
0.0
 71
     5
 72
     1
  1
\A1;R10
  7
SUNPOU
 11
0.884990983769801
 21
0.4656081599866563
 31
0.0
 73
     1
 44
1.0
1001
ACAD
1000
MTEXTBEGIN
1070
    73
1070
     1
1070
    44
1040
1.0
1070
    74
1070
     0
1000
MTEXTEND
  0
POINT
  5
5E2D
330
5B3A
100
AcDbEntity
  8
Defpoints
  6
Continuous
 62
     0
100
AcDbPoint
 10
701.9690038430235
 20
688.2661910796171
 30
0.0
  0
POINT
  5
5E2E
330
5B3A
100
AcDbEntity
  8
Defpoints
  6
Continuous
 62
     0
100
AcDbPoint
 10
693.1190940053236
 20
683.6101094797495
 30
0.0
  0
ENDBLK
  5
5B3C
330
5B3A
100
AcDbEntity
  8
0
 62
     7
100
AcDbBlockEnd
  0
ENDSEC
  0
SECTION
  2
ENTITIES
  0
POINT
  5
1026
330
18
100
AcDbEntity
  8
0
  6
Continuous
 62
     7
 60
     1
100
AcDbPoint
 10
248.069908378455
 20
128.6241378598327
 30
0.0
  0
POINT
  5
102A
330
18
100
AcDbEntity
  8
0
  6
Continuous
 62
     7
 60
     1
100
AcDbPoint
 10
248.069908378455
 20
128.6241378598327
 30
0.0
  0
POINT
  5
102F
330
18
100
AcDbEntity
  8
0
  6
Continuous
 62
     7
 60
     1
100
AcDbPoint
 10
248.069908378455
 20
128.6241378598327
 30
0.0
  0
LINE
  5
2537
330
18
100
AcDbEntity
  8
FO
  6
Continuous
 62
     4
 48
0.5
100
AcDbLine
 10
2.999995822722638
 20
893.9999914647771
 30
0.0
 11
2.999995822722638
 21
863.9999923588469
 31
0.0
1001
DEKIMAS
1000
実線（細）
1040
0.15
1001
DIMEXPLODE
1070
     0
1001
ASKOBJSC
1000
1/1
1001
ASKDWGSC
1040
3.0
  0
LINE
  5
2538
330
18
100
AcDbEntity
  8
FO
  6
Continuous
 62
     4
 48
0.5
100
AcDbLine
 10
1262.999958271767
 20
893.9999914647771
 30
0.0
 11
1262.999958271767
 21
863.9999923588469
 31
0.0
1001
DEKIMAS
1000
実線（細）
1040
0.15
1001
DIMEXPLODE
1070
     0
1001
ASKOBJSC
1000
1/1
1001
ASKDWGSC
1040
3.0
  0
LINE
  5
2539
330
18
100
AcDbEntity
  8
FO
  6
Continuous
 62
     4
 48
0.5
100
AcDbLine
 10
2.99995004635403
 20
893.9999914647771
 30
0.0
 11
32.99994915228442
 21
893.9999914647771
 31
0.0
1001
DEKIMAS
1000
実線（細）
1040
0.15
1001
DIMEXPLODE
1070
     0
1001
ASKOBJSC
1000
1/1
1001
ASKDWGSC
1040
3.0
  0
LINE
  5
253A
330
18
100
AcDbEntity
  8
FO
  6
Continuous
 62
     4
 48
0.5
100
AcDbLine
 10
2.99995004635403
 20
2.999995130491228
 30
0.0
 11
32.99994915228442
 21
2.999995130491228
 31
0.0
1001
DEKIMAS
1000
実線（細）
1040
0.15
1001
DIMEXPLODE
1070
     0
1001
ASKOBJSC
1000
1/1
1001
ASKDWGSC
1040
3.0
  0
LINE
  5
253D
330
18
100
AcDbEntity
  8
FO
  6
Continuous
 62
     2
 48
0.5
100
AcDbLine
 10
836.9999709675626
 20
194.9999894084425
 30
0.0
 11
836.9999709675626
 21
44.99999387879372
 31
0.0
1001
DEKIMAS
1000
実線（太）
1040
0.5
1001
DIMEXPLODE
1070
     0
1001
ASKOBJSC
1000
1/1
1001
ASKDWGSC
1040
3.0
  0
LINE
  5
253E
330
18
100
AcDbEntity
  8
FO
  6
Continuous
 62
     2
100
AcDbLine
 10
836.9999709675626
 20
194.9999894084425
 30
0.0
 11
1202.999960059907
 21
194.9999894084425
 31
0.0
1001
DEKIMAS
1000
実線（太）
1040
0.5
1001
DIMEXPLODE
1070
     0
1001
ASKOBJSC
1000
1/1
1001
ASKDWGSC
1040
3.0
  0
LINE
  5
253F
330
18
100
AcDbEntity
  8
FO
  6
Continuous
 62
     4
100
AcDbLine
 10
836.9999709675626
 20
157.4999905260301
 30
0.0
 11
1202.999960059907
 21
157.4999905260301
 31
0.0
1001
DEKIMAS
1000
実線（細）
1040
0.15
1001
DIMEXPLODE
1070
     0
1001
ASKOBJSC
1000
1/1
1001
ASKDWGSC
1040
3.0
  0
LINE
  5
2540
330
18
100
AcDbEntity
  8
FO
  6
Continuous
 62
     4
100
AcDbLine
 10
836.9999709675626
 20
82.49999276120666
 30
0.0
 11
1202.999960059907
 21
82.49999276120666
 31
0.0
1001
DEKIMAS
1000
実線（細）
1040
0.15
1001
DIMEXPLODE
1070
     0
1001
ASKOBJSC
1000
1/1
1001
ASKDWGSC
1040
3.0
  0
LINE
  5
2541
330
18
100
AcDbEntity
  8
FO
  6
Continuous
 62
     4
 48
0.5
100
AcDbLine
 10
914.9999686429815
 20
194.9999894084425
 30
0.0
 11
914.9999686429815
 21
82.49999276120666
 31
0.0
1001
DEKIMAS
1000
実線（細）
1040
0.15
1001
DIMEXPLODE
1070
     0
1001
ASKOBJSC
1000
1/1
1001
ASKDWGSC
1040
3.0
  0
LINE
  5
2542
330
18
100
AcDbEntity
  8
FO
  6
Continuous
 62
     4
 48
0.5
100
AcDbLine
 10
875.999969805272
 20
157.4999905260301
 30
0.0
 11
875.999969805272
 21
112.499991867137
 31
0.0
1001
DEKIMAS
1000
実線（細）
1040
0.15
1001
DIMEXPLODE
1070
     0
1001
ASKOBJSC
1000
1/1
1001
ASKDWGSC
1040
3.0
  0
LINE
  5
2543
330
18
100
AcDbEntity
  8
FO
  6
Continuous
 62
     4
 48
0.5
100
AcDbLine
 10
836.9999709675626
 20
142.4999924035765
 30
0.0
 11
992.9999663183943
 21
142.4999924035765
 31
0.0
1001
DEKIMAS
1000
実線（細）
1040
0.15
1001
DIMEXPLODE
1070
     0
1001
ASKOBJSC
1000
1/1
1001
ASKDWGSC
1040
3.0
  0
LINE
  5
2544
330
18
100
AcDbEntity
  8
FO
  6
Continuous
 62
     4
 48
0.5
100
AcDbLine
 10
836.9999709675626
 20
112.499991867137
 30
0.0
 11
992.9999663183943
 21
112.499991867137
 31
0.0
1001
DEKIMAS
1000
実線（細）
1040
0.15
1001
DIMEXPLODE
1070
     0
1001
ASKOBJSC
1000
1/1
1001
ASKDWGSC
1040
3.0
  0
LINE
  5
2545
330
18
100
AcDbEntity
  8
FO
  6
Continuous
 62
     4
 48
0.5
100
AcDbLine
 10
850.4999705652313
 20
112.499991867137
 30
0.0
 11
850.4999705652313
 21
82.49999276120666
 31
0.0
1001
DEKIMAS
1000
実線（細）
1040
0.15
1001
DIMEXPLODE
1070
     0
1001
ASKOBJSC
1000
1/1
1001
ASKDWGSC
1040
3.0
  0
LINE
  5
2546
330
18
100
AcDbEntity
  8
FO
  6
Continuous
 62
     4
 48
0.5
100
AcDbLine
 10
928.4999682406441
 20
112.499991867137
 30
0.0
 11
928.4999682406441
 21
82.49999276120666
 31
0.0
1001
DEKIMAS
1000
実線（細）
1040
0.15
1001
DIMEXPLODE
1070
     0
1001
ASKOBJSC
1000
1/1
1001
ASKDWGSC
1040
3.0
  0
LINE
  5
2547
330
18
100
AcDbEntity
  8
FO
  6
Continuous
 62
     4
 48
0.5
100
AcDbLine
 10
992.9999663183943
 20
157.4999905260301
 30
0.0
 11
992.9999663183943
 21
44.99999387879372
 31
0.0
1001
DEKIMAS
1000
実線（細）
1040
0.15
1001
DIMEXPLODE
1070
     0
1001
ASKOBJSC
1000
1/1
1001
ASKDWGSC
1040
3.0
  0
LINE
  5
2548
330
18
100
AcDbEntity
  8
FO
  6
Continuous
 62
     4
 48
0.5
100
AcDbLine
 10
953.999967480685
 20
157.4999905260301
 30
0.0
 11
953.999967480685
 21
112.499991867137
 31
0.0
1001
DEKIMAS
1000
実線（細）
1040
0.15
1001
DIMEXPLODE
1070
     0
1001
ASKOBJSC
1000
1/1
1001
ASKDWGSC
1040
3.0
  0
LINE
  5
2549
330
18
100
AcDbEntity
  8
FO
  6
Continuous
 62
     4
 48
0.5
100
AcDbLine
 10
1009.499920050287
 20
157.4999905260301
 30
0.0
 11
1009.499920050287
 21
44.99999387879372
 31
0.0
1001
DEKIMAS
1000
実線（細）
1040
0.15
1001
DIMEXPLODE
1070
     0
1001
ASKOBJSC
1000
1/1
1001
ASKDWGSC
1040
3.0
  0
LINE
  5
254A
330
18
100
AcDbEntity
  8
FO
  6
Continuous
 62
     4
 48
0.5
100
AcDbLine
 10
836.9999709675626
 20
215.9999887825937
 30
0.0
 11
836.9999709675626
 21
194.9999894084425
 31
0.0
1001
DEKIMAS
1000
実線（細）
1040
0.15
1001
DIMEXPLODE
1070
     0
1001
ASKOBJSC
1000
1/1
1001
ASKDWGSC
1040
3.0
  0
LINE
  5
254B
330
18
100
AcDbEntity
  8
FO
  6
Continuous
 62
     4
100
AcDbLine
 10
836.9999709675626
 20
215.9999887825937
 30
0.0
 11
1202.999960059907
 21
215.9999887825937
 31
0.0
1001
DEKIMAS
1000
実線（細）
1040
0.15
1001
DIMEXPLODE
1070
     0
1001
ASKOBJSC
1000
1/1
1001
ASKDWGSC
1040
3.0
  0
LINE
  5
254C
330
18
100
AcDbEntity
  8
FO
  6
Continuous
 62
     2
100
AcDbLine
 10
62.99999403458341
 20
851.9999927164747
 30
0.0
 11
62.99999403458341
 21
44.99999387879372
 31
0.0
1001
DEKIMAS
1000
実線（太）
1040
0.5
1001
DIMEXPLODE
1070
     0
1001
ASKOBJSC
1000
1/1
1001
ASKDWGSC
1040
3.0
  0
LINE
  5
254D
330
18
100
AcDbEntity
  8
FO
  6
Continuous
 62
     2
100
AcDbLine
 10
1202.999960059907
 20
851.9999927164747
 30
0.0
 11
1202.999960059907
 21
44.99999387879372
 31
0.0
1001
DEKIMAS
1000
実線（太）
1040
0.5
1001
DIMEXPLODE
1070
     0
1001
ASKOBJSC
1000
1/1
1001
ASKDWGSC
1040
3.0
  0
LINE
  5
254E
330
18
100
AcDbEntity
  8
FO
  6
Continuous
 62
     2
100
AcDbLine
 10
62.99994825821475
 20
851.9999927164747
 30
0.0
 11
1202.999960059907
 21
851.9999927164747
 31
0.0
1001
DEKIMAS
1000
実線（太）
1040
0.5
1001
DIMEXPLODE
1070
     0
1001
ASKOBJSC
1000
1/1
1001
ASKDWGSC
1040
3.0
  0
LINE
  5
254F
330
18
100
AcDbEntity
  8
FO
  6
Continuous
 62
     2
100
AcDbLine
 10
62.99994825821475
 20
44.99999387879372
 30
0.0
 11
1202.999960059907
 21
44.99999387879372
 31
0.0
1001
DEKIMAS
1000
実線（太）
1040
0.5
1001
DIMEXPLODE
1070
     0
1001
ASKOBJSC
1000
1/1
1001
ASKDWGSC
1040
3.0
  0
LINE
  5
2550
330
18
100
AcDbEntity
  8
FO
  6
Continuous
 62
     4
 48
0.5
100
AcDbLine
 10
62.99994825821475
 20
832.4999932976197
 30
0.0
 11
329.9999860773425
 21
832.4999932976197
 31
0.0
1001
DEKIMAS
1000
実線（細）
1040
0.15
1001
DIMEXPLODE
1070
     0
1001
ASKOBJSC
1000
1/1
1001
ASKDWGSC
1040
3.0
  0
LINE
  5
2551
330
18
100
AcDbEntity
  8
FO
  6
Continuous
 62
     4
 48
0.5
100
AcDbLine
 10
329.9999860773425
 20
851.9999927164747
 30
0.0
 11
329.9999860773425
 21
832.4999932976197
 31
0.0
1001
DEKIMAS
1000
実線（細）
1040
0.15
1001
DIMEXPLODE
1070
     0
1001
ASKOBJSC
1000
1/1
1001
ASKDWGSC
1040
3.0
  0
LINE
  5
2552
330
18
100
AcDbEntity
  8
FO
  6
Continuous
 62
     4
 48
0.5
100
AcDbLine
 10
290.9999872396542
 20
851.9999927164747
 30
0.0
 11
290.9999872396542
 21
832.4999932976197
 31
0.0
1001
DEKIMAS
1000
実線（細）
1040
0.15
1001
DIMEXPLODE
1070
     0
1001
ASKOBJSC
1000
1/1
1001
ASKDWGSC
1040
3.0
  0
LINE
  5
2553
330
18
100
AcDbEntity
  8
FO
  6
Continuous
 62
     4
 48
0.5
100
AcDbLine
 10
241.499988714869
 20
851.9999927164747
 30
0.0
 11
241.499988714869
 21
832.4999932976197
 31
0.0
1001
DEKIMAS
1000
実線（細）
1040
0.15
1001
DIMEXPLODE
1070
     0
1001
ASKOBJSC
1000
1/1
1001
ASKDWGSC
1040
3.0
  0
LINE
  5
2554
330
18
100
AcDbEntity
  8
FO
  6
Continuous
 62
     4
 48
0.5
100
AcDbLine
 10
103.4999928275893
 20
851.9999927164747
 30
0.0
 11
103.4999928275893
 21
832.4999932976197
 31
0.0
1001
DEKIMAS
1000
実線（細）
1040
0.15
1001
DIMEXPLODE
1070
     0
1001
ASKOBJSC
1000
1/1
1001
ASKDWGSC
1040
3.0
  0
LINE
  5
2555
330
18
100
AcDbEntity
  8
FO
  6
Continuous
 62
     4
 48
0.5
100
AcDbLine
 10
951.2041530498368
 20
87.95400070107957
 30
0.0
 11
970.2960332791843
 21
107.0458809304392
 31
0.0
1001
DEKIMAS
1000
実線（細）
1040
0.15
1001
DIMEXPLODE
1070
     0
1001
ASKOBJSC
1000
1/1
1001
ASKDWGSC
1040
3.0
  0
LINE
  5
2556
330
18
100
AcDbEntity
  8
FO
  6
Continuous
 62
     7
 48
0.5
100
AcDbLine
 10
1175.999960864569
 20
55.31350065150427
 30
0.0
 11
1196.999960238721
 21
55.31350065150427
 31
0.0
1001
DEKIMAS
1000
実線（中）
1040
0.25
1001
DIMEXPLODE
1070
     0
1001
ASKOBJSC
1000
1/1
1001
ASKDWGSC
1040
3.0
  0
LINE
  5
2557
330
18
100
AcDbEntity
  8
FO
  6
Continuous
 62
     7
 48
0.5
100
AcDbLine
 10
1176.000235522751
 20
55.31326032558244
 30
0.0
 11
1186.500235209827
 21
73.49979275782754
 31
0.0
1001
DEKIMAS
1000
実線（中）
1040
0.25
1001
DIMEXPLODE
1070
     0
1001
ASKOBJSC
1000
1/1
1001
ASKDWGSC
1040
3.0
  0
LINE
  5
2558
330
18
100
AcDbEntity
  8
FO
  6
Continuous
 62
     7
 48
0.5
100
AcDbLine
 10
1186.500097880721
 20
73.50008458215883
 30
0.0
 11
1197.000097567797
 21
55.3135464278699
 31
0.0
1001
DEKIMAS
1000
実線（中）
1040
0.25
1001
DIMEXPLODE
1070
     0
1001
ASKOBJSC
1000
1/1
1001
ASKDWGSC
1040
3.0
  0
LINE
  5
2559
330
18
100
AcDbEntity
  8
FO
  6
Continuous
 62
     4
 48
0.5
100
AcDbLine
 10
2.999995822722638
 20
32.99999423642159
 30
0.0
 11
2.999995822722638
 21
2.999995130491228
 31
0.0
1001
DEKIMAS
1000
実線（細）
1040
0.15
1001
DIMEXPLODE
1070
     0
1001
ASKOBJSC
1000
1/1
1001
ASKDWGSC
1040
3.0
  0
LINE
  5
255A
330
18
100
AcDbEntity
  8
FO
  6
Continuous
 62
     4
 48
0.5
100
AcDbLine
 10
1232.999959165837
 20
893.9999914647771
 30
0.0
 11
1262.999958271767
 21
893.9999914647771
 31
0.0
1001
DEKIMAS
1000
実線（細）
1040
0.15
1001
DIMEXPLODE
1070
     0
1001
ASKOBJSC
1000
1/1
1001
ASKDWGSC
1040
3.0
  0
LINE
  5
255B
330
18
100
AcDbEntity
  8
FO
  6
Continuous
 62
     4
 48
0.5
100
AcDbLine
 10
1262.999958271767
 20
32.99999423642159
 30
0.0
 11
1262.999958271767
 21
2.999995130491228
 31
0.0
1001
DEKIMAS
1000
実線（細）
1040
0.15
1001
DIMEXPLODE
1070
     0
1001
ASKOBJSC
1000
1/1
1001
ASKDWGSC
1040
3.0
  0
LINE
  5
255C
330
18
100
AcDbEntity
  8
FO
  6
Continuous
 62
     4
 48
0.5
100
AcDbLine
 10
1232.999959165837
 20
2.999995130491228
 30
0.0
 11
1262.999958271767
 21
2.999995130491228
 31
0.0
1001
DEKIMAS
1000
実線（細）
1040
0.15
1001
DIMEXPLODE
1070
     0
1001
ASKOBJSC
1000
1/1
1001
ASKDWGSC
1040
3.0
  0
LINE
  5
255D
330
18
100
AcDbEntity
  8
FO
  6
Continuous
 62
     4
 48
0.5
100
AcDbLine
 10
872.9999698946789
 20
215.9999887825937
 30
0.0
 11
872.9999698946789
 21
194.9999894084425
 31
0.0
1001
DEKIMAS
1000
実線（細）
1040
0.15
1001
DIMEXPLODE
1070
     0
1001
ASKOBJSC
1000
1/1
1001
ASKDWGSC
1040
3.0
  0
LINE
  5
255E
330
18
100
AcDbEntity
  8
FO
  6
Continuous
 62
     4
 48
0.5
100
AcDbLine
 10
962.999967212464
 20
215.9999887825937
 30
0.0
 11
962.999967212464
 21
194.9999894084425
 31
0.0
1001
DEKIMAS
1000
実線（細）
1040
0.15
1001
DIMEXPLODE
1070
     0
1001
ASKOBJSC
1000
1/1
1001
ASKDWGSC
1040
3.0
  0
LINE
  5
255F
330
18
100
AcDbEntity
  8
FO
  6
Continuous
 62
     4
 48
0.5
100
AcDbLine
 10
1007.999920094991
 20
215.9999887825937
 30
0.0
 11
1007.999920094991
 21
194.9999894084425
 31
0.0
1001
DEKIMAS
1000
実線（細）
1040
0.15
1001
DIMEXPLODE
1070
     0
1001
ASKOBJSC
1000
1/1
1001
ASKDWGSC
1040
3.0
  0
LINE
  5
2560
330
18
100
AcDbEntity
  8
FO
  6
Continuous
 62
     4
 48
0.5
100
AcDbLine
 10
1052.999964530255
 20
215.9999887825937
 30
0.0
 11
1052.999964530255
 21
194.9999894084425
 31
0.0
1001
DEKIMAS
1000
実線（細）
1040
0.15
1001
DIMEXPLODE
1070
     0
1001
ASKOBJSC
1000
1/1
1001
ASKDWGSC
1040
3.0
  0
LINE
  5
2561
330
18
100
AcDbEntity
  8
FO
  6
Continuous
 62
     4
 48
0.5
100
AcDbLine
 10
1097.999963189151
 20
215.9999887825937
 30
0.0
 11
1097.999963189151
 21
194.9999894084425
 31
0.0
1001
DEKIMAS
1000
実線（細）
1040
0.15
1001
DIMEXPLODE
1070
     0
1001
ASKOBJSC
1000
1/1
1001
ASKDWGSC
1040
3.0
  0
LINE
  5
2562
330
18
100
AcDbEntity
  8
FO
  6
Continuous
 62
     4
 48
0.5
100
AcDbLine
 10
933.1616849646598
 20
237.5119301009836
 30
0.0
 11
1133.865551663898
 21
237.5119301009836
 31
0.0
1001
DEKIMAS
1000
実線（細）
1040
0.15
1001
DIMEXPLODE
1070
     0
1001
ASKOBJSC
1000
1/1
1001
ASKDWGSC
1040
3.0
  0
LINE
  5
2563
330
18
100
AcDbEntity
  8
FO
  6
Continuous
 62
     4
 48
0.5
100
AcDbLine
 10
843.4559033923466
 20
127.4999914201022
 30
0.0
 11
870.2341389834542
 21
127.4999914201022
 31
0.0
1001
DEKIMAS
1000
実線（細）
1040
0.15
1001
DIMEXPLODE
1070
     0
1001
ASKOBJSC
1000
1/1
1001
ASKDWGSC
1040
3.0
  0
MTEXT
  5
2564
330
18
100
AcDbEntity
  8
FO
  6
Continuous
 62
     4
100
AcDbMText
 10
84.23161829335114
 20
842.2499930070474
 30
0.0
 40
7.499999776482589
 41
0.0
 71
     5
 72
     5
  1
\T1.40;\W0.61;記　号
  7
STD
 73
     1
 44
1.0
1001
DEKIMAS
1040
0.15
1001
ASKOBJSC
1000
1/1
1001
ASKDWGSC
1040
3.0
1001
ACAD
1000
MTEXTBEGIN
1070
    73
1070
     1
1070
    44
1040
1.0
1070
    74
1070
     0
1000
MTEXTEND
  0
MTEXT
  5
2565
330
18
100
AcDbEntity
  8
FO
  6
Continuous
 62
     4
100
AcDbMText
 10
174.4116156057779
 20
842.2499930070474
 30
0.0
 40
7.499999776482589
 41
0.0
 71
     5
 72
     5
  1
\T1.40;\W0.61;来　　　　　　　　　　　歴
  7
STD
 73
     1
 44
1.0
1001
DEKIMAS
1040
0.15
1001
ASKOBJSC
1000
1/1
1001
ASKDWGSC
1040
3.0
1001
ACAD
1000
MTEXTBEGIN
1070
    73
1070
     1
1070
    44
1040
1.0
1070
    74
1070
     0
1000
MTEXTEND
  0
MTEXT
  5
2566
330
18
100
AcDbEntity
  8
FO
  6
Continuous
 62
     4
100
AcDbMText
 10
267.112612843073
 20
842.2499930070474
 30
0.0
 40
7.499999776482589
 41
0.0
 71
     5
 72
     5
  1
\T1.40;\W0.61;年　月　日
  7
STD
 73
     1
 44
1.0
1001
DEKIMAS
1040
0.15
1001
ASKOBJSC
1000
1/1
1001
ASKDWGSC
1040
3.0
1001
ACAD
1000
MTEXTBEGIN
1070
    73
1070
     1
1070
    44
1040
1.0
1070
    74
1070
     0
1000
MTEXTEND
  0
MTEXT
  5
2567
330
18
100
AcDbEntity
  8
FO
  6
Continuous
 62
     4
100
AcDbMText
 10
311.4816115207738
 20
842.2499930070474
 30
0.0
 40
7.499999776482589
 41
0.0
 71
     5
 72
     5
  1
\T1.40;\W0.61;記　入
  7
STD
 73
     1
 44
1.0
1001
DEKIMAS
1040
0.15
1001
ASKOBJSC
1000
1/1
1001
ASKDWGSC
1040
3.0
1001
ACAD
1000
MTEXTBEGIN
1070
    73
1070
     1
1070
    44
1040
1.0
1070
    74
1070
     0
1000
MTEXTEND
  0
MTEXT
  5
2568
330
18
100
AcDbEntity
  8
FO
  6
Continuous
 62
     4
100
AcDbMText
 10
856.1779203016012
 20
205.4999890955182
 30
0.0
 40
8.999999731779105
 41
0.0
 71
     5
 72
     5
  1
\T1.40;\W0.61;品　番
  7
STD
 73
     1
 44
1.0
1001
DEKIMAS
1040
0.15
1001
ASKOBJSC
1000
1/1
1001
ASKDWGSC
1040
3.0
1001
ACAD
1000
MTEXTBEGIN
1070
    73
1070
     1
1070
    44
1040
1.0
1070
    74
1070
     0
1000
MTEXTEND
  0
MTEXT
  5
2569
330
18
100
AcDbEntity
  8
FO
  6
Continuous
 62
     4
100
AcDbMText
 10
919.6243184107514
 20
205.4999890955182
 30
0.0
 40
8.999999731779105
 41
0.0
 71
     5
 72
     5
  1
\T1.40;\W0.61;名　　　　　称
  7
STD
 73
     1
 44
1.0
1001
DEKIMAS
1040
0.15
1001
ASKOBJSC
1000
1/1
1001
ASKDWGSC
1040
3.0
1001
ACAD
1000
MTEXTBEGIN
1070
    73
1070
     1
1070
    44
1040
1.0
1070
    74
1070
     0
1000
MTEXTEND
  0
MTEXT
  5
256A
330
18
100
AcDbEntity
  8
FO
  6
Continuous
 62
     4
100
AcDbMText
 10
1031.677915071288
 20
205.4999890955182
 30
0.0
 40
8.999999731779105
 41
0.0
 71
     5
 72
     5
  1
\T1.40;\W0.61;材　質
  7
STD
 73
     1
 44
1.0
1001
DEKIMAS
1040
0.15
1001
ASKOBJSC
1000
1/1
1001
ASKDWGSC
1040
3.0
1001
ACAD
1000
MTEXTBEGIN
1070
    73
1070
     1
1070
    44
1040
1.0
1070
    74
1070
     0
1000
MTEXTEND
  0
MTEXT
  5
256B
330
18
100
AcDbEntity
  8
FO
  6
Continuous
 62
     4
100
AcDbMText
 10
1076.677913730183
 20
205.4999890955182
 30
0.0
 40
8.999999731779105
 41
0.0
 71
     5
 72
     5
  1
\T1.40;\W0.61;個　数
  7
STD
 73
     1
 44
1.0
1001
DEKIMAS
1040
0.15
1001
ASKOBJSC
1000
1/1
1001
ASKDWGSC
1040
3.0
1001
ACAD
1000
MTEXTBEGIN
1070
    73
1070
     1
1070
    44
1040
1.0
1070
    74
1070
     0
1000
MTEXTEND
  0
MTEXT
  5
256C
330
18
100
AcDbEntity
  8
FO
  6
Continuous
 62
     4
100
AcDbMText
 10
1152.295225762326
 20
205.4999890955182
 30
0.0
 40
8.999999731779105
 41
0.0
 71
     5
 72
     5
  1
\T1.40;\W0.61;摘　　　　　　　要
  7
STD
 73
     1
 44
1.0
1001
DEKIMAS
1040
0.15
1001
ASKOBJSC
1000
1/1
1001
ASKDWGSC
1040
3.0
1001
ACAD
1000
MTEXTBEGIN
1070
    73
1070
     1
1070
    44
1040
1.0
1070
    74
1070
     0
1000
MTEXTEND
  0
MTEXT
  5
256D
330
18
100
AcDbEntity
  8
FO
  6
Continuous
 62
     4
100
AcDbMText
 10
877.868169683315
 20
176.2499899672366
 30
0.0
 40
11.99999964237214
 41
0.0
 71
     5
 72
     5
  1
\T1.40;\W0.61;納　入　先
  7
STD
 73
     1
 44
1.0
1001
DEKIMAS
1040
0.15
1001
ASKOBJSC
1000
1/1
1001
ASKDWGSC
1040
3.0
1001
ACAD
1000
MTEXTBEGIN
1070
    73
1070
     1
1070
    44
1040
1.0
1070
    74
1070
     0
1000
MTEXTEND
  0
MTEXT
  5
256E
330
18
100
AcDbEntity
  8
FO
  6
Continuous
 62
     4
100
AcDbMText
 10
916.2616213737067
 20
63.7499933200002
 30
0.0
 40
11.99999964237214
 41
0.0
 71
     5
 72
     5
  1
\T1.40;\W0.46;ス　イ　コ　ー　株　式　会　社
  7
STD
 73
     1
 44
1.0
1001
DEKIMAS
1040
0.15
1001
ASKOBJSC
1000
1/1
1001
ASKDWGSC
1040
3.0
1001
ACAD
1000
MTEXTBEGIN
1070
    73
1070
     1
1070
    44
1040
1.0
1070
    74
1070
     0
1000
MTEXTEND
  0
MTEXT
  5
256F
330
18
100
AcDbEntity
  8
FO
  6
Continuous
 62
     4
100
AcDbMText
 10
922.5455933990309
 20
89.99999253768924
 30
0.0
 40
7.499999776482589
 41
0.0
 71
     5
 72
     5
  1
\T1.40;\W0.61;度
  7
STD
 73
     1
 44
1.0
1001
DEKIMAS
1040
0.15
1001
ASKOBJSC
1000
1/1
1001
ASKDWGSC
1040
3.0
1001
ACAD
1000
MTEXTBEGIN
1070
    73
1070
     1
1070
    44
1040
1.0
1070
    74
1070
     0
1000
MTEXTEND
  0
MTEXT
  5
2570
330
18
100
AcDbEntity
  8
FO
  6
Continuous
 62
     4
100
AcDbMText
 10
857.4815953380891
 20
149.9999921800591
 30
0.0
 40
7.499999776482589
 41
0.0
 71
     5
 72
     5
  1
\T1.40;\W0.61;設　計
  7
STD
 73
     1
 44
1.0
1001
DEKIMAS
1040
0.15
1001
ASKOBJSC
1000
1/1
1001
ASKDWGSC
1040
3.0
1001
ACAD
1000
MTEXTBEGIN
1070
    73
1070
     1
1070
    44
1040
1.0
1070
    74
1070
     0
1000
MTEXTEND
  0
MTEXT
  5
2571
330
18
100
AcDbEntity
  8
FO
  6
Continuous
 62
     4
100
AcDbMText
 10
896.3290941803434
 20
149.9999921800591
 30
0.0
 40
7.499999776482589
 41
0.0
 71
     5
 72
     5
  1
\T1.40;\W0.61;製　図
  7
STD
 73
     1
 44
1.0
1001
DEKIMAS
1040
0.15
1001
ASKOBJSC
1000
1/1
1001
ASKDWGSC
1040
3.0
1001
ACAD
1000
MTEXTBEGIN
1070
    73
1070
     1
1070
    44
1040
1.0
1070
    74
1070
     0
1000
MTEXTEND
  0
MTEXT
  5
2572
330
18
100
AcDbEntity
  8
FO
  6
Continuous
 62
     4
100
AcDbMText
 10
935.3290930180468
 20
149.9999921800591
 30
0.0
 40
7.499999776482589
 41
0.0
 71
     5
 72
     5
  1
\T1.40;\W0.61;検　図
  7
STD
 73
     1
 44
1.0
1001
DEKIMAS
1040
0.15
1001
ASKOBJSC
1000
1/1
1001
ASKDWGSC
1040
3.0
1001
ACAD
1000
MTEXTBEGIN
1070
    73
1070
     1
1070
    44
1040
1.0
1070
    74
1070
     0
1000
MTEXTEND
  0
MTEXT
  5
2573
330
18
100
AcDbEntity
  8
FO
  6
Continuous
 62
     4
100
AcDbMText
 10
974.4815918512115
 20
149.9999921800591
 30
0.0
 40
7.499999776482589
 41
0.0
 71
     5
 72
     5
  1
\T1.40;\W0.61;承　認
  7
STD
 73
     1
 44
1.0
1001
DEKIMAS
1040
0.15
1001
ASKOBJSC
1000
1/1
1001
ASKDWGSC
1040
3.0
1001
ACAD
1000
MTEXTBEGIN
1070
    73
1070
     1
1070
    44
1040
1.0
1070
    74
1070
     0
1000
MTEXTEND
  0
MTEXT
  5
2574
330
18
100
AcDbEntity
  8
FO
  6
Continuous
 62
     4
100
AcDbMText
 10
1002.204670173289
 20
101.2499922024131
 30
0.0
 40
8.999999731779105
 41
0.0
 71
     5
 72
     5
  1
\T1.40;\W0.61;称
  7
STD
 73
     1
 44
1.0
1001
DEKIMAS
1040
0.15
1001
ASKOBJSC
1000
1/1
1001
ASKDWGSC
1040
3.0
1001
ACAD
1000
MTEXTBEGIN
1070
    73
1070
     1
1070
    44
1040
1.0
1070
    74
1070
     0
1000
MTEXTEND
  0
MTEXT
  5
2575
330
18
100
AcDbEntity
  8
FO
  6
Continuous
 62
     4
100
AcDbMText
 10
1001.838670184197
 20
73.12499304060344
 30
0.0
 40
8.999999731779105
 41
0.0
 71
     5
 72
     5
  1
\T1.40;\W0.61;図
  7
STD
 73
     1
 44
1.0
1001
DEKIMAS
1040
0.15
1001
ASKOBJSC
1000
1/1
1001
ASKDWGSC
1040
3.0
1001
ACAD
1000
MTEXTBEGIN
1070
    73
1070
     1
1070
    44
1040
1.0
1070
    74
1070
     0
1000
MTEXTEND
  0
MTEXT
  5
2576
330
18
100
AcDbEntity
  8
FO
  6
Continuous
 62
     4
100
AcDbMText
 10
1002.204670173289
 20
54.37499359939696
 30
0.0
 40
8.999999731779105
 41
0.0
 71
     5
 72
     5
  1
\T1.40;\W0.61;番
  7
STD
 73
     1
 44
1.0
1001
DEKIMAS
1040
0.15
1001
ASKOBJSC
1000
1/1
1001
ASKDWGSC
1040
3.0
1001
ACAD
1000
MTEXTBEGIN
1070
    73
1070
     1
1070
    44
1040
1.0
1070
    74
1070
     0
1000
MTEXTEND
  0
MTEXT
  5
2577
330
18
100
AcDbEntity
  8
FO
  6
Continuous
 62
     4
100
AcDbMText
 10
1002.021670178743
 20
138.7499925153352
 30
0.0
 40
8.999999731779105
 41
0.0
 71
     5
 72
     5
  1
\T1.40;\W0.61;名
  7
STD
 73
     1
 44
1.0
1001
DEKIMAS
1040
0.15
1001
ASKOBJSC
1000
1/1
1001
ASKDWGSC
1040
3.0
1001
ACAD
1000
MTEXTBEGIN
1070
    73
1070
     1
1070
    44
1040
1.0
1070
    74
1070
     0
1000
MTEXTEND
  0
MTEXT
  5
2578
330
18
100
AcDbEntity
  8
FO
  6
Continuous
 62
     4
100
AcDbMText
 10
922.5455933096238
 20
104.9999920906544
 30
0.0
 40
7.499999776482589
 41
0.0
 71
     5
 72
     5
  1
\T1.40;\W0.61;尺
  7
STD
 73
     1
 44
1.0
1001
DEKIMAS
1040
0.15
1001
ASKOBJSC
1000
1/1
1001
ASKDWGSC
1040
3.0
1001
ACAD
1000
MTEXTBEGIN
1070
    73
1070
     1
1070
    44
1040
1.0
1070
    74
1070
     0
1000
MTEXTEND
  0
MTEXT
  5
2579
330
18
100
AcDbEntity
  8
FO
  6
Continuous
 62
     4
100
AcDbMText
 10
844.1424706321525
 20
97.49999231417184
 30
0.0
 40
5.999999821186071
 41
0.0
 71
     5
 72
     5
  1
\T1.40;\W0.61;月
  7
STD
 73
     1
 44
1.0
1001
DEKIMAS
1040
0.15
1001
ASKOBJSC
1000
1/1
1001
ASKDWGSC
1040
3.0
1001
ACAD
1000
MTEXTBEGIN
1070
    73
1070
     1
1070
    44
1040
1.0
1070
    74
1070
     0
1000
MTEXTEND
  0
MTEXT
  5
257A
330
18
100
AcDbEntity
  8
FO
  6
Continuous
 62
     4
100
AcDbMText
 10
843.898470639424
 20
87.59998345394111
 30
0.0
 40
5.999999821186071
 41
0.0
 71
     5
 72
     5
  1
\T1.40;\W0.61;日
  7
STD
 73
     1
 44
1.0
1001
DEKIMAS
1040
0.15
1001
ASKOBJSC
1000
1/1
1001
ASKDWGSC
1040
3.0
1001
ACAD
1000
MTEXTBEGIN
1070
    73
1070
     1
1070
    44
1040
1.0
1070
    74
1070
     0
1000
MTEXTEND
  0
MTEXT
  5
257B
330
18
100
AcDbEntity
  8
FO
  6
Continuous
 62
     4
100
AcDbMText
 10
842.9921849521479
 20
92.54996499587216
 30
0.0
 40
5.999999821186071
 41
0.0
 71
     5
 72
     5
  1
\T1.40;\W0.61;・
  7
STD
 73
     1
 44
1.0
1001
DEKIMAS
1040
0.15
1001
ASKOBJSC
1000
1/1
1001
ASKDWGSC
1040
3.0
1001
ACAD
1000
MTEXTBEGIN
1070
    73
1070
     1
1070
    44
1040
1.0
1070
    74
1070
     0
1000
MTEXTEND
  0
MTEXT
  5
257C
330
18
100
AcDbEntity
  8
FO
  6
Continuous
 62
     4
100
AcDbMText
 10
842.9921849521479
 20
102.4500196324685
 30
0.0
 40
5.999999821186071
 41
0.0
 71
     5
 72
     5
  1
\T1.40;\W0.61;・
  7
STD
 73
     1
 44
1.0
1001
DEKIMAS
1040
0.15
1001
ASKOBJSC
1000
1/1
1001
ASKDWGSC
1040
3.0
1001
ACAD
1000
MTEXTBEGIN
1070
    73
1070
     1
1070
    44
1040
1.0
1070
    74
1070
     0
1000
MTEXTEND
  0
MTEXT
  5
257D
330
18
100
AcDbEntity
  8
FO
  6
Continuous
 62
     4
100
AcDbMText
 10
844.3864706248804
 20
107.3999553980339
 30
0.0
 40
5.999999821186071
 41
0.0
 71
     5
 72
     5
  1
\T1.40;\W0.61;年
  7
STD
 73
     1
 44
1.0
1001
DEKIMAS
1040
0.15
1001
ASKOBJSC
1000
1/1
1001
ASKDWGSC
1040
3.0
1001
ACAD
1000
MTEXTBEGIN
1070
    73
1070
     1
1070
    44
1040
1.0
1070
    74
1070
     0
1000
MTEXTEND
  0
MTEXT
  5
257E
330
18
100
AcDbEntity
  8
FO
  6
Continuous
 62
     4
100
AcDbMText
 10
986.3119164232998
 20
205.4999890955181
 30
0.0
 40
8.999999731779105
 41
0.0
 71
     5
 72
     5
  1
\T1.40;\W0.61;サイズ
  7
STD
 73
     1
 44
1.0
1001
DEKIMAS
1040
0.15
1001
ASKOBJSC
1000
1/1
1001
ASKDWGSC
1040
3.0
1001
ACAD
1000
MTEXTBEGIN
1070
    73
1070
     1
1070
    44
1040
1.0
1070
    74
1070
     0
1000
MTEXTEND
  0
MTEXT
  5
257F
330
18
100
AcDbEntity
  8
FO
  6
Continuous
 62
     4
100
AcDbMText
 10
879.4966291587456
 20
128.2089299976072
 30
0.0
 40
9.599999713897714
 41
0.0
 71
     4
 72
     5
  1
\T1.40;\W0.48;佐藤（栄）
  7
STD
 73
     1
 44
1.0
1001
DEKIMAS
1040
0.15
1001
ASKOBJSC
1000
1/1
1001
ASKDWGSC
1040
3.0
1001
ACAD
1000
MTEXTBEGIN
1070
    73
1070
     1
1070
    44
1040
1.0
1070
    74
1070
     0
1000
MTEXTEND
  0
MTEXT
  5
2580
330
18
100
AcDbEntity
  8
FO
  6
Continuous
 62
     4
100
AcDbMText
 10
855.7565693580031
 20
96.99118800804541
 30
0.0
 40
9.599999713897714
 41
0.0
 71
     4
 72
     5
  1
{\W0.41;\T1.4;Ｈ　７．１１．10}
  7
STD
 73
     1
 44
1.0
1001
DEKIMAS
1040
0.15
1001
ASKOBJSC
1000
1/1
1001
ASKDWGSC
1040
3.0
1001
ACAD
1000
MTEXTBEGIN
1070
    73
1070
     1
1070
    44
1040
1.0
1070
    74
1070
     0
1000
MTEXTEND
  0
MTEXT
  5
2581
330
18
100
AcDbEntity
  8
FO
  6
Continuous
 62
     4
100
AcDbMText
 10
1034.257948415715
 20
62.53005317080924
 30
0.0
 40
14.99999955296518
 41
0.0
 71
     4
 72
     5
  1
{\W0.61;\T1.4;３３０５３９－１１}
  7
STD
 73
     1
 44
1.0
1001
DEKIMAS
1040
0.15
1001
ASKOBJSC
1000
1/1
1001
ASKDWGSC
1040
3.0
1001
ACAD
1000
MTEXTBEGIN
1070
    73
1070
     1
1070
    44
1040
1.0
1070
    74
1070
     0
1000
MTEXTEND
  0
MTEXT
  5
2582
330
18
100
AcDbEntity
  8
FO
  6
Continuous
 62
     4
100
AcDbMText
 10
1070.160718341819
 20
99.33951557477778
 30
0.0
 40
14.99999955296518
 41
0.0
 71
     4
 72
     5
  1
\T1.40;\W0.61;製　品　図
  7
STD
 73
     1
 44
1.0
1001
DEKIMAS
1040
0.15
1001
ASKOBJSC
1000
1/1
1001
ASKDWGSC
1040
3.0
1001
ACAD
1000
MTEXTBEGIN
1070
    73
1070
     1
1070
    44
1040
1.0
1070
    74
1070
     0
1000
MTEXTEND
  0
MTEXT
  5
2583
330
18
100
AcDbEntity
  8
FO
  6
Continuous
 62
     4
100
AcDbMText
 10
1015.873747913802
 20
132.3899258141635
 30
0.0
 40
14.99999955296518
 41
0.0
 71
     4
 72
     5
  1
{\W0.48;\T1.4;ガ－ドロ－ド１１００用ジョイント}
  7
STD
 73
     1
 44
1.0
1001
DEKIMAS
1040
0.15
1001
ASKOBJSC
1000
1/1
1001
ASKDWGSC
1040
3.0
1001
ACAD
1000
MTEXTBEGIN
1070
    73
1070
     1
1070
    44
1040
1.0
1070
    74
1070
     0
1000
MTEXTEND
  0
MTEXT
  5
2584
330
18
100
AcDbEntity
  8
FO
  6
Continuous
 62
     4
100
AcDbMText
 10
966.1948909353442
 20
92.72702797887728
 30
0.0
 40
9.599999713897714
 41
0.0
 71
     4
 72
     5
  1
\T1.40;\W0.61;３
  7
STD
 73
     1
 44
1.0
1001
DEKIMAS
1040
0.15
1001
ASKOBJSC
1000
1/1
1001
ASKDWGSC
1040
3.0
1001
ACAD
1000
MTEXTBEGIN
1070
    73
1070
     1
1070
    44
1040
1.0
1070
    74
1070
     0
1000
MTEXTEND
  0
MTEXT
  5
2585
330
18
100
AcDbEntity
  8
FO
  6
Continuous
 62
     4
100
AcDbMText
 10
951.8759979294605
 20
102.2729566494634
 30
0.0
 40
9.599999713897714
 41
0.0
 71
     4
 72
     5
  1
\T1.40;\W0.61;１
  7
STD
 73
     1
 44
1.0
1001
DEKIMAS
1040
0.15
1001
ASKOBJSC
1000
1/1
1001
ASKDWGSC
1040
3.0
1001
ACAD
1000
MTEXTBEGIN
1070
    73
1070
     1
1070
    44
1040
1.0
1070
    74
1070
     0
1000
MTEXTEND
  0
MTEXT
  5
2586
330
18
100
AcDbEntity
  8
FO
  6
Continuous
 62
     4
100
AcDbMText
 10
937.5204727886144
 20
245.610112537864
 30
0.0
 40
9.599999713897714
 41
0.0
 71
     4
 72
     5
  1
\T1.40;\W0.61;注記　１．寸法公差ハ±１．５％以内トスル．
  7
STD
 73
     1
 44
1.0
1001
DEKIMAS
1040
0.15
1001
ASKOBJSC
1000
1/1
1001
ASKDWGSC
1040
3.0
1001
ACAD
1000
MTEXTBEGIN
1070
    73
1070
     1
1070
    44
1040
1.0
1070
    74
1070
     0
1000
MTEXTEND
  0
DIMENSION
  5
4A78
330
18
100
AcDbEntity
  8
RH
100
AcDbDimension
  2
*D3
 10
415.0203857433446
 20
509.1991089288517
 30
0.0
 11
338.2777505310798
 21
509.1991089288517
 31
0.0
 70
   160
  1
<>
 71
     5
 42
153.4854923544448
  3
ASKSTANDARD
100
AcDbAlignedDimension
 13
261.5348933888999
 23
468.5842821615465
 33
0.0
 14
415.0203857433446
 24
468.6097128109263
 34
0.0
100
AcDbRotatedDimension
1001
ACAD
1000
DSTYLE
1002
{
1070
   177
1070
     4
1070
   176
1070
     4
1070
    44
1040
2.286000637788125
1070
    40
1040
2.999999910593035
1070
   284
1070
     8
1070
   140
1040
3.0
1070
   271
1070
     0
1070
   173
1070
     1
1070
   343
1005
1914
1070
   344
1005
1914
1002
}
  0
DIMENSION
  5
4A79
330
18
100
AcDbEntity
  8
RH
100
AcDbDimension
  2
*D4
 10
408.7063219590297
 20
160.7450587930298
 30
0.0
 11
337.2140823072994
 21
160.7450587930298
 31
0.0
 70
   160
  1
<>
 71
     5
 42
140.8571428559
  3
ASKSTANDARD
100
AcDbAlignedDimension
 13
267.8491791031297
 23
196.5842821639464
 33
0.0
 14
408.7063219590297
 24
196.5842821639464
 34
0.0
100
AcDbRotatedDimension
1001
ACAD
1000
DSTYLE
1002
{
1070
   177
1070
     4
1070
   176
1070
     4
1070
    44
1040
2.286000637789458
1070
    40
1040
2.999999910593035
1070
   284
1070
     8
1070
   140
1040
3.0
1070
   271
1070
     0
1070
   173
1070
     1
1070
   343
1005
1914
1070
   344
1005
1914
1002
}
  0
DIMENSION
  5
4A7A
330
18
100
AcDbEntity
  8
RH
100
AcDbDimension
  2
*D5
 10
403.6741734343829
 20
458.8700260929864
 30
0.0
 11
434.3724051992182
 21
485.2039645410586
 31
0.0
 70
   164
  1
<>
 71
     5
 42
9.714278192321444
  3
ASKSTANDARD
100
AcDbRadialDimension
 15
411.0472904997465
 25
465.1949249489567
 35
0.0
 40
0.0
1001
ACAD
1000
DSTYLE
1002
{
1070
   177
1070
     4
1070
   176
1070
     4
1070
    40
1040
2.999999910593035
1070
   284
1070
     8
1070
   140
1040
3.0
1070
   271
1070
     0
1070
    45
1040
0.1
1070
     3
1000
R<>
1070
   173
1070
     1
1070
   343
1005
1914
1070
   344
1005
1914
1070
   279
1070
     1
1002
}
  0
DIMENSION
  5
4A7B
330
18
100
AcDbEntity
  8
RH
100
AcDbDimension
  2
*D6
 10
310.5920380984645
 20
441.3842821617866
 30
0.0
 11
321.9115004370531
 21
431.8607258753579
 31
0.0
 70
   164
  1
<>
 71
     5
 42
4.857151413559734
  3
ASKSTANDARD
100
AcDbRadialDimension
 15
306.8753540295451
 25
444.5112902183937
 35
0.0
 40
0.0
1001
ACAD
1000
DSTYLE
1002
{
1070
   177
1070
     4
1070
   176
1070
     4
1070
    40
1040
2.999999910593035
1070
   284
1070
     8
1070
   140
1040
3.0
1070
   271
1070
     0
1070
    45
1040
0.1
1070
     3
1000
R<>
1070
   173
1070
     1
1070
   343
1005
1914
1070
   344
1005
1914
1070
   279
1070
     1
1002
}
  0
LINE
  5
4A7C
330
18
100
AcDbEntity
  8
RH
  6
CENTER2
 62
     1
100
AcDbLine
 10
338.2777505310798
 20
480.4727796502734
 30
0.0
 11
338.2777505310798
 21
183.6006337004039
 31
0.0
1001
DEKIMAS
1000
一点鎖線（細）
1040
0.15
1001
DIMEXPLODE
1070
     0
  0
LINE
  5
4A7D
330
18
100
AcDbEntity
  8
RH
100
AcDbLine
 10
305.7348933885098
 20
441.3842821617863
 30
0.0
 11
305.7348933885098
 21
196.5842821639464
 31
0.0
1001
DEKIMAS
1000
実線（中）
1040
0.25
1001
DIMEXPLODE
1070
     0
  0
LINE
  5
4A7E
330
18
100
AcDbEntity
  8
RH
  6
HIDDEN
 62
     4
 48
10.0
100
AcDbLine
 10
303.7920362456698
 20
446.2414250188865
 30
0.0
 11
310.5920362456097
 21
446.2414250188865
 31
0.0
1001
DEKIMAS
1000
破線（細）
1040
0.15
1001
DIMEXPLODE
1070
     0
  0
LINE
  5
4A7F
330
18
100
AcDbEntity
  8
RH
  6
HIDDEN
 62
     4
 48
10.0
100
AcDbLine
 10
298.9348933885697
 20
441.3842821617863
 30
0.0
 11
298.9348933885697
 21
196.5842821639464
 31
0.0
1001
DEKIMAS
1000
破線（細）
1040
0.15
1001
DIMEXPLODE
1070
     0
  0
LINE
  5
4A80
330
18
100
AcDbEntity
  8
RH
 48
0.5
100
AcDbLine
 10
310.5920362456097
 20
446.2414250188865
 30
0.0
 11
338.2777505310798
 21
446.2414250188865
 31
0.0
1001
DEKIMAS
1000
実線（中）
1040
0.25
1001
DIMEXPLODE
1070
     0
  0
LINE
  5
4A88
330
18
100
AcDbEntity
  8
RH
100
AcDbLine
 10
408.7063293704416
 20
196.5842821096723
 30
0.0
 11
338.2777505310798
 21
196.5842821639464
 31
0.0
1001
DEKIMAS
1000
実線（中）
1040
0.25
1001
DIMEXPLODE
1070
     0
  0
LINE
  5
4A89
330
18
100
AcDbEntity
  8
RH
 48
0.5
100
AcDbLine
 10
403.6741586115574
 20
468.5842821615465
 30
0.0
 11
272.8989477138641
 21
468.5842821615465
 31
0.0
1001
DEKIMAS
1000
実線（中）
1040
0.25
1001
DIMEXPLODE
1070
     0
  0
LINE
  5
4A8A
330
18
100
AcDbEntity
  8
RH
100
AcDbLine
 10
413.3869027520968
 20
458.6965694105092
 30
0.0
 11
408.7063293704416
 21
196.5842821096723
 31
0.0
1001
DEKIMAS
1000
実線（中）
1040
0.25
1001
DIMEXPLODE
1070
     0
  0
LINE
  5
4A98
330
18
100
AcDbEntity
  8
RH
100
AcDbLine
 10
260.932860973105
 20
456.5890735852328
 30
0.0
 11
265.6154184849528
 21
196.5842821639464
 31
0.0
1001
DEKIMAS
1000
実線（中）
1040
0.25
1001
DIMEXPLODE
1070
     0
  0
LINE
  5
4AAE
330
18
100
AcDbEntity
  8
RH
100
AcDbLine
 10
265.6154184849528
 20
196.5842821639464
 30
0.0
 11
338.2777505310798
 21
196.5842821639464
 31
0.0
1001
DEKIMAS
1000
実線（中）
1040
0.25
1001
DIMEXPLODE
1070
     0
  0
ARC
  5
4AAF
330
18
100
AcDbEntity
  8
RH
  6
HIDDEN
 62
     4
 48
10.0
100
AcDbCircle
 10
303.7920362456698
 20
441.3842821617863
 30
0.0
 40
4.8571428571
100
AcDbArc
 50
89.99998201390118
 51
179.9999640278154
1001
DEKIMAS
1000
破線（細）
1040
0.15
1001
DIMEXPLODE
1070
     0
  0
ARC
  5
4AB0
330
18
100
AcDbEntity
  8
RH
 48
0.5
100
AcDbCircle
 10
310.5920362456097
 20
441.3842821617863
 30
0.0
 40
4.8571428571
100
AcDbArc
 50
89.99998201390118
 51
179.9999640278154
1001
DEKIMAS
1000
実線（中）
1040
0.25
1001
DIMEXPLODE
1070
     0
  0
ARC
  5
4AB2
330
18
100
AcDbEntity
  8
RH
 48
0.5
100
AcDbCircle
 10
403.6741586115574
 20
458.8699964473464
 30
0.0
 40
9.7142857142
100
AcDbArc
 50
358.9770556947682
 51
89.99998201390118
1001
DEKIMAS
1000
実線（中）
1040
0.25
1001
DIMEXPLODE
1070
     0
  0
ARC
  5
4AB5
330
18
100
AcDbEntity
  8
RH
 48
0.5
100
AcDbCircle
 10
272.8813424506029
 20
456.6357225913475
 30
0.0
 40
11.9485725401776
100
AcDbArc
 50
89.99998201390118
 51
180.2236918217545
1001
DEKIMAS
1000
実線（中）
1040
0.25
1001
DIMEXPLODE
1070
     0
  0
DIMENSION
  5
4AF4
330
18
100
AcDbEntity
  8
PV
100
AcDbDimension
  2
*D7
 10
626.2905075610158
 20
177.204646325898
 30
0.0
 11
615.0441199623783
 21
177.204646325898
 31
0.0
 70
   160
  1
22
 71
     5
 42
22.34282749580734
  3
ASKSTANDARD
100
AcDbAlignedDimension
 13
603.9476800652084
 23
202.4527569534973
 33
0.0
 14
626.2905075610158
 24
202.4527606019844
 34
0.0
 50
359.9999999882492
100
AcDbRotatedDimension
1001
ACAD
1000
DSTYLE
1002
{
1070
   177
1070
     4
1070
   176
1070
     4
1070
    44
1040
2.285999366223755
1070
    40
1040
2.999999910593035
1070
   284
1070
     8
1070
   140
1040
3.0
1070
   271
1070
     0
1070
   173
1070
     1
1070
   343
1005
1914
1070
   344
1005
1914
1002
}
  0
DIMENSION
  5
4AFA
330
18
100
AcDbEntity
  8
PV
100
AcDbDimension
  2
*D8
 10
631.1477338467057
 20
441.3842673201697
 30
0.0
 11
643.6503758227403
 21
429.0192009234012
 31
0.0
 70
   164
  1
<>
 71
     5
 42
4.85715626133782
  3
ASKSTANDARD
100
AcDbRadialDimension
 15
627.6942577318034
 25
444.7997423487495
 35
0.0
 40
0.0
1001
ACAD
1000
DSTYLE
1002
{
1070
   177
1070
     4
1070
   176
1070
     4
1070
    40
1040
2.999999910593035
1070
   284
1070
     8
1070
   140
1040
3.0
1070
   271
1070
     0
1070
    45
1040
0.1
1070
     3
1000
R<>
1070
   173
1070
     1
1070
   343
1005
1914
1070
   344
1005
1914
1070
   279
1070
     1
1002
}
  0
LINE
  5
4AFF
330
18
100
AcDbEntity
  8
PV
 48
0.5
100
AcDbLine
 10
690.7155849410314
 20
468.584282130537
 30
0.0
 11
539.5226042623817
 21
468.5842821615474
 31
0.0
1001
DEKIMAS
1000
実線（中）
1040
0.25
1001
DIMEXPLODE
1070
     0
  0
LINE
  5
4B03
330
18
100
AcDbEntity
  8
PV
 48
0.5
100
AcDbLine
 10
529.8099194111085
 20
458.6965694125024
 30
0.0
 11
529.8619623443825
 21
455.7822836982316
 31
0.0
1001
DEKIMAS
1000
実線（中）
1040
0.25
1001
DIMEXPLODE
1070
     0
  0
LINE
  5
4B07
330
18
100
AcDbEntity
  8
PV
  6
HIDDEN
 62
     4
 48
10.0
100
AcDbLine
 10
599.0904779668149
 20
446.2414250066699
 30
0.0
 11
539.5746768373185
 21
446.241425018877
 31
0.0
1001
DEKIMAS
1000
実線（中）
1040
0.25
1001
DIMEXPLODE
1070
     0
  0
LINE
  5
4B09
330
18
100
AcDbEntity
  8
PV
  6
HIDDEN
 62
     4
 48
10.0
100
AcDbLine
 10
603.9476800652084
 20
202.4527569534973
 30
0.0
 11
603.9476801142147
 21
441.3842821485737
 31
0.0
1001
DEKIMAS
1000
実線（中）
1040
0.25
1001
DIMEXPLODE
1070
     0
  0
LINE
  5
4B0B
330
18
100
AcDbEntity
  8
PV
  6
CENTER2
 62
     1
100
AcDbLine
 10
615.1190938125103
 20
192.5295932331614
 30
0.0
 11
615.1190938708721
 21
482.9128447131872
 31
0.0
1001
DEKIMAS
1000
実線（中）
1040
0.25
1001
DIMEXPLODE
1070
     0
  0
LINE
  5
4B15
330
18
100
AcDbEntity
  8
PV
 48
0.5
100
AcDbLine
 10
700.4282979670799
 20
458.696569377508
 30
0.0
 11
700.3762402097866
 21
455.7822540176191
 31
0.0
1001
DEKIMAS
1000
実線（中）
1040
0.25
1001
DIMEXPLODE
1070
     0
  0
LINE
  5
4B19
330
18
100
AcDbEntity
  8
PV
  6
Continuous
 62
     7
 48
0.5
100
AcDbLine
 10
631.1476652921458
 20
446.2414250000947
 30
0.0
 11
690.663466421643
 21
446.241424987888
 31
0.0
1001
DEKIMAS
1000
実線（中）
1040
0.25
1001
DIMEXPLODE
1070
     0
  0
LINE
  5
4B1B
330
18
100
AcDbEntity
  8
PV
  6
Continuous
 62
     7
100
AcDbLine
 10
626.2905075610158
 20
202.4527606019844
 30
0.0
 11
626.2905076112255
 21
441.3842821439912
 31
0.0
1001
DEKIMAS
1000
実線（中）
1040
0.25
1001
DIMEXPLODE
1070
     0
  0
ARC
  5
4B27
330
18
100
AcDbEntity
  8
PV
 48
0.5
100
AcDbCircle
 10
539.5226042603885
 20
458.8699964473476
 30
0.0
 40
9.7142857142
100
AcDbArc
 50
90.00003231796927
 51
181.0229717638711
1001
DEKIMAS
1000
実線（中）
1040
0.25
1001
DIMEXPLODE
1070
     0
  0
ARC
  5
4B29
330
18
100
AcDbEntity
  8
PV
  6
HIDDEN
 62
     4
 48
10.0
100
AcDbCircle
 10
539.5746768393108
 20
455.9557107330769
 30
0.0
 40
9.7142857142
100
AcDbArc
 50
181.0229822365263
 51
270.0000657856461
1001
DEKIMAS
1000
実線（中）
1040
0.25
1001
DIMEXPLODE
1070
     0
  0
ARC
  5
4B2B
330
18
100
AcDbEntity
  8
PV
  6
HIDDEN
 62
     4
 48
10.0
100
AcDbCircle
 10
599.0904779658192
 20
441.38428214957
 30
0.0
 40
4.8571428571
100
AcDbArc
 50
0.0000503040420401
 51
90.00003231796927
1001
DEKIMAS
1000
実線（中）
1040
0.25
1001
DIMEXPLODE
1070
     0
  0
ARC
  5
4B2F
330
18
100
AcDbEntity
  8
PV
  6
Continuous
 62
     7
 48
0.5
100
AcDbCircle
 10
631.1477097596203
 20
441.3842821429948
 30
0.0
 40
4.8571428571
100
AcDbArc
 50
89.99997767645593
 51
179.9999733507354
1001
DEKIMAS
1000
実線（中）
1040
0.25
1001
DIMEXPLODE
1070
     0
  0
ARC
  5
4B30
330
18
100
AcDbEntity
  8
PV
 48
0.5
100
AcDbCircle
 10
690.7155834722241
 20
458.8699964163372
 30
0.0
 40
9.7142857142
100
AcDbArc
 50
358.9770587211079
 51
89.99999133683427
1001
DEKIMAS
1000
実線（中）
1040
0.25
1001
DIMEXPLODE
1070
     0
  0
ARC
  5
4B32
330
18
100
AcDbEntity
  8
PV
  6
Continuous
 62
     7
 48
0.5
100
AcDbCircle
 10
690.6635108921054
 20
455.955710702088
 30
0.0
 40
9.7142857142
100
AcDbArc
 50
269.9999701629977
 51
358.9770587211079
1001
DEKIMAS
1000
実線（中）
1040
0.25
1001
DIMEXPLODE
1070
     0
  0
DIMENSION
  5
4B34
330
18
100
AcDbEntity
  8
TP
100
AcDbDimension
  2
*D9
 10
658.3671203949852
 20
722.726122868659
 30
0.0
 11
690.2240437695492
 21
739.9575518546836
 31
0.0
 70
   164
  1
<>
 71
     5
 42
9.714295627183332
  3
ASKSTANDARD
100
AcDbRadialDimension
 15
666.9115622488775
 25
727.347816599075
 35
0.0
 40
0.0
1001
ACAD
1000
DSTYLE
1002
{
1070
   177
1070
     4
1070
   176
1070
     4
1070
    40
1040
2.999999910593035
1070
   284
1070
     8
1070
   140
1040
3.0
1070
   271
1070
     0
1070
    45
1040
0.1
1070
     3
1000
R<>
1070
   173
1070
     1
1070
   343
1005
1914
1070
   344
1005
1914
1070
   279
1070
     1
1002
}
  0
DIMENSION
  5
4B35
330
18
100
AcDbEntity
  8
TP
100
AcDbDimension
  2
*D10
 10
693.1650550739973
 20
626.0406294543488
 30
0.0
 11
724.5170780305695
 21
615.0025862459525
 31
0.0
 70
    36
  1
<>
 71
     5
 42
9.714270534091099
  3
ASKSTANDARD
100
AcDbRadialDimension
 15
701.458728771997
 25
620.9827614647094
 35
0.0
 40
0.0
1001
ACAD
1000
DSTYLE
1002
{
1070
   177
1070
     4
1070
   176
1070
     4
1070
    40
1040
2.999999910593035
1070
   284
1070
     8
1070
   140
1040
3.0
1070
   271
1070
     0
1070
    45
1040
0.1
1070
     3
1000
R<>
1070
   173
1070
     1
1070
   343
1005
1914
1070
   344
1005
1914
1070
   279
1070
     1
1002
}
  0
DIMENSION
  5
4B36
330
18
100
AcDbEntity
  8
TP
100
AcDbDimension
  2
*D11
 10
646.7591668720626
 20
577.3199073112062
 30
0.0
 11
646.7591668720624
 21
592.0571736519382
 31
0.0
 70
   160
  1
28
 71
     5
 42
29.47453269037101
  3
ASKSTANDARD
100
AcDbAlignedDimension
 13
629.5071344247672
 23
606.7944400015772
 33
0.0
 14
658.3672165138827
 24
577.3199073112062
 34
0.0
 50
269.9999999095888
100
AcDbRotatedDimension
1001
ACAD
1000
DSTYLE
1002
{
1070
   177
1070
     4
1070
   176
1070
     4
1070
    44
1040
2.285995551526306
1070
    40
1040
2.999999910593035
1070
   284
1070
     8
1070
   140
1040
3.0
1070
   271
1070
     0
1070
   173
1070
     1
1070
   343
1005
1914
1070
   344
1005
1914
1070
    76
1070
     1
1002
}
  0
LINE
  5
4B38
330
18
100
AcDbEntity
  8
TP
 48
0.5
100
AcDbLine
 10
615.1190940260705
 20
732.4404012396912
 30
0.0
 11
658.3672167586678
 21
732.4404011714436
 31
0.0
1001
DEKIMAS
1000
実線（中）
1040
0.25
1001
DIMEXPLODE
1070
     0
  0
LINE
  5
4B3B
330
18
100
AcDbEntity
  8
TP
  6
CENTER2
 62
     1
 48
0.5
100
AcDbLine
 10
599.6912469738592
 20
606.7944400486271
 30
0.0
 11
629.5071344247672
 21
606.7944400015772
 31
0.0
1001
DEKIMAS
1000
一点鎖線（細）
1040
0.15
1001
DIMEXPLODE
1070
     0
  0
LINE
  5
4B3D
330
18
100
AcDbEntity
  8
TP
 48
0.5
100
AcDbLine
 10
665.6161704365151
 20
729.1929502497382
 30
0.0
 11
700.6537641913387
 21
690.186511858116
 31
0.0
1001
DEKIMAS
1000
実線（中）
1040
0.25
1001
DIMEXPLODE
1070
     0
  0
LINE
  5
4B42
330
18
100
AcDbEntity
  8
TP
  6
CENTER2
 62
     1
100
AcDbLine
 10
615.1190937620029
 20
565.1009006416318
 30
0.0
 11
615.119094043414
 21
743.4313111739024
 31
0.0
1001
DEKIMAS
1000
一点鎖線（細）
1040
0.15
1001
DIMEXPLODE
1070
     0
  0
LINE
  5
4B47
330
18
100
AcDbEntity
  8
TP
 48
0.5
100
AcDbLine
 10
703.1190939491871
 20
683.7196723791926
 30
0.0
 11
703.1191235038152
 21
626.040638702907
 31
0.0
1001
DEKIMAS
1000
実線（中）
1040
0.25
1001
DIMEXPLODE
1070
     0
  0
LINE
  5
4B49
330
18
100
AcDbEntity
  8
TP
 48
0.5
100
AcDbLine
 10
665.6161702019792
 20
580.5673730328571
 30
0.0
 11
700.6537688852456
 21
619.5738067961499
 31
0.0
1001
DEKIMAS
1000
実線（中）
1040
0.25
1001
DIMEXPLODE
1070
     0
  0
LINE
  5
4B4D
330
18
100
AcDbEntity
  8
TP
  6
CENTER2
 62
     1
100
AcDbLine
 10
507.9302458996017
 20
654.8801544736583
 30
0.0
 11
719.1247027939541
 21
654.880154150358
 31
0.0
1001
DEKIMAS
1000
一点鎖線（細）
1040
0.15
1001
DIMEXPLODE
1070
     0
  0
LINE
  5
4B4E
330
18
100
AcDbEntity
  8
TP
 48
0.5
100
AcDbLine
 10
615.1190940260705
 20
732.4404012396912
 30
0.0
 11
571.8709712934721
 21
732.4404013079379
 31
0.0
1001
DEKIMAS
1000
実線（中）
1040
0.25
1001
DIMEXPLODE
1070
     0
  0
LINE
  5
4B52
330
18
100
AcDbEntity
  8
TP
 48
0.5
100
AcDbLine
 10
564.6221139537301
 20
729.192891117816
 30
0.0
 11
529.584423727443
 21
690.1865072091252
 31
0.0
1001
DEKIMAS
1000
実線（中）
1040
0.25
1001
DIMEXPLODE
1070
     0
  0
LINE
  5
4B56
330
18
100
AcDbEntity
  8
TP
 48
0.5
100
AcDbLine
 10
658.3672165138823
 20
577.3199073112063
 30
0.0
 11
571.8709710486871
 21
577.3199074477004
 31
0.0
1001
DEKIMAS
1000
実線（中）
1040
0.25
1001
DIMEXPLODE
1070
     0
  0
LINE
  5
4B58
330
18
100
AcDbEntity
  8
TP
 48
0.5
100
AcDbLine
 10
527.1190939491871
 20
683.7196726565475
 30
0.0
 11
527.1190642125198
 21
626.0406389802628
 31
0.0
1001
DEKIMAS
1000
実線（中）
1040
0.25
1001
DIMEXPLODE
1070
     0
  0
LINE
  5
4B5A
330
18
100
AcDbEntity
  8
TP
 48
0.5
100
AcDbLine
 10
564.6220025480163
 20
580.5673435465821
 30
0.0
 11
529.8241863605742
 21
619.5737671153811
 31
0.0
1001
DEKIMAS
1000
実線（中）
1040
0.25
1001
DIMEXPLODE
1070
     0
  0
ARC
  5
4B5F
330
18
100
AcDbEntity
  8
TP
 48
0.5
100
AcDbCircle
 10
658.3672167433385
 20
722.7261154572438
 30
0.0
 40
9.7142857142
100
AcDbArc
 50
41.73627631863374
 51
90.00000491852617
1001
DEKIMAS
1000
実線（中）
1040
0.25
1001
DIMEXPLODE
1070
     0
  0
ARC
  5
4B61
330
18
100
AcDbEntity
  8
TP
  6
HIDDEN
 62
     4
 48
10.0
100
AcDbCircle
 10
665.6333647946929
 20
654.8801542298588
 30
0.0
 40
39.34285714251
100
AcDbArc
 50
58.21071991745223
 51
179.999973272049
1001
DEKIMAS
1000
破線（細）
1040
0.15
1001
DIMEXPLODE
1070
     0
  0
CIRCLE
  5
4B62
330
18
100
AcDbEntity
  8
TP
100
AcDbCircle
 10
615.1190938277961
 20
606.7944400242815
 30
0.0
 40
10.53999851762454
1001
DEKIMAS
1000
実線（中）
1040
0.25
  0
ARC
  5
4B63
330
18
100
AcDbEntity
  8
TP
  6
HIDDEN
 62
     4
 48
10.0
100
AcDbCircle
 10
689.5134229258772
 20
693.4107873007915
 30
0.0
 40
5.987779671752366
100
AcDbArc
 50
238.2106090405189
 51
41.7362216770762
1001
DEKIMAS
1000
破線（細）
1040
0.15
1001
DIMEXPLODE
1070
     0
  0
ARC
  5
4B68
330
18
100
AcDbEntity
  8
TP
 48
0.5
100
AcDbCircle
 10
658.3672165292118
 20
587.0341930254062
 30
0.0
 40
9.7142857142
100
AcDbArc
 50
270.0000358817604
 51
318.263766075563
1001
DEKIMAS
1000
実線（中）
1040
0.25
1001
DIMEXPLODE
1070
     0
  0
ARC
  5
4B69
330
18
100
AcDbEntity
  8
TP
 48
0.5
100
AcDbCircle
 10
693.404808143968
 20
626.040638718237
 30
0.0
 40
9.7142857142
100
AcDbArc
 50
318.2636977737037
 51
0.0000160744358313
1001
DEKIMAS
1000
実線（中）
1040
0.25
1001
DIMEXPLODE
1070
     0
  0
ARC
  5
4B6A
330
18
100
AcDbEntity
  8
TP
  6
HIDDEN
 62
     4
 48
10.0
100
AcDbCircle
 10
665.6333647946929
 20
654.8801542298588
 30
0.0
 40
39.34285714251
100
AcDbArc
 50
180.0000383862551
 51
301.7893019861746
1001
DEKIMAS
1000
破線（細）
1040
0.15
1001
DIMEXPLODE
1070
     0
  0
ARC
  5
4B6B
330
18
100
AcDbEntity
  8
TP
  6
HIDDEN
 62
     4
 48
10.0
100
AcDbCircle
 10
689.5134228042715
 20
616.3495210835594
 30
0.0
 40
5.987779671752366
100
AcDbArc
 50
318.263793396331
 51
121.7894128630884
1001
DEKIMAS
1000
破線（細）
1040
0.15
1001
DIMEXPLODE
1070
     0
  0
ARC
  5
4B6F
330
18
100
AcDbEntity
  8
TP
 48
0.5
100
AcDbCircle
 10
571.8709712781429
 20
722.726115593738
 30
0.0
 40
9.7142857142
100
AcDbArc
 50
90.00000491852617
 51
138.2637198580928
1001
DEKIMAS
1000
実線（中）
1040
0.25
1001
DIMEXPLODE
1070
     0
  0
ARC
  5
4B70
330
18
100
AcDbEntity
  8
TP
 48
0.5
100
AcDbCircle
 10
536.8333796633867
 20
683.7196699005289
 30
0.0
 40
9.7142857142
100
AcDbArc
 50
138.2636551987234
 51
179.9999837447417
1001
DEKIMAS
1000
実線（中）
1040
0.25
1001
DIMEXPLODE
1070
     0
  0
ARC
  5
4B71
330
18
100
AcDbEntity
  8
TP
  6
HIDDEN
 62
     4
 48
10.0
100
AcDbCircle
 10
564.6048230126618
 20
654.880154389285
 30
0.0
 40
39.34285714251
100
AcDbArc
 50
0.0000160744358313
 51
121.7892899196751
1001
DEKIMAS
1000
破線（細）
1040
0.15
1001
DIMEXPLODE
1070
     0
  0
ARC
  5
4B72
330
18
100
AcDbEntity
  8
TP
  6
HIDDEN
 62
     4
 48
10.0
100
AcDbCircle
 10
540.7247650030833
 20
693.4107875355843
 30
0.0
 40
5.987779671752366
100
AcDbArc
 50
138.2637508213519
 51
301.789370288092
1001
DEKIMAS
1000
破線（細）
1040
0.15
1001
DIMEXPLODE
1070
     0
  0
ARC
  5
4B76
330
18
100
AcDbEntity
  8
TP
 48
0.5
100
AcDbCircle
 10
571.8709710640159
 20
587.0341931619004
 30
0.0
 40
9.7142857142
100
AcDbArc
 50
221.7362337436374
 51
269.9999639373912
1001
DEKIMAS
1000
実線（中）
1040
0.25
1001
DIMEXPLODE
1070
     0
  0
ARC
  5
4B77
330
18
100
AcDbEntity
  8
TP
 48
0.5
100
AcDbCircle
 10
537.0731474651631
 20
626.0406389649333
 30
0.0
 40
9.7142857142
100
AcDbArc
 50
179.9999837447417
 51
221.7363020454826
1001
DEKIMAS
1000
実線（中）
1040
0.25
1001
DIMEXPLODE
1070
     0
  0
ARC
  5
4B78
330
18
100
AcDbEntity
  8
TP
  6
HIDDEN
 62
     4
 48
10.0
100
AcDbCircle
 10
564.6048230126618
 20
654.880154389285
 30
0.0
 40
39.34285714251
100
AcDbArc
 50
238.2106773424155
 51
359.9999477725441
1001
DEKIMAS
1000
破線（細）
1040
0.15
1001
DIMEXPLODE
1070
     0
  0
ARC
  5
4B79
330
18
100
AcDbEntity
  8
TP
  6
HIDDEN
 62
     4
 48
10.0
100
AcDbCircle
 10
540.7247648814782
 20
616.3495213183532
 30
0.0
 40
5.987779671752366
100
AcDbArc
 50
58.21059697401802
 51
221.7361993652573
1001
DEKIMAS
1000
破線（細）
1040
0.15
1001
DIMEXPLODE
1070
     0
  0
CIRCLE
  5
4B7C
330
18
100
AcDbEntity
  8
TP
  6
HIDDEN
 62
     4
 48
10.0
100
AcDbCircle
 10
615.1190938277961
 20
606.7944400242815
 30
0.0
 40
7.917141560075971
1001
DEKIMAS
1000
実線（中）
1040
0.25
  0
LINE
  5
4E88
330
18
100
AcDbEntity
  8
PV
100
AcDbLine
 10
529.8099308633624
 20
458.6965287263806
 30
0.0
 11
535.1190938173702
 21
198.5842821623873
 31
0.0
1001
DEKIMAS
1000
実線（中）
1040
0.25
1001
DIMEXPLODE
1070
     0
  0
LINE
  5
4F26
330
18
100
AcDbEntity
  8
RH
100
AcDbLine
 10
370.8206076736499
 20
441.3842821617863
 30
0.0
 11
370.8206076736499
 21
196.5842821639464
 31
0.0
1001
DEKIMAS
1000
実線（中）
1040
0.25
1001
DIMEXPLODE
1070
     0
  0
LINE
  5
4F27
330
18
100
AcDbEntity
  8
RH
  6
HIDDEN
 62
     4
 48
10.0
100
AcDbLine
 10
377.6206076735898
 20
441.3842821617863
 30
0.0
 11
377.6206076735898
 21
196.5842821639464
 31
0.0
1001
DEKIMAS
1000
破線（細）
1040
0.15
1001
DIMEXPLODE
1070
     0
  0
LINE
  5
4F28
330
18
100
AcDbEntity
  8
RH
 48
0.5
100
AcDbLine
 10
365.9634648165497
 20
446.241425018886
 30
0.0
 11
338.2777505310798
 21
446.2414250188865
 31
0.0
1001
DEKIMAS
1000
実線（中）
1040
0.25
1001
DIMEXPLODE
1070
     0
  0
ARC
  5
4F29
330
18
100
AcDbEntity
  8
RH
  6
HIDDEN
 62
     4
 48
10.0
100
AcDbCircle
 10
372.7634648164899
 20
441.3842821617863
 30
0.0
 40
4.8571428571
100
AcDbArc
 50
0.0000359721845887
 51
90.00001798609881
1001
DEKIMAS
1000
破線（細）
1040
0.15
1001
DIMEXPLODE
1070
     0
  0
ARC
  5
4F2A
330
18
100
AcDbEntity
  8
RH
 48
0.5
100
AcDbCircle
 10
365.9634648165497
 20
441.3842821617863
 30
0.0
 40
4.8571428571
100
AcDbArc
 50
0.0000359721845887
 51
90.00001798609881
1001
DEKIMAS
1000
実線（中）
1040
0.25
1001
DIMEXPLODE
1070
     0
  0
LINE
  5
4F2B
330
18
100
AcDbEntity
  8
PV
100
AcDbLine
 10
700.4281711655428
 20
458.696556587601
 30
0.0
 11
695.1190938173701
 21
198.5842821296971
 31
0.0
1001
DEKIMAS
1000
実線（中）
1040
0.25
1001
DIMEXPLODE
1070
     0
  0
LINE
  5
5078
330
18
100
AcDbEntity
  8
TP
  6
HIDDEN
 62
     4
 48
10.0
100
AcDbLine
 10
567.606979755117
 20
726.5300775404671
 30
0.0
 11
532.8091560331556
 21
687.5236540814921
 31
0.0
1001
DEKIMAS
1000
実線（中）
1040
0.25
1001
DIMEXPLODE
1070
     0
  0
ARC
  5
5079
330
18
100
AcDbEntity
  8
TP
  6
HIDDEN
 62
     4
 48
10.0
100
AcDbCircle
 10
571.8709712781429
 20
722.726115593738
 30
0.0
 40
5.7142857142
100
AcDbArc
 50
90.00000491852617
 51
138.2637198580928
1001
DEKIMAS
1000
実線（中）
1040
0.25
1001
DIMEXPLODE
1070
     0
  0
LINE
  5
507A
330
18
100
AcDbEntity
  8
TP
  6
HIDDEN
 62
     4
 48
10.0
100
AcDbLine
 10
615.1190940197584
 20
728.4404012396912
 30
0.0
 11
571.87097128716
 21
728.4404013079379
 31
0.0
1001
DEKIMAS
1000
実線（中）
1040
0.25
1001
DIMEXPLODE
1070
     0
  0
LINE
  5
507B
330
18
100
AcDbEntity
  8
TP
  6
HIDDEN
 62
     4
 48
10.0
100
AcDbLine
 10
615.1190940197584
 20
728.4404012396912
 30
0.0
 11
658.3672167523557
 21
728.4404011714436
 31
0.0
1001
DEKIMAS
1000
実線（中）
1040
0.25
1001
DIMEXPLODE
1070
     0
  0
ARC
  5
507C
330
18
100
AcDbEntity
  8
TP
  6
HIDDEN
 62
     4
 48
10.0
100
AcDbCircle
 10
658.3672167433385
 20
722.7261154572438
 30
0.0
 40
5.7142857142
100
AcDbArc
 50
41.73627631863374
 51
90.00000491852617
1001
DEKIMAS
1000
実線（中）
1040
0.25
1001
DIMEXPLODE
1070
     0
  0
LINE
  5
507D
330
18
100
AcDbEntity
  8
TP
  6
HIDDEN
 62
     4
 48
10.0
100
AcDbLine
 10
662.6313046875193
 20
726.5301366136623
 30
0.0
 11
697.429143109197
 21
687.5236982220403
 31
0.0
1001
DEKIMAS
1000
実線（中）
1040
0.25
1001
DIMEXPLODE
1070
     0
  0
ARC
  5
507E
330
18
100
AcDbEntity
  8
TP
  6
HIDDEN
 62
     4
 48
10.0
100
AcDbCircle
 10
689.5134229258772
 20
693.4107873007915
 30
0.0
 40
1.987779671752366
100
AcDbArc
 50
238.2106090405189
 51
41.7362216770762
1001
DEKIMAS
1000
破線（細）
1040
0.15
1001
DIMEXPLODE
1070
     0
  0
ARC
  5
507F
330
18
100
AcDbEntity
  8
TP
  6
HIDDEN
 62
     4
 48
10.0
100
AcDbCircle
 10
665.6333647946929
 20
654.8801542298588
 30
0.0
 40
43.34285714251
100
AcDbArc
 50
58.21071991745223
 51
179.999973272049
1001
DEKIMAS
1000
破線（細）
1040
0.15
1001
DIMEXPLODE
1070
     0
  0
ARC
  5
5080
330
18
100
AcDbEntity
  8
TP
  6
HIDDEN
 62
     4
 48
10.0
100
AcDbCircle
 10
564.6048230126618
 20
654.880154389285
 30
0.0
 40
43.34285714251
100
AcDbArc
 50
0.0000160744358313
 51
121.7892899196751
1001
DEKIMAS
1000
破線（細）
1040
0.15
1001
DIMEXPLODE
1070
     0
  0
ARC
  5
5081
330
18
100
AcDbEntity
  8
TP
  6
HIDDEN
 62
     4
 48
10.0
100
AcDbCircle
 10
540.7247650030833
 20
693.4107875355843
 30
0.0
 40
1.987779671752366
100
AcDbArc
 50
138.2637508213519
 51
301.789370288092
1001
DEKIMAS
1000
破線（細）
1040
0.15
1001
DIMEXPLODE
1070
     0
  0
ARC
  5
5082
330
18
100
AcDbEntity
  8
TP
  6
HIDDEN
 62
     4
 48
10.0
100
AcDbCircle
 10
564.6048230126618
 20
654.880154389285
 30
0.0
 40
43.34285714251
100
AcDbArc
 50
238.2106773424155
 51
359.9999477725441
1001
DEKIMAS
1000
破線（細）
1040
0.15
1001
DIMEXPLODE
1070
     0
  0
ARC
  5
5083
330
18
100
AcDbEntity
  8
TP
  6
HIDDEN
 62
     4
 48
10.0
100
AcDbCircle
 10
665.6333647946929
 20
654.8801542298588
 30
0.0
 40
43.34285714251
100
AcDbArc
 50
180.0000383862551
 51
301.7893019861746
1001
DEKIMAS
1000
破線（細）
1040
0.15
1001
DIMEXPLODE
1070
     0
  0
ARC
  5
5084
330
18
100
AcDbEntity
  8
TP
  6
HIDDEN
 62
     4
 48
10.0
100
AcDbCircle
 10
689.5134228042715
 20
616.3495210835594
 30
0.0
 40
1.987779671752366
100
AcDbArc
 50
318.263793396331
 51
121.7894128630884
1001
DEKIMAS
1000
破線（細）
1040
0.15
1001
DIMEXPLODE
1070
     0
  0
LINE
  5
5085
330
18
100
AcDbEntity
  8
TP
  6
HIDDEN
 62
     4
 48
10.0
100
AcDbLine
 10
662.6313055275176
 20
583.2301878734258
 30
0.0
 11
697.4291588951254
 21
622.2366113324
 31
0.0
1001
DEKIMAS
1000
実線（中）
1040
0.25
1001
DIMEXPLODE
1070
     0
  0
ARC
  5
5086
330
18
100
AcDbEntity
  8
TP
  6
HIDDEN
 62
     4
 48
10.0
100
AcDbCircle
 10
693.165040251173
 20
626.0406387186153
 30
0.0
 40
5.7142857142
100
AcDbArc
 50
318.2636977737037
 51
0.0000160744358313
1001
DEKIMAS
1000
実線（中）
1040
0.25
1001
DIMEXPLODE
1070
     0
  0
LINE
  5
5087
330
18
100
AcDbEntity
  8
TP
  6
HIDDEN
 62
     4
 48
10.0
100
AcDbLine
 10
698.8793260563923
 20
683.7196712573636
 30
0.0
 11
698.8793556110201
 21
626.0406387095977
 31
0.0
1001
DEKIMAS
1000
実線（中）
1040
0.25
1001
DIMEXPLODE
1070
     0
  0
LINE
  5
5088
330
18
100
AcDbEntity
  8
TP
  6
HIDDEN
 62
     4
 48
10.0
100
AcDbLine
 10
531.3588321508253
 20
683.2500750565459
 30
0.0
 11
531.3588321053157
 21
626.0406389739505
 31
0.0
1001
DEKIMAS
1000
実線（中）
1040
0.25
1001
DIMEXPLODE
1070
     0
  0
ARC
  5
5089
330
18
100
AcDbEntity
  8
TP
  6
HIDDEN
 62
     4
 48
10.0
100
AcDbCircle
 10
537.0731474651631
 20
626.0406389649333
 30
0.0
 40
5.7142857142
100
AcDbArc
 50
179.9999837447417
 51
221.7363020454826
1001
DEKIMAS
1000
実線（中）
1040
0.25
1001
DIMEXPLODE
1070
     0
  0
LINE
  5
508A
330
18
100
AcDbEntity
  8
TP
  6
HIDDEN
 62
     4
 48
10.0
100
AcDbLine
 10
567.6068686395385
 20
583.2301567987051
 30
0.0
 11
532.8090524520962
 21
622.2365803675038
 31
0.0
1001
DEKIMAS
1000
実線（中）
1040
0.25
1001
DIMEXPLODE
1070
     0
  0
ARC
  5
508B
330
18
100
AcDbEntity
  8
TP
  6
HIDDEN
 62
     4
 48
10.0
100
AcDbCircle
 10
571.8709710640159
 20
587.0341931619004
 30
0.0
 40
5.7142857142
100
AcDbArc
 50
221.7362337436374
 51
269.9999639373912
1001
DEKIMAS
1000
実線（中）
1040
0.25
1001
DIMEXPLODE
1070
     0
  0
LINE
  5
508C
330
18
100
AcDbEntity
  8
TP
  6
HIDDEN
 62
     4
 48
10.0
100
AcDbLine
 10
658.3672165201944
 20
581.3199073112066
 30
0.0
 11
571.8709710549992
 21
581.3199074477004
 31
0.0
1001
DEKIMAS
1000
実線（中）
1040
0.25
1001
DIMEXPLODE
1070
     0
  0
ARC
  5
508D
330
18
100
AcDbEntity
  8
TP
  6
HIDDEN
 62
     4
 48
10.0
100
AcDbCircle
 10
537.0731475561826
 20
683.7196699005289
 30
0.0
 40
5.7142857142
100
AcDbArc
 50
138.2636551987234
 51
179.9999837447417
1001
DEKIMAS
1000
実線（中）
1040
0.25
1001
DIMEXPLODE
1070
     0
  0
ARC
  5
508E
330
18
100
AcDbEntity
  8
TP
  6
HIDDEN
 62
     4
 48
10.0
100
AcDbCircle
 10
693.1650403421924
 20
683.7196696542105
 30
0.0
 40
5.7142857142
100
AcDbArc
 50
0.0000160744358313
 51
41.73634462046722
1001
DEKIMAS
1000
実線（中）
1040
0.25
1001
DIMEXPLODE
1070
     0
  0
ARC
  5
508F
330
18
100
AcDbEntity
  8
TP
  6
HIDDEN
 62
     4
 48
10.0
100
AcDbCircle
 10
658.3672165292118
 20
587.0341930254062
 30
0.0
 40
5.7142857142
100
AcDbArc
 50
270.0000358817604
 51
318.263766075563
1001
DEKIMAS
1000
実線（中）
1040
0.25
1001
DIMEXPLODE
1070
     0
  0
ARC
  5
5090
330
18
100
AcDbEntity
  8
TP
  6
HIDDEN
 62
     4
 48
10.0
100
AcDbCircle
 10
540.7247648814782
 20
616.3495213183532
 30
0.0
 40
1.987779671752366
100
AcDbArc
 50
58.21059697401802
 51
221.7361993652573
1001
DEKIMAS
1000
破線（細）
1040
0.15
1001
DIMEXPLODE
1070
     0
  0
LINE
  5
5091
330
18
100
AcDbEntity
  8
RH
  6
HIDDEN
 62
     4
 48
10.0
100
AcDbLine
 10
365.9634632918117
 20
446.241425018886
 30
0.0
 11
372.7634632917518
 21
446.241425018886
 31
0.0
  0
DIMENSION
  5
5185
330
18
100
AcDbEntity
  8
RH
  6
Continuous
 62
     7
100
AcDbDimension
  2
*D12
 10
433.9269564360859
 20
468.5842821615461
 30
0.0
 11
427.3269564360857
 21
332.5842821367653
 31
0.0
 70
    32
 71
     5
 42
272.0000000495618
  3
ASKSTANDARD
100
AcDbAlignedDimension
 13
405.7063221003988
 23
196.5842821119843
 33
0.0
 14
403.6741616610333
 24
468.5842821615461
 34
0.0
 50
90.0
100
AcDbRotatedDimension
1001
ACAD
1000
DSTYLE
1002
{
1070
   177
1070
     4
1070
   176
1070
     4
1070
    40
1040
3.0
1002
}
  0
DIMENSION
  5
5192
330
18
100
AcDbEntity
  8
TP
  6
Continuous
 62
     7
100
AcDbDimension
  2
*D13
 10
703.1190939491871
 20
785.5559148644957
 30
0.0
 11
615.1190939491871
 21
792.1559148644957
 31
0.0
 70
    32
 71
     5
 42
176.0
  3
ASKSTANDARD
100
AcDbAlignedDimension
 13
527.1190939491871
 23
683.7196726565473
 33
0.0
 14
703.1190939491871
 24
683.7196723791928
 34
0.0
100
AcDbRotatedDimension
1001
ACAD
1000
DSTYLE
1002
{
1070
   177
1070
     4
1070
   176
1070
     4
1070
    40
1040
3.0
1002
}
  0
DIMENSION
  5
519F
330
18
100
AcDbEntity
  8
TP
  6
Continuous
 62
     7
100
AcDbDimension
  2
*D14
 10
498.7948621399448
 20
687.3801544375794
 30
0.0
 11
492.1948621399446
 21
654.8801544372983
 31
0.0
 70
    32
 71
     5
 42
65.00000000056252
  3
ASKSTANDARD
100
AcDbAlignedDimension
 13
531.8661156213086
 23
622.3801544370169
 33
0.0
 14
531.4986294211951
 24
687.3801544375794
 34
0.0
 50
90.0
100
AcDbRotatedDimension
1001
ACAD
1000
DSTYLE
1002
{
1070
   177
1070
     4
1070
   176
1070
     4
1070
    40
1040
3.0
1002
}
  0
DIMENSION
  5
5234
330
18
100
AcDbEntity
  8
TP
  6
Continuous
 62
     7
100
AcDbDimension
  2
*D15
 10
615.119094043414
 20
754.2783099179565
 30
0.0
 11
590.119094043414
 21
760.8783099179564
 31
0.0
 70
    32
 71
     5
 42
50.0
  3
ASKSTANDARD
100
AcDbAlignedDimension
 13
565.119094043414
 23
680.1920903214035
 33
0.0
 14
615.119094043414
 24
743.4313111739024
 34
0.0
100
AcDbRotatedDimension
1001
ACAD
1000
DSTYLE
1002
{
1070
   177
1070
     4
1070
   176
1070
     4
1070
    40
1040
3.0
1002
}
  0
LINE
  5
524A
330
18
100
AcDbEntity
  8
TP
  6
CENTER2
 62
     1
100
AcDbLine
 10
665.1190937620029
 20
606.4232194581168
 30
0.0
 11
665.119094043414
 21
682.2372626093742
 31
0.0
1001
DEKIMAS
1000
一点鎖線（細）
1040
0.15
1001
DIMEXPLODE
1070
     0
  0
LINE
  5
524B
330
18
100
AcDbEntity
  8
TP
  6
CENTER2
 62
     1
100
AcDbLine
 10
565.1190937284709
 20
608.3878015663085
 30
0.0
 11
565.119094043414
 21
680.1920903214035
 31
0.0
1001
DEKIMAS
1000
一点鎖線（細）
1040
0.15
1001
DIMEXPLODE
1070
     0
  0
DIMENSION
  5
5255
330
18
100
AcDbEntity
  8
TP
  6
Continuous
 62
     7
100
AcDbDimension
  2
*D16
 10
665.119094043414
 20
754.2783099179565
 30
0.0
 11
640.119094043414
 21
760.8783099179564
 31
0.0
 70
    32
 71
     5
 42
50.0
  3
ASKSTANDARD
100
AcDbAlignedDimension
 13
615.119094043414
 23
743.4313111739024
 33
0.0
 14
665.119094043414
 24
682.2372626093742
 34
0.0
100
AcDbRotatedDimension
1001
ACAD
1000
DSTYLE
1002
{
1070
   177
1070
     4
1070
   176
1070
     4
1070
    40
1040
3.0
1002
}
  0
DIMENSION
  5
527D
330
18
100
AcDbEntity
  8
TP
  6
Continuous
 62
     7
100
AcDbDimension
  2
*D17
 10
744.151356668721
 20
732.3801542417132
 30
0.0
 11
737.5513566687209
 21
654.8801542417131
 31
0.0
 70
    32
 71
     5
 42
155.0000000000002
  3
ASKSTANDARD
100
AcDbAlignedDimension
 13
659.4474397006242
 23
577.3801542417129
 33
0.0
 14
659.4474399078165
 24
732.3801542417132
 34
0.0
 50
90.0
100
AcDbRotatedDimension
1001
ACAD
1000
DSTYLE
1002
{
1070
   177
1070
     4
1070
   176
1070
     4
1070
    40
1040
3.0
1002
}
  0
ARC
  5
52B6
330
18
100
AcDbEntity
  8
PV
  6
HIDDEN
 62
     4
 48
10.0
100
AcDbCircle
 10
539.5226042603885
 20
458.8699964473476
 30
0.0
 40
5.7142857142
100
AcDbArc
 50
90.00003231796927
 51
181.0229717638711
1001
DEKIMAS
1000
実線（中）
1040
0.25
1001
DIMEXPLODE
1070
     0
  0
ARC
  5
52B7
330
18
100
AcDbEntity
  8
PV
  6
HIDDEN
 62
     4
 48
10.0
100
AcDbCircle
 10
539.5746768393108
 20
455.9557107330769
 30
0.0
 40
5.7142857142
100
AcDbArc
 50
181.0229822365263
 51
270.0000657856461
1001
DEKIMAS
1000
実線（中）
1040
0.25
1001
DIMEXPLODE
1070
     0
  0
LINE
  5
52B9
330
18
100
AcDbEntity
  8
PV
  6
Continuous
 62
     7
 48
0.5
100
AcDbLine
 10
690.7155843362284
 20
464.5842821305371
 30
0.0
 11
615.1190938671884
 21
464.5842821460424
 31
0.0
1001
DEKIMAS
1000
実線（中）
1040
0.25
1001
DIMEXPLODE
1070
     0
  0
LINE
  5
52BA
330
18
100
AcDbEntity
  8
PV
  6
HIDDEN
 62
     4
 48
10.0
100
AcDbLine
 10
599.0904779676352
 20
450.2414250066699
 30
0.0
 11
539.5746768381388
 21
450.241425018877
 31
0.0
1001
DEKIMAS
1000
実線（中）
1040
0.25
1001
DIMEXPLODE
1070
     0
  0
ARC
  5
52BB
330
18
100
AcDbEntity
  8
PV
  6
HIDDEN
 62
     4
 48
10.0
100
AcDbCircle
 10
599.0904779658192
 20
441.38428214957
 30
0.0
 40
8.857142857100001
100
AcDbArc
 50
0.0000503040420401
 51
90.00003231796927
1001
DEKIMAS
1000
実線（中）
1040
0.25
1001
DIMEXPLODE
1070
     0
  0
LINE
  5
52BC
330
18
100
AcDbEntity
  8
PV
  6
HIDDEN
 62
     4
 48
10.0
100
AcDbLine
 10
607.9476800652084
 20
202.452756952677
 30
0.0
 11
607.9476801142147
 21
441.3842821477532
 31
0.0
1001
DEKIMAS
1000
実線（中）
1040
0.25
1001
DIMEXPLODE
1070
     0
  0
LINE
  5
52BD
330
18
100
AcDbEntity
  8
PV
  6
Continuous
 62
     7
100
AcDbLine
 10
622.2905075610158
 20
202.452760602825
 30
0.0
 11
622.2905076112255
 21
441.3842821448318
 31
0.0
1001
DEKIMAS
1000
実線（中）
1040
0.25
1001
DIMEXPLODE
1070
     0
  0
ARC
  5
52BE
330
18
100
AcDbEntity
  8
PV
  6
Continuous
 62
     7
 48
0.5
100
AcDbCircle
 10
631.1477097596203
 20
441.3842821429948
 30
0.0
 40
8.857142857100001
100
AcDbArc
 50
89.99997767645593
 51
179.9999733507354
1001
DEKIMAS
1000
実線（中）
1040
0.25
1001
DIMEXPLODE
1070
     0
  0
LINE
  5
52BF
330
18
100
AcDbEntity
  8
PV
  6
Continuous
 62
     7
 48
0.5
100
AcDbLine
 10
631.1476652929662
 20
450.2414250000947
 30
0.0
 11
690.6634664224634
 21
450.241424987888
 31
0.0
1001
DEKIMAS
1000
実線（中）
1040
0.25
1001
DIMEXPLODE
1070
     0
  0
ARC
  5
52C0
330
18
100
AcDbEntity
  8
PV
  6
Continuous
 62
     7
 48
0.5
100
AcDbCircle
 10
690.6635108921054
 20
455.955710702088
 30
0.0
 40
5.7142857142
100
AcDbArc
 50
269.9999701629977
 51
358.9770587211079
1001
DEKIMAS
1000
実線（中）
1040
0.25
1001
DIMEXPLODE
1070
     0
  0
ARC
  5
52C1
330
18
100
AcDbEntity
  8
PV
  6
Continuous
 62
     7
 48
0.5
100
AcDbCircle
 10
690.7155834722241
 20
458.8699964163372
 30
0.0
 40
5.7142857142
100
AcDbArc
 50
358.9770587211079
 51
89.99999133683427
1001
DEKIMAS
1000
実線（中）
1040
0.25
1001
DIMEXPLODE
1070
     0
  0
DIMENSION
  5
52C5
330
18
100
AcDbEntity
  8
PV
  6
Continuous
 62
     7
100
AcDbDimension
  2
*D18
 10
626.2905075904284
 20
342.4176200980605
 30
0.0
 11
642.6505075904284
 21
349.0176200980605
 31
0.0
 70
    32
 71
     5
 42
4.0
  3
ASKSTANDARD
100
AcDbAlignedDimension
 13
622.2905075904284
 23
342.4176200980605
 33
0.0
 14
626.2905075904284
 24
342.4176200980605
 34
0.0
100
AcDbRotatedDimension
1001
ACAD
1000
DSTYLE
1002
{
1070
   177
1070
     4
1070
   176
1070
     4
1070
    40
1040
3.0
1002
}
  0
DIMENSION
  5
52D2
330
18
100
AcDbEntity
  8
PV
  6
Continuous
 62
     7
100
AcDbDimension
  2
*D19
 10
700.11829796708
 20
509.6449876175902
 30
0.0
 11
615.1190823999577
 21
516.2449876175903
 31
0.0
 70
    32
 71
     5
 42
169.9984311342445
  3
ASKSTANDARD
100
AcDbAlignedDimension
 13
530.1198668328354
 23
458.6965646148555
 33
0.0
 14
700.11829796708
 24
458.696569377508
 34
0.0
100
AcDbRotatedDimension
1001
ACAD
1000
DSTYLE
1002
{
1070
   177
1070
     4
1070
   176
1070
     4
1070
    40
1040
3.0
1002
}
  0
DIMENSION
  5
52FC
330
18
100
AcDbEntity
  8
PV
  6
Continuous
 62
     7
100
AcDbDimension
  2
*D20
 10
695.1190938166321
 20
152.4405103050935
 30
0.0
 11
615.1190938170011
 21
159.0405103050935
 31
0.0
 70
    32
 71
     5
 42
159.9999999992619
  3
ASKSTANDARD
100
AcDbAlignedDimension
 13
535.1190938173702
 23
202.4527457140871
 33
0.0
 14
695.1190938166321
 24
198.5842821296971
 34
0.0
100
AcDbRotatedDimension
1001
ACAD
1000
DSTYLE
1002
{
1070
   177
1070
     4
1070
   176
1070
     4
1070
    40
1040
3.0
1002
}
  0
DIMENSION
  5
5342
330
18
100
AcDbEntity
  8
PV
  6
Continuous
 62
     7
100
AcDbDimension
  2
*D21
 10
746.0171091108007
 20
468.584282130537
 30
0.0
 11
739.4171091108005
 21
457.5828535592035
 31
0.0
 70
    32
 71
     5
 42
22.00285714266738
  3
ASKSTANDARD
100
AcDbAlignedDimension
 13
690.6634699486946
 23
446.5814249878697
 33
0.0
 14
690.7155849410314
 24
468.584282130537
 34
0.0
 50
90.0
100
AcDbRotatedDimension
1001
ACAD
1000
DSTYLE
1002
{
1070
   177
1070
     4
1070
   176
1070
     4
1070
    40
1040
3.0
1002
}
  0
DIMENSION
  5
5370
330
18
100
AcDbEntity
  8
PV
  6
Continuous
 62
     7
100
AcDbDimension
  2
*D22
 10
746.0171091108007
 20
446.5814249878697
 30
0.0
 11
739.4171091108005
 21
322.5828535587835
 31
0.0
 70
    32
 71
     5
 42
247.9971428581726
  3
ASKSTANDARD
100
AcDbAlignedDimension
 13
695.1190938173701
 23
198.5842821296971
 33
0.0
 14
693.6634699486947
 24
446.5814249878697
 34
0.0
 50
90.0
100
AcDbRotatedDimension
1001
ACAD
1000
DSTYLE
1002
{
1070
   177
1070
     4
1070
   176
1070
     4
1070
    40
1040
3.0
1002
}
  0
LINE
  5
5AAF
330
18
100
AcDbEntity
  8
PV
 48
0.5
100
AcDbLine
 10
695.1190938166321
 20
198.5842821296971
 30
0.0
 11
535.1190938166324
 21
198.5842821623873
 31
0.0
1001
DEKIMAS
1000
実線（中）
1040
0.25
1001
DIMEXPLODE
1070
     0
  0
DIMENSION
  5
5AD8
330
18
100
AcDbEntity
  8
PV
  6
Continuous
 62
     7
100
AcDbDimension
  2
*D23
 10
766.7336652689211
 20
198.5842821296971
 30
0.0
 11
760.1336652689211
 21
333.5842821301172
 31
0.0
 70
    32
 71
     5
 42
270.0000000008399
  3
ASKSTANDARD
100
AcDbAlignedDimension
 13
693.7155849410315
 23
468.584282130537
 33
0.0
 14
695.1190938173701
 24
198.5842821296971
 34
0.0
 50
90.0
100
AcDbRotatedDimension
1001
ACAD
1000
DSTYLE
1002
{
1070
   177
1070
     4
1070
   176
1070
     4
1070
    40
1040
3.0
1002
}
  0
LINE
  5
5B24
330
18
100
AcDbEntity
  8
PV
  6
HIDDEN
 62
     4
 48
10.0
100
AcDbLine
 10
615.1190938671884
 20
464.5842821460424
 30
0.0
 11
539.5226042615613
 21
464.5842821615474
 31
0.0
1001
DEKIMAS
1000
実線（中）
1040
0.25
1001
DIMEXPLODE
1070
     0
  0
LINE
  5
5B25
330
18
100
AcDbEntity
  8
PV
  6
Continuous
 62
     7
100
AcDbLine
 10
696.3768859037338
 20
455.8536950169703
 30
0.0
 11
696.3768859037338
 21
458.093648554556
 31
0.0
  0
ARC
  5
5B37
330
18
100
AcDbEntity
  8
TP
 48
0.5
100
AcDbCircle
 10
693.1190940053254
 20
683.6101094797509
 30
0.0
 40
10.0
100
AcDbArc
 50
0.0000293582527814
 51
41.93181695377113
1001
DEKIMAS
1000
実線（中）
1040
0.25
1001
DIMEXPLODE
1070
     0
  0
DIMENSION
  5
5B39
330
18
100
AcDbEntity
  8
TP
  6
Continuous
 62
     7
100
AcDbDimension
  2
*D24
 10
693.1190940053236
 20
683.6101094797495
 30
0.0
 11
718.578189466152
 21
704.4622570506009
 31
0.0
 70
    36
 71
     5
 42
10.00000000000227
  3
ASKSTANDARD
100
AcDbRadialDimension
 15
701.9690038430235
 25
688.2661910796171
 35
0.0
 40
0.0
1001
ACAD_DSTYLE_DIMRADIAL_EXTENSION
1070
   387
1070
     1
1070
   388
1040
0.0000005123981142
1070
   390
1040
0.7318482671868276
1001
ACAD
1000
DSTYLE
1002
{
1070
   177
1070
     4
1070
   176
1070
     4
1070
    40
1040
3.0
1002
}
  0
LINE
  5
5B73
330
18
100
AcDbEntity
  8
TP
  6
Continuous
 62
     4
100
AcDbLine
 10
665.6991283205586
 20
577.3199072996362
 30
0.0
 11
690.6670876371081
 21
577.3199072602356
 31
0.0
  0
ARC
  5
5B74
330
18
100
AcDbEntity
  8
TP
  6
Continuous
 62
     4
100
AcDbCircle
 10
662.6991283205586
 20
577.3199073043701
 30
0.0
 40
24.96795931654953
100
AcDbArc
 50
332.3960398612016
 51
346.1980198853991
  0
ARC
  5
5B75
330
18
100
AcDbEntity
  8
TP
  6
Continuous
 62
     4
100
AcDbCircle
 10
662.6991283205586
 20
577.3199073043701
 30
0.0
 40
24.96795931654953
100
AcDbArc
 50
61.87015568410228
 51
75.67213570829213
  0
ARC
  5
5B76
330
18
100
AcDbEntity
  8
TP
  6
Continuous
 62
     4
100
AcDbCircle
 10
662.6991283205586
 20
577.3199073043701
 30
0.0
 40
24.96795931654953
100
AcDbArc
 50
359.9999999095888
 51
48.06817565991266
  0
INSERT
  5
5B77
330
18
100
AcDbEntity
  8
TP
  6
Continuous
 62
     4
100
AcDbBlockReference
  2
_Open
 10
687.6670876371083
 20
577.3199072649697
 30
0.0
 41
5.999999999999903
 42
6.0
 43
6.0
 50
83.09900989748893
  0
INSERT
  5
5B78
330
18
100
AcDbEntity
  8
TP
  6
Continuous
 62
     4
100
AcDbBlockReference
  2
_Open
 10
679.3838640780384
 20
595.8945832136814
 30
0.0
 41
5.999999999999992
 42
6.0
 43
6.0
 50
324.9691656720057
  0
MTEXT
  5
5B79
330
18
100
AcDbEntity
  8
TP
  6
Continuous
 62
     4
100
AcDbMText
 10
691.1804102571648
 20
590.9343347495073
 30
0.0
 40
8.399999999999998
 41
0.0
 71
     5
 72
     1
  1
\A1;45°
  7
SUNPOU
 11
0.4312735995576162
 21
-0.9022211936795859
 31
0.0
 73
     1
 44
1.0
1001
ACAD
1000
MTEXTBEGIN
1070
    73
1070
     1
1070
    44
1040
1.0
1070
    74
1070
     0
1000
MTEXTEND
  0
LINE
  5
5C61
330
18
100
AcDbEntity
  8
PV
  6
Continuous
 62
     7
 48
0.5
100
AcDbLine
 10
602.1190862385983
 20
468.5842821433759
 30
0.0
 11
602.1190862383932
 21
469.5842821433759
 31
0.0
1001
DEKIMAS
1000
実線（中）
1040
0.25
1001
DIMEXPLODE
1070
     0
  0
LINE
  5
5C62
330
18
100
AcDbEntity
  8
PV
  6
Continuous
 62
     7
 48
0.5
100
AcDbLine
 10
602.1190862383932
 20
469.5842821433759
 30
0.0
 11
615.1190938677872
 21
469.5842821460423
 31
0.0
1001
DEKIMAS
1000
実線（中）
1040
0.25
1001
DIMEXPLODE
1070
     0
  0
LINE
  5
5C71
330
18
100
AcDbEntity
  8
RH
  6
CENTER2
 62
     1
100
AcDbLine
 10
289.5348933888998
 20
436.9156934850734
 30
0.0
 11
289.5348933888998
 21
479.8456266470989
 31
0.0
  0
LINE
  5
5C86
330
18
100
AcDbEntity
  8
RH
  6
Continuous
 62
     7
 48
0.5
100
AcDbLine
 10
276.5348857595059
 20
468.5842821588802
 30
0.0
 11
276.5348857593008
 21
469.5842821588802
 31
0.0
1001
DEKIMAS
1000
実線（中）
1040
0.25
1001
DIMEXPLODE
1070
     0
  0
LINE
  5
5C87
330
18
100
AcDbEntity
  8
RH
  6
Continuous
 62
     7
 48
0.5
100
AcDbLine
 10
276.5348857593008
 20
469.5842821588802
 30
0.0
 11
289.5348933886948
 21
469.5842821615465
 31
0.0
1001
DEKIMAS
1000
実線（中）
1040
0.25
1001
DIMEXPLODE
1070
     0
  0
LINE
  5
5C88
330
18
100
AcDbEntity
  8
RH
  6
Continuous
 62
     7
 48
0.5
100
AcDbLine
 10
302.5349010182938
 20
468.5842821642125
 30
0.0
 11
302.5349010180887
 21
469.5842821642125
 31
0.0
1001
DEKIMAS
1000
実線（中）
1040
0.25
1001
DIMEXPLODE
1070
     0
  0
LINE
  5
5C89
330
18
100
AcDbEntity
  8
RH
  6
Continuous
 62
     7
 48
0.5
100
AcDbLine
 10
302.5349010180887
 20
469.5842821642125
 30
0.0
 11
289.5348933886948
 21
469.5842821615465
 31
0.0
1001
DEKIMAS
1000
実線（中）
1040
0.25
1001
DIMEXPLODE
1070
     0
  0
LEADER
  5
5E1E
330
18
100
AcDbEntity
  8
TP
  6
Continuous
 62
     4
100
AcDbLeader
  3
ASKSTANDARD
 76
     3
 10
606.4224869304207
 20
600.8395599059205
 30
0.0
 10
547.2944990503991
 20
556.0092071469799
 30
0.0
 10
426.6071821558701
 20
556.0092071964836
 30
0.0
211
-1.0
221
0.0000000004101822
231
0.0
1001
DEKIMAS
1000
実線（細）
1040
0.15
1001
DIMEXPLODE
1070
     0
1001
ACAD
1000
DSTYLE
1002
{
1070
    40
1040
2.999999910593035
1070
   173
1070
     1
1070
   341
1005
1914
1070
   176
1070
     0
1002
}
  0
MTEXT
  5
5E1F
330
18
100
AcDbEntity
  8
TP
  6
Continuous
 62
     4
100
AcDbMText
 10
539.0253496939854
 20
568.0091990911189
 30
0.0
 40
9.599999999999999
 41
0.0
 71
     3
 72
     5
  1
\T1.40;\W0.61;エア－キャップ（\U+2205２１）
  7
STD
 11
0.9999999999999962
 21
0.0000000870126109
 31
0.0
 73
     1
 44
1.0
1001
DEKIMAS
1040
0.15
1001
ACAD
1000
MTEXTBEGIN
1070
    73
1070
     1
1070
    44
1040
1.0
1070
    74
1070
     0
1000
MTEXTEND
  0
VIEWPORT
  5
2816
102
{ACAD_XDICTIONARY
360
2817
102
}
330
15
100
AcDbEntity
 67
     1
  8
0
  6
Continuous
 62
     7
100
AcDbViewport
 10
611.3358811583045
 20
288.1270577890086
 30
0.0
 40
2067.946789025153
 41
1079.231489221881
 68
     2
 69
     1
 12
611.3358811583045
 22
288.1270577890086
 13
0.0
 23
0.0
 14
10.0
 24
10.0
 15
10.0
 25
10.0
 16
0.0
 26
0.0
 36
1.0
 17
0.0
 27
0.0
 37
0.0
 42
50.0
 43
0.0
 44
0.0
 45
1079.231489221881
 50
0.0
 51
0.0
 72
   500
 90
   557088
  1

281
     0
 71
     1
 74
     0
110
0.0
120
0.0
130
0.0
111
1.0
121
0.0
131
0.0
112
0.0
122
1.0
132
0.0
 79
     0
146
0.0
  0
VIEWPORT
  5
281B
102
{ACAD_XDICTIONARY
360
281C
102
}
330
15
100
AcDbEntity
 67
     1
  8
0
  6
Continuous
 62
     7
100
AcDbViewport
 10
129.0733710122109
 20
95.94101133308459
 30
0.0
 40
299.6180843016256
 41
225.6125213260422
 68
     1
 69
     2
 12
1190.053386935784
 22
1815.368301886596
 13
0.0
 23
0.0
 14
10.0
 24
10.0
 15
0.0
 25
0.0
 16
0.0
 26
0.0
 36
1.0
 17
0.0
 27
0.0
 37
0.0
 42
50.0
 43
0.0
 44
0.0
 45
1402.146205296417
 50
0.0
 51
0.0
 72
   500
 90
   819200
  1

281
     0
 71
     1
 74
     0
110
0.0
120
0.0
130
0.0
111
1.0
121
0.0
131
0.0
112
0.0
122
1.0
132
0.0
 79
     0
146
0.0
  0
ENDSEC
  0
SECTION
  2
OBJECTS
  0
DICTIONARY
  5
C
330
0
100
AcDbDictionary
281
     1
  3
ACAD_COLOR
350
17F1
  3
ACAD_GROUP
350
D
  3
ACAD_LAYOUT
350
44E
  3
ACAD_MATERIAL
350
17F0
  3
ACAD_MLEADERSTYLE
350
18B3
  3
ACAD_MLINESTYLE
350
E
  3
ACAD_PLOTSETTINGS
350
44F
  3
ACAD_PLOTSTYLENAME
350
44C
  3
ACAD_SCALELIST
350
1891
  3
ACAD_TABLESTYLE
350
17F2
  3
ACAD_VISUALSTYLE
350
1880
  3
ACDB_RECOMPOSE_DATA
350
18CC
  3
ACDBVARIABLEDICTIONARY
350
3CF
  3
ASKSYSVAR
350
3DA
  3
DWGPROPS
350
5EE9
  3
SAKAE_DICT
350
265A
  0
DICTIONARY
  5
2822
330
2
100
AcDbDictionary
280
     1
281
     1
  3
ACAD_LAYERSTATES
360
2823
  0
DICTIONARY
  5
18E7
330
F
100
AcDbDictionary
280
     1
281
     1
  3
ADSK_XREC_LAYER_RECONCILED
360
18E8
  0
DICTIONARY
  5
4441
330
18
100
AcDbDictionary
280
     1
281
     1
  3
ACAD_SORTENTS
360
4442
  0
DICTIONARY
  5
2817
330
2816
100
AcDbDictionary
280
     1
281
     1
  3
ACAD_XREC_ROUNDTRIP
360
5EF1
  3
ASDK_XREC_ANNOTATION_SCALE_INFO
360
2818
  0
DICTIONARY
  5
281C
330
281B
100
AcDbDictionary
280
     1
281
     1
  3
ACAD_XREC_ROUNDTRIP
360
5EF2
  3
ASDK_XREC_ANNOTATION_SCALE_INFO
360
281D
  0
DICTIONARY
  5
17F1
102
{ACAD_REACTORS
330
C
102
}
330
C
100
AcDbDictionary
281
     1
  0
DICTIONARY
  5
D
102
{ACAD_REACTORS
330
C
102
}
330
0
100
AcDbDictionary
281
     1
  0
DICTIONARY
  5
44E
102
{ACAD_REACTORS
330
C
102
}
330
C
100
AcDbDictionary
281
     1
  3
Model
350
450
  3
ﾚｲｱｳﾄ1
350
451
  0
DICTIONARY
  5
17F0
102
{ACAD_REACTORS
330
C
102
}
330
C
100
AcDbDictionary
281
     1
  3
ByBlock
350
1870
  3
ByLayer
350
1868
  3
Global
350
1878
  0
DICTIONARY
  5
18B3
102
{ACAD_REACTORS
330
C
102
}
330
C
100
AcDbDictionary
281
     1
  3
Standard
350
18B4
  0
DICTIONARY
  5
E
102
{ACAD_REACTORS
330
C
102
}
330
0
100
AcDbDictionary
281
     1
  3
STANDARD
350
1B
  0
DICTIONARY
  5
44F
102
{ACAD_REACTORS
330
C
102
}
330
C
100
AcDbDictionary
281
     1
  0
ACDBDICTIONARYWDFLT
  5
44C
102
{ACAD_REACTORS
330
C
102
}
330
C
100
AcDbDictionary
281
     1
  3
Normal
350
44D
100
AcDbDictionaryWithDefault
340
44D
  0
DICTIONARY
  5
1891
102
{ACAD_REACTORS
330
C
102
}
330
C
100
AcDbDictionary
281
     1
  3
A0
350
1892
  3
A1
350
1893
  3
A2
350
1894
  3
A3
350
1895
  3
A4
350
1896
  3
A5
350
1897
  3
A6
350
1898
  3
A7
350
1899
  3
A8
350
189A
  3
A9
350
189B
  3
B0
350
189C
  3
B1
350
189D
  3
B2
350
189E
  3
B3
350
189F
  3
B4
350
18A0
  3
B5
350
18A1
  3
B6
350
18A2
  3
B7
350
18A3
  3
B8
350
18A4
  3
B9
350
18A5
  3
C0
350
18A6
  3
C1
350
18A7
  3
C2
350
18A8
  3
C3
350
18A9
  3
C4
350
18AA
  3
C5
350
18AB
  3
C6
350
18AC
  3
C7
350
18AD
  3
C8
350
18AE
  3
C9
350
18AF
  3
D0
350
18B0
  3
D1
350
18B1
  3
D2
350
18B2
  0
DICTIONARY
  5
17F2
102
{ACAD_REACTORS
330
C
102
}
330
C
100
AcDbDictionary
281
     1
  3
Standard
350
17F3
  0
DICTIONARY
  5
1880
102
{ACAD_REACTORS
330
C
102
}
330
C
100
AcDbDictionary
281
     1
  3
2dWireframe
350
1886
  3
3D Hidden
350
1888
  3
3dWireframe
350
1887
  3
Basic
350
1885
  3
Brighten
350
188C
  3
ColorChange
350
1890
  3
Conceptual
350
1889
  3
Dim
350
188B
  3
Facepattern
350
188F
  3
Flat
350
1881
  3
FlatWithEdges
350
1882
  3
Gouraud
350
1883
  3
GouraudWithEdges
350
1884
  3
Linepattern
350
188E
  3
Realistic
350
188A
  3
Thicken
350
188D
  0
XRECORD
  5
18CC
102
{ACAD_REACTORS
330
C
102
}
330
C
100
AcDbXrecord
280
     1
 90
        1
330
17F3
  0
DICTIONARY
  5
3CF
102
{ACAD_REACTORS
330
C
102
}
330
C
100
AcDbDictionary
281
     1
  3
CANNOSCALE
350
18CF
  3
CMLEADERSTYLE
350
18CD
  3
CTABLESTYLE
350
185C
  3
DIMASSOC
350
17DA
  3
INDEXCTL
350
5EE7
  3
LIGHTINGUNITS
350
18D0
  3
MSLTSCALE
350
18CE
  3
SORTENTS
350
3D0
  0
DICTIONARY
  5
3DA
102
{ACAD_REACTORS
330
C
102
}
330
C
100
AcDbDictionary
281
     1
  3
ASK_SUMMARY
350
55A
  3
ASKCURSC
350
45D
  3
ASKPAPERFRAME
350
17A8
  0
XRECORD
  5
5EE9
102
{ACAD_REACTORS
330
C
102
}
330
C
100
AcDbXrecord
280
     1
  1
DWGPROPS COOKIE
  2

  3

  4

  6
ｼﾞｮｲﾝﾄｾｲﾋﾝｽﾞ
  7

  8
Administrator
  9

300
=
301
=
302
=
303
=
304
=
305
=
306
=
307
=
308
=
309
=
 40
0.2202379050925926
 41
2452647.771902442
 42
2454970.347560035
  1

 90
        0
  0
DICTIONARY
  5
265A
102
{ACAD_REACTORS
330
C
102
}
330
C
100
AcDbDictionary
281
     1
  3
XREC1
350
265B
  0
DICTIONARY
  5
2823
102
{ACAD_REACTORS
330
2822
102
}
330
2822
100
AcDbDictionary
281
     1
  0
XRECORD
  5
18E8
102
{ACAD_REACTORS
330
18E7
102
}
330
18E7
100
AcDbXrecord
280
     1
290
     1
  0
SORTENTSTABLE
  5
4442
102
{ACAD_REACTORS
330
4441
102
}
330
4441
100
AcDbSortentsTable
330
18
331
4AAF
  5
4AB2
331
4B36
  5
4B7D
331
5192
  5
52FB
331
4F2B
  5
52C2
331
4AFF
  5
4B04
331
5370
  5
5B39
331
5B73
  5
5B76
331
2568
  5
2568
331
2570
  5
2570
331
2578
  5
2578
331
2539
  5
2539
331
2580
  5
2580
331
2541
  5
2541
331
4A7E
  5
4A7E
331
507B
  5
4B84
331
4B07
  5
4B1E
331
4B4E
  5
4B92
331
5083
  5
4BAA
331
52B9
  5
4B0E
331
5AD8
  5
5B73
331
52C1
  5
4B75
331
524A
  5
4B8B
331
4B56
  5
4B96
331
508B
  5
4BB6
331
2549
  5
2549
331
2551
  5
2551
331
2559
  5
2559
331
2561
  5
2561
331
4AB0
  5
4AB5
331
4B27
  5
4B46
331
4B2F
  5
4B67
331
4B76
  5
4BB5
331
5B74
  5
5B77
331
2569
  5
2569
331
1026
  5
1026
331
2571
  5
2571
331
2579
  5
2579
331
253A
  5
253A
331
2581
  5
2581
331
2542
  5
2542
331
4A7F
  5
4A7F
331
4B47
  5
4B8D
331
507C
  5
4B9E
331
52BA
  5
4B2D
331
5084
  5
4BAC
331
524B
  5
4B8A
331
508C
  5
4B97
331
254A
  5
254A
331
2552
  5
2552
331
255A
  5
255A
331
2562
  5
2562
331
52D2
  5
569F
331
4B5F
  5
4B9C
331
4B30
  5
4B73
331
5342
  5
5B35
331
4B38
  5
4B80
331
4B6F
  5
4BAD
331
4B77
  5
4BB7
331
5B75
  5
5B78
331
256A
  5
256A
331
2572
  5
2572
331
102F
  5
102F
331
257A
  5
257A
331
2582
  5
2582
331
2543
  5
2543
331
4A78
  5
4A78
331
4B09
  5
4B2F
331
507D
  5
4B88
331
52BB
  5
4B65
331
5234
  5
5370
331
5085
  5
4B90
331
4B19
  5
4B3C
331
508D
  5
4BB0
331
254B
  5
254B
331
4A80
  5
4A80
331
2553
  5
2553
331
4A88
  5
4A88
331
255B
  5
255B
331
4A98
  5
4A99
331
2563
  5
2563
331
4B58
  5
4B98
331
4AB2
  5
4AB6
331
4B29
  5
4B51
331
5185
  5
52FA
331
4B68
  5
4BA5
331
4AFA
  5
4B01
331
4B70
  5
4BAF
331
4F26
  5
52BC
331
5B76
  5
5B79
331
256B
  5
256B
331
2573
  5
2573
331
257B
  5
257B
331
2583
  5
2583
331
2544
  5
2544
331
4A79
  5
4A79
331
4B78
  5
4BB9
331
4B49
  5
4B8F
331
507E
  5
4BA4
331
52BC
  5
4B37
331
5086
  5
4BA8
331
508E
  5
4B9F
331
5C86
  5
5C88
331
254C
  5
254C
331
2554
  5
2554
331
4A89
  5
4A89
331
255C
  5
255C
331
2564
  5
2564
331
5255
  5
569C
331
4B61
  5
4BA0
331
52FC
  5
5B25
331
4B32
  5
4B76
331
4B69
  5
4BA7
331
527D
  5
569D
331
4B71
  5
4BB1
331
4F27
  5
52BD
331
5B37
  5
4B87
331
5E1E
  5
530B
331
5B77
  5
5C61
331
256C
  5
256C
331
2574
  5
2574
331
257C
  5
257C
331
253D
  5
253D
331
2584
  5
2584
331
2545
  5
2545
331
4A7A
  5
4A7A
331
4B03
  5
4B1B
331
4B42
  5
4B89
331
4B79
  5
4BBB
331
4B0B
  5
4B39
331
507F
  5
4BA1
331
52BD
  5
4B42
331
4B52
  5
4B94
331
5087
  5
4B8E
331
5B24
  5
4B18
331
52C5
  5
569E
331
4B1B
  5
4B41
331
508F
  5
4BA6
331
5C87
  5
5C89
331
254D
  5
254D
331
4A8A
  5
4A8B
331
2555
  5
2555
331
255D
  5
255D
331
2565
  5
2565
331
4B5A
  5
4B9A
331
4B2B
  5
4B57
331
4B62
  5
4BA2
331
4E88
  5
4B1C
331
4B6A
  5
4BA9
331
4AF4
  5
4AFB
331
4B3B
  5
4B85
331
4B72
  5
4BB3
331
4F28
  5
52BE
331
519F
  5
52FC
331
5E1F
  5
5342
331
5B78
  5
5C62
331
102A
  5
102A
331
256D
  5
256D
331
2575
  5
2575
331
257D
  5
257D
331
253E
  5
253E
331
4A7B
  5
4A7B
331
2585
  5
2585
331
2546
  5
2546
331
5078
  5
4B95
331
52B6
  5
4B4B
331
5080
  5
4BB2
331
52BE
  5
4B6C
331
5088
  5
4B99
331
5B25
  5
5B74
331
5090
  5
4BBC
331
254E
  5
254E
331
2556
  5
2556
331
255E
  5
255E
331
2566
  5
2566
331
4B63
  5
4BA3
331
4AB5
  5
4AF5
331
4B34
  5
4B7B
331
4B6B
  5
4BAB
331
4F29
  5
52BF
331
5C88
  5
5E1E
331
5B39
  5
5B75
331
5B79
  5
5C68
331
256E
  5
256E
331
2576
  5
2576
331
2537
  5
2537
331
257E
  5
257E
331
253F
  5
253F
331
4A7C
  5
4A7C
331
2586
  5
2586
331
2547
  5
2547
331
5079
  5
4BAE
331
52B7
  5
4B54
331
5081
  5
4BB4
331
52BF
  5
4B3E
331
5089
  5
4BB8
331
4B15
  5
4B3A
331
5091
  5
52D2
331
5C61
  5
5C71
331
5C71
  5
5C87
331
254F
  5
254F
331
2557
  5
2557
331
255F
  5
255F
331
2567
  5
2567
331
4AAE
  5
4AB0
331
4B35
  5
4B7C
331
4B3D
  5
4B86
331
4F2A
  5
52C1
331
5C89
  5
5E1F
331
256F
  5
256F
331
2577
  5
2577
331
2538
  5
2538
331
257F
  5
257F
331
2540
  5
2540
331
4A7D
  5
4A7D
331
507A
  5
4B93
331
4B7C
  5
52BB
331
5AAF
  5
4B0B
331
4B4D
  5
4B91
331
5082
  5
4BBA
331
52C0
  5
4B7A
331
508A
  5
4B9B
331
5C62
  5
5C86
331
2548
  5
2548
331
2550
  5
2550
331
2558
  5
2558
331
2560
  5
2560
  0
XRECORD
  5
5EF1
102
{ACAD_REACTORS
330
2817
102
}
330
2817
100
AcDbXrecord
280
     1
102
SHADEPLOT
 70
     0
  0
XRECORD
  5
2818
102
{ACAD_REACTORS
330
2817
102
}
330
2817
100
AcDbXrecord
280
     1
 90
        1
340
1892
  0
XRECORD
  5
5EF2
102
{ACAD_REACTORS
330
281C
102
}
330
281C
100
AcDbXrecord
280
     1
102
SHADEPLOT
 70
     0
  0
XRECORD
  5
281D
102
{ACAD_REACTORS
330
281C
102
}
330
281C
100
AcDbXrecord
280
     1
 90
        1
340
1892
  0
LAYOUT
  5
450
102
{ACAD_XDICTIONARY
360
5EEA
102
}
102
{ACAD_REACTORS
330
44E
102
}
330
44E
100
AcDbPlotSettings
  1

  2
DocuCom PDF Driver
  4
A3
  6

 40
3.174999952316284
 41
3.174999952316284
 42
3.17498779296875
 43
3.17498779296875
 44
296.9683227539062
 45
419.9889831542968
 46
0.0
 47
1.331786082248498
 48
0.0
 49
0.0
140
1259.999962449229
141
890.9999734462406
142
1.0
143
3.065876670925834
 70
 11952
 72
     1
 73
     1
 74
     2
  7
SUIKO.ctb
 75
     0
147
0.3261709805495925
148
0.0
149
0.0
100
AcDbLayout
  1
Model
 70
     1
 71
     0
 10
0.0
 20
0.0
 11
12.0
 21
9.0
 12
0.0
 22
0.0
 32
0.0
 14
0.0
 24
0.0
 34
0.0
 15
0.0
 25
0.0
 35
0.0
146
0.0
 13
0.0
 23
0.0
 33
0.0
 16
1.0
 26
0.0
 36
0.0
 17
0.0
 27
1.0
 37
0.0
 76
     0
330
18
331
1866
1001
ACAD_PSEXT
1000
DocuCom PDF Driver
1000
DocuCom PDF Driver
1000
DocuCom PDF Port:
1000

1070
     0
  0
LAYOUT
  5
451
102
{ACAD_XDICTIONARY
360
2827
102
}
102
{ACAD_REACTORS
330
44E
102
}
330
44E
100
AcDbPlotSettings
  1

  2
none_device
  4
ISO_A4_(210.00_x_297.00_MM)
  6

 40
7.5
 41
20.0
 42
7.5
 43
20.0
 44
210.0
 45
297.0
 46
0.0
 47
0.0
 48
0.0
 49
0.0
140
0.0
141
0.0
142
1.0
143
1.0
 70
   688
 72
     1
 73
     1
 74
     5
  7

 75
    16
147
1.0
148
0.0
149
0.0
100
AcDbLayout
  1
ﾚｲｱｳﾄ1
 70
     0
 71
     1
 10
-20.0
 20
-7.5
 11
277.0
 21
202.5
 12
0.0
 22
0.0
 32
0.0
 14
-20.7356711386019
 24
-16.86524932993649
 34
0.0
 15
278.8824131630237
 25
208.7472719961056
 35
0.0
146
0.0
 13
0.0
 23
0.0
 33
0.0
 16
1.0
 26
0.0
 36
0.0
 17
0.0
 27
1.0
 37
0.0
 76
     0
330
15
331
281B
1001
ACAD_PSEXT
1000
なし
1000
なし
1000
適切ではありません
1000
新しいプロッタ環境設定名を選択しない限り、レイアウトは印刷されません。
1070
     0
  0
MATERIAL
  5
1870
102
{ACAD_XDICTIONARY
360
1871
102
}
102
{ACAD_REACTORS
330
17F0
102
}
330
17F0
100
AcDbMaterial
  1
ByBlock
 72
     0
 43
0.0208333333333333
 43
0.0
 43
0.0
 43
0.0
 43
0.0
 43
0.0208333333333333
 43
0.0
 43
0.0
 43
0.0
 43
0.0
 43
1.0
 43
0.0
 43
0.0
 43
0.0
 43
0.0
 43
1.0
 77
     0
 47
0.0208333333333333
 47
0.0
 47
0.0
 47
0.0
 47
0.0
 47
0.0208333333333333
 47
0.0
 47
0.0
 47
0.0
 47
0.0
 47
1.0
 47
0.0
 47
0.0
 47
0.0
 47
0.0
 47
1.0
171
     0
 49
0.0208333333333333
 49
0.0
 49
0.0
 49
0.0
 49
0.0
 49
0.0208333333333333
 49
0.0
 49
0.0
 49
0.0
 49
0.0
 49
1.0
 49
0.0
 49
0.0
 49
0.0
 49
0.0
 49
1.0
175
     0
142
0.0208333333333333
142
0.0
142
0.0
142
0.0
142
0.0
142
0.0208333333333333
142
0.0
142
0.0
142
0.0
142
0.0
142
1.0
142
0.0
142
0.0
142
0.0
142
0.0
142
1.0
179
     0
144
0.0208333333333333
144
0.0
144
0.0
144
0.0
144
0.0
144
0.0208333333333333
144
0.0
144
0.0
144
0.0
144
0.0
144
1.0
144
0.0
144
0.0
144
0.0
144
0.0
144
1.0
147
0.0208333333333333
147
0.0
147
0.0
147
0.0
147
0.0
147
0.0208333333333333
147
0.0
147
0.0
147
0.0
147
0.0
147
1.0
147
0.0
147
0.0
147
0.0
147
0.0
147
1.0
  0
MATERIAL
  5
1868
102
{ACAD_XDICTIONARY
360
1869
102
}
102
{ACAD_REACTORS
330
17F0
102
}
330
17F0
100
AcDbMaterial
  1
ByLayer
 72
     0
 43
0.0208333333333333
 43
0.0
 43
0.0
 43
0.0
 43
0.0
 43
0.0208333333333333
 43
0.0
 43
0.0
 43
0.0
 43
0.0
 43
1.0
 43
0.0
 43
0.0
 43
0.0
 43
0.0
 43
1.0
 77
     0
 47
0.0208333333333333
 47
0.0
 47
0.0
 47
0.0
 47
0.0
 47
0.0208333333333333
 47
0.0
 47
0.0
 47
0.0
 47
0.0
 47
1.0
 47
0.0
 47
0.0
 47
0.0
 47
0.0
 47
1.0
171
     0
 49
0.0208333333333333
 49
0.0
 49
0.0
 49
0.0
 49
0.0
 49
0.0208333333333333
 49
0.0
 49
0.0
 49
0.0
 49
0.0
 49
1.0
 49
0.0
 49
0.0
 49
0.0
 49
0.0
 49
1.0
175
     0
142
0.0208333333333333
142
0.0
142
0.0
142
0.0
142
0.0
142
0.0208333333333333
142
0.0
142
0.0
142
0.0
142
0.0
142
1.0
142
0.0
142
0.0
142
0.0
142
0.0
142
1.0
179
     0
144
0.0208333333333333
144
0.0
144
0.0
144
0.0
144
0.0
144
0.0208333333333333
144
0.0
144
0.0
144
0.0
144
0.0
144
1.0
144
0.0
144
0.0
144
0.0
144
0.0
144
1.0
147
0.0208333333333333
147
0.0
147
0.0
147
0.0
147
0.0
147
0.0208333333333333
147
0.0
147
0.0
147
0.0
147
0.0
147
1.0
147
0.0
147
0.0
147
0.0
147
0.0
147
1.0
  0
MATERIAL
  5
1878
102
{ACAD_XDICTIONARY
360
1879
102
}
102
{ACAD_REACTORS
330
17F0
102
}
330
17F0
100
AcDbMaterial
  1
Global
 72
     0
 43
0.0208333333333333
 43
0.0
 43
0.0
 43
0.0
 43
0.0
 43
0.0208333333333333
 43
0.0
 43
0.0
 43
0.0
 43
0.0
 43
1.0
 43
0.0
 43
0.0
 43
0.0
 43
0.0
 43
1.0
 77
     0
 47
0.0208333333333333
 47
0.0
 47
0.0
 47
0.0
 47
0.0
 47
0.0208333333333333
 47
0.0
 47
0.0
 47
0.0
 47
0.0
 47
1.0
 47
0.0
 47
0.0
 47
0.0
 47
0.0
 47
1.0
171
     0
 49
0.0208333333333333
 49
0.0
 49
0.0
 49
0.0
 49
0.0
 49
0.0208333333333333
 49
0.0
 49
0.0
 49
0.0
 49
0.0
 49
1.0
 49
0.0
 49
0.0
 49
0.0
 49
0.0
 49
1.0
175
     0
142
0.0208333333333333
142
0.0
142
0.0
142
0.0
142
0.0
142
0.0208333333333333
142
0.0
142
0.0
142
0.0
142
0.0
142
1.0
142
0.0
142
0.0
142
0.0
142
0.0
142
1.0
179
     0
144
0.0208333333333333
144
0.0
144
0.0
144
0.0
144
0.0
144
0.0208333333333333
144
0.0
144
0.0
144
0.0
144
0.0
144
1.0
144
0.0
144
0.0
144
0.0
144
0.0
144
1.0
147
0.0208333333333333
147
0.0
147
0.0
147
0.0
147
0.0
147
0.0208333333333333
147
0.0
147
0.0
147
0.0
147
0.0
147
1.0
147
0.0
147
0.0
147
0.0
147
0.0
147
1.0
  0
MLEADERSTYLE
  5
18B4
102
{ACAD_REACTORS
330
18B3
102
}
330
18B3
100
AcDbMLeaderStyle
170
     2
171
     1
172
     0
 90
        2
 40
0.0
 41
0.0
173
     1
 91
-1056964608
340
12
 92
       -2
290
     1
 42
2.0
291
     1
 43
0.36
  3
Standard
 44
4.0
300

342
10
174
     1
178
     6
175
     1
176
     0
 93
-1056964608
 45
4.0
292
     0
297
     0
 46
4.0
 94
-1056964608
 47
1.0
 49
1.0
140
1.0
293
     1
141
0.0
294
     1
177
     0
142
1.0
295
     0
296
     0
143
0.125
1001
ACAD_MLEADERVER
1070
     2
  0
MLINESTYLE
  5
1B
102
{ACAD_REACTORS
330
E
102
}
330
0
100
AcDbMlineStyle
  2
STANDARD
 70
     0
  3

 62
     0
 51
90.0
 52
90.0
 71
     2
 49
0.5
 62
   256
  6
BYLAYER
 49
-0.5
 62
   256
  6
BYLAYER
  0
ACDBPLACEHOLDER
  5
44D
102
{ACAD_REACTORS
330
44C
102
}
330
44C
  0
SCALE
  5
1892
102
{ACAD_REACTORS
330
1891
102
}
330
1891
100
AcDbScale
 70
     0
300
1:1
140
1.0
141
1.0
290
     1
  0
SCALE
  5
1893
102
{ACAD_REACTORS
330
1891
102
}
330
1891
100
AcDbScale
 70
     0
300
1:2
140
1.0
141
2.0
290
     0
  0
SCALE
  5
1894
102
{ACAD_REACTORS
330
1891
102
}
330
1891
100
AcDbScale
 70
     0
300
1:4
140
1.0
141
4.0
290
     0
  0
SCALE
  5
1895
102
{ACAD_REACTORS
330
1891
102
}
330
1891
100
AcDbScale
 70
     0
300
1:5
140
1.0
141
5.0
290
     0
  0
SCALE
  5
1896
102
{ACAD_REACTORS
330
1891
102
}
330
1891
100
AcDbScale
 70
     0
300
1:8
140
1.0
141
8.0
290
     0
  0
SCALE
  5
1897
102
{ACAD_REACTORS
330
1891
102
}
330
1891
100
AcDbScale
 70
     0
300
1:10
140
1.0
141
10.0
290
     0
  0
SCALE
  5
1898
102
{ACAD_REACTORS
330
1891
102
}
330
1891
100
AcDbScale
 70
     0
300
1:16
140
1.0
141
16.0
290
     0
  0
SCALE
  5
1899
102
{ACAD_REACTORS
330
1891
102
}
330
1891
100
AcDbScale
 70
     0
300
1:20
140
1.0
141
20.0
290
     0
  0
SCALE
  5
189A
102
{ACAD_REACTORS
330
1891
102
}
330
1891
100
AcDbScale
 70
     0
300
1:30
140
1.0
141
30.0
290
     0
  0
SCALE
  5
189B
102
{ACAD_REACTORS
330
1891
102
}
330
1891
100
AcDbScale
 70
     0
300
1:40
140
1.0
141
40.0
290
     0
  0
SCALE
  5
189C
102
{ACAD_REACTORS
330
1891
102
}
330
1891
100
AcDbScale
 70
     0
300
1:50
140
1.0
141
50.0
290
     0
  0
SCALE
  5
189D
102
{ACAD_REACTORS
330
1891
102
}
330
1891
100
AcDbScale
 70
     0
300
1:100
140
1.0
141
100.0
290
     0
  0
SCALE
  5
189E
102
{ACAD_REACTORS
330
1891
102
}
330
1891
100
AcDbScale
 70
     0
300
2:1
140
2.0
141
1.0
290
     0
  0
SCALE
  5
189F
102
{ACAD_REACTORS
330
1891
102
}
330
1891
100
AcDbScale
 70
     0
300
4:1
140
4.0
141
1.0
290
     0
  0
SCALE
  5
18A0
102
{ACAD_REACTORS
330
1891
102
}
330
1891
100
AcDbScale
 70
     0
300
8:1
140
8.0
141
1.0
290
     0
  0
SCALE
  5
18A1
102
{ACAD_REACTORS
330
1891
102
}
330
1891
100
AcDbScale
 70
     0
300
10:1
140
10.0
141
1.0
290
     0
  0
SCALE
  5
18A2
102
{ACAD_REACTORS
330
1891
102
}
330
1891
100
AcDbScale
 70
     0
300
100:1
140
100.0
141
1.0
290
     0
  0
SCALE
  5
18A3
102
{ACAD_REACTORS
330
1891
102
}
330
1891
100
AcDbScale
 70
     0
300
1/128" = 1'-0"
140
0.0078125
141
12.0
290
     0
  0
SCALE
  5
18A4
102
{ACAD_REACTORS
330
1891
102
}
330
1891
100
AcDbScale
 70
     0
300
1/64" = 1'-0"
140
0.015625
141
12.0
290
     0
  0
SCALE
  5
18A5
102
{ACAD_REACTORS
330
1891
102
}
330
1891
100
AcDbScale
 70
     0
300
1/32" = 1'-0"
140
0.03125
141
12.0
290
     0
  0
SCALE
  5
18A6
102
{ACAD_REACTORS
330
1891
102
}
330
1891
100
AcDbScale
 70
     0
300
1/16" = 1'-0"
140
0.0625
141
12.0
290
     0
  0
SCALE
  5
18A7
102
{ACAD_REACTORS
330
1891
102
}
330
1891
100
AcDbScale
 70
     0
300
3/32" = 1'-0"
140
0.09375
141
12.0
290
     0
  0
SCALE
  5
18A8
102
{ACAD_REACTORS
330
1891
102
}
330
1891
100
AcDbScale
 70
     0
300
1/8" = 1'-0"
140
0.125
141
12.0
290
     0
  0
SCALE
  5
18A9
102
{ACAD_REACTORS
330
1891
102
}
330
1891
100
AcDbScale
 70
     0
300
3/16" = 1'-0"
140
0.1875
141
12.0
290
     0
  0
SCALE
  5
18AA
102
{ACAD_REACTORS
330
1891
102
}
330
1891
100
AcDbScale
 70
     0
300
1/4" = 1'-0"
140
0.25
141
12.0
290
     0
  0
SCALE
  5
18AB
102
{ACAD_REACTORS
330
1891
102
}
330
1891
100
AcDbScale
 70
     0
300
3/8" = 1'-0"
140
0.375
141
12.0
290
     0
  0
SCALE
  5
18AC
102
{ACAD_REACTORS
330
1891
102
}
330
1891
100
AcDbScale
 70
     0
300
1/2" = 1'-0"
140
0.5
141
12.0
290
     0
  0
SCALE
  5
18AD
102
{ACAD_REACTORS
330
1891
102
}
330
1891
100
AcDbScale
 70
     0
300
3/4" = 1'-0"
140
0.75
141
12.0
290
     0
  0
SCALE
  5
18AE
102
{ACAD_REACTORS
330
1891
102
}
330
1891
100
AcDbScale
 70
     0
300
1" = 1'-0"
140
1.0
141
12.0
290
     0
  0
SCALE
  5
18AF
102
{ACAD_REACTORS
330
1891
102
}
330
1891
100
AcDbScale
 70
     0
300
1-1/2" = 1'-0"
140
1.5
141
12.0
290
     0
  0
SCALE
  5
18B0
102
{ACAD_REACTORS
330
1891
102
}
330
1891
100
AcDbScale
 70
     0
300
3" = 1'-0"
140
3.0
141
12.0
290
     0
  0
SCALE
  5
18B1
102
{ACAD_REACTORS
330
1891
102
}
330
1891
100
AcDbScale
 70
     0
300
6" = 1'-0"
140
6.0
141
12.0
290
     0
  0
SCALE
  5
18B2
102
{ACAD_REACTORS
330
1891
102
}
330
1891
100
AcDbScale
 70
     0
300
1'-0" = 1'-0"
140
12.0
141
12.0
290
     0
  0
TABLESTYLE
  5
17F3
102
{ACAD_XDICTIONARY
360
18CA
102
}
102
{ACAD_REACTORS
330
17F2
102
}
330
17F2
100
AcDbTableStyle
  3
Standard
 70
     0
 71
     0
 40
1.5
 41
1.5
280
     0
281
     0
  7
STANDARD
140
4.5
170
     2
 62
     0
 63
     7
283
     0
274
    -2
284
     1
 64
     0
275
    -2
285
     1
 65
     0
276
    -2
286
     1
 66
     0
277
    -2
287
     1
 67
     0
278
    -2
288
     1
 68
     0
279
    -2
289
     1
 69
     0
  7
STANDARD
140
6.0
170
     5
 62
     0
 63
     7
283
     0
274
    -2
284
     1
 64
     0
275
    -2
285
     1
 65
     0
276
    -2
286
     1
 66
     0
277
    -2
287
     1
 67
     0
278
    -2
288
     1
 68
     0
279
    -2
289
     1
 69
     0
  7
STANDARD
140
4.5
170
     5
 62
     0
 63
     7
283
     0
274
    -2
284
     1
 64
     0
275
    -2
285
     1
 65
     0
276
    -2
286
     1
 66
     0
277
    -2
287
     1
 67
     0
278
    -2
288
     1
 68
     0
279
    -2
289
     1
 69
     0
  0
VISUALSTYLE
  5
1886
102
{ACAD_REACTORS
330
1880
102
}
330
1880
100
AcDbVisualStyle
  2
2dWireframe
 70
     4
 71
     0
 72
     2
 73
     0
 90
        0
 40
-0.6
 41
-30.0
 62
     5
 63
     7
 74
     1
 91
        4
 64
     7
 65
   257
 75
     1
175
     1
 42
1.0
 92
        0
 66
   257
 43
1.0
 76
     1
 77
     6
 78
     2
 67
     7
 79
     5
170
     0
171
     0
290
     0
174
     0
 93
        1
 44
0.0
173
     0
291
     0
 45
0.0
1001
ACAD
1000
AcDbSavedByObjectVersion
1070
     0
  0
VISUALSTYLE
  5
1888
102
{ACAD_REACTORS
330
1880
102
}
330
1880
100
AcDbVisualStyle
  2
3D Hidden
 70
     6
 71
     1
 72
     2
 73
     2
 90
        0
 40
-0.6
 41
-30.0
 62
     5
 63
     7
 74
     2
 91
        2
 64
     7
 65
   257
 75
     2
175
     1
 42
40.0
 92
        0
 66
   257
 43
1.0
 76
     1
 77
     6
 78
     2
 67
     7
 79
     3
170
     0
171
     0
290
     0
174
     0
 93
        1
 44
0.0
173
     0
291
     0
 45
0.0
1001
ACAD
1000
AcDbSavedByObjectVersion
1070
     0
  0
VISUALSTYLE
  5
1887
102
{ACAD_REACTORS
330
1880
102
}
330
1880
100
AcDbVisualStyle
  2
3dWireframe
 70
     5
 71
     0
 72
     2
 73
     0
 90
        0
 40
-0.6
 41
-30.0
 62
     5
 63
     7
 74
     1
 91
        4
 64
     7
 65
   257
 75
     1
175
     1
 42
1.0
 92
        0
 66
   257
 43
1.0
 76
     1
 77
     6
 78
     2
 67
     7
 79
     5
170
     0
171
     0
290
     0
174
     0
 93
        1
 44
0.0
173
     0
291
     0
 45
0.0
1001
ACAD
1000
AcDbSavedByObjectVersion
1070
     0
  0
VISUALSTYLE
  5
1885
102
{ACAD_REACTORS
330
1880
102
}
330
1880
100
AcDbVisualStyle
  2
Basic
 70
     7
 71
     1
 72
     0
 73
     1
 90
        0
 40
-0.6
 41
-30.0
 62
     5
 63
     7
 74
     0
 91
        4
 64
     7
 65
   257
 75
     1
175
     1
 42
1.0
 92
        8
 66
     7
 43
1.0
 76
     1
 77
     6
 78
     2
 67
     7
 79
     5
170
     0
171
     0
290
     0
174
     0
 93
        1
 44
0.0
173
     0
291
     1
 45
0.0
1001
ACAD
1000
AcDbSavedByObjectVersion
1070
     0
  0
VISUALSTYLE
  5
188C
102
{ACAD_REACTORS
330
1880
102
}
330
1880
100
AcDbVisualStyle
  2
Brighten
 70
    12
 71
     2
 72
     2
 73
     0
 90
        0
 40
-0.6
 41
-30.0
 62
     5
 63
     7
 74
     1
 91
        4
 64
     7
 65
   257
 75
     1
175
     1
 42
1.0
 92
        8
 66
     7
 43
1.0
 76
     1
 77
     6
 78
     2
 67
     7
 79
     5
170
     0
171
     0
290
     0
174
     0
 93
        1
 44
50.0
173
     0
291
     1
 45
0.0
1001
ACAD
1000
AcDbSavedByObjectVersion
1070
     0
  0
VISUALSTYLE
  5
1890
102
{ACAD_REACTORS
330
1880
102
}
330
1880
100
AcDbVisualStyle
  2
ColorChange
 70
    16
 71
     2
 72
     2
 73
     3
 90
        0
 40
-0.6
 41
-30.0
 62
     5
 63
     8
 74
     1
 91
        4
 64
     7
 65
   257
 75
     1
175
     1
 42
1.0
 92
        8
 66
     8
 43
1.0
 76
     1
 77
     6
 78
     2
 67
     7
 79
     5
170
     0
171
     0
290
     0
174
     0
 93
        1
 44
0.0
173
     0
291
     1
 45
0.0
1001
ACAD
1000
AcDbSavedByObjectVersion
1070
     0
  0
VISUALSTYLE
  5
1889
102
{ACAD_REACTORS
330
1880
102
}
330
1880
100
AcDbVisualStyle
  2
Conceptual
 70
     9
 71
     3
 72
     2
 73
     0
 90
        0
 40
-0.6
 41
-30.0
 62
     5
 63
     7
 74
     2
 91
        2
 64
     7
 65
   257
 75
     1
175
     1
 42
40.0
 92
        8
 66
     7
 43
1.0
 76
     1
 77
     6
 78
     2
 67
     7
 79
     3
170
     0
171
     0
290
     0
174
     0
 93
        1
 44
0.0
173
     0
291
     0
 45
0.0
1001
ACAD
1000
AcDbSavedByObjectVersion
1070
     0
  0
VISUALSTYLE
  5
188B
102
{ACAD_REACTORS
330
1880
102
}
330
1880
100
AcDbVisualStyle
  2
Dim
 70
    11
 71
     2
 72
     2
 73
     0
 90
        0
 40
-0.6
 41
-30.0
 62
     5
 63
     7
 74
     1
 91
        4
 64
     7
 65
   257
 75
     1
175
     1
 42
1.0
 92
        8
 66
     7
 43
1.0
 76
     1
 77
     6
 78
     2
 67
     7
 79
     5
170
     0
171
     0
290
     0
174
     0
 93
        1
 44
-50.0
173
     0
291
     1
 45
0.0
1001
ACAD
1000
AcDbSavedByObjectVersion
1070
     0
  0
VISUALSTYLE
  5
188F
102
{ACAD_REACTORS
330
1880
102
}
330
1880
100
AcDbVisualStyle
  2
Facepattern
 70
    15
 71
     2
 72
     2
 73
     0
 90
        0
 40
-0.6
 41
-30.0
 62
     5
 63
     7
 74
     1
 91
        4
 64
     7
 65
   257
 75
     1
175
     1
 42
1.0
 92
        8
 66
     7
 43
1.0
 76
     1
 77
     6
 78
     2
 67
     7
 79
     5
170
     0
171
     0
290
     0
174
     0
 93
        1
 44
0.0
173
     0
291
     1
 45
0.0
1001
ACAD
1000
AcDbSavedByObjectVersion
1070
     0
  0
VISUALSTYLE
  5
1881
102
{ACAD_REACTORS
330
1880
102
}
330
1880
100
AcDbVisualStyle
  2
Flat
 70
     0
 71
     2
 72
     1
 73
     1
 90
        2
 40
-0.6
 41
30.0
 62
     5
 63
     7
 74
     0
 91
        4
 64
     7
 65
   257
 75
     1
175
     1
 42
1.0
 92
        8
 66
     7
 43
1.0
 76
     1
 77
     6
 78
     2
 67
     7
 79
     5
170
     0
171
     0
290
     0
174
     0
 93
       13
 44
0.0
173
     0
291
     1
 45
0.0
1001
ACAD
1000
AcDbSavedByObjectVersion
1070
     0
  0
VISUALSTYLE
  5
1882
102
{ACAD_REACTORS
330
1880
102
}
330
1880
100
AcDbVisualStyle
  2
FlatWithEdges
 70
     1
 71
     2
 72
     1
 73
     1
 90
        2
 40
-0.6
 41
30.0
 62
     5
 63
     7
 74
     1
 91
        4
 64
     7
 65
   257
 75
     1
175
     1
 42
1.0
 92
        0
 66
   257
 43
1.0
 76
     1
 77
     6
 78
     2
 67
     7
 79
     5
170
     0
171
     0
290
     0
174
     0
 93
       13
 44
0.0
173
     0
291
     1
 45
0.0
1001
ACAD
1000
AcDbSavedByObjectVersion
1070
     0
  0
VISUALSTYLE
  5
1883
102
{ACAD_REACTORS
330
1880
102
}
330
1880
100
AcDbVisualStyle
  2
Gouraud
 70
     2
 71
     2
 72
     2
 73
     1
 90
        2
 40
-0.6
 41
30.0
 62
     5
 63
     7
 74
     0
 91
        4
 64
     7
 65
   257
 75
     1
175
     1
 42
1.0
 92
        0
 66
     7
 43
1.0
 76
     1
 77
     6
 78
     2
 67
     7
 79
     5
170
     0
171
     0
290
     0
174
     0
 93
       13
 44
0.0
173
     0
291
     1
 45
0.0
1001
ACAD
1000
AcDbSavedByObjectVersion
1070
     0
  0
VISUALSTYLE
  5
1884
102
{ACAD_REACTORS
330
1880
102
}
330
1880
100
AcDbVisualStyle
  2
GouraudWithEdges
 70
     3
 71
     2
 72
     2
 73
     1
 90
        2
 40
-0.6
 41
30.0
 62
     5
 63
     7
 74
     1
 91
        4
 64
     7
 65
   257
 75
     1
175
     1
 42
1.0
 92
        0
 66
   257
 43
1.0
 76
     1
 77
     6
 78
     2
 67
     7
 79
     5
170
     0
171
     0
290
     0
174
     0
 93
       13
 44
0.0
173
     0
291
     1
 45
0.0
1001
ACAD
1000
AcDbSavedByObjectVersion
1070
     0
  0
VISUALSTYLE
  5
188E
102
{ACAD_REACTORS
330
1880
102
}
330
1880
100
AcDbVisualStyle
  2
Linepattern
 70
    14
 71
     2
 72
     2
 73
     0
 90
        0
 40
-0.6
 41
-30.0
 62
     5
 63
     7
 74
     1
 91
        4
 64
     7
 65
   257
 75
     7
175
     7
 42
1.0
 92
        8
 66
     7
 43
1.0
 76
     1
 77
     6
 78
     2
 67
     7
 79
     5
170
     0
171
     0
290
     0
174
     0
 93
        1
 44
0.0
173
     0
291
     1
 45
0.0
1001
ACAD
1000
AcDbSavedByObjectVersion
1070
     0
  0
VISUALSTYLE
  5
188A
102
{ACAD_REACTORS
330
1880
102
}
330
1880
100
AcDbVisualStyle
  2
Realistic
 70
     8
 71
     2
 72
     2
 73
     0
 90
        0
 40
-0.6
 41
-30.0
 62
     5
 63
     7
 74
     1
 91
        0
 64
     7
 65
   257
 75
     1
175
     1
 42
1.0
 92
        8
 66
     8
 43
1.0
 76
     1
 77
     6
 78
     2
 67
     7
 79
     5
170
     0
171
     0
290
     0
174
     0
 93
       13
 44
0.0
173
     0
291
     0
 45
0.0
1001
ACAD
1000
AcDbSavedByObjectVersion
1070
     0
  0
VISUALSTYLE
  5
188D
102
{ACAD_REACTORS
330
1880
102
}
330
1880
100
AcDbVisualStyle
  2
Thicken
 70
    13
 71
     2
 72
     2
 73
     0
 90
        0
 40
-0.6
 41
-30.0
 62
     5
 63
     7
 74
     1
 91
        4
 64
     7
 65
   257
 75
     1
175
     1
 42
1.0
 92
       12
 66
     7
 43
1.0
 76
     1
 77
     6
 78
     2
 67
     7
 79
     5
170
     0
171
     0
290
     0
174
     0
 93
        1
 44
0.0
173
     0
291
     1
 45
0.0
1001
ACAD
1000
AcDbSavedByObjectVersion
1070
     0
  0
DICTIONARYVAR
  5
18CF
102
{ACAD_REACTORS
330
3CF
102
}
330
3CF
100
DictionaryVariables
280
     0
  1
1:1
  0
DICTIONARYVAR
  5
18CD
102
{ACAD_REACTORS
330
3CF
102
}
330
3CF
100
DictionaryVariables
280
     0
  1
STANDARD
  0
DICTIONARYVAR
  5
185C
102
{ACAD_REACTORS
330
3CF
102
}
330
3CF
100
DictionaryVariables
280
     0
  1
STANDARD
  0
DICTIONARYVAR
  5
17DA
102
{ACAD_REACTORS
330
3CF
102
}
330
3CF
100
DictionaryVariables
280
     0
  1
1
  0
DICTIONARYVAR
  5
5EE7
102
{ACAD_REACTORS
330
3CF
102
}
330
3CF
100
DictionaryVariables
280
     0
  1
0
  0
DICTIONARYVAR
  5
18D0
102
{ACAD_REACTORS
330
3CF
102
}
330
3CF
100
DictionaryVariables
280
     0
  1
0
  0
DICTIONARYVAR
  5
18CE
102
{ACAD_REACTORS
330
3CF
102
}
330
3CF
100
DictionaryVariables
280
     0
  1
0
  0
DICTIONARYVAR
  5
3D0
102
{ACAD_REACTORS
330
3CF
102
}
330
3CF
100
DictionaryVariables
280
     0
  1
99
  0
XRECORD
  5
55A
102
{ACAD_REACTORS
330
3DA
102
}
330
3DA
100
AcDbXrecord
280
     1
300
十\U+324B\U+3030\U+4230\U+4B49問\U+3E3E†††††††A3 †††††††††††††<<ｼﾞｮｲﾝ†††††††††††††††††††††††††††††††††††††††††††††††††††††††††††††††††††††††††††††††††††††††††††††††††††††††††††††††††††††††††††††††††††††††††††††††††††††††††††††††††††††††††††††††††††††††††††††††††††††††††††††††††††††††††††††††††††††††††††††††††††††††††††
  0
XRECORD
  5
45D
102
{ACAD_REACTORS
330
3DA
102
}
330
3DA
100
AcDbXrecord
280
     1
  1
DwgScale
  0
XRECORD
  5
17A8
102
{ACAD_REACTORS
330
3DA
102
}
330
3DA
100
AcDbXrecord
280
     1
  1
NONE
  0
XRECORD
  5
265B
102
{ACAD_REACTORS
330
265A
102
}
330
265A
100
AcDbXrecord
280
     1
  1

 40
0.3333333432674408
 50
-4737.786399290617
 51
-2456.540154169392
 52
19441.03255523001
 53
14674.89792024193
  0
DICTIONARY
  5
5EEA
330
450
100
AcDbDictionary
280
     1
281
     1
  3
ACAD_XREC_ROUNDTRIP
360
5EEB
  0
DICTIONARY
  5
2827
330
451
100
AcDbDictionary
280
     1
281
     1
  3
ACAD_XREC_ROUNDTRIP
360
5EEC
  3
ADSK_XREC_LAYOUTTHUMBNAIL
360
2828
  0
DICTIONARY
  5
1871
330
1870
100
AcDbDictionary
280
     1
281
     1
  3
ACAD_XREC_ROUNDTRIP
360
5EEF
  3
BUMPTILE
360
1873
  3
DIFFUSETILE
360
1872
  3
OPACITYTILE
360
1876
  3
REFLECTIONTILE
360
1875
  3
REFRACTIONTILE
360
1877
  3
SPECULARTILE
360
1874
  0
DICTIONARY
  5
1869
330
1868
100
AcDbDictionary
280
     1
281
     1
  3
ACAD_XREC_ROUNDTRIP
360
5EEE
  3
BUMPTILE
360
186B
  3
DIFFUSETILE
360
186A
  3
OPACITYTILE
360
186E
  3
REFLECTIONTILE
360
186D
  3
REFRACTIONTILE
360
186F
  3
SPECULARTILE
360
186C
  0
DICTIONARY
  5
1879
330
1878
100
AcDbDictionary
280
     1
281
     1
  3
ACAD_XREC_ROUNDTRIP
360
5EF0
  3
BUMPTILE
360
187B
  3
DIFFUSETILE
360
187A
  3
OPACITYTILE
360
187E
  3
REFLECTIONTILE
360
187D
  3
REFRACTIONTILE
360
187F
  3
SPECULARTILE
360
187C
  0
DICTIONARY
  5
18CA
330
17F3
100
AcDbDictionary
280
     1
281
     1
  3
ACAD_ROUNDTRIP_2008_TABLESTYLE_CELLSTYLEMAP
360
5EE8
  3
ACAD_XREC_ROUNDTRIP
360
5EED
  0
XRECORD
  5
5EEB
102
{ACAD_REACTORS
330
5EEA
102
}
330
5EEA
100
AcDbXrecord
280
     1
102
SHADEPLOT
 70
     0
102
SHADEPLOTRESLEVEL
 70
     2
102
SHADEPLOTCUSTOMDPI
 70
   300
  0
XRECORD
  5
5EEC
102
{ACAD_REACTORS
330
2827
102
}
330
2827
100
AcDbXrecord
280
     1
102
SHADEPLOT
 70
     0
102
SHADEPLOTRESLEVEL
 70
     2
102
SHADEPLOTCUSTOMDPI
 70
   300
  0
XRECORD
  5
2828
102
{ACAD_REACTORS
330
2827
102
}
330
2827
100
AcDbXrecord
280
     1
310
28000000B40000007F00000001000800000000004C590000000000000000000000010000000000000000000000000000FFFFFF000000000000000000000000000000000000000000000000000000000000000000330000006600000099000000CC000000FF00000000330000333300006633000099330000CC330000FF3300
310
0000660000336600006666000099660000CC660000FF66000000990000339900006699000099990000CC990000FF99000000CC000033CC000066CC000099CC0000CCCC0000FFCC000000FF000033FF000066FF000099FF0000CCFF0000FFFF000000003300330033006600330099003300CC003300FF003300003333003333
310
33006633330099333300CC333300FF33330000663300336633006666330099663300CC663300FF66330000993300339933006699330099993300CC993300FF99330000CC330033CC330066CC330099CC3300CCCC3300FFCC330000FF330033FF330066FF330099FF3300CCFF3300FFFF330000006600330066006600660099
310
006600CC006600FF00660000336600333366006633660099336600CC336600FF33660000666600336666006666660099666600CC666600FF66660000996600339966006699660099996600CC996600FF99660000CC660033CC660066CC660099CC6600CCCC6600FFCC660000FF660033FF660066FF660099FF6600CCFF6600
310
FFFF660000009900330099006600990099009900CC009900FF00990000339900333399006633990099339900CC339900FF33990000669900336699006666990099669900CC669900FF66990000999900339999006699990099999900CC999900FF99990000CC990033CC990066CC990099CC9900CCCC9900FFCC990000FF99
310
0033FF990066FF990099FF9900CCFF9900FFFF99000000CC003300CC006600CC009900CC00CC00CC00FF00CC000033CC003333CC006633CC009933CC00CC33CC00FF33CC000066CC003366CC006666CC009966CC00CC66CC00FF66CC000099CC003399CC006699CC009999CC00CC99CC00FF99CC0000CCCC0033CCCC0066CC
310
CC0099CCCC00CCCCCC00FFCCCC0000FFCC0033FFCC0066FFCC0099FFCC00CCFFCC00FFFFCC000000FF003300FF006600FF009900FF00CC00FF00FF00FF000033FF003333FF006633FF009933FF00CC33FF00FF33FF000066FF003366FF006666FF009966FF00CC66FF00FF66FF000099FF003399FF006699FF009999FF00CC
310
99FF00FF99FF0000CCFF0033CCFF0066CCFF0099CCFF00CCCCFF00FFCCFF0000FFFF0033FFFF0066FFFF0099FFFF00CCFFFF00FFFFFF00000000000D0D0D001A1A1A00282828003535350043434300505050005D5D5D006B6B6B00787878008686860093939300A1A1A100AEAEAE00BBBBBB00C9C9C900D6D6D600E4E4E400
310
F1F1F100FFFFFF0000000000000000000000000000000000000000000000000000000000000000000000000000000000F5F5F5F5F5F5F5F5F5F5F5F5F5F5F5F5F5F5F5F5F5F5F5F5F5F5F5F5F5F5F5F5F5F5F5F5F5F5F5F5F5F5F5F5F5F5F5F5F5F5F5F5F5F5F5F5F5F5F5F5F5F5F5F5F5F5F5F5F5F5F5F5F5F5F5F5F5F5F5
310
F5F5F5F5F5F5F5F5F5F5F5F5F5F5F5F5F5F5F5F5F5F5F5F5F5F5F5F5F5F5F5F5F5F5F5F5F5F5F5F5F5F5F5F5F5F5F5F5F5F5F5F5F5F5F5F5F5F5F5F5F5F5F5F5F5F5F5F5F5F5F5F5F5F5F5F5F5F5F5F5F5F5F5F5F5F5F5F5F5F5F5F5F5F5F5F5F5F5F5F5F5F5E2E2E2E2E2E2E2E2E2E2E2E2E2E2E2E2E2E2E2E2E2E2E2E2E2
310
E2E2E2E2E2E2E2E2E2E2E2E2E2E2E2E2E2E2E2E2E2E2E2E2E2E2E2E2E2E2E2E2E2E2E2E2E2E2E2E2E2E2E2E2E2E2E2E2E2E2E2E2E2E2E2E2E2E2E2E2E2E2E2E2E2E2E2E2E2E2E2E2E2E2E2E2E2E2E2E2E2E2E2E2E2E2E2E2E2E2E2E2E2E2E2E2E2E2E2E2E2E2E2E2E2E2E2E2E2E2E2E2E2E2E2E2E2E2E2E2E2E2E2E2E2E2E2
310
E2E2E2E2E2E2E2E2E2E2E2E2E2E2E2E2E2E2E2E2E2E2E2E2F5F5F5F5E2E2E2E2E2E2E2E2E2E2E2E2E2E2E2E2E2E2E2E2E2E2E2E2E2E2E2E2E2E2E2E2E2E2E2E2E2E2E2E2E2E2E2E2E2E2E2E2E2E2E2E2E2E2E2E2E2E2E2E2E2E2E2E2E2E2E2E2E2E2E2E2E2E2E2E2E2E2E2E2E2E2E2E2E2E2E2E2E2E2E2E2E2E2E2E2E2E2E2
310
E2E2E2E2E2E2E2E2E2E2E2E2E2E2E2E2E2E2E2E2E2E2E2E2E2E2E2E2E2E2E2E2E2E2E2E2E2E2E2E2E2E2E2E2E2E2E2E2E2E2E2E2E2E2E2E2E2E2E2E2E2E2E2E2E2E2E2E2E2E2E2E2E2E2E2E2E2F5F5F5F5E2E2E2E2E2E2E2E2E2E2E2E2E2E2E2E2E2E2E2E2E2E2E2E2E2E2E2E2E2E2E2E2E2E2E2E2E2E2E2E2E2E2E2E2E2E2
310
E2E2E2E2E2E2E2E2E2E2E2E2E2E2E2E2E2E2E2E2E2E2E2E2E2E2E2E2E2E2E2E2E2E2E2E2E2E2E2E2E2E2E2E2E2E2E2E2E2E2E2E2E2E2E2E2E2E2E2E2E2E2E2E2E2E2E2E2E2E2E2E2E2E2E2E2E2E2E2E2E2E2E2E2E2E2E2E2E2E2E2E2E2E2E2E2E2E2E2E2E2E2E2E2E2E2E2E2E2E2E2E2E2E2E2E2E2E2E2E2E2E2E2E2E2E2E2
310
E2E2E2F5F5F5F5E2E2E2E2E2E2E2E2E2E2E2E2E2E2E2E2E2E2E2E2E2E2E2E2E2E2E2E2E2E2E2E2E2E2E2E2E2E2E2E2E2E2E2E2E2E2E2E2E2E2E2E2E2E2E2E2E2E2E2E2E2E2E2E2E2E2E2E2E2E2E2E2E2E2E2E2E2E2E2E2E2E2E2E2E2E2E2E2E2E2E2E2E2E2E2E2E2E2E2E2E2E2E2E2E2E2E2E2E2E2E2E2E2E2E2E2E2E2E2E2
310
E2E2E2E2E2E2E2E2E2E2E2E2E2E2E2E2E2E2E2E2E2E2E2E2E2E2E2E2E2E2E2E2E2E2E2E2E2E2E2E2E2E2E2E2E2E2E2E2E2E2E2E2E2E2E2E2F5F5F5F5E2E2E2E2E2E2E2E2E2E2E2F5F5F5F5F5F5F5F5F5E2E2E2E2E2E2E2E2E2F5F5F5F5F5F5F5F5F5F5F5F5F5F5F5F5E2E2E2E2E2E2E2E2E2F5F5F5F5F5F5F5F5F5F5F5F5F5
310
F5F5F5F5E2E2E2E2E2E2E2E2E2F5F5F5F5F5F5F5F5F5F5F5F5F5F5F5F5E2E2E2E2E2E2E2E2E2F5F5F5F5F5F5F5F5F5F5F5F5F5F5F5F5F5E2E2E2E2E2E2E2E2E2F5F5F5F5F5F5F5F5F5F5F5F5F5F5F5F5E2E2E2E2E2E2E2E2E2F5F5F5F5F5F5F5F5F5E2E2E2E2E2E2E2E2E2E2E2F5F5F5F5E2E2E2E2E2E2E2E2E2E2E2F5E2E2
310
E2E2E2E2E2E2E2E2E2E2E2E2E2E2E2E2E2E2E2E2E2E2E2E2E2E2E2E2E2E2E2E2E2E2E2E2E2E2E2E2E2E2E2E2E2E2E2E2E2E2E2E2E2E2E2E2E2E2E2E2E2E2E2E2E2E2E2E2E2E2E2E2E2E2E2E2E2E2E2E2E2E2E2E2E2E2E2E2E2E2E2E2E2E2E2E2E2E2E2E2E2E2E2E2E2E2E2E2E2E2E2E2E2E2E2E2E2E2E2E2E2E2E2E2E2E2E2
310
E2E2E2E2E2E2E2E2E2E2E2E2E2E2E2E2E2E2E2E2E2E2E2F5E2E2E2E2E2E2E2E2E2E2E2F5F5F5F5E2E2E2E2E2E2E2E2E2E2E2F5E2E2E2E2E2E2E2E2E2E2E2E2E2E2E2E2E2E2E2E2E2E2E2E2E2E2E2E2E2E2E2E2E2E2E2E2E2E2E2E2E2E2E2E2E2E2E2E2E2E2E2E2E2E2E2E2E2E2E2E2E2E2E2E2E2E2E2E2E2E2E2E2E2E2E2E2
310
E2E2E2E2E2E2E2E2E2E2E2E2E2E2E2E2E2E2E2E2E2E2E2E2E2E2E2E2E2E2E2E2E2E2E2E2E2E2E2E2E2E2E2E2E2E2E2E2E2E2E2E2E2E2E2E2E2E2E2E2E2E2E2E2E2E2E2E2E2E2E2E2E2E2E2E2F5E2E2E2E2E2E2E2E2E2E2E2F5F5F5F5E2E2E2E2E2E2E2E2E2E2E2F5E2E2E2E2E2E2E2E2E2E2E2E2E2E2E2E2E2E2E2E2E2E2E2
310
E2E2E2E2E2E2E2E2E2E2E2E2E2E2E2E2E2E2E2E2E2E2E2E2E2E2E2E2E2E2E2E2E2E2E2E2E2E2E2E2E2E2E2E2E2E2E2E2E2E2E2E2E2E2E2E2E2E2E2E2E2E2E2E2E2E2E2E2E2E2E2E2E2E2E2E2E2E2E2E2E2E2E2E2E2E2E2E2E2E2E2E2E2E2E2E2E2E2E2E2E2E2E2E2E2E2E2E2E2E2E2E2E2E2E2E2E2E2E2E2E2E2E2E2E2E2E2
310
E2E2F5E2E2E2E2E2E2E2E2E2E2E2F5F5F5F5E2E2E2E2E2E2E2E2E2E2E2F5E2E2E2E2E2E2E2E2E2E2E2E2E2E2E2E2E2E2E2E2E2E2E2E2E2E2E2E2E2E2E2E2E2E2E2E2E2E2E2E2E2E2E2E2E2E2E2E2E2E2E2E2E2E2E2E2E2E2E2E2E2E2E2E2E2E2E2E2E2E2E2E2E2E2E2E2E2E2E2E2E2E2E2E2E2E2E2E2E2E2E2E2E2E2E2E2E2
310
E2E2E2E2E2E2E2E2E2E2E2E2E2E2E2E2E2E2E2E2E2E2E2E2E2E2E2E2E2E2E2E2E2E2E2E2E2E2E2E2E2E2E2E2E2E2E2E2E2E2E2E2E2E2E2F5E2E2E2E2E2E2E2E2E2E2E2F5F5F5F5E2E2E2E2E2E2E2E2E2E2E2F5E2E2E2E2E2E2E2E2E2E2E2E2E2E2E2E2E2E2E2E2E2E2E2E2E2E2E2E2E2E2E2E2E2E2E2E2E2E2E2E2E2E2E2E2
310
E2E2E2E2E2E2E2E2E2E2E2E2E2E2E2E2E2E2E2E2E2E2E2E2E2E2E2E2E2E2E2E2E2E2E2E2E2E2E2E2E2E2E2E2E2E2E2E2E2E2E2E2E2E2E2E2E2E2E2E2E2E2E2E2E2E2E2E2E2E2E2E2E2E2E2E2E2E2E2E2E2E2E2E2E2E2E2E2E2E2E2E2E2E2E2E2E2E2E2E2E2E2E2E2E2E2E2E2F5E2E2E2E2E2E2E2E2E2E2E2F5F5F5F5E2E2E2
310
E2E2E2E2E2E2E2E2F5E2E2E2E2E2E2E2E2E2E2E2E2E2E2E2E2E2E2E2E2E2E2E2E2E2E2E2E2E2E2E2E2E2E2E2E2E2E2E2E2E2E2E2E2E2E2E2E2E2E2E2E2E2E2E2E2E2E2E2E2E2E2E2E2E2E2E2E2E2E2E2E2E2E2E2E2E2E2E2E2E2E2E2E2E2E2E2E2E2E2E2E2E2E2E2E2E2E2E2E2E2E2E2E2E2E2E2E2E2E2E2E2E2E2E2E2E2E2
310
E2E2E2E2E2E2E2E2E2E2E2E2E2E2E2E2E2E2E2E2E2E2E2E2E2E2E2E2E2E2E2E2E2E2F5E2E2E2E2E2E2E2E2E2E2E2F5F5F5F5E2E2E2E2E2E2E2E2E2E2E2F5E2E2E2E2E2E2E2E2E2E2E2E2E2E2E2E2E2E2E2E2E2E2E2E2E2E2E2E2E2E2E2E2E2E2E2E2E2E2E2E2E2E2E2E2E2E2E2E2E2E2E2E2E2E2E2E2E2E2E2E2E2E2E2E2E2
310
E2E2E2E2E2E2E2E2E2E2E2E2E2E2E2E2E2E2E2E2E2E2E2E2E2E2E2E2E2E2E2E2E2E2E2E2E2E2E2E2E2E2E2E2E2E2E2E2E2E2E2E2E2E2E2E2E2E2E2E2E2E2E2E2E2E2E2E2E2E2E2E2E2E2E2E2E2E2E2E2E2E2E2E2E2E2E2F5E2E2E2E2E2E2E2E2E2E2E2F5F5F5F5E2E2E2E2E2E2E2E2E2E2E2E2E2E2E2E2E2E2E2E2E2E2E2E2
310
E2E2E2E2E2E2E2E2E2E2E2E2E2E2E2E2E2E2E2E2E2E2E2E2E2E2E2E2E2E2E2E2E2E2E2E2E2E2E2E2E2E2E2E2E2E2E2E2E2E2E2E2E2E2E2E2E2E2E2E2E2E2E2E2E2E2E2E2E2E2E2E2E2E2E2E2E2E2E2E2E2E2E2E2E2E2E2E2E2E2E2E2E2E2E2E2E2E2E2E2E2E2E2E2E2E2E2E2E2E2E2E2E2E2E2E2E2E2E2E2E2E2E2E2E2E2E2
310
E2E2E2E2E2E2E2E2E2E2E2E2E2E2E2E2E2E2E2E2E2E2E2E2E2F5F5F5F5E2E2E2E2E2E2E2E2E2E2E2E2E2E2E2E2E2E2E2E2E2E2E2E2E2E2E2E2E2E2E2E2E2E2E2E2E2E2E2E2E2E2E2E2E2E2E2E2E2E2E2E2E2E2E2E2E2E2E2E2E2E2E2E2E2E2E2E2E2E2E2E2E2E2E2E2E2E2E2E2E2E2E2E2E2E2E2E2E2E2E2E2E2E2E2E2E2E2
310
E2E2E2E2E2E2E2E2E2E2E2E2E2E2E2E2E2E2E2E2E2E2E2E2E2E2E2E2E2E2E2E2E2E2E2E2E2E2E2E2E2E2E2E2E2E2E2E2E2E2E2E2E2E2E2E2E2E2E2E2E2E2E2E2E2E2E2E2E2E2E2E2E2E2E2E2E2E2F5F5F5F5E2E2E2E2E2E2E2E2E2E2E2E2E2E2E2E2E2E2E2E2E2E2E2E2E2E2E2E2E2E2E2E2E2E2E2E2E2E2E2E2E2E2E2E2E2
310
E2E2E2E2E2E2E2E2E2E2E2E2E2E2E2E2E2E2E2E2E2E2E2E2E2E2E2E2E2E2E2E2E2E2E2E2E2E2E2E2E2E2E2E2E2E2E2E2E2E2E2E2E2E2E2E2E2E2E2E2E2E2E2E2E2E2E2E2E2E2E2E2E2E2E2E2E2E2E2E2E2E2E2E2E2E2E2E2E2E2E2E2E2E2E2E2E2E2E2E2E2E2E2E2E2E2E2E2E2E2E2E2E2E2E2E2E2E2E2E2E2E2E2E2E2E2E2
310
E2E2E2E2F5F5F5F5E2E2E2E2E2E2E2E2E2E2E2E2E2E2E2E2E2E2E2E2E2E2E2E2E2E2E2E2E2E2E2E2E2E2E2E2E2E2E2E2E2E2E2E2E2E2E2E2E2E2E2E2E2E2E2E2E2E2E2E2E2E2E2E2E2E2E2E2E2E2E2E2E2E2E2E2E2E2E2E2E2E2E2E2E2E2E2E2E2E2E2E2E2E2E2E2E2E2E2E2E2E2E2E2E2E2E2E2E2E2E2E2E2E2E2E2E2E2E2
310
E2E2E2E2E2E2E2E2E2E2E2E2E2E2E2E2E2E2E2E2E2E2E2E2E2E2E2E2E2E2E2E2E2E2E2E2E2E2E2E2E2E2E2E2E2E2E2E2E2E2E2E2E2E2E2E2E2F5F5F5F5E2E2E2E2E2E2E2E2E2E2E2E2E2E2E2E2E2E2E2E2E2E2E2E2E2E2E2E2E2E2E2E2E2E2E2E2E2E2E2E2E2E2E2E2E2E2E2E2E2E2E2E2E2E2E2E2E2E2E2E2E2E2E2E2E2E2
310
E2E2E2E2E2E2E2E2E2E2E2E2E2E2E2E2E2E2E2E2E2E2E2E2E2E2E2E2E2E2E2E2E2E2E2E2E2E2E2E2E2E2E2E2E2E2E2E2E2E2E2E2E2E2E2E2E2E2E2E2E2E2E2E2E2E2E2E2E2E2E2E2E2E2E2E2E2E2E2E2E2E2E2E2E2E2E2E2E2E2E2E2E2E2E2E2E2E2E2E2E2E2E2E2E2E2E2E2E2E2F5F5F5F5E2E2E2E2E2E2E2E2E2E2E2E2E2
310
E2E2E2E2E2E2E2E2E2E2E2E2E2E2E2E2E2E2E2E2E2E2E2E2E2E2E2E2E2E2E2E2E2E2E2E2E2E2E2E2E2E2E2E2E2E2E2E2E2E2E2E2E2E2E2E2E2E2E2E2E2E2E2E2E2E2E2E2E2E2E2E2E2E2E2E2E2E2E2E2E2E2E2E2E2E2E2E2E2E2E2E2E2E2E2E2E2E2E2E2E2E2E2E2E2E2E2E2E2E2E2E2E2E2E2E2E2E2E2E2E2E2E2E2E2E2E2
310
E2E2E2E2E2E2E2E2E2E2E2E2E2E2E2E2E2E2E2E2E2E2E2E2E2E2E2E2E2E2E2E2E2E2E2E2F5F5F5F5E2E2E2E2E2E2E2E2E2E2E2E2E2E2E2E2E2E2E2E2E2E2E2E2E2E2E2E2E2E2E2E2E2E2E2E2E2E2E2E2E2E2E2E2E2E2E2E2E2E2E2E2E2E2E2E2E2E2E2E2E2E2E2E2E2E2E2E2E2E2E2E2E2E2E2E2E2E2E2E2E2E2E2E2E2E2E2
310
E2E2E2E2E2E2E2E2E2E2E2E2E2E2E2E2E2E2E2E2E2E2E2E2E2E2E2E2E2E2E2E2E2E2E2E2E2E2E2E2E2E2E2E2E2E2E2E2E2E2E2E2E2E2E2E2E2E2E2E2E2E2E2E2E2E2E2E2E2E2E2E2E2E2E2E2E2E2E2E2E2E2E2E2E2E2E2E2E2F5F5F5F5E2E2E2E2E2E2E2E2E2E2E2E2E2E2E2E2E2E2E2E2E2E2E2E2E2E2E2E2E2E2E2E2E2E2
310
E2E2E2E2E2E2E2E2E2E2E2E2E2E2E2E2E2E2E2E2E2E2E2E2E2E2E2E2E2E2E2E2E2E2E2E2E2E2E2E2E2E2E2E2E2E2E2E2E2E2E2E2E2E2E2E2E2E2E2E2E2E2E2E2E2E2E2E2E2E2E2E2E2E2E2E2E2E2E2E2E2E2E2E2E2E2E2E2E2E2E2E2E2E2E2E2E2E2E2E2E2E2E2E2E2E2E2E2E2E2E2E2E2E2E2E2E2E2E2E2E2E2E2E2E2E2E2
310
E2E2E2E2E2E2E2E2E2E2E2E2E2E2E2F5F5F5F5E2E2E2E2E2E2E2E2E2E2E2F5E2E2E2E2E2E2E2E2E2E2E2E2E2E2E2E2E2E2E2E2E2E2E2E2E2E2E2E2E2E2E2E2E2E2E2E2E2E2E2E2E2E2E2E2E2E2E2E2E2E2E2E2E2E2E2E2E2E2E2E2E2E2E2E2E2E2E2E2E2E2E2E2E2E2E2E2E2E2E2E2E2E2E2E2E2E2E2E2E2E2E2E2E2E2E2E2
310
E2E2E2E2E2E2E2E2E2E2E2E2E2E2E2E2E2E2E2E2E2E2E2E2E2E2E2E2E2E2E2E2E2E2E2E2E2E2E2E2E2E2E2E2E2E2E2E2E2E2E2E2E2E2E2E2F5E2E2E2E2E2E2E2E2E2E2E2F5F5F5F5E2E2E2E2E2E2E2E2E2E2E2F5E2E2E2E2E2E2E2E2E2E2E2E2E2E2E2E2E2E2E2E2E2E2E2E2E2E2E2E2E2E2E2E2E2E2E2E2E2E2E2E2E2E2E2
310
E2E2E2E2E2E2E2E2E2E2E2E2E2E2E2E2E2E2E2E2E2E2E2E2E2E2E2E2E2E2E2E2E2E2E2E2E2E2E2E2E2E2E2E2E2E2E2E2E2E2E2E2E2E2E2E2E2E2E2E2E2E2E2E2E2E2E2E2E2E2E2E2E2E2E2E2E2E2E2E2E2E2E2E2E2E2E2E2E2E2E2E2E2E2E2E2E2E2E2E2E2E2E2E2E2E2E2E2E2F5E2E2E2E2E2E2E2E2E2E2E2F5F5F5F5E2E2
310
E2E2E2E2E2E2E2E2E2F5E2E2E2E2E2E2E2E2E2E2E2E2E2E2E2E2E2E2E2E2E2E2E2E2E2E2E2E2E2E2E2E2E2E2E2E2E2E2E2E2E2E2E2E2E2E2E2E2E2E2E2E2E2E2E2E2E2E2E2E2E2E2E2E2E2E2E2E2E2E2E2E2E2E2E2E2E2E2E2E2E2E2E2E2E2E2E2E2E2E2E2E2E2E2E2E2E2E2E2E2E2E2E2E2E2E2E2E2E2E2E2E2E2E2E2E2E2
310
E2E2E2E2E2E2E2E2E2E2E2E2E2E2E2E2E2E2E2E2E2E2E2E2E2E2E2E2E2E2E2E2E2E2E2F5E2E2E2E2E2E2E2E2E2E2E2F5F5F5F5E2E2E2E2E2E2E2E2E2E2E2F5E2E2E2E2E2E2E2E2E2E2E2E2E2E2E2E2E2E2E2E2E2E2E2E2E2E2E2E2E2E2E2E2E2E2E2E2E2E2E2E2E2E2E2E2E2E2E2E2E2E2E2E2E2E2E2E2E2E2E2E2E2E2E2E2
310
E2E2E2E2E2E2E2E2E2E2E2E2E2E2E2E2E2E2E2E2E2E2E2E2E2E2E2E2E2E2E2E2E2E2E2E2E2E2E2E2E2E2E2E2E2E2E2E2E2E2E2E2E2E2E2E2E2E2E2E2E2E2E2E2E2E2E2E2E2E2E2E2E2E2E2E2E2E2E2E2E2E2E2E2E2E2E2E2F5E2E2E2E2E2E2E2E2E2E2E2F5F5F5F5E2E2E2E2E2E2E2E2E2E2E2F5E2E2E2E2E2E2E2E2E2E2E2
310
E2E2E2E2E2E2E2E2E2E2E2E2E2E2E2E2E2E2E2E2E2E2E2E2E2E2E2E2E2E2E2E2E2E2E2E2E2E2E2E2E2E2E2E2E2E2E2E2E2E2E2E2E2E2E2E2E2E2E2E2E2E2E2E2E2E2E2E2E2E2E2E2E2E2E2E2E2E2E2E2E2E2E2E2E2E2E2E2E2E2E2E2E2E2E2E2E2E2E2E2E2E2E2E2E2E2E2E2E2E2E2E2E2E2E2E2E2E2E2E2E2E2E2E2E2E2E2
310
E2E2E2E2E2E2E2E2E2E2E2E2E2E2F5E2E2E2E2E2E2E2E2E2E2E2F5F5F5F5E2E2E2E2E2E2E2E2E2E2E2F5E2E2E2E2E2E2E2E2E2E2E2E2E2E2E2E2E2E2E2E2E2E2E2E2E2E2E2E2E2E2E2E2E2E2E2E2E2E2E2E2E2E2E2E2E2E2E2E2E2E2E2E2E2E2E2E2E2E2E2E2E2E2E2E2E2E2E2E2E2E2E2E2E2E2E2E2E2E2E2E2E2E2E2E2E2
310
E2E2E2E2E2E2E2E2E2E2E2E2E2E2E2E2E2E2E2E2E2E2E2E2E2E2E2E2E2E2E2E2E2E2E2E2E2E2E2E2E2E2E2E2E2E2E2E2E2E2E2E2E2E2E2E2E2E2E2E2E2E2E2E2E2E2E2F5E2E2E2E2E2E2E2E2E2E2E2F5F5F5F5E2E2E2E2E2E2E2E2E2E2E2F5E2E2E2E2E2E2E2E2E2E2E2E2E2E2E2E2E2E2E2E2E2E2E2E2E2E2E2E2E2E2E2E2
310
E2E2E2E2E2E2E2E2E2E2E2E2E2E2E2E2E2E2E2E2E2E2E2E2E2E2E2E2E2E2E2E2E2E2E2E2E2E2E2E2E2E2E2E2E2E2E2E2E2E2E2E2E2E2E2E2E2E2E2E2E2E2E2E2E2E2E2E2E2E2E2E2E2E2E2E2E2E2E2E2E2E2E2E2E2E2E2E2E2E2E2E2E2E2E2E2E2E2E2E2E2E2E2E2E2E2E2E2E2E2E2E2E2E2E2E2E2E2E2E2F5E2E2E2E2E2E2
310
E2E2E2E2E2F5F5F5F5E2E2E2E2E2E2E2E2E2E2E2F5E2E2E2E2E2E2E2E2E2E2E2E2E2E2E2E2E2E2E2E2E2E2E2E2E2E2E2E2E2E2E2E2E2E2E2E2E2E2E2E2E2E2E2E2E2E2E2E2E2E2E2E2E2E2E2E2E2E2E2E2E2E2E2E2E2E2E2E2E2E2E2E2E2E2E2E2E2E2E2E2E2E2E2E2E2E2E2E2E2E2E2E2E2E2E2E2E2E2E2E2E2E2E2E2E2E2
310
E2E2E2E2E2E2E2E2E2E2E2E2E2E2E2E2E2E2E2E2E2E2E2E2E2E2E2E2E2E2E2E2E2E2E2E2E2E2E2E2E2E2E2E2E2E2F5E2E2E2E2E2E2E2E2E2E2E2F5F5F5F5E2E2E2E2E2E2E2E2E2E2E2F5E2E2E2E2E2E2E2E2E2E2E2E2E2E2E2E2E2E2E2E2E2E2E2E2E2E2E2E2E2E2E2E2E2E2E2E2E2E2E2E2E2E2E2E2E2E2E2E2E2E2E2E2E2
310
E2E2E2E2E2E2E2E2E2E2E2E2E2E2E2E2E2E2E2E2E2E2E2E2E2E2E2E2E2E2E2E2E2E2E2E2E2E2E2E2E2E2E2E2E2E2E2E2E2E2E2E2E2E2E2E2E2E2E2E2E2E2E2E2E2E2E2E2E2E2E2E2E2E2E2E2E2E2E2E2E2E2E2E2E2E2E2E2E2E2E2E2E2E2E2E2E2E2E2F5E2E2E2E2E2E2E2E2E2E2E2F5F5F5F5E2E2E2E2E2E2E2E2E2E2E2F5
310
E2E2E2E2E2E2E2E2E2E2E2E2E2E2E2E2E2E2E2E2E2E2E2E2E2E2E2E2E2E2E2E2E2E2E2E2E2E2E2E2E2E2E2E2E2E2E2E2E2E2E2E2E2E2E2E2E2E2E2E2E2E2E2E2E2E2E2E2E2E2E2E2E2E2E2E2E2E2E2E2E2E2E2E2E2E2E2E2E2E2E2E2E2E2E2E2E2E2E2E2E2E2E2E2E2E2E2E2E2E2E2E2E2E2E2E2E2E2E2E2E2E2E2E2E2E2E2
310
E2E2E2E2E2E2E2E2E2E2E2E2E2E2E2E2E2E2E2E2E2E2E2E2E2F5E2E2E2E2E2E2E2E2E2E2E2F5F5F5F5E2E2E2E2E2E2E2E2E2E2E2F5E2E2E2E2E2E2E2E2E2E2E2E2E2E2E2E2E2E2E2E2E2E2E2E2E2E2E2E2E2E2E2E2E2E2E2E2E2E2E2E2E2E2E2E2E2E2E2E2E2E2E2E2E2E2E2E2E2E2E2E2E2E2E2E2E2E2E2E2E2E2E2E2E2E2
310
E2E2E2E2E2E2E2E2E2E2E2E2E2E2E2E2E2E2E2E2E2E2E2E2E2E2E2E2E2E2E2E2E2E2E2E2E2E2E2E2E2E2E2E2E2E2E2E2E2E2E2E2E2E2E2E2E2E2E2E2E2E2E2E2E2E2E2E2E2E2E2E2E2E2E2E2E2E2F5E2E2E2E2E2E2E2E2E2E2E2F5F5F5F5E2E2E2E2E2E2E2E2E2E2E2F5E2E2E2E2E2E2E2E2E2E2E2E2E2E2E2E2E2E2E2E2E2
310
E2E2E2E2E2E2E2E2E2E2E2E2E2E2E2E2E2E2E2E2E2E2E2E2E2E2E2E2E2E2E2E2E2E2E2E2E2E2E2E2E2E2E2E2E2E2E2E2E2E2E2E2E2E2E2E2E2E2E2E2E2E2E2E2E2E2E2E2E2E2E2E2E2E2E2E2E2E2E2E2E2E2E2E2E2E2E2E2E2E2E2E2E2E2E2E2E2E2E2E2E2E2E2E2E2E2E2E2E2E2E2E2E2E2E2E2E2E2E2E2E2E2E2E2E2E2E2
310
E2E2E2E2F5E2E2E2E2E2E2E2E2E2E2E2F5F5F5F5E2E2E2E2E2E2E2E2E2E2E2F5E2E2E2E2E2E2E2E2E2E2E2E2E2E2E2E2E2E2E2E2E2E2E2E2E2E2E2E2E2E2E2E2E2E2E2E2E2E2E2E2E2E2E2E2E2E2E2E2E2E2E2E2E2E2E2E2E2E2E2E2E2E2E2E2E2E2E2E2E2E2E2E2E2E2E2E2E2E2E2E2E2E2E2E2E2E2E2E2E2E2E2E2E2E2E2
310
E2E2E2E2E2E2E2E2E2E2E2E2E2E2E2E2E2E2E2E2E2E2E2E2E2E2E2E2E2E2E2E2E2E2E2E2E2E2E2E2E2E2E2E2E2E2E2E2E2E2E2E2E2E2E2E2E2F5E2E2E2E2E2E2E2E2E2E2E2F5F5F5F5E2E2E2E2E2E2E2E2E2E2E2F5E2E2E2E2E2E2E2E2E2E2E2E2E2E2E2E2E2E2E2E2E2E2E2E2E2E2E2E2E2E2E2E2E2E2E2E2E2E2E2E2E2E2
310
E2E2E2E2E2E2E2E2E2E2E2E2E2E2E2E2E2E2E2E2E2E2E2E2E2E2E2E2E2E2E2E2E2E2E2E2E2E2E2E2E2E2E2E2E2E2E2E2E2E2E2E2E2E2E2E2E2E2E2E2E2E2E2E2E2E2E2E2E2E2E2E2E2E2E2E2E2E2E2E2E2E2E2E2E2E2E2E2E2E2E2E2E2E2E2E2E2E2E2E2E2E2E2E2E2E2E2E2E2E2F5E2E2E2E2E2E2E2E2E2E2E2F5F5F5F5E2
310
E2E2E2E2E2E2E2E2E2E2F5E2E2E2E2E2E2E2E2E2E2E2E2E2E2E2E2E2E2E2E2E2E2E2E2E2E2E2E2E2E2E2E2E2E2E2E2E2E2E2E2E2E2E2E2E2E2E2E2E2E2E2E2E2E2E2E2E2E2E2E2E2E2E2E2E2E2E2E2E2E2E2E2E2E2E2E2E2E2E2E2E2E2E2E2E2E2E2E2E2E2E2E2E2E2E2E2E2E2E2E2E2E2E2E2E2E2E2E2E2E2E2E2E2E2E2E2
310
E2E2E2E2E2E2E2E2E2E2E2E2E2E2E2E2E2E2E2E2E2E2E2E2E2E2E2E2E2E2E2E2E2E2E2E2F5E2E2E2E2E2E2E2E2E2E2E2F5F5F5F5E2E2E2E2E2E2E2E2E2E2E2E2E2E2E2E2E2E2E2E2E2E2E2E2E2E2E2E2E2E2E2E2E2E2E2E2E2E2E2E2E2E2E2E2E2E2E2E2E2E2E2E2E2E2E2E2E2E2E2E2E2E2E2E2E2E2E2E2E2E2E2E2E2E2E2
310
E2E2E2E2E2E2E2E2E2E2E2E2E2E2E2E2E2E2E2E2E2E2E2E2E2E2E2E2E2E2E2E2E2E2E2E2E2E2E2E2E2E2E2E2E2E2E2E2E2E2E2E2E2E2E2E2E2E2E2E2E2E2E2E2E2E2E2E2E2E2E2E2E2E2E2E2E2E2E2E2E2E2E2E2E2E2E2E2E2E2E2E2E2E2E2E2E2E2E2E2E2F5F5F5F5E2E2E2E2E2E2E2E2E2E2E2E2E2E2E2E2E2E2E2E2E2E2
310
E2E2E2E2E2E2E2E2E2E2E2E2E2E2E2E2E2E2E2E2E2E2E2E2E2E2E2E2E2E2E2E2E2E2E2E2E2E2E2E2E2E2E2E2E2E2E2E2E2E2E2E2E2E2E2E2E2E2E2E2E2E2E2E2E2E2E2E2E2E2E2E2E2E2E2E2E2E2E2E2E2E2E2E2E2E2E2E2E2E2E2E2E2E2E2E2E2E2E2E2E2E2E2E2E2E2E2E2E2E2E2E2E2E2E2E2E2E2E2E2E2E2E2E2E2E2E2
310
E2E2E2E2E2E2E2E2E2E2E2E2E2E2E2E2E2E2E2E2E2E2E2E2E2E2E2F5F5F5F5E2E2E2E2E2E2E2E2E2E2E2E2E2E2E2E2E2E2E2E2E2E2E2E2E2E2E2E2E2E2E2E2E2E2E2E2E2E2E2E2E2E2E2E2E2E2E2E2E2E2E2E2E2E2E2E2E2E2E2E2E2E2E2E2E2E2E2E2E2E2E2E2E2E2E2E2E2E2E2E2E2E2E2E2E2E2E2E2E2E2E2E2E2E2E2E2
310
E2E2E2E2E2E2E2E2E2E2E2E2E2E2E2E2E2E2E2E2E2E2E2E2E2E2E2E2E2E2E2E2E2E2E2E2E2E2E2E2E2E2E2E2E2E2E2E2E2E2E2E2E2E2E2E2E2E2E2E2E2E2E2E2E2E2E2E2E2E2E2E2E2E2E2E2E2E2E2E2F5F5F5F5E2E2E2E2E2E2E2E2E2E2E2E2E2E2E2E2E2E2E2E2E2E2E2E2E2E2E2E2E2E2E2E2E2E2E2E2E2E2E2E2E2E2E2
310
E2E2E2E2E2E2E2E2E2E2E2E2E2E2E2E2E2E2E2E2E2E2E2E2E2E2E2E2E2E2E2E2E2E2E2E2E2E2E2E2E2E2E2E2E2E2E2E2E2E2E2E2E2E2E2E2E2E2E2E2E2E2E2E2E2E2E2E2E2E2E2E2E2E2E2E2E2E2E2E2E2E2E2E2E2E2E2E2E2E2E2E2E2E2E2E2E2E2E2E2E2E2E2E2E2E2E2E2E2E2E2E2E2E2E2E2E2E2E2E2E2E2E2E2E2E2E2
310
E2E2E2E2E2E2F5F5F5F5E2E2E2E2E2E2E2E2E2E2E2E2E2E2E2E2E2E2E2E2E2E2E2E2E2E2E2E2E2E2E2E2E2E2E2E2E2E2E2E2E2E2E2E2E2E2E2E2E2E2E2E2E2E2E2E2E2E2E2E2E2E2E2E2E2E2E2E2E2E2E2E2E2E2E2E2E2E2E2E2E2E2E2E2E2E2E2E2E2E2E2E2E2E2E2E2E2E2E2E2E2E2E2E2E2E2E2E2E2E2E2E2E2E2E2E2E2
310
E2E2E2E2E2E2E2E2E2E2E2E2E2E2E2E2E2E2E2E2E2E2E2E2E2E2E2E2E2E2E2E2E2E2E2E2E2E2E2E2E2E2E2E2E2E2E2E2E2E2E2E2E2E2E2E2E2E2E2F5F5F5F5E2E2E2E2E2E2E2E2E2E2E2E2E2E2E2E2E2E2E2E2E2E2E2E2E2E2E2E2E2E2E2E2E2E2E2E2E2E2E2E2E2E2E2E2E2E2E2E2E2E2E2E2E2E2E2E2E2E2E2E2E2E2E2E2
310
E2E2E2E2E2E2E2E2E2E2E2E2E2E2E2E2E2E2E2E2E2E2E2E2E2E2E2E2E2E2E2E2E2E2E2E2E2E2E2E2E2E2E2E2E2E2E2E2E2E2E2E2E2E2E2E2E2E2E2E2E2E2E2E2E2E2E2E2E2E2E2E2E2E2E2E2E2E2E2E2E2E2E2E2E2E2E2E2E2E2E2E2E2E2E2E2E2E2E2E2E2E2E2E2E2E2E2E2E2E2E2E2F5F5F5F5E2E2E2E2E2E2E2E2E2E2E2
310
E2E2E2E2E2E2E2E2E2E2E2E2E2E2E2E2E2E2E2E2E2E2E2E2E2E2E2E2E2E2E2E2E2E2E2E2E2E2E2E2E2E2E2E2E2E2E2E2E2E2E2E2E2E2E2E2E2E2E2E2E2E2E2E2E2E2E2E2E2E2E2E2E2E2E2E2E2E2E2E2E2E2E2E2E2E2E2E2E2E2E2E2E2E2E2E2E2E2E2E2E2E2E2E2E2E2E2E2E2E2E2E2E2E2E2E2E2E2E2E2E2E2E2E2E2E2E2
310
E2E2E2E2E2E2E2E2E2E2E2E2E2E2E2E2E2E2E2E2E2E2E2E2E2E2E2E2E2E2E2E2E2E2E2E2E2E2F5F5F5F5E2E2E2E2E2E2E2E2E2E2E2E2E2E2E2E2E2E2E2E2E2E2E2E2E2E2E2E2E2E2E2E2E2E2E2E2E2E2E2E2E2E2E2E2E2E2E2E2E2E2E2E2E2E2E2E2E2E2E2E2E2E2E2E2E2E2E2E2E2E2E2E2E2E2E2E2E2E2E2E2E2E2E2E2E2
310
E2E2E2E2E2E2E2E2E2E2E2E2E2E2E2E2E2E2E2E2E2E2E2E2E2E2E2E2E2E2E2E2E2E2E2E2E2E2E2E2E2E2E2E2E2E2E2E2E2E2E2E2E2E2E2E2E2E2E2E2E2E2E2E2E2E2E2E2E2E2E2E2E2E2E2E2E2E2E2E2E2E2E2E2E2E2E2E2E2E2E2F5F5F5F5E2E2E2E2E2E2E2E2E2E2E2F5E2E2E2E2E2E2E2E2E2E2E2E2E2E2E2E2E2E2E2E2
310
E2E2E2E2E2E2E2E2E2E2E2E2E2E2E2E2E2E2E2E2E2E2E2E2E2E2E2E2E2E2E2E2E2E2E2E2E2E2E2E2E2E2E2E2E2E2E2E2E2E2E2E2E2E2E2E2E2E2E2E2E2E2E2E2E2E2E2E2E2E2E2E2E2E2E2E2E2E2E2E2E2E2E2E2E2E2E2E2E2E2E2E2E2E2E2E2E2E2E2E2E2E2E2E2E2E2E2E2E2E2E2E2E2E2E2E2E2E2E2E2E2E2E2E2E2E2E2
310
E2E2E2E2E2F5E2E2E2E2E2E2E2E2E2E2E2F5F5F5F5E2E2E2E2E2E2E2E2E2E2E2F5E2E2E2E2E2E2E2E2E2E2E2E2E2E2E2E2E2E2E2E2E2E2E2E2E2E2E2E2E2E2E2E2E2E2E2E2E2E2E2E2E2E2E2E2E2E2E2E2E2E2E2E2E2E2E2E2E2E2E2E2E2E2E2E2E2E2E2E2E2E2E2E2E2E2E2E2E2E2E2E2E2E2E2E2E2E2E2E2E2E2E2E2E2E2
310
E2E2E2E2E2E2E2E2E2E2E2E2E2E2E2E2E2E2E2E2E2E2E2E2E2E2E2E2E2E2E2E2E2E2E2E2E2E2E2E2E2E2E2E2E2E2E2E2E2E2E2E2E2E2E2E2E2E2F5E2E2E2E2E2E2E2E2E2E2E2F5F5F5F5E2E2E2E2E2E2E2E2E2E2E2F5E2E2E2E2E2E2E2E2E2E2E2E2E2E2E2E2E2E2E2E2E2E2E2E2E2E2E2E2E2E2E2E2E2E2E2E2E2E2E2E2E2
310
E2E2E2E2E2E2E2E2E2E2E2E2E2E2E2E2E2E2E2E2E2E2E2E2E2E2E2E2E2E2E2E2E2E2E2E2E2E2E2E2E2E2E2E2E2E2E2E2E2E2E2E2E2E2E2E2E2E2E2E2E2E2E2E2E2E2E2E2E2E2E2E2E2E2E2E2E2E2E2E2E2E2E2E2E2E2E2E2E2E2E2E2E2E2E2E2E2E2E2E2E2E2E2E2E2E2E2E2E2E2E2F5E2E2E2E2E2E2E2E2E2E2E2F5F5F5F5
310
E2E2E2E2E2E2E2E2E2E2E2F5E2E2E2E2E2E2E2E2E2E2E2E2E2E2E2E2E2E2E2E2E2E2E2E2E2E2E2E2E2E2E2E2E2E2E2E2E2E2E2E2E2E2E2E2E2E2E2E2E2E2E2E2E2E2E2E2E2E2E2E2E2E2E2E2E2E2E2E2E2E2E2E2E2E2E2E2E2E2E2E2E2E2E2E2E2E2E2E2E2E2E2E2E2E2E2E2E2E2E2E2E2E2E2E2E2E2E2E2E2E2E2E2E2E2E2
310
E2E2E2E2E2E2E2E2E2E2E2E2E2E2E2E2E2E2E2E2E2E2E2E2E2E2E2E2E2E2E2E2E2E2E2E2E2F5E2E2E2E2E2E2E2E2E2E2E2F5F5F5F5E2E2E2E2E2E2E2E2E2E2E2F5E2E2E2E2E2E2E2E2E2E2E2E2E2E2E2E2E2E2E2E2E2E2E2E2E2E2E2E2E2E2E2E2E2E2E2E2E2E2E2E2E2E2E2E2E2E2E2E2E2E2E2E2E2E2E2E2E2E2E2E2E2E2
310
E2E2E2E2E2E2E2E2E2E2E2E2E2E2E2E2E2E2E2E2E2E2E2E2E2E2E2E2E2E2E2E2E2E2E2E2E2E2E2E2E2E2E2E2E2E2E2E2E2E2E2E2E2E2E2E2E2E2E2E2E2E2E2E2E2E2E2E2E2E2E2E2E2E2E2E2E2E2E2E2E2E2E2E2E2E2E2E2E2E2F5E2E2E2E2E2E2E2E2E2E2E2F5F5F5F5E2E2E2E2E2E2E2E2E2E2E2F5E2E2E2E2E2E2E2E2E2
310
E2E2E2E2E2E2E2E2E2E2E2E2E2E2E2E2E2E2E2E2E2E2E2E2E2E2E2E2E2E2E2E2E2E2E2E2E2E2E2E2E2E2E2E2E2E2E2E2E2E2E2E2E2E2E2E2E2E2E2E2E2E2E2E2E2E2E2E2E2E2E2E2E2E2E2E2E2E2E2E2E2E2E2E2E2E2E2E2E2E2E2E2E2E2E2E2E2E2E2E2E2E2E2E2E2E2E2E2E2E2E2E2E2E2E2E2E2E2E2E2E2E2E2E2E2E2E2
310
E2E2E2E2E2E2E2E2E2E2E2E2E2E2E2E2F5E2E2E2E2E2E2E2E2E2E2E2F5F5F5F5E2E2E2E2E2E2E2E2E2E2E2F5E2E2E2E2E2E2E2E2E2E2E2E2E2E2E2E2E2E2E2E2E2E2E2E2E2E2E2E2E2E2E2E2E2E2E2E2E2E2E2E2E2E2E2E2E2E2E2E2E2E2E2E2E2E2E2E2E2E2E2E2E2E2E2E2E2E2E2E2E2E2E2E2E2E2E2E2E2E2E2E2E2E2E2
310
E2E2E2E2E2E2E2E2E2E2E2E2E2E2E2E2E2E2E2E2E2E2E2E2E2E2E2E2E2E2E2E2E2E2E2E2E2E2E2E2E2E2E2E2E2E2E2E2E2E2E2E2E2E2E2E2E2E2E2E2E2E2E2E2E2E2E2E2E2F5E2E2E2E2E2E2E2E2E2E2E2F5F5F5F5E2E2E2E2E2E2E2E2E2E2E2F5E2E2E2E2E2E2E2E2E2E2E2E2E2E2E2E2E2E2E2E2E2E2E2E2E2E2E2E2E2E2
310
E2E2E2E2E2E2E2E2E2E2E2E2E2E2E2E2E2E2E2E2E2E2E2E2E2E2E2E2E2E2E2E2E2E2E2E2E2E2E2E2E2E2E2E2E2E2E2E2E2E2E2E2E2E2E2E2E2E2E2E2E2E2E2E2E2E2E2E2E2E2E2E2E2E2E2E2E2E2E2E2E2E2E2E2E2E2E2E2E2E2E2E2E2E2E2E2E2E2E2E2E2E2E2E2E2E2E2E2E2E2E2E2E2E2E2E2E2E2E2E2E2E2F5E2E2E2E2
310
E2E2E2E2E2E2E2F5F5F5F5E2E2E2E2E2E2E2E2E2E2E2F5E2E2E2E2E2E2E2E2E2E2E2E2E2E2E2E2E2E2E2E2E2E2E2E2E2E2E2E2E2E2E2E2E2E2E2E2E2E2E2E2E2E2E2E2E2E2E2E2E2E2E2E2E2E2E2E2E2E2E2E2E2E2E2E2E2E2E2E2E2E2E2E2E2E2E2E2E2E2E2E2E2E2E2E2E2E2E2E2E2E2E2E2E2E2E2E2E2E2E2E2E2E2E2E2
310
E2E2E2E2E2E2E2E2E2E2E2E2E2E2E2E2E2E2E2E2E2E2E2E2E2E2E2E2E2E2E2E2E2E2E2E2E2E2E2E2E2E2E2E2E2E2E2E2F5E2E2E2E2E2E2E2E2E2E2E2F5F5F5F5E2E2E2E2E2E2E2E2E2E2E2F5E2E2E2E2E2E2E2E2E2E2E2E2E2E2E2E2E2E2E2E2E2E2E2E2E2E2E2E2E2E2E2E2E2E2E2E2E2E2E2E2E2E2E2E2E2E2E2E2E2E2E2
310
E2E2E2E2E2E2E2E2E2E2E2E2E2E2E2E2E2E2E2E2E2E2E2E2E2E2E2E2E2E2E2E2E2E2E2E2E2E2E2E2E2E2E2E2E2E2E2E2E2E2E2E2E2E2E2E2E2E2E2E2E2E2E2E2E2E2E2E2E2E2E2E2E2E2E2E2E2E2E2E2E2E2E2E2E2E2E2E2E2E2E2E2E2E2E2E2E2E2E2E2E2F5E2E2E2E2E2E2E2E2E2E2E2F5F5F5F5E2E2E2E2E2E2E2E2E2E2
310
E2F5E2E2E2E2E2E2E2E2E2E2E2E2E2E2E2E2E2E2E2E2E2E2E2E2E2E2E2E2E2E2E2E2E2E2E2E2E2E2E2E2E2E2E2E2E2E2E2E2E2E2E2E2E2E2E2E2E2E2E2E2E2E2E2E2E2E2E2E2E2E2E2E2E2E2E2E2E2E2E2E2E2E2E2E2E2E2E2E2E2E2E2E2E2E2E2E2E2E2E2E2E2E2E2E2E2E2E2E2E2E2E2E2E2E2E2E2E2E2E2E2E2E2E2E2E2
310
E2E2E2E2E2E2E2E2E2E2E2E2E2E2E2E2E2E2E2E2E2E2E2E2E2E2E2F5E2E2E2E2E2E2E2E2E2E2E2F5F5F5F5E2E2E2E2E2E2E2E2E2E2E2F5E2E2E2E2E2E2E2E2E2E2E2E2E2E2E2E2E2E2E2E2E2E2E2E2E2E2E2E2E2E2E2E2E2E2E2E2E2E2E2E2E2E2E2E2E2E2E2E2E2E2E2E2E2E2E2E2E2E2E2E2E2E2E2E2E2E2E2E2E2E2E2E2
310
E2E2E2E2E2E2E2E2E2E2E2E2E2E2E2E2E2E2E2E2E2E2E2E2E2E2E2E2E2E2E2E2E2E2E2E2E2E2E2E2E2E2E2E2E2E2E2E2E2E2E2E2E2E2E2E2E2E2E2E2E2E2E2E2E2E2E2E2E2E2E2E2E2E2E2E2E2E2E2E2F5E2E2E2E2E2E2E2E2E2E2E2F5F5F5F5E2E2E2E2E2E2E2E2E2E2E2F5E2E2E2E2E2E2E2E2E2E2E2E2E2E2E2E2E2E2E2
310
E2E2E2E2E2E2E2E2E2E2E2E2E2E2E2E2E2E2E2E2E2E2E2E2E2E2E2E2E2E2E2E2E2E2E2E2E2E2E2E2E2E2E2E2E2E2E2E2E2E2E2E2E2E2E2E2E2E2E2E2E2E2E2E2E2E2E2E2E2E2E2E2E2E2E2E2E2E2E2E2E2E2E2E2E2E2E2E2E2E2E2E2E2E2E2E2E2E2E2E2E2E2E2E2E2E2E2E2E2E2E2E2E2E2E2E2E2E2E2E2E2E2E2E2E2E2E2
310
E2E2E2E2E2E2F5E2E2E2E2E2E2E2E2E2E2E2F5F5F5F5E2E2E2E2E2E2E2E2E2E2E2F5E2E2E2E2E2E2E2E2E2E2E2E2E2E2E2E2E2E2E2E2E2E2E2E2E2E2E2E2E2E2E2E2E2E2E2E2E2E2E2E2E2E2E2E2E2E2E2E2E2E2E2E2E2E2E2E2E2E2E2E2E2E2E2E2E2E2E2E2E2E2E2E2E2E2E2E2E2E2E2E2E2E2E2E2E2E2E2E2E2E2E2E2E2
310
E2E2E2E2E2E2E2E2E2E2E2E2E2E2E2E2E2E2E2E2E2E2E2E2E2E2E2E2E2E2E2E2E2E2E2E2E2E2E2E2E2E2E2E2E2E2E2E2E2E2E2E2E2E2E2E2E2E2E2F5E2E2E2E2E2E2E2E2E2E2E2F5F5F5F5E2E2E2E2E2E2E2E2E2E2E2F5E2E2E2E2E2E2E2E2E2E2E2E2E2E2E2E2E2E2E2E2E2E2E2E2E2E2E2E2E2E2E2E2E2E2E2E2E2E2E2E2
310
E2E2E2E2E2E2E2E2E2E2E2E2E2E2E2E2E2E2E2E2E2E2E2E2E2E2E2E2E2E2E2E2E2E2E2E2E2E2E2E2E2E2E2E2E2E2E2E2E2E2E2E2E2E2E2E2E2E2E2E2E2E2E2E2E2E2E2E2E2E2E2E2E2E2E2E2E2E2E2E2E2E2E2E2E2E2E2E2E2E2E2E2E2E2E2E2E2E2E2E2E2E2E2E2E2E2E2E2E2E2E2E2F5E2E2E2E2E2E2E2E2E2E2E2F5F5F5
310
F5E2E2E2E2E2E2E2E2E2E2E2E2E2E2E2E2E2E2E2E2E2E2E2E2E2E2E2E2E2E2E2E2E2E2E2E2E2E2E2E2E2E2E2E2E2E2E2E2E2E2E2E2E2E2E2E2E2E2E2E2E2E2E2E2E2E2E2E2E2E2E2E2E2E2E2E2E2E2E2E2E2E2E2E2E2E2E2E2E2E2E2E2E2E2E2E2E2E2E2E2E2E2E2E2E2E2E2E2E2E2E2E2E2E2E2E2E2E2E2E2E2E2E2E2E2E2
310
E2E2E2E2E2E2E2E2E2E2E2E2E2E2E2E2E2E2E2E2E2E2E2E2E2E2E2E2E2E2E2E2E2E2E2E2E2E2E2E2E2E2E2E2E2E2E2E2E2E2F5F5F5F5E2E2E2E2E2E2E2E2E2E2E2E2E2E2E2E2E2E2E2E2E2E2E2E2E2E2E2E2E2E2E2E2E2E2E2E2E2E2E2E2E2E2E2E2E2E2E2E2E2E2E2E2E2E2E2E2E2E2E2E2E2E2E2E2E2E2E2E2E2E2E2E2E2
310
E2E2E2E2E2E2E2E2E2E2E2E2E2E2E2E2E2E2E2E2E2E2E2E2E2E2E2E2E2E2E2E2E2E2E2E2E2E2E2E2E2E2E2E2E2E2E2E2E2E2E2E2E2E2E2E2E2E2E2E2E2E2E2E2E2E2E2E2E2E2E2E2E2E2E2E2E2E2E2E2E2E2E2E2E2E2E2E2E2E2E2E2E2E2E2E2E2E2E2E2E2E2E2F5F5F5F5E2E2E2E2E2E2E2E2E2E2E2E2E2E2E2E2E2E2E2E2
310
E2E2E2E2E2E2E2E2E2E2E2E2E2E2E2E2E2E2E2E2E2E2E2E2E2E2E2E2E2E2E2E2E2E2E2E2E2E2E2E2E2E2E2E2E2E2E2E2E2E2E2E2E2E2E2E2E2E2E2E2E2E2E2E2E2E2E2E2E2E2E2E2E2E2E2E2E2E2E2E2E2E2E2E2E2E2E2E2E2E2E2E2E2E2E2E2E2E2E2E2E2E2E2E2E2E2E2E2E2E2E2E2E2E2E2E2E2E2E2E2E2E2E2E2E2E2E2
310
E2E2E2E2E2E2E2E2E2E2E2E2E2E2E2E2E2E2E2E2E2E2E2E2E2E2E2E2E2F5F5F5F5E2E2E2E2E2E2E2E2E2E2E2E2E2E2E2E2E2E2E2E2E2E2E2E2E2E2E2E2E2E2E2E2E2E2E2E2E2E2E2E2E2E2E2E2E2E2E2E2E2E2E2E2E2E2E2E2E2E2E2E2E2E2E2E2E2E2E2E2E2E2E2E2E2E2E2E2E2E2E2E2E2E2E2E2E2E2E2E2E2E2E2E2E2E2
310
E2E2E2E2E2E2E2E2E2E2E2E2E2E2E2E2E2E2E2E2E2E2E2E2E2E2E2E2E2E2E2E2E2E2E2E2E2E2E2E2E2E2E2E2E2E2E2E2E2E2E2E2E2E2E2E2E2E2E2E2E2E2E2E2E2E2E2E2E2E2E2E2E2E2E2E2E2E2E2E2E2E2F5F5F5F5E2E2E2E2E2E2E2E2E2E2E2E2E2E2E2E2E2E2E2E2E2E2E2E2E2E2E2E2E2E2E2E2E2E2E2E2E2E2E2E2E2
310
E2E2E2E2E2E2E2E2E2E2E2E2E2E2E2E2E2E2E2E2E2E2E2E2E2E2E2E2E2E2E2E2E2E2E2E2E2E2E2E2E2E2E2E2E2E2E2E2E2E2E2E2E2E2E2E2E2E2E2E2E2E2E2E2E2E2E2E2E2E2E2E2E2E2E2E2E2E2E2E2E2E2E2E2E2E2E2E2E2E2E2E2E2E2E2E2E2E2E2E2E2E2E2E2E2E2E2E2E2E2E2E2E2E2E2E2E2E2E2E2E2E2E2E2E2E2E2
310
E2E2E2E2E2E2E2E2F5F5F5F5E2E2E2E2E2E2E2E2E2E2E2E2E2E2E2E2E2E2E2E2E2E2E2E2E2E2E2E2E2E2E2E2E2E2E2E2E2E2E2E2E2E2E2E2E2E2E2E2E2E2E2E2E2E2E2E2E2E2E2E2E2E2E2E2E2E2E2E2E2E2E2E2E2E2E2E2E2E2E2E2E2E2E2E2E2E2E2E2E2E2E2E2E2E2E2E2E2E2E2E2E2E2E2E2E2E2E2E2E2E2E2E2E2E2E2
310
E2E2E2E2E2E2E2E2E2E2E2E2E2E2E2E2E2E2E2E2E2E2E2E2E2E2E2E2E2E2E2E2E2E2E2E2E2E2E2E2E2E2E2E2E2E2E2E2E2E2E2E2E2E2E2E2E2E2E2E2E2F5F5F5F5E2E2E2E2E2E2E2E2E2E2E2E2E2E2E2E2E2E2E2E2E2E2E2E2E2E2E2E2E2E2E2E2E2E2E2E2E2E2E2E2E2E2E2E2E2E2E2E2E2E2E2E2E2E2E2E2E2E2E2E2E2E2
310
E2E2E2E2E2E2E2E2E2E2E2E2E2E2E2E2E2E2E2E2E2E2E2E2E2E2E2E2E2E2E2E2E2E2E2E2E2E2E2E2E2E2E2E2E2E2E2E2E2E2E2E2E2E2E2E2E2E2E2E2E2E2E2E2E2E2E2E2E2E2E2E2E2E2E2E2E2E2E2E2E2E2E2E2E2E2E2E2E2E2E2E2E2E2E2E2E2E2E2E2E2E2E2E2E2E2E2E2E2E2E2E2E2E2F5F5F5F5E2E2E2E2E2E2E2E2E2
310
E2E2E2E2E2E2E2E2E2E2E2E2E2E2E2E2E2E2E2E2E2E2E2E2E2E2E2E2E2E2E2E2E2E2E2E2E2E2E2E2E2E2E2E2E2E2E2E2E2E2E2E2E2E2E2E2E2E2E2E2E2E2E2E2E2E2E2E2E2E2E2E2E2E2E2E2E2E2E2E2E2E2E2E2E2E2E2E2E2E2E2E2E2E2E2E2E2E2E2E2E2E2E2E2E2E2E2E2E2E2E2E2E2E2E2E2E2E2E2E2E2E2E2E2E2E2E2
310
E2E2E2E2E2E2E2E2E2E2E2E2E2E2E2E2E2E2E2E2E2E2E2E2E2E2E2E2E2E2E2E2E2E2E2E2E2E2E2E2F5F5F5F5E2E2E2E2E2E2E2E2E2E2E2E2E2E2E2E2E2E2E2E2E2E2E2E2E2E2E2E2E2E2E2E2E2E2E2E2E2E2E2E2E2E2E2E2E2E2E2E2E2E2E2E2E2E2E2E2E2E2E2E2E2E2E2E2E2E2E2E2E2E2E2E2E2E2E2E2E2E2E2E2E2E2E2
310
E2E2E2E2E2E2E2E2E2E2E2E2E2E2E2E2E2E2E2E2E2E2E2E2E2E2E2E2E2E2E2E2E2E2E2E2E2E2E2E2E2E2E2E2E2E2E2E2E2E2E2E2E2E2E2E2E2E2E2E2E2E2E2E2E2E2E2E2E2E2E2E2E2E2E2E2E2E2E2E2E2E2E2E2E2E2E2E2E2E2E2E2E2F5F5F5F5E2E2E2E2E2E2E2E2E2E2E2F5E2E2E2E2E2E2E2E2E2E2E2E2E2E2E2E2E2E2
310
E2E2E2E2E2E2E2E2E2E2E2E2E2E2E2E2E2E2E2E2E2E2E2E2E2E2E2E2E2E2E2E2E2E2E2E2E2E2E2E2E2E2E2E2E2E2E2E2E2E2E2E2E2E2E2E2E2E2E2E2E2E2E2E2E2E2E2E2E2E2E2E2E2E2E2E2E2E2E2E2E2E2E2E2E2E2E2E2E2E2E2E2E2E2E2E2E2E2E2E2E2E2E2E2E2E2E2E2E2E2E2E2E2E2E2E2E2E2E2E2E2E2E2E2E2E2E2
310
E2E2E2E2E2E2E2F5E2E2E2E2E2E2E2E2E2E2E2F5F5F5F5E2E2E2E2E2E2E2E2E2E2E2F5E2E2E2E2E2E2E2E2E2E2E2E2E2E2E2E2E2E2E2E2E2E2E2E2E2E2E2E2E2E2E2E2E2E2E2E2E2E2E2E2E2E2E2E2E2E2E2E2E2E2E2E2E2E2E2E2E2E2E2E2E2E2E2E2E2E2E2E2E2E2E2E2E2E2E2E2E2E2E2E2E2E2E2E2E2E2E2E2E2E2E2E2
310
E2E2E2E2E2E2E2E2E2E2E2E2E2E2E2E2E2E2E2E2E2E2E2E2E2E2E2E2E2E2E2E2E2E2E2E2E2E2E2E2E2E2E2E2E2E2E2E2E2E2E2E2E2E2E2E2E2E2E2E2F5E2E2E2E2E2E2E2E2E2E2E2F5F5F5F5E2E2E2E2E2E2E2E2E2E2E2F5E2E2E2E2E2E2E2E2E2E2E2E2E2E2E2E2E2E2E2E2E2E2E2E2E2E2E2E2E2E2E2E2E2E2E2E2E2E2E2
310
E2E2E2E2E2E2E2E2E2E2E2E2E2E2E2E2E2E2E2E2E2E2E2E2E2E2E2E2E2E2E2E2E2E2E2E2E2E2E2E2E2E2E2E2E2E2E2E2E2E2E2E2E2E2E2E2E2E2E2E2E2E2E2E2E2E2E2E2E2E2E2E2E2E2E2E2E2E2E2E2E2E2E2E2E2E2E2E2E2E2E2E2E2E2E2E2E2E2E2E2E2E2E2E2E2E2E2E2E2E2E2E2E2F5E2E2E2E2E2E2E2E2E2E2E2F5F5
310
F5F5E2E2E2E2E2E2E2E2E2E2E2F5E2E2E2E2E2E2E2E2E2E2E2E2E2E2E2E2E2E2E2E2E2E2E2E2E2E2E2E2E2E2E2E2E2E2E2E2E2E2E2E2E2E2E2E2E2E2E2E2E2E2E2E2E2E2E2E2E2E2E2E2E2E2E2E2E2E2E2E2E2E2E2E2E2E2E2E2E2E2E2E2E2E2E2E2E2E2E2E2E2E2E2E2E2E2E2E2E2E2E2E2E2E2E2E2E2E2E2E2E2E2E2E2E2
310
E2E2E2E2E2E2E2E2E2E2E2E2E2E2E2E2E2E2E2E2E2E2E2E2E2E2E2E2E2E2E2E2E2E2E2E2E2E2E2F5E2E2E2E2E2E2E2E2E2E2E2F5F5F5F5E2E2E2E2E2E2E2E2E2E2E2F5E2E2E2E2E2E2E2E2E2E2E2E2E2E2E2E2E2E2E2E2E2E2E2E2E2E2E2E2E2E2E2E2E2E2E2E2E2E2E2E2E2E2E2E2E2E2E2E2E2E2E2E2E2E2E2E2E2E2E2E2
310
E2E2E2E2E2E2E2E2E2E2E2E2E2E2E2E2E2E2E2E2E2E2E2E2E2E2E2E2E2E2E2E2E2E2E2E2E2E2E2E2E2E2E2E2E2E2E2E2E2E2E2E2E2E2E2E2E2E2E2E2E2E2E2E2E2E2E2E2E2E2E2E2E2E2E2E2E2E2E2E2E2E2E2E2E2E2E2E2E2E2E2E2F5E2E2E2E2E2E2E2E2E2E2E2F5F5F5F5E2E2E2E2E2E2E2E2E2E2E2F5E2E2E2E2E2E2E2
310
E2E2E2E2E2E2E2E2E2E2E2E2E2E2E2E2E2E2E2E2E2E2E2E2E2E2E2E2E2E2E2E2E2E2E2E2E2E2E2E2E2E2E2E2E2E2E2E2E2E2E2E2E2E2E2E2E2E2E2E2E2E2E2E2E2E2E2E2E2E2E2E2E2E2E2E2E2E2E2E2E2E2E2E2E2E2E2E2E2E2E2E2E2E2E2E2E2E2E2E2E2E2E2E2E2E2E2E2E2E2E2E2E2E2E2E2E2E2E2E2E2E2E2E2E2E2E2
310
E2E2E2E2E2E2E2E2E2E2E2E2E2E2E2E2E2E2F5E2E2E2E2E2E2E2E2E2E2E2F5F5F5F5E2E2E2E2E2E2E2E2E2E2E2F5E2E2E2E2E2E2E2E2E2E2E2E2E2E2E2E2E2E2E2E2E2E2E2E2E2E2E2E2E2E2E2E2E2E2E2E2E2E2E2E2E2E2E2E2E2E2E2E2E2E2E2E2E2E2E2E2E2E2E2E2E2E2E2E2E2E2E2E2E2E2E2E2E2E2E2E2E2E2E2E2E2
310
E2E2E2E2E2E2E2E2E2E2E2E2E2E2E2E2E2E2E2E2E2E2E2E2E2E2E2E2E2E2E2E2E2E2E2E2E2E2E2E2E2E2E2E2E2E2E2E2E2E2E2E2E2E2E2E2E2E2E2E2E2E2E2E2E2E2E2E2E2E2E2F5E2E2E2E2E2E2E2E2E2E2E2F5F5F5F5E2E2E2E2E2E2E2E2E2E2E2F5E2E2E2E2E2E2E2E2E2E2E2E2E2E2E2E2E2E2E2E2E2E2E2E2E2E2E2E2
310
E2E2E2E2E2E2E2E2E2E2E2E2E2E2E2E2E2E2E2E2E2E2E2E2E2E2E2E2E2E2E2E2E2E2E2E2E2E2E2E2E2E2E2E2E2E2E2E2E2E2E2E2E2E2E2E2E2E2E2E2E2E2E2E2E2E2E2E2E2E2E2E2E2E2E2E2E2E2E2E2E2E2E2E2E2E2E2E2E2E2E2E2E2E2E2E2E2E2E2E2E2E2E2E2E2E2E2E2E2E2E2E2E2E2E2E2E2E2E2E2E2E2E2E2F5E2E2
310
E2E2E2E2E2E2E2E2E2F5F5F5F5E2E2E2E2E2E2E2E2E2E2E2F5E2E2E2E2E2E2E2E2E2E2E2E2E2E2E2E2E2E2E2E2E2E2E2E2E2E2E2E2E2E2E2E2E2E2E2E2E2E2E2E2E2E2E2E2E2E2E2E2E2E2E2E2E2E2E2E2E2E2E2E2E2E2E2E2E2E2E2E2E2E2E2E2E2E2E2E2E2E2E2E2E2E2E2E2E2E2E2E2E2E2E2E2E2E2E2E2E2E2E2E2E2E2
310
E2E2E2E2E2E2E2E2E2E2E2E2E2E2E2E2E2E2E2E2E2E2E2E2E2E2E2E2E2E2E2E2E2E2E2E2E2E2E2E2E2E2E2E2E2E2E2E2E2E2F5E2E2E2E2E2E2E2E2E2E2E2F5F5F5F5E2E2E2E2E2E2E2E2E2E2E2F5E2E2E2E2E2E2E2E2E2E2E2E2E2E2E2E2E2E2E2E2E2E2E2E2E2E2E2E2E2E2E2E2E2E2E2E2E2E2E2E2E2E2E2E2E2E2E2E2E2
310
E2E2E2E2E2E2E2E2E2E2E2E2E2E2E2E2E2E2E2E2E2E2E2E2E2E2E2E2E2E2E2E2E2E2E2E2E2E2E2E2E2E2E2E2E2E2E2E2E2E2E2E2E2E2E2E2E2E2E2E2E2E2E2E2E2E2E2E2E2E2E2E2E2E2E2E2E2E2E2E2E2E2E2E2E2E2E2E2E2E2E2E2E2E2E2E2E2E2E2E2E2E2E2F5E2E2E2E2E2E2E2E2E2E2E2F5F5F5F5E2E2E2E2E2E2E2E2
310
E2E2E2F5E2E2E2E2E2E2E2E2E2E2E2E2E2E2E2E2E2E2E2E2E2E2E2E2E2E2E2E2E2E2E2E2E2E2E2E2E2E2E2E2E2E2E2E2E2E2E2E2E2E2E2E2E2E2E2E2E2E2E2E2E2E2E2E2E2E2E2E2E2E2E2E2E2E2E2E2E2E2E2E2E2E2E2E2E2E2E2E2E2E2E2E2E2E2E2E2E2E2E2E2E2E2E2E2E2E2E2E2E2E2E2E2E2E2E2E2E2E2E2E2E2E2E2
310
E2E2E2E2E2E2E2E2E2E2E2E2E2E2E2E2E2E2E2E2E2E2E2E2E2E2E2E2E2F5E2E2E2E2E2E2E2E2E2E2E2F5F5F5F5E2E2E2E2E2E2E2E2E2E2E2F5E2E2E2E2E2E2E2E2E2E2E2E2E2E2E2E2E2E2E2E2E2E2E2E2E2E2E2E2E2E2E2E2E2E2E2E2E2E2E2E2E2E2E2E2E2E2E2E2E2E2E2E2E2E2E2E2E2E2E2E2E2E2E2E2E2E2E2E2E2E2
310
E2E2E2E2E2E2E2E2E2E2E2E2E2E2E2E2E2E2E2E2E2E2E2E2E2E2E2E2E2E2E2E2E2E2E2E2E2E2E2E2E2E2E2E2E2E2E2E2E2E2E2E2E2E2E2E2E2E2E2E2E2E2E2E2E2E2E2E2E2E2E2E2E2E2E2E2E2E2E2E2E2E2F5E2E2E2E2E2E2E2E2E2E2E2F5F5F5F5E2E2E2E2E2E2E2E2E2E2E2F5E2E2E2E2E2E2E2E2E2E2E2E2E2E2E2E2E2
310
E2E2E2E2E2E2E2E2E2E2E2E2E2E2E2E2E2E2E2E2E2E2E2E2E2E2E2E2E2E2E2E2E2E2E2E2E2E2E2E2E2E2E2E2E2E2E2E2E2E2E2E2E2E2E2E2E2E2E2E2E2E2E2E2E2E2E2E2E2E2E2E2E2E2E2E2E2E2E2E2E2E2E2E2E2E2E2E2E2E2E2E2E2E2E2E2E2E2E2E2E2E2E2E2E2E2E2E2E2E2E2E2E2E2E2E2E2E2E2E2E2E2E2E2E2E2E2
310
E2E2E2E2E2E2E2E2F5E2E2E2E2E2E2E2E2E2E2E2F5F5F5F5E2E2E2E2E2E2E2E2E2E2E2F5E2E2E2E2E2E2E2E2E2E2E2E2E2E2E2E2E2E2E2E2E2E2E2E2E2E2E2E2E2E2E2E2E2E2E2E2E2E2E2E2E2E2E2E2E2E2E2E2E2E2E2E2E2E2E2E2E2E2E2E2E2E2E2E2E2E2E2E2E2E2E2E2E2E2E2E2E2E2E2E2E2E2E2E2E2E2E2E2E2E2E2
310
E2E2E2E2E2E2E2E2E2E2E2E2E2E2E2E2E2E2E2E2E2E2E2E2E2E2E2E2E2E2E2E2E2E2E2E2E2E2E2E2E2E2E2E2E2E2E2E2E2E2E2E2E2E2E2E2E2E2E2E2E2F5E2E2E2E2E2E2E2E2E2E2E2F5F5F5F5E2E2E2E2E2E2E2E2E2E2E2F5E2E2E2E2E2E2E2E2E2E2E2E2E2E2E2E2E2E2E2E2E2E2E2E2E2E2E2E2E2E2E2E2E2E2E2E2E2E2
310
E2E2E2E2E2E2E2E2E2E2E2E2E2E2E2E2E2E2E2E2E2E2E2E2E2E2E2E2E2E2E2E2E2E2E2E2E2E2E2E2E2E2E2E2E2E2E2E2E2E2E2E2E2E2E2E2E2E2E2E2E2E2E2E2E2E2E2E2E2E2E2E2E2E2E2E2E2E2E2E2E2E2E2E2E2E2E2E2E2E2E2E2E2E2E2E2E2E2E2E2E2E2E2E2E2E2E2E2E2E2E2E2E2E2F5E2E2E2E2E2E2E2E2E2E2E2F5
310
F5F5F5E2E2E2E2E2E2E2E2E2E2E2E2E2E2E2E2E2E2E2E2E2E2E2E2E2E2E2E2E2E2E2E2E2E2E2E2E2E2E2E2E2E2E2E2E2E2E2E2E2E2E2E2E2E2E2E2E2E2E2E2E2E2E2E2E2E2E2E2E2E2E2E2E2E2E2E2E2E2E2E2E2E2E2E2E2E2E2E2E2E2E2E2E2E2E2E2E2E2E2E2E2E2E2E2E2E2E2E2E2E2E2E2E2E2E2E2E2E2E2E2E2E2E2E2
310
E2E2E2E2E2E2E2E2E2E2E2E2E2E2E2E2E2E2E2E2E2E2E2E2E2E2E2E2E2E2E2E2E2E2E2E2E2E2E2E2E2E2E2E2E2E2E2E2E2E2E2E2F5F5F5F5E2E2E2E2E2E2E2E2E2E2E2E2E2E2E2E2E2E2E2E2E2E2E2E2E2E2E2E2E2E2E2E2E2E2E2E2E2E2E2E2E2E2E2E2E2E2E2E2E2E2E2E2E2E2E2E2E2E2E2E2E2E2E2E2E2E2E2E2E2E2E2
310
E2E2E2E2E2E2E2E2E2E2E2E2E2E2E2E2E2E2E2E2E2E2E2E2E2E2E2E2E2E2E2E2E2E2E2E2E2E2E2E2E2E2E2E2E2E2E2E2E2E2E2E2E2E2E2E2E2E2E2E2E2E2E2E2E2E2E2E2E2E2E2E2E2E2E2E2E2E2E2E2E2E2E2E2E2E2E2E2E2E2E2E2E2E2E2E2E2E2E2E2E2E2E2E2E2F5F5F5F5E2E2E2E2E2E2E2E2E2E2E2E2E2E2E2E2E2E2
310
E2E2E2E2E2E2E2E2E2E2E2E2E2E2E2E2E2E2E2E2E2E2E2E2E2E2E2E2E2E2E2E2E2E2E2E2E2E2E2E2E2E2E2E2E2E2E2E2E2E2E2E2E2E2E2E2E2E2E2E2E2E2E2E2E2E2E2E2E2E2E2E2E2E2E2E2E2E2E2E2E2E2E2E2E2E2E2E2E2E2E2E2E2E2E2E2E2E2E2E2E2E2E2E2E2E2E2E2E2E2E2E2E2E2E2E2E2E2E2E2E2E2E2E2E2E2E2
310
E2E2E2E2E2E2E2E2E2E2E2E2E2E2E2E2E2E2E2E2E2E2E2E2E2E2E2E2E2E2E2F5F5F5F5E2E2E2E2E2E2E2E2E2E2E2E2E2E2E2E2E2E2E2E2E2E2E2E2E2E2E2E2E2E2E2E2E2E2E2E2E2E2E2E2E2E2E2E2E2E2E2E2E2E2E2E2E2E2E2E2E2E2E2E2E2E2E2E2E2E2E2E2E2E2E2E2E2E2E2E2E2E2E2E2E2E2E2E2E2E2E2E2E2E2E2E2
310
E2E2E2E2E2E2E2E2E2E2E2E2E2E2E2E2E2E2E2E2E2E2E2E2E2E2E2E2E2E2E2E2E2E2E2E2E2E2E2E2E2E2E2E2E2E2E2E2E2E2E2E2E2E2E2E2E2E2E2E2E2E2E2E2E2E2E2E2E2E2E2E2E2E2E2E2E2E2E2E2E2E2E2E2F5F5F5F5E2E2E2E2E2E2E2E2E2E2E2E2E2E2E2E2E2E2E2E2E2E2E2E2E2E2E2E2E2E2E2E2E2E2E2E2E2E2E2
310
E2E2E2E2E2E2E2E2E2E2E2E2E2E2E2E2E2E2E2E2E2E2E2E2E2E2E2E2E2E2E2E2E2E2E2E2E2E2E2E2E2E2E2E2E2E2E2E2E2E2E2E2E2E2E2E2E2E2E2E2E2E2E2E2E2E2E2E2E2E2E2E2E2E2E2E2E2E2E2E2E2E2E2E2E2E2E2E2E2E2E2E2E2E2E2E2E2E2E2E2E2E2E2E2E2E2E2E2E2E2E2E2E2E2E2E2E2E2E2E2E2E2E2E2E2E2E2
310
E2E2E2E2E2E2E2E2E2E2F5F5F5F5E2E2E2E2E2E2E2E2E2E2E2E2E2E2E2E2E2E2E2E2E2E2E2E2E2E2E2E2E2E2E2E2E2E2E2E2E2E2E2E2E2E2E2E2E2E2E2E2E2E2E2E2E2E2E2E2E2E2E2E2E2E2E2E2E2E2E2E2E2E2E2E2E2E2E2E2E2E2E2E2E2E2E2E2E2E2E2E2E2E2E2E2E2E2E2E2E2E2E2E2E2E2E2E2E2E2E2E2E2E2E2E2E2
310
E2E2E2E2E2E2E2E2E2E2E2E2E2E2E2E2E2E2E2E2E2E2E2E2E2E2E2E2E2E2E2E2E2E2E2E2E2E2E2E2E2E2E2E2E2E2E2E2E2E2E2E2E2E2E2E2E2E2E2E2E2E2E2F5F5F5F5E2E2E2E2E2E2E2E2E2E2E2E2E2E2E2E2E2E2E2E2E2E2E2E2E2E2E2E2E2E2E2E2E2E2E2E2E2E2E2E2E2E2E2E2E2E2E2E2E2E2E2E2E2E2E2E2E2E2E2E2
310
E2E2E2E2E2E2E2E2E2E2E2E2E2E2E2E2E2E2E2E2E2E2E2E2E2E2E2E2E2E2E2E2E2E2E2E2E2E2E2E2E2E2E2E2E2E2E2E2E2E2E2E2E2E2E2E2E2E2E2E2E2E2E2E2E2E2E2E2E2E2E2E2E2E2E2E2E2E2E2E2E2E2E2E2E2E2E2E2E2E2E2E2E2E2E2E2E2E2E2E2E2E2E2E2E2E2E2E2E2E2E2E2E2E2E2E2F5F5F5F5E2E2E2E2E2E2E2
310
E2E2E2E2E2E2E2E2E2E2E2E2E2E2E2E2E2E2E2E2E2E2E2E2E2E2E2E2E2E2E2E2E2E2E2E2E2E2E2E2E2E2E2E2E2E2E2E2E2E2E2E2E2E2E2E2E2E2E2E2E2E2E2E2E2E2E2E2E2E2E2E2E2E2E2E2E2E2E2E2E2E2E2E2E2E2E2E2E2E2E2E2E2E2E2E2E2E2E2E2E2E2E2E2E2E2E2E2E2E2E2E2E2E2E2E2E2E2E2E2E2E2E2E2E2E2E2
310
E2E2E2E2E2E2E2E2E2E2E2E2E2E2E2E2E2E2E2E2E2E2E2E2E2E2E2E2E2E2E2E2E2E2E2E2E2E2E2E2E2E2F5F5F5F5E2E2E2E2E2E2E2E2E2E2E2F5E2E2E2E2E2E2E2E2E2E2E2E2E2E2E2E2E2E2E2E2E2E2E2E2E2E2E2E2E2E2E2E2E2E2E2E2E2E2E2E2E2E2E2E2E2E2E2E2E2E2E2E2E2E2E2E2E2E2E2E2E2E2E2E2E2E2E2E2E2
310
E2E2E2E2E2E2E2E2E2E2E2E2E2E2E2E2E2E2E2E2E2E2E2E2E2E2E2E2E2E2E2E2E2E2E2E2E2E2E2E2E2E2E2E2E2E2E2E2E2E2E2E2E2E2E2E2E2E2E2E2E2E2E2E2E2E2E2E2E2E2E2E2E2E2E2E2E2E2E2E2E2E2E2F5E2E2E2E2E2E2E2E2E2E2E2F5F5F5F5E2E2E2E2E2E2E2E2E2E2E2F5E2E2E2E2E2E2E2E2E2E2E2E2E2E2E2E2
310
E2E2E2E2E2E2E2E2E2E2E2E2E2E2E2E2E2E2E2E2E2E2E2E2E2E2E2E2E2E2E2E2E2E2E2E2E2E2E2E2E2E2E2E2E2E2E2E2E2E2E2E2E2E2E2E2E2E2E2E2E2E2E2E2E2E2E2E2E2E2E2E2E2E2E2E2E2E2E2E2E2E2E2E2E2E2E2E2E2E2E2E2E2E2E2E2E2E2E2E2E2E2E2E2E2E2E2E2E2E2E2E2E2E2E2E2E2E2E2E2E2E2E2E2E2E2E2
310
E2E2E2E2E2E2E2E2E2F5E2E2E2E2E2E2E2E2E2E2E2F5F5F5F5E2E2E2E2E2E2E2E2E2E2E2F5E2E2E2E2E2E2E2E2E2E2E2E2E2E2E2E2E2E2E2E2E2E2E2E2E2E2E2E2E2E2E2E2E2E2E2E2E2E2E2E2E2E2E2E2E2E2E2E2E2E2E2E2E2E2E2E2E2E2E2E2E2E2E2E2E2E2E2E2E2E2E2E2E2E2E2E2E2E2E2E2E2E2E2E2E2E2E2E2E2E2
310
E2E2E2E2E2E2E2E2E2E2E2E2E2E2E2E2E2E2E2E2E2E2E2E2E2E2E2E2E2E2E2E2E2E2E2E2E2E2E2E2E2E2E2E2E2E2E2E2E2E2E2E2E2E2E2E2E2E2E2E2E2E2F5E2E2E2E2E2E2E2E2E2E2E2F5F5F5F5E2E2E2E2E2E2E2E2E2E2E2F5E2E2E2E2E2E2E2E2E2E2E2E2E2E2E2E2E2E2E2E2E2E2E2E2E2E2E2E2E2E2E2E2E2E2E2E2E2
310
E2E2E2E2E2E2E2E2E2E2E2E2E2E2E2E2E2E2E2E2E2E2E2E2E2E2E2E2E2E2E2E2E2E2E2E2E2E2E2E2E2E2E2E2E2E2E2E2E2E2E2E2E2E2E2E2E2E2E2E2E2E2E2E2E2E2E2E2E2E2E2E2E2E2E2E2E2E2E2E2E2E2E2E2E2E2E2E2E2E2E2E2E2E2E2E2E2E2E2E2E2E2E2E2E2E2E2E2E2E2E2E2E2E2E2F5E2E2E2E2E2E2E2E2E2E2E2
310
F5F5F5F5E2E2E2E2E2E2E2E2E2E2E2F5E2E2E2E2E2E2E2E2E2E2E2E2E2E2E2E2E2E2E2E2E2E2E2E2E2E2E2E2E2E2E2E2E2E2E2E2E2E2E2E2E2E2E2E2E2E2E2E2E2E2E2E2E2E2E2E2E2E2E2E2E2E2E2E2E2E2E2E2E2E2E2E2E2E2E2E2E2E2E2E2E2E2E2E2E2E2E2E2E2E2E2E2E2E2E2E2E2E2E2E2E2E2E2E2E2E2E2E2E2E2E2
310
E2E2E2E2E2E2E2E2E2E2E2E2E2E2E2E2E2E2E2E2E2E2E2E2E2E2E2E2E2E2E2E2E2E2E2E2E2E2E2E2E2F5E2E2E2E2E2E2E2E2E2E2E2F5F5F5F5E2E2E2E2E2E2E2E2E2E2E2F5E2E2E2E2E2E2E2E2E2E2E2E2E2E2E2E2E2E2E2E2E2E2E2E2E2E2E2E2E2E2E2E2E2E2E2E2E2E2E2E2E2E2E2E2E2E2E2E2E2E2E2E2E2E2E2E2E2E2
310
E2E2E2E2E2E2E2E2E2E2E2E2E2E2E2E2E2E2E2E2E2E2E2E2E2E2E2E2E2E2E2E2E2E2E2E2E2E2E2E2E2E2E2E2E2E2E2E2E2E2E2E2E2E2E2E2E2E2E2E2E2E2E2E2E2E2E2E2E2E2E2E2E2E2E2E2E2E2E2E2E2E2E2E2E2E2E2E2E2E2E2E2E2E2F5E2E2E2E2E2E2E2E2E2E2E2F5F5F5F5E2E2E2E2E2E2E2E2E2E2E2F5E2E2E2E2E2
310
E2E2E2E2E2E2E2E2E2E2E2E2E2E2E2E2E2E2E2E2E2E2E2E2E2E2E2E2E2E2E2E2E2E2E2E2E2E2E2E2E2E2E2E2E2E2E2E2E2E2E2E2E2E2E2E2E2E2E2E2E2E2E2E2E2E2E2E2E2E2E2E2E2E2E2E2E2E2E2E2E2E2E2E2E2E2E2E2E2E2E2E2E2E2E2E2E2E2E2E2E2E2E2E2E2E2E2E2E2E2E2E2E2E2E2E2E2E2E2E2E2E2E2E2E2E2E2
310
E2E2E2E2E2E2E2E2E2E2E2E2E2E2E2E2E2E2E2E2F5E2E2E2E2E2E2E2E2E2E2E2F5F5F5F5E2E2E2E2E2E2E2E2E2E2E2F5E2E2E2E2E2E2E2E2E2E2E2E2E2E2E2E2E2E2E2E2E2E2E2E2E2E2E2E2E2E2E2E2E2E2E2E2E2E2E2E2E2E2E2E2E2E2E2E2E2E2E2E2E2E2E2E2E2E2E2E2E2E2E2E2E2E2E2E2E2E2E2E2E2E2E2E2E2E2E2
310
E2E2E2E2E2E2E2E2E2E2E2E2E2E2E2E2E2E2E2E2E2E2E2E2E2E2E2E2E2E2E2E2E2E2E2E2E2E2E2E2E2E2E2E2E2E2E2E2E2E2E2E2E2E2E2E2E2E2E2E2E2E2E2E2E2E2E2E2E2E2E2E2E2F5E2E2E2E2E2E2E2E2E2E2E2F5F5F5F5E2E2E2E2E2E2E2E2E2E2E2F5E2E2E2E2E2E2E2E2E2E2E2E2E2E2E2E2E2E2E2E2E2E2E2E2E2E2
310
E2E2E2E2E2E2E2E2E2E2E2E2E2E2E2E2E2E2E2E2E2E2E2E2E2E2E2E2E2E2E2E2E2E2E2E2E2E2E2E2E2E2E2E2E2E2E2E2E2E2E2E2E2E2E2E2E2E2E2E2E2E2E2E2E2E2E2E2E2E2E2E2E2E2E2E2E2E2E2E2E2E2E2E2E2E2E2E2E2E2E2E2E2E2E2E2E2E2E2E2E2E2E2E2E2E2E2E2E2E2E2E2E2E2E2E2E2E2E2E2E2E2E2E2E2E2F5
310
E2E2E2E2E2E2E2E2E2E2E2F5F5F5F5E2E2E2E2E2E2E2E2E2E2E2F5E2E2E2E2E2E2E2E2E2E2E2E2E2E2E2E2E2E2E2E2E2E2E2E2E2E2E2E2E2E2E2E2E2E2E2E2E2E2E2E2E2E2E2E2E2E2E2E2E2E2E2E2E2E2E2E2E2E2E2E2E2E2E2E2E2E2E2E2E2E2E2E2E2E2E2E2E2E2E2E2E2E2E2E2E2E2E2E2E2E2E2E2E2E2E2E2E2E2E2E2
310
E2E2E2E2E2E2E2E2E2E2E2E2E2E2E2E2E2E2E2E2E2E2E2E2E2E2E2E2E2E2E2E2E2E2E2E2E2E2E2E2E2E2E2E2E2E2E2E2E2E2E2E2F5E2E2E2E2E2E2E2E2E2E2E2F5F5F5F5E2E2E2E2E2E2E2E2E2E2E2F5E2E2E2E2E2E2E2E2E2E2E2E2E2E2E2E2E2E2E2E2E2E2E2E2E2E2E2E2E2E2E2E2E2E2E2E2E2E2E2E2E2E2E2E2E2E2E2
310
E2E2E2E2E2E2E2E2E2E2E2E2E2E2E2E2E2E2E2E2E2E2E2E2E2E2E2E2E2E2E2E2E2E2E2E2E2E2E2E2E2E2E2E2E2E2E2E2E2E2E2E2E2E2E2E2E2E2E2E2E2E2E2E2E2E2E2E2E2E2E2E2E2E2E2E2E2E2E2E2E2E2E2E2E2E2E2E2E2E2E2E2E2E2E2E2E2E2E2E2E2E2E2E2E2F5E2E2E2E2E2E2E2E2E2E2E2F5F5F5F5E2E2E2E2E2E2
310
E2E2E2E2E2F5E2E2E2E2E2E2E2E2E2E2E2E2E2E2E2E2E2E2E2E2E2E2E2E2E2E2E2E2E2E2E2E2E2E2E2E2E2E2E2E2E2E2E2E2E2E2E2E2E2E2E2E2E2E2E2E2E2E2E2E2E2E2E2E2E2E2E2E2E2E2E2E2E2E2E2E2E2E2E2E2E2E2E2E2E2E2E2E2E2E2E2E2E2E2E2E2E2E2E2E2E2E2E2E2E2E2E2E2E2E2E2E2E2E2E2E2E2E2E2E2E2
310
E2E2E2E2E2E2E2E2E2E2E2E2E2E2E2E2E2E2E2E2E2E2E2E2E2E2E2E2E2E2E2F5E2E2E2E2E2E2E2E2E2E2E2F5F5F5F5E2E2E2E2E2E2E2E2E2E2E2F5E2E2E2E2E2E2E2E2E2E2E2E2E2E2E2E2E2E2E2E2E2E2E2E2E2E2E2E2E2E2E2E2E2E2E2E2E2E2E2E2E2E2E2E2E2E2E2E2E2E2E2E2E2E2E2E2E2E2E2E2E2E2E2E2E2E2E2E2
310
E2E2E2E2E2E2E2E2E2E2E2E2E2E2E2E2E2E2E2E2E2E2E2E2E2E2E2E2E2E2E2E2E2E2E2E2E2E2E2E2E2E2E2E2E2E2E2E2E2E2E2E2E2E2E2E2E2E2E2E2E2E2E2E2E2E2E2E2E2E2E2E2E2E2E2E2E2E2E2E2E2E2E2E2F5E2E2E2E2E2E2E2E2E2E2E2F5F5F5F5E2E2E2E2E2E2E2E2E2E2E2F5E2E2E2E2E2E2E2E2E2E2E2E2E2E2E2
310
E2E2E2E2E2E2E2E2E2E2E2E2E2E2E2E2E2E2E2E2E2E2E2E2E2E2E2E2E2E2E2E2E2E2E2E2E2E2E2E2E2E2E2E2E2E2E2E2E2E2E2E2E2E2E2E2E2E2E2E2E2E2E2E2E2E2E2E2E2E2E2E2E2E2E2E2E2E2E2E2E2E2E2E2E2E2E2E2E2E2E2E2E2E2E2E2E2E2E2E2E2E2E2E2E2E2E2E2E2E2E2E2E2E2E2E2E2E2E2E2E2E2E2E2E2E2E2
310
E2E2E2E2E2E2E2E2E2E2F5E2E2E2E2E2E2E2E2E2E2E2F5F5F5F5E2E2E2E2E2E2E2E2E2E2E2F5E2E2E2E2E2E2E2E2E2E2E2E2E2E2E2E2E2E2E2E2E2E2E2E2E2E2E2E2E2E2E2E2E2E2E2E2E2E2E2E2E2E2E2E2E2E2E2E2E2E2E2E2E2E2E2E2E2E2E2E2E2E2E2E2E2E2E2E2E2E2E2E2E2E2E2E2E2E2E2E2E2E2E2E2E2E2E2E2E2
310
E2E2E2E2E2E2E2E2E2E2E2E2E2E2E2E2E2E2E2E2E2E2E2E2E2E2E2E2E2E2E2E2E2E2E2E2E2E2E2E2E2E2E2E2E2E2E2E2E2E2E2E2E2E2E2E2E2E2E2E2E2E2E2F5E2E2E2E2E2E2E2E2E2E2E2F5F5F5F5E2E2E2E2E2E2E2E2E2E2E2E2E2E2E2E2E2E2E2E2E2E2E2E2E2E2E2E2E2E2E2E2E2E2E2E2E2E2E2E2E2E2E2E2E2E2E2E2
310
E2E2E2E2E2E2E2E2E2E2E2E2E2E2E2E2E2E2E2E2E2E2E2E2E2E2E2E2E2E2E2E2E2E2E2E2E2E2E2E2E2E2E2E2E2E2E2E2E2E2E2E2E2E2E2E2E2E2E2E2E2E2E2E2E2E2E2E2E2E2E2E2E2E2E2E2E2E2E2E2E2E2E2E2E2E2E2E2E2E2E2E2E2E2E2E2E2E2E2E2E2E2E2E2E2E2E2E2E2E2E2E2E2E2E2E2E2E2E2E2E2E2E2E2E2E2E2
310
E2F5F5F5F5E2E2E2E2E2E2E2E2E2E2E2E2E2E2E2E2E2E2E2E2E2E2E2E2E2E2E2E2E2E2E2E2E2E2E2E2E2E2E2E2E2E2E2E2E2E2E2E2E2E2E2E2E2E2E2E2E2E2E2E2E2E2E2E2E2E2E2E2E2E2E2E2E2E2E2E2E2E2E2E2E2E2E2E2E2E2E2E2E2E2E2E2E2E2E2E2E2E2E2E2E2E2E2E2E2E2E2E2E2E2E2E2E2E2E2E2E2E2E2E2E2E2
310
E2E2E2E2E2E2E2E2E2E2E2E2E2E2E2E2E2E2E2E2E2E2E2E2E2E2E2E2E2E2E2E2E2E2E2E2E2E2E2E2E2E2E2E2E2E2E2E2E2E2E2E2E2E2F5F5F5F5E2E2E2E2E2E2E2E2E2E2E2E2E2E2E2E2E2E2E2E2E2E2E2E2E2E2E2E2E2E2E2E2E2E2E2E2E2E2E2E2E2E2E2E2E2E2E2E2E2E2E2E2E2E2E2E2E2E2E2E2E2E2E2E2E2E2E2E2E2
310
E2E2E2E2E2E2E2E2E2E2E2E2E2E2E2E2E2E2E2E2E2E2E2E2E2E2E2E2E2E2E2E2E2E2E2E2E2E2E2E2E2E2E2E2E2E2E2E2E2E2E2E2E2E2E2E2E2E2E2E2E2E2E2E2E2E2E2E2E2E2E2E2E2E2E2E2E2E2E2E2E2E2E2E2E2E2E2E2E2E2E2E2E2E2E2E2E2E2E2E2E2E2E2E2E2E2E2F5F5F5F5E2E2E2E2E2E2E2E2E2E2E2E2E2E2E2E2
310
E2E2E2E2E2E2E2E2E2E2E2E2E2E2E2E2E2E2E2E2E2E2E2E2E2E2E2E2E2E2E2E2E2E2E2E2E2E2E2E2E2E2E2E2E2E2E2E2E2E2E2E2E2E2E2E2E2E2E2E2E2E2E2E2E2E2E2E2E2E2E2E2E2E2E2E2E2E2E2E2E2E2E2E2E2E2E2E2E2E2E2E2E2E2E2E2E2E2E2E2E2E2E2E2E2E2E2E2E2E2E2E2E2E2E2E2E2E2E2E2E2E2E2E2E2E2E2
310
E2E2E2E2E2E2E2E2E2E2E2E2E2E2E2E2E2E2E2E2E2E2E2E2E2E2E2E2E2E2E2E2E2F5F5F5F5E2E2E2E2E2E2E2E2E2E2E2E2E2E2E2E2E2E2E2E2E2E2E2E2E2E2E2E2E2E2E2E2E2E2E2E2E2E2E2E2E2E2E2E2E2E2E2E2E2E2E2E2E2E2E2E2E2E2E2E2E2E2E2E2E2E2E2E2E2E2E2E2E2E2E2E2E2E2E2E2E2E2E2E2E2E2E2E2E2E2
310
E2E2E2E2E2E2E2E2E2E2E2E2E2E2E2E2E2E2E2E2E2E2E2E2E2E2E2E2E2E2E2E2E2E2E2E2E2E2E2E2E2E2E2E2E2E2E2E2E2E2E2E2E2E2E2E2E2E2E2E2E2E2E2E2E2E2E2E2E2E2E2E2E2E2E2E2E2E2E2E2E2E2E2E2E2E2F5F5F5F5E2E2E2E2E2E2E2E2E2E2E2E2E2E2E2E2E2E2E2E2E2E2E2E2E2E2E2E2E2E2E2E2E2E2E2E2E2
310
E2E2E2E2E2E2E2E2E2E2E2E2E2E2E2E2E2E2E2E2E2E2E2E2E2E2E2E2E2E2E2E2E2E2E2E2E2E2E2E2E2E2E2E2E2E2E2E2E2E2E2E2E2E2E2E2E2E2E2E2E2E2E2E2E2E2E2E2E2E2E2E2E2E2E2E2E2E2E2E2E2E2E2E2E2E2E2E2E2E2E2E2E2E2E2E2E2E2E2E2E2E2E2E2E2E2E2E2E2E2E2E2E2E2E2E2E2E2E2E2E2E2E2E2E2E2E2
310
E2E2E2E2E2E2E2E2E2E2E2E2F5F5F5F5E2E2E2E2E2E2E2E2E2E2E2E2E2E2E2E2E2E2E2E2E2E2E2E2E2E2E2E2E2E2E2E2E2E2E2E2E2E2E2E2E2E2E2E2E2E2E2E2E2E2E2E2E2E2E2E2E2E2E2E2E2E2E2E2E2E2E2E2E2E2E2E2E2E2E2E2E2E2E2E2E2E2E2E2E2E2E2E2E2E2E2E2E2E2E2E2E2E2E2E2E2E2E2E2E2E2E2E2E2E2E2
310
E2E2E2E2E2E2E2E2E2E2E2E2E2E2E2E2E2E2E2E2E2E2E2E2E2E2E2E2E2E2E2E2E2E2E2E2E2E2E2E2E2E2E2E2E2E2E2E2E2E2E2E2E2E2E2E2E2E2E2E2E2E2E2E2E2F5F5F5F5E2E2E2E2E2E2E2E2E2E2E2E2E2E2E2E2E2E2E2E2E2E2E2E2E2E2E2E2E2E2E2E2E2E2E2E2E2E2E2E2E2E2E2E2E2E2E2E2E2E2E2E2E2E2E2E2E2E2
310
E2E2E2E2E2E2E2E2E2E2E2E2E2E2E2E2E2E2E2E2E2E2E2E2E2E2E2E2E2E2E2E2E2E2E2E2E2E2E2E2E2E2E2E2E2E2E2E2E2E2E2E2E2E2E2E2E2E2E2E2E2E2E2E2E2E2E2E2E2E2E2E2E2E2E2E2E2E2E2E2E2E2E2E2E2E2E2E2E2E2E2E2E2E2E2E2E2E2E2E2E2E2E2E2E2E2E2E2E2E2E2E2E2E2E2E2E2E2F5F5F5F5E2E2E2E2E2
310
E2E2E2E2E2E2F5E2E2E2E2E2E2E2E2E2E2E2E2E2E2E2E2E2E2E2E2E2E2E2E2E2E2E2E2E2E2E2E2E2E2E2E2E2E2E2E2E2E2E2E2E2E2E2E2E2E2E2E2E2E2E2E2E2E2E2E2E2E2E2E2E2E2E2E2E2E2E2E2E2E2E2E2E2E2E2E2E2E2E2E2E2E2E2E2E2E2E2E2E2E2E2E2E2E2E2E2E2E2E2E2E2E2E2E2E2E2E2E2E2E2E2E2E2E2E2E2
310
E2E2E2E2E2E2E2E2E2E2E2E2E2E2E2E2E2E2E2E2E2E2E2E2E2E2E2E2E2E2E2E2F5E2E2E2E2E2E2E2E2E2E2E2F5F5F5F5E2E2E2E2E2E2E2E2E2E2E2F5E2E2E2E2E2E2E2E2E2E2E2E2E2E2E2E2E2E2E2E2E2E2E2E2E2E2E2E2E2E2E2E2E2E2E2E2E2E2E2E2E2E2E2E2E2E2E2E2E2E2E2E2E2E2E2E2E2E2E2E2E2E2E2E2E2E2E2
310
E2E2E2E2E2E2E2E2E2E2E2E2E2E2E2E2E2E2E2E2E2E2E2E2E2E2E2E2E2E2E2E2E2E2E2E2E2E2E2E2E2E2E2E2E2E2E2E2E2E2E2E2E2E2E2E2E2E2E2E2E2E2E2E2E2E2E2E2E2E2E2E2E2E2E2E2E2E2E2E2E2E2E2E2E2F5E2E2E2E2E2E2E2E2E2E2E2F5F5F5F5E2E2E2E2E2E2E2E2E2E2E2F5E2E2E2E2E2E2E2E2E2E2E2E2E2E2
310
E2E2E2E2E2E2E2E2E2E2E2E2E2E2E2E2E2E2E2E2E2E2E2E2E2E2E2E2E2E2E2E2E2E2E2E2E2E2E2E2E2E2E2E2E2E2E2E2E2E2E2E2E2E2E2E2E2E2E2E2E2E2E2E2E2E2E2E2E2E2E2E2E2E2E2E2E2E2E2E2E2E2E2E2E2E2E2E2E2E2E2E2E2E2E2E2E2E2E2E2E2E2E2E2E2E2E2E2E2E2E2E2E2E2E2E2E2E2E2E2E2E2E2E2E2E2E2
310
E2E2E2E2E2E2E2E2E2E2E2F5E2E2E2E2E2E2E2E2E2E2E2F5F5F5F5E2E2E2E2E2E2E2E2E2E2E2F5E2E2E2E2E2E2E2E2E2E2E2E2E2E2E2E2E2E2E2E2E2E2E2E2E2E2E2E2E2E2E2E2E2E2E2E2E2E2E2E2E2E2E2E2E2E2E2E2E2E2E2E2E2E2E2E2E2E2E2E2E2E2E2E2E2E2E2E2E2E2E2E2E2E2E2E2E2E2E2E2E2E2E2E2E2E2E2E2
310
E2E2E2E2E2E2E2E2E2E2E2E2E2E2E2E2E2E2E2E2E2E2E2E2E2E2E2E2E2E2E2E2E2E2E2E2E2E2E2E2E2E2E2E2E2E2E2E2E2E2E2E2E2E2E2E2E2E2E2E2E2E2E2E2F5E2E2E2E2E2E2E2E2E2E2E2F5F5F5F5E2E2E2E2E2E2E2E2E2E2E2F5E2E2E2E2E2E2E2E2E2E2E2E2E2E2E2E2E2E2E2E2E2E2E2E2E2E2E2E2E2E2E2E2E2E2E2
310
E2E2E2E2E2E2E2E2E2E2E2E2E2E2E2E2E2E2E2E2E2E2E2E2E2E2E2E2E2E2E2E2E2E2E2E2E2E2E2E2E2E2E2E2E2E2E2E2E2E2E2E2E2E2E2E2E2E2E2E2E2E2E2E2E2E2E2E2E2E2E2E2E2E2E2E2E2E2E2E2E2E2E2E2E2E2E2E2E2E2E2E2E2E2E2E2E2E2E2E2E2E2E2E2E2E2E2E2E2E2E2E2E2E2E2E2E2F5E2E2E2E2E2E2E2E2E2
310
E2E2F5F5F5F5E2E2E2E2E2E2E2E2E2E2E2F5E2E2E2E2E2E2E2E2E2E2E2E2E2E2E2E2E2E2E2E2E2E2E2E2E2E2E2E2E2E2E2E2E2E2E2E2E2E2E2E2E2E2E2E2E2E2E2E2E2E2E2E2E2E2E2E2E2E2E2E2E2E2E2E2E2E2E2E2E2E2E2E2E2E2E2E2E2E2E2E2E2E2E2E2E2E2E2E2E2E2E2E2E2E2E2E2E2E2E2E2E2E2E2E2E2E2E2E2E2
310
E2E2E2E2E2E2E2E2E2E2E2E2E2E2E2E2E2E2E2E2E2E2E2E2E2E2E2E2E2E2E2E2E2E2E2E2E2E2E2E2E2E2E2F5E2E2E2E2E2E2E2E2E2E2E2F5F5F5F5E2E2E2E2E2E2E2E2E2E2E2F5E2E2E2E2E2E2E2E2E2E2E2E2E2E2E2E2E2E2E2E2E2E2E2E2E2E2E2E2E2E2E2E2E2E2E2E2E2E2E2E2E2E2E2E2E2E2E2E2E2E2E2E2E2E2E2E2
310
E2E2E2E2E2E2E2E2E2E2E2E2E2E2E2E2E2E2E2E2E2E2E2E2E2E2E2E2E2E2E2E2E2E2E2E2E2E2E2E2E2E2E2E2E2E2E2E2E2E2E2E2E2E2E2E2E2E2E2E2E2E2E2E2E2E2E2E2E2E2E2E2E2E2E2E2E2E2E2E2E2E2E2E2E2E2E2E2E2E2E2E2E2E2E2E2F5E2E2E2E2E2E2E2E2E2E2E2F5F5F5F5E2E2E2E2E2E2E2E2E2E2E2F5F5F5F5
310
F5F5F5F5F5E2E2E2E2E2E2E2E2E2F5F5F5F5F5F5F5F5F5F5F5F5F5F5F5F5E2E2E2E2E2E2E2E2E2F5F5F5F5F5F5F5F5F5F5F5F5F5F5F5F5F5E2E2E2E2E2E2E2E2E2F5F5F5F5F5F5F5F5F5F5F5F5F5F5F5F5E2E2E2E2E2E2E2E2E2F5F5F5F5F5F5F5F5F5F5F5F5F5F5F5F5F5E2E2E2E2E2E2E2E2E2F5F5F5F5F5F5F5F5F5F5F5
310
F5F5F5F5F5E2E2E2E2E2E2E2E2E2F5F5F5F5F5F5F5F5F5E2E2E2E2E2E2E2E2E2E2E2F5F5F5F5E2E2E2E2E2E2E2E2E2E2E2E2E2E2E2E2E2E2E2E2E2E2E2E2E2E2E2E2E2E2E2E2E2E2E2E2E2E2E2E2E2E2E2E2E2E2E2E2E2E2E2E2E2E2E2E2E2E2E2E2E2E2E2E2E2E2E2E2E2E2E2E2E2E2E2E2E2E2E2E2E2E2E2E2E2E2E2E2E2
310
E2E2E2E2E2E2E2E2E2E2E2E2E2E2E2E2E2E2E2E2E2E2E2E2E2E2E2E2E2E2E2E2E2E2E2E2E2E2E2E2E2E2E2E2E2E2E2E2E2E2E2E2E2E2E2E2E2E2E2E2E2E2E2E2E2E2E2E2E2E2E2E2E2E2E2E2E2E2E2E2E2E2E2E2E2E2E2F5F5F5F5E2E2E2E2E2E2E2E2E2E2E2E2E2E2E2E2E2E2E2E2E2E2E2E2E2E2E2E2E2E2E2E2E2E2E2E2
310
E2E2E2E2E2E2E2E2E2E2E2E2E2E2E2E2E2E2E2E2E2E2E2E2E2E2E2E2E2E2E2E2E2E2E2E2E2E2E2E2E2E2E2E2E2E2E2E2E2E2E2E2E2E2E2E2E2E2E2E2E2E2E2E2E2E2E2E2E2E2E2E2E2E2E2E2E2E2E2E2E2E2E2E2E2E2E2E2E2E2E2E2E2E2E2E2E2E2E2E2E2E2E2E2E2E2E2E2E2E2E2E2E2E2E2E2E2E2E2E2E2E2E2E2E2E2E2
310
E2E2E2E2E2E2E2E2E2E2E2E2E2F5F5F5F5E2E2E2E2E2E2E2E2E2E2E2E2E2E2E2E2E2E2E2E2E2E2E2E2E2E2E2E2E2E2E2E2E2E2E2E2E2E2E2E2E2E2E2E2E2E2E2E2E2E2E2E2E2E2E2E2E2E2E2E2E2E2E2E2E2E2E2E2E2E2E2E2E2E2E2E2E2E2E2E2E2E2E2E2E2E2E2E2E2E2E2E2E2E2E2E2E2E2E2E2E2E2E2E2E2E2E2E2E2E2
310
E2E2E2E2E2E2E2E2E2E2E2E2E2E2E2E2E2E2E2E2E2E2E2E2E2E2E2E2E2E2E2E2E2E2E2E2E2E2E2E2E2E2E2E2E2E2E2E2E2E2E2E2E2E2E2E2E2E2E2E2E2E2E2E2E2E2F5F5F5F5E2E2E2E2E2E2E2E2E2E2E2E2E2E2E2E2E2E2E2E2E2E2E2E2E2E2E2E2E2E2E2E2E2E2E2E2E2E2E2E2E2E2E2E2E2E2E2E2E2E2E2E2E2E2E2E2E2
310
E2E2E2E2E2E2E2E2E2E2E2E2E2E2E2E2E2E2E2E2E2E2E2E2E2E2E2E2E2E2E2E2E2E2E2E2E2E2E2E2E2E2E2E2E2E2E2E2E2E2E2E2E2E2E2E2E2E2E2E2E2E2E2E2E2E2E2E2E2E2E2E2E2E2E2E2E2E2E2E2E2E2E2E2E2E2E2E2E2E2E2E2E2E2E2E2E2E2E2E2E2E2E2E2E2E2E2E2E2E2E2E2E2E2E2E2E2E2E2F5EFF5F5F5F5F5F5
310
F5F5F5F5F5F5F5F5F5F5F5F5F5F5F5F5F5F5F5F5F5F5F5F5F5F5F5F5F5F5F5F5F5F5F5F5F5F5F5F5F5F5F5F5F5F5F5F5F5F5F5F5F5F5F5F5F5F5F5F5F5F5F5F5F5F5F5F5F5F5F5F5F5F5F5F5F5F5F5F5F5F5F5F5F5F5F5F5F5F5F5F5F5F5F5F5F5F5F5F5F5F5F5F5F5F5F5F5F5F5F5F5F5F5F5F5F5F5F5F5F5F5F5F5F5F5F5
310
F5F5F5F5F5F5F5F5F5F5F5F5F5F5F5F5F5F5F5F5F5F5F5F5F5F5F5F5F5F5F5F5F5F5F5F5F5F5F5F5F5F5F5F5F5F5EFF5
  0
XRECORD
  5
5EEF
102
{ACAD_REACTORS
330
1871
102
}
330
1871
100
AcDbXrecord
280
     1
102
MATERIAL
148
0.0
149
0.0
149
0.0
 93
        0
 94
      127
282
     0
 72
     0
 77
     0
171
     0
175
     0
179
     0
273
     0
  0
XRECORD
  5
1873
102
{ACAD_REACTORS
330
1871
102
}
330
1871
100
AcDbXrecord
280
     1
270
     1
271
     1
  0
XRECORD
  5
1872
102
{ACAD_REACTORS
330
1871
102
}
330
1871
100
AcDbXrecord
280
     1
270
     1
271
     1
  0
XRECORD
  5
1876
102
{ACAD_REACTORS
330
1871
102
}
330
1871
100
AcDbXrecord
280
     1
270
     1
271
     1
  0
XRECORD
  5
1875
102
{ACAD_REACTORS
330
1871
102
}
330
1871
100
AcDbXrecord
280
     1
270
     1
271
     1
  0
XRECORD
  5
1877
102
{ACAD_REACTORS
330
1871
102
}
330
1871
100
AcDbXrecord
280
     1
270
     1
271
     1
  0
XRECORD
  5
1874
102
{ACAD_REACTORS
330
1871
102
}
330
1871
100
AcDbXrecord
280
     1
270
     1
271
     1
  0
XRECORD
  5
5EEE
102
{ACAD_REACTORS
330
1869
102
}
330
1869
100
AcDbXrecord
280
     1
102
MATERIAL
148
0.0
149
0.0
149
0.0
 93
        0
 94
      127
282
     0
 72
     0
 77
     0
171
     0
175
     0
179
     0
273
     0
  0
XRECORD
  5
186B
102
{ACAD_REACTORS
330
1869
102
}
330
1869
100
AcDbXrecord
280
     1
270
     1
271
     1
  0
XRECORD
  5
186A
102
{ACAD_REACTORS
330
1869
102
}
330
1869
100
AcDbXrecord
280
     1
270
     1
271
     1
  0
XRECORD
  5
186E
102
{ACAD_REACTORS
330
1869
102
}
330
1869
100
AcDbXrecord
280
     1
270
     1
271
     1
  0
XRECORD
  5
186D
102
{ACAD_REACTORS
330
1869
102
}
330
1869
100
AcDbXrecord
280
     1
270
     1
271
     1
  0
XRECORD
  5
186F
102
{ACAD_REACTORS
330
1869
102
}
330
1869
100
AcDbXrecord
280
     1
270
     1
271
     1
  0
XRECORD
  5
186C
102
{ACAD_REACTORS
330
1869
102
}
330
1869
100
AcDbXrecord
280
     1
270
     1
271
     1
  0
XRECORD
  5
5EF0
102
{ACAD_REACTORS
330
1879
102
}
330
1879
100
AcDbXrecord
280
     1
102
MATERIAL
148
0.0
149
0.0
149
0.0
 93
        0
 94
      127
282
     0
 72
     0
 77
     0
171
     0
175
     0
179
     0
273
     0
  0
XRECORD
  5
187B
102
{ACAD_REACTORS
330
1879
102
}
330
1879
100
AcDbXrecord
280
     1
270
     1
271
     1
  0
XRECORD
  5
187A
102
{ACAD_REACTORS
330
1879
102
}
330
1879
100
AcDbXrecord
280
     1
270
     1
271
     1
  0
XRECORD
  5
187E
102
{ACAD_REACTORS
330
1879
102
}
330
1879
100
AcDbXrecord
280
     1
270
     1
271
     1
  0
XRECORD
  5
187D
102
{ACAD_REACTORS
330
1879
102
}
330
1879
100
AcDbXrecord
280
     1
270
     1
271
     1
  0
XRECORD
  5
187F
102
{ACAD_REACTORS
330
1879
102
}
330
1879
100
AcDbXrecord
280
     1
270
     1
271
     1
  0
XRECORD
  5
187C
102
{ACAD_REACTORS
330
1879
102
}
330
1879
100
AcDbXrecord
280
     1
270
     1
271
     1
  0
CELLSTYLEMAP
  5
5EE8
102
{ACAD_REACTORS
330
18CA
102
}
330
18CA
100
AcDbCellStyleMap
 90
        3
300
CELLSTYLE
  1
TABLEFORMAT_BEGIN
 90
        5
170
     1
 91
        0
 92
    32768
 62
   257
 93
        1
300
CONTENTFORMAT
  1
CONTENTFORMAT_BEGIN
 90
        0
 91
        0
 92
        4
 93
        0
300

 40
0.0
140
1.0
 94
        5
 62
     0
340
10
144
6.0
309
CONTENTFORMAT_END
171
     1
301
MARGIN
  1
CELLMARGIN_BEGIN
 40
1.5
 40
1.5
 40
1.5
 40
1.5
 40
0.18
 40
0.18
309
CELLMARGIN_END
 94
        6
 95
        1
302
GRIDFORMAT
  1
GRIDFORMAT_BEGIN
 90
        0
 91
        1
 62
     0
 92
       -2
340
0
 93
        0
 40
0.045
309
GRIDFORMAT_END
 95
        2
302
GRIDFORMAT
  1
GRIDFORMAT_BEGIN
 90
        0
 91
        1
 62
     0
 92
       -2
340
0
 93
        0
 40
0.045
309
GRIDFORMAT_END
 95
        4
302
GRIDFORMAT
  1
GRIDFORMAT_BEGIN
 90
        0
 91
        1
 62
     0
 92
       -2
340
0
 93
        0
 40
0.045
309
GRIDFORMAT_END
 95
        8
302
GRIDFORMAT
  1
GRIDFORMAT_BEGIN
 90
        0
 91
        1
 62
     0
 92
       -2
340
0
 93
        0
 40
0.045
309
GRIDFORMAT_END
 95
       16
302
GRIDFORMAT
  1
GRIDFORMAT_BEGIN
 90
        0
 91
        1
 62
     0
 92
       -2
340
0
 93
        0
 40
0.045
309
GRIDFORMAT_END
 95
       32
302
GRIDFORMAT
  1
GRIDFORMAT_BEGIN
 90
        0
 91
        1
 62
     0
 92
       -2
340
0
 93
        0
 40
0.045
309
GRIDFORMAT_END
309
TABLEFORMAT_END
  1
CELLSTYLE_BEGIN
 90
        1
 91
        1
300
_TITLE
309
CELLSTYLE_END
300
CELLSTYLE
  1
TABLEFORMAT_BEGIN
 90
        5
170
     1
 91
        0
 92
        0
 62
   257
 93
        1
300
CONTENTFORMAT
  1
CONTENTFORMAT_BEGIN
 90
        0
 91
        0
 92
        4
 93
        0
300

 40
0.0
140
1.0
 94
        5
 62
     0
340
10
144
4.5
309
CONTENTFORMAT_END
171
     1
301
MARGIN
  1
CELLMARGIN_BEGIN
 40
1.5
 40
1.5
 40
1.5
 40
1.5
 40
0.18
 40
0.18
309
CELLMARGIN_END
 94
        6
 95
        1
302
GRIDFORMAT
  1
GRIDFORMAT_BEGIN
 90
        0
 91
        1
 62
     0
 92
       -2
340
0
 93
        0
 40
0.045
309
GRIDFORMAT_END
 95
        2
302
GRIDFORMAT
  1
GRIDFORMAT_BEGIN
 90
        0
 91
        1
 62
     0
 92
       -2
340
0
 93
        0
 40
0.045
309
GRIDFORMAT_END
 95
        4
302
GRIDFORMAT
  1
GRIDFORMAT_BEGIN
 90
        0
 91
        1
 62
     0
 92
       -2
340
0
 93
        0
 40
0.045
309
GRIDFORMAT_END
 95
        8
302
GRIDFORMAT
  1
GRIDFORMAT_BEGIN
 90
        0
 91
        1
 62
     0
 92
       -2
340
0
 93
        0
 40
0.045
309
GRIDFORMAT_END
 95
       16
302
GRIDFORMAT
  1
GRIDFORMAT_BEGIN
 90
        0
 91
        1
 62
     0
 92
       -2
340
0
 93
        0
 40
0.045
309
GRIDFORMAT_END
 95
       32
302
GRIDFORMAT
  1
GRIDFORMAT_BEGIN
 90
        0
 91
        1
 62
     0
 92
       -2
340
0
 93
        0
 40
0.045
309
GRIDFORMAT_END
309
TABLEFORMAT_END
  1
CELLSTYLE_BEGIN
 90
        2
 91
        1
300
_HEADER
309
CELLSTYLE_END
300
CELLSTYLE
  1
TABLEFORMAT_BEGIN
 90
        5
170
     1
 91
        0
 92
        0
 62
   257
 93
        1
300
CONTENTFORMAT
  1
CONTENTFORMAT_BEGIN
 90
        0
 91
        0
 92
        4
 93
        0
300

 40
0.0
140
1.0
 94
        2
 62
     0
340
10
144
4.5
309
CONTENTFORMAT_END
171
     1
301
MARGIN
  1
CELLMARGIN_BEGIN
 40
1.5
 40
1.5
 40
1.5
 40
1.5
 40
0.18
 40
0.18
309
CELLMARGIN_END
 94
        6
 95
        1
302
GRIDFORMAT
  1
GRIDFORMAT_BEGIN
 90
        0
 91
        1
 62
     0
 92
       -2
340
0
 93
        0
 40
0.045
309
GRIDFORMAT_END
 95
        2
302
GRIDFORMAT
  1
GRIDFORMAT_BEGIN
 90
        0
 91
        1
 62
     0
 92
       -2
340
0
 93
        0
 40
0.045
309
GRIDFORMAT_END
 95
        4
302
GRIDFORMAT
  1
GRIDFORMAT_BEGIN
 90
        0
 91
        1
 62
     0
 92
       -2
340
0
 93
        0
 40
0.045
309
GRIDFORMAT_END
 95
        8
302
GRIDFORMAT
  1
GRIDFORMAT_BEGIN
 90
        0
 91
        1
 62
     0
 92
       -2
340
0
 93
        0
 40
0.045
309
GRIDFORMAT_END
 95
       16
302
GRIDFORMAT
  1
GRIDFORMAT_BEGIN
 90
        0
 91
        1
 62
     0
 92
       -2
340
0
 93
        0
 40
0.045
309
GRIDFORMAT_END
 95
       32
302
GRIDFORMAT
  1
GRIDFORMAT_BEGIN
 90
        0
 91
        1
 62
     0
 92
       -2
340
0
 93
        0
 40
0.045
309
GRIDFORMAT_END
309
TABLEFORMAT_END
  1
CELLSTYLE_BEGIN
 90
        3
 91
        2
300
_DATA
309
CELLSTYLE_END
  0
XRECORD
  5
5EED
102
{ACAD_REACTORS
330
18CA
102
}
330
18CA
100
AcDbXrecord
280
     1
102
ACAD_ROUNDTRIP_PRE2007_TABLESTYLE
 90
        4
 91
        0
  1

 92
        4
 93
        0
  2

 94
        4
 95
        0
  3

  0
ENDSEC
  0
EOF
